osu file format v14

[General]
AudioFilename: audio.mp3
AudioLeadIn: 0
PreviewTime: 61017
Countdown: 0
SampleSet: Soft
StackLeniency: 0.7
Mode: 0
LetterboxInBreaks: 0
WidescreenStoryboard: 0

[Editor]
DistanceSpacing: 1
BeatDivisor: 4
GridSize: 4
TimelineZoom: 1.2

[Metadata]
Title:Lolis Short Medley
TitleUnicode:ローリーズショートメドレー
Artist:Various Artists
ArtistUnicode:Various Artists
Creator:Nevertary
Version:Normal
Source:
Tags:takahashi rie ozawa ari rhodanthe* nanamori-chu*goraku-bu cocoa chino rize chiya syaro maya megu 高橋李依 小澤亜李 Rhodanthe☆ 七森中☆ごらく部 ココア チノ リゼ 千夜 シャロ マヤ メグ unhappy end world アンハッピーエンドワールド yumeiro parade 夢色パレード yes! yuyu*yuruyuri いぇす!ゆゆゆ☆ゆるゆり♪♪ Honjitsu wa Makoto ni Rarirurein 本日は誠にラリルレイン school live gakkou gurashi! がっこうぐらし!kiniro mosaic ハロー!!きんいろモザイク season 2 yryr Yuru Yuri♪♪ Gochuumon wa Usagi Desu ka ご注文はうさぎですか?? Is the Order a Rabbit Gochiusa Rabbit House Tea Party 2016 Special CD vol. 6
BeatmapID:1343513
BeatmapSetID:628829

[Difficulty]
HPDrainRate:4
CircleSize:3
OverallDifficulty:4
ApproachRate:5
SliderMultiplier:1.1
SliderTickRate:1

[Events]
//Background and Video events
0,0,"BG.jpg",0,0
//Break Periods
//Storyboard Layer 0 (Background)
//Storyboard Layer 1 (Fail)
//Storyboard Layer 2 (Pass)
//Storyboard Layer 3 (Foreground)
//Storyboard Sound Samples

[TimingPoints]
1200,322.58064516129,4,2,1,50,1,0
16505,333.333333333333,4,2,1,70,1,0
16672,333.333333333333,4,2,1,60,1,0
48680,329.67032967033,4,2,1,72,1,0
60548,324.324324324324,4,2,1,78,1,0
61852,327.868852459016,4,2,1,80,1,1
85458,-100,4,2,1,80,0,0
87416,333.333333333333,4,2,1,75,1,0
96567,327.868852459016,4,2,1,70,1,0
99353,327.868852459016,4,2,1,80,1,0
100828,346.820809248555,4,2,1,80,1,0

[Colours]
Combo1 : 255,128,192
Combo2 : 255,255,183
Combo3 : 0,138,240
Combo4 : 255,47,47
Combo5 : 149,149,255

[HitObjects]
132,64,1200,6,0,L|248:72,1,110
296,76,1683,1,0,0:0:0:0:
384,144,2006,1,0,0:0:0:0:
471,76,2329,2,0,P|491:132|483:192,1,110
436,280,2974,2,0,L|304:292,1,110,0|0,0:0|0:0,0:0:0:0:
272,296,3458,1,0,0:0:0:0:
172,252,3780,6,0,B|152:192|180:124,1,110,0|0,0:0|0:0,0:0:0:0:
212,104,4264,2,0,P|276:116|328:108,2,110,0|0|0,0:0|0:0|0:0,0:0:0:0:
176,64,5070,2,0,P|112:52|60:60,1,110,0|0,0:0|0:0,0:0:0:0:
20,156,5716,1,0,0:0:0:0:
84,240,6038,1,0,0:0:0:0:
36,356,6361,6,0,P|96:320|188:344,1,165,0|0,0:0|0:0,0:0:0:0:
240,348,7006,2,0,B|264:324|264:324|276:232,1,110,0|0,0:0|0:0,0:0:0:0:
288,140,7651,2,0,L|300:28,1,110,0|0,0:0|0:0,0:0:0:0:
408,52,8296,1,0,0:0:0:0:
472,140,8619,1,0,0:0:0:0:
420,236,8941,6,0,B|400:268|400:268|268:300,1,165,0|0,0:0|0:0,0:0:0:0:
224,276,9587,2,0,P|176:220|204:124,1,165,0|0,0:0|0:0,0:0:0:0:
244,116,10232,2,0,B|320:176|416:132,1,165,0|0,0:0|0:0,0:0:0:0:
452,132,10877,2,0,P|472:184|460:244,1,110,0|0,0:0|0:0,0:0:0:0:
416,336,11522,5,0,0:0:0:0:
120,352,12812,6,0,B|92:304|92:304|92:136,1,220,0|0,0:0|0:0,0:0:0:0:
164,56,13780,1,0,0:0:0:0:
256,116,14103,6,0,P|324:136|424:136,2,165,6|2|6,0:0|0:0|0:0,0:0:0:0:
56,52,16038,6,0,L|56:112,1,55,2|2,0:0|0:0,0:0:0:0:
84,208,16505,6,0,P|136:236|196:236,1,110,6|2,0:0|0:0,0:0:0:0:
232,208,17005,2,0,B|292:184|344:208,1,110,8|2,0:0|0:0,0:0:0:0:
392,224,17505,1,2,0:0:0:0:
428,120,17838,2,0,P|420:64|380:16,1,110,2|2,0:0|0:0,0:0:0:0:
320,108,18505,2,0,B|256:108|256:108|220:124|220:124|144:124,1,165,2|8,0:0|0:0,0:0:0:0:
112,152,19171,6,0,P|104:220|124:276,1,110,2|2,0:0|0:0,0:0:0:0:
156,296,19671,2,0,P|220:284|272:296,1,110,8|2,0:0|0:0,0:0:0:0:
316,308,20171,1,2,0:0:0:0:
376,216,20505,2,0,L|380:92,1,110,6|2,0:0|0:0,0:0:0:0:
376,52,21005,1,8,0:0:0:0:
324,32,21171,2,0,L|204:32,1,110,2|2,0:0|0:0,0:0:0:0:
176,136,21838,6,0,L|164:260,1,110,6|2,0:0|0:0,0:0:0:0:
208,280,22338,2,0,P|268:300|320:296,1,110,8|2,0:0|0:0,0:0:0:0:
368,280,22838,1,2,0:0:0:0:
436,192,23171,2,0,L|424:72,1,110,2|2,0:0|0:0,0:0:0:0:
408,32,23671,1,8,0:0:0:0:
356,44,23838,2,0,P|292:56|232:44,1,110,2|2,0:0|0:0,0:0:0:0:
136,52,24505,6,0,P|80:72|52:128,1,110,6|2,0:0|0:0,0:0:0:0:
52,168,25005,1,8,0:0:0:0:
88,272,25338,1,8,0:0:0:0:
164,196,25671,1,8,0:0:0:0:
204,156,25838,2,0,L|328:156,1,110,6|2,0:0|0:0,0:0:0:0:
396,228,26505,2,0,P|416:288|396:340,1,110,2|8,0:0|0:0,0:0:0:0:
352,352,27005,2,0,P|320:356|292:352,1,55,8|2,0:0|0:0,0:0:0:0:
244,352,27338,6,0,P|216:344|132:364,1,110,6|8,0:0|0:0,0:0:0:0:
96,332,27838,2,0,L|84:216,1,110,2|2,0:0|0:0,0:0:0:0:
164,148,28505,2,0,L|176:260,1,110,2|2,0:0|0:0,0:0:0:0:
204,304,29005,1,8,0:0:0:0:
248,328,29171,2,0,P|304:340|360:328,1,110,8|2,0:0|0:0,0:0:0:0:
408,316,29671,1,8,0:0:0:0:
452,216,30005,6,0,L|436:88,1,110,2|8,0:0|0:0,0:0:0:0:
388,84,30505,2,0,P|332:108|268:104,1,110,2|2,0:0|0:0,0:0:0:0:
188,56,31171,2,0,P|124:44|68:60,1,110,2|2,0:0|0:0,0:0:0:0:
52,100,31671,1,8,0:0:0:0:
36,152,31838,2,0,L|24:268,1,110,8|2,0:0|0:0,0:0:0:0:
56,308,32338,1,8,0:0:0:0:
140,240,32671,6,0,B|192:208|264:244,1,110,2|8,0:0|0:0,0:0:0:0:
292,204,33171,2,0,B|324:140|292:84,1,110,0|2,0:0|0:0,0:0:0:0:
272,48,33671,1,8,0:0:0:0:
216,40,33838,2,0,L|100:60,1,110,2|2,0:0|0:0,0:0:0:0:
56,84,34338,1,8,0:0:0:0:
48,140,34505,2,0,P|76:196|136:216,1,110,8|2,0:0|0:0,0:0:0:0:
272,156,35338,6,0,B|332:108|396:140,1,110,2|8,0:0|0:0,0:0:0:0:
428,148,35838,1,0,0:0:0:0:
440,256,36171,1,2,0:0:0:0:
364,332,36505,2,0,B|336:352|336:352|236:352,1,110,6|2,0:0|0:0,0:0:0:0:
212,324,37005,1,8,0:0:0:0:
184,276,37171,2,0,B|152:216|184:156,1,110,6|2,0:0|0:0,0:0:0:0:
212,128,37671,2,0,L|272:128,1,55,8|8,0:0|0:0,0:0:0:0:
324,128,38005,6,0,P|396:148|440:136,1,110,6|8,0:0|0:0,0:0:0:0:
476,172,38505,2,0,L|464:288,1,110,2|2,0:0|0:0,0:0:0:0:
376,348,39171,2,0,L|388:232,1,110,2|2,0:0|0:0,0:0:0:0:
340,208,39671,1,8,0:0:0:0:
288,228,39838,2,0,P|236:252|172:244,1,110,8|2,0:0|0:0,0:0:0:0:
136,220,40338,1,8,0:0:0:0:
92,120,40671,6,0,B|92:52|140:20,1,110,2|8,0:0|0:0,0:0:0:0:
188,32,41171,2,0,P|248:44|308:36,1,110,2|2,0:0|0:0,0:0:0:0:
408,40,41838,2,0,P|420:96|412:152,1,110,2|2,0:0|0:0,0:0:0:0:
396,200,42338,1,8,0:0:0:0:
348,224,42505,2,0,B|304:224|304:224|272:236|272:236|232:236,1,110,8|2,0:0|0:0,0:0:0:0:
184,228,43005,1,8,0:0:0:0:
92,172,43338,6,0,P|84:112|108:64,1,110,2|8,0:0|0:0,0:0:0:0:
212,44,44005,2,0,L|332:44,1,110,2|8,0:0|0:0,0:0:0:0:
372,68,44505,2,0,B|408:128|372:192,1,110,2|2,0:0|0:0,0:0:0:0:
352,220,45005,1,8,0:0:0:0:
304,248,45171,2,0,P|248:256|192:256,1,110,8|2,0:0|0:0,0:0:0:0:
36,204,46005,6,0,B|20:272|48:320,1,110,2|8,0:0|0:0,0:0:0:0:
84,352,46505,1,0,0:0:0:0:
192,336,46838,1,2,0:0:0:0:
300,352,47171,2,0,B|352:352|352:352|376:340|376:340|420:340,1,110,6|2,0:0|0:0,0:0:0:0:
456,316,47671,1,8,0:0:0:0:
484,268,47838,2,0,P|492:208|476:152,1,110,0|2,0:0|0:0,0:0:0:0:
460,108,48338,1,2,0:0:0:0:
356,72,48680,6,0,B|284:200|148:116,1,220,6|2,0:0|0:0,0:0:0:0:
132,92,49504,2,0,B|104:76|76:76,1,55,2|8,0:0|0:0,0:0:0:0:
40,108,49833,2,0,L|24:236,1,110,2|2,0:0|0:0,0:0:0:0:
36,272,50328,1,8,0:0:0:0:
128,332,50658,1,2,0:0:0:0:
224,276,50987,1,8,0:0:0:0:
232,168,51317,6,0,L|232:56,1,110,2|8,0:0|0:0,0:0:0:0:
336,28,51976,2,0,P|395:40|442:73,1,110,2|8,0:0|0:0,0:0:0:0:
476,168,52636,2,0,L|468:228,1,55,8|2,0:0|0:0,0:0:0:0:
460,276,52965,2,0,L|452:336,1,55,2|8,0:0|0:0,0:0:0:0:
292,372,53625,1,2,0:0:0:0:
220,288,53954,6,0,P|136:272|64:320,1,165,6|2,0:0|0:0,0:0:0:0:
32,272,54614,2,0,P|12:208|20:148,1,110,8|2,0:0|0:0,0:0:0:0:
40,116,55108,2,0,B|100:84|168:128,1,110,6|0,0:0|0:0,0:0:0:0:
192,144,55603,1,2,0:0:0:0:
284,204,55932,2,0,P|348:220|412:200,1,110,8|2,0:0|0:0,0:0:0:0:
432,176,56427,1,0,0:0:0:0:
456,128,56592,6,0,B|408:48|316:60,1,165,6|2,0:0|0:0,0:0:0:0:
268,84,57251,2,0,P|236:108|152:112,1,110,8|2,0:0|0:0,0:0:0:0:
136,160,57745,2,0,L|128:276,1,110,6|8,0:0|0:0,0:0:0:0:
148,324,58240,1,8,0:0:0:0:
248,368,58570,1,2,0:0:0:0:
340,308,58899,1,2,0:0:0:0:
332,200,59229,6,0,L|248:184,2,73.3333333333333,6|2|8,0:0|0:0|0:0,0:0:0:0:
280,252,59888,2,0,L|188:232,2,73.3333333333333,8|2|8,0:0|0:0|0:0,0:0:0:0:
352,272,60548,5,2,0:0:0:0:
460,272,60872,1,8,0:0:0:0:
484,164,61196,2,0,L|496:96,2,55,2|2|8,0:0|0:0|0:0,0:0:0:0:
380,128,61852,6,0,P|292:168|216:132,1,165,6|0,0:0|0:0,0:0:0:0:
188,112,62507,2,0,P|160:80|152:60,1,55,2|2,0:0|0:0,0:0:0:0:
100,64,62835,2,0,B|68:64|44:76,1,55,8|0,0:0|0:0,0:0:0:0:
24,128,63163,1,2,0:0:0:0:
24,240,63491,1,8,0:0:0:0:
104,316,63819,2,0,L|96:396,2,55,0|2|8,0:0|0:0|0:0,0:0:0:0:
208,284,64474,6,0,P|284:332|368:304,1,165,2|0,0:0|0:0,0:0:0:0:
400,284,65130,2,0,P|416:256|424:220,1,55,2|2,0:0|0:0,0:0:0:0:
436,180,65458,2,0,P|428:132|420:116,1,55,8|0,0:0|0:0,0:0:0:0:
400,76,65786,1,2,0:0:0:0:
292,64,66114,2,0,B|228:64|180:32,2,110,8|0|8,0:0|0:0|0:0,0:0:0:0:
292,180,67097,6,0,B|248:216|168:216,1,110,6|8,0:0|0:0,0:0:0:0:
88,172,67753,2,0,P|80:236|100:284,1,110,2|8,0:0|0:0,0:0:0:0:
128,320,68245,2,0,B|188:296|248:332,1,110,6|2,0:0|0:0,0:0:0:0:
288,332,68737,2,0,P|332:296|356:232,1,110,8|2,0:0|0:0,0:0:0:0:
392,144,69392,1,8,0:0:0:0:
328,56,69720,6,0,L|208:56,1,110,6|8,0:0|0:0,0:0:0:0:
164,68,70212,2,0,P|148:136|172:192,1,110,2|2,0:0|0:0,0:0:0:0:
208,272,70868,1,2,0:0:0:0:
288,208,71196,2,0,P|344:192|404:208,1,110,2|2,0:0|0:0,0:0:0:0:
444,224,71688,2,0,L|436:336,1,110,2|8,0:0|0:0,0:0:0:0:
328,340,72343,6,0,B|280:320|280:320|160:320,1,165,6|0,0:0|0:0,0:0:0:0:
116,296,72999,2,0,P|84:268|76:252,1,55,2|2,0:0|0:0,0:0:0:0:
68,204,73327,2,0,P|76:172|92:148,1,55,8|0,0:0|0:0,0:0:0:0:
120,108,73655,1,2,0:0:0:0:
216,52,73983,1,8,0:0:0:0:
308,112,74311,2,0,L|376:112,2,55,0|2|8,0:0|0:0|0:0,0:0:0:0:
240,200,74966,6,0,B|356:200|356:200|408:216,1,165,2|0,0:0|0:0,0:0:0:0:
452,240,75622,2,0,B|456:276|452:296,1,55,2|2,0:0|0:0,0:0:0:0:
424,340,75950,2,0,P|384:348|368:348,1,55,8|0,0:0|0:0,0:0:0:0:
316,344,76278,1,2,0:0:0:0:
224,280,76606,2,0,P|176:272|108:276,2,110,8|0|8,0:0|0:0|0:0,0:0:0:0:
324,232,77589,6,0,B|356:184|352:112,1,110,6|8,0:0|0:0,0:0:0:0:
268,60,78245,2,0,L|156:60,1,110,2|8,0:0|0:0,0:0:0:0:
112,92,78737,2,0,P|96:152|108:200,1,110,6|2,0:0|0:0,0:0:0:0:
148,232,79229,2,0,P|212:216|264:232,1,110,8|2,0:0|0:0,0:0:0:0:
352,276,79884,1,8,0:0:0:0:
400,180,80212,6,0,P|408:120|388:68,1,110,6|8,0:0|0:0,0:0:0:0:
348,40,80704,1,2,0:0:0:0:
256,104,81032,1,2,0:0:0:0:
164,44,81360,2,0,B|84:44|84:44|48:76,1,110,2|2,0:0|0:0,0:0:0:0:
40,116,81851,2,0,P|36:152|40:180,1,55,8|2,0:0|0:0,0:0:0:0:
52,224,82179,1,2,0:0:0:0:
156,188,82507,1,8,0:0:0:0:
224,276,82835,6,0,P|296:312|432:264,1,220,6|2,0:0|0:0,0:0:0:0:
484,180,83819,1,8,0:0:0:0:
424,88,84147,2,0,P|352:52|216:100,1,220,2|2,0:0|0:0,0:0:0:0:
156,176,85130,1,8,0:0:0:0:
184,284,85458,5,8,0:0:0:0:
220,244,85622,2,0,P|276:256|336:244,1,110,2|8,0:0|0:0,0:0:0:0:
364,208,86114,2,0,P|420:196|480:208,1,110,2|8,0:0|0:0,0:0:0:0:
488,152,86606,2,0,P|496:88|484:36,1,110,2|8,0:0|0:0,0:0:0:0:
432,40,87097,1,2,0:0:0:0:
324,40,87416,2,0,L|324:100,2,55,8|2|8,0:0|0:0|0:0,0:0:0:0:
228,96,88083,6,0,L|108:96,1,110,6|0,0:0|0:0,0:0:0:0:
100,148,88583,2,0,P|104:200|144:248,1,110,2|2,0:0|0:0,0:0:0:0:
192,252,89082,2,0,B|252:228|304:252,1,110,8|2,0:0|0:0,0:0:0:0:
356,248,89582,1,2,0:0:0:0:
444,180,89916,2,0,P|440:120|416:76,1,110,2|2,0:0|0:0,0:0:0:0:
316,36,90582,2,0,B|252:36|252:36|216:52|216:52|140:52,1,165,2|8,0:0|0:0,0:0:0:0:
124,96,91248,6,0,P|116:164|136:220,1,110,2|2,0:0|0:0,0:0:0:0:
156,248,91748,2,0,P|220:236|272:248,1,110,8|2,0:0|0:0,0:0:0:0:
316,264,92248,1,2,0:0:0:0:
416,216,92582,2,0,L|420:92,1,110,6|2,0:0|0:0,0:0:0:0:
400,56,93082,1,8,0:0:0:0:
352,32,93249,2,0,L|236:32,1,110,2|2,0:0|0:0,0:0:0:0:
188,128,93915,6,0,L|184:252,1,110,6|2,0:0|0:0,0:0:0:0:
220,280,94415,2,0,P|280:300|332:296,1,110,8|2,0:0|0:0,0:0:0:0:
380,292,94915,1,2,0:0:0:0:
460,216,95248,2,0,L|452:100,1,110,2|2,0:0|0:0,0:0:0:0:
428,56,95748,1,8,0:0:0:0:
372,48,95915,2,0,P|308:60|248:48,1,110,2|2,0:0|0:0,0:0:0:0:
152,52,96567,6,0,L|140:176,1,110,6|0,0:0|0:0,0:0:0:0:
140,216,97058,2,0,P|152:260|164:276,1,55
208,292,97386,2,0,L|264:292,2,55
164,324,97878,6,0,P|108:344|48:328,1,110,2|0,0:0|0:0,0:0:0:0:
32,288,98370,2,0,L|32:220,1,55
48,180,98698,2,0,P|104:160|164:176,1,110,2|2,0:0|0:0,0:0:0:0:
244,228,99353,6,0,P|336:240|408:196,2,165,6|6|6,0:0|0:0|0:0,0:0:0:0:
212,76,100828,2,0,L|157:76,1,55,10|10,0:0|0:0,0:0:0:0:
104,88,101174,2,0,B|64:168|156:252|92:320,1,220,10|0,0:0|0:0,0:0:0:0:
