osu file format v14

[General]
AudioFilename: audio43.mp3
AudioLeadIn: 0
PreviewTime: 82064
Countdown: 0
SampleSet: Normal
StackLeniency: 0.4
Mode: 0
LetterboxInBreaks: 0
WidescreenStoryboard: 0

[Editor]
Bookmarks: 107642
DistanceSpacing: 1.2
BeatDivisor: 4
GridSize: 16
TimelineZoom: 1.9

[Metadata]
Title:Lazer Mappack 1
TitleUnicode:Lazer Mappack 1
Artist:Various Artists
ArtistUnicode:Various Artists
Creator:Lazer
Version:HELLO!!
Source:
Tags:Lazer
BeatmapID:1763930
BeatmapSetID:843007

[Difficulty]
HPDrainRate:7
CircleSize:4
OverallDifficulty:8
ApproachRate:9
SliderMultiplier:1.7
SliderTickRate:1

[Events]
//Background and Video events
0,0,"c9fe4e59944f03534dd2618043210dc7.jpg",0,0
//Break Periods
//Storyboard Layer 0 (Background)
//Storyboard Layer 1 (Fail)
//Storyboard Layer 2 (Pass)
//Storyboard Layer 3 (Foreground)
//Storyboard Sound Samples

[TimingPoints]
14815,346.820809248555,4,2,0,31,1,0
17587,-153.846153846153,4,2,0,31,0,0
21749,-133.333333333333,4,2,0,40,0,0
24523,-100,4,1,0,60,0,0
35622,-100,4,1,0,50,0,0
82789,-83.3333333333333,4,1,0,60,0,1
104986,-83.3333333333333,4,1,0,50,0,0
106893,-111.111111111111,4,1,0,70,0,0
107414,-100,4,1,0,50,0,0
116084,-125,4,2,0,40,0,0
127182,-100,4,1,0,50,0,0
146604,-83.3333333333333,4,1,0,50,0,0

[HitObjects]
343,121,15508,5,0,0:0:0:0:
245,97,15855,1,2,0:0:0:0:
245,97,16202,5,0,0:0:0:0:
158,149,16549,1,2,0:0:0:0:
158,149,16895,1,2,0:0:0:0:
311,198,17069,1,0,0:0:0:0:
163,65,17416,1,0,0:0:0:0:
101,216,17589,2,0,P|175:235|240:167,1,165.749992412568,2|0,0:0|0:0,0:0:0:0:
297,89,18283,6,0,B|349:79|342:114|424:97,2,110.499994941712,2|0|2,0:0|0:0|0:0,0:0:0:0:
383,22,19323,1,0,0:0:0:0:
302,165,19670,1,0,0:0:0:0:
461,122,20017,1,0,0:0:0:0:
416,242,20364,6,0,B|381:269|381:269|338:256|338:256|324:216|324:216|358:121,1,220.999989883423,2|0,0:0|0:0,0:0:0:0:
9,50,21751,6,0,P|69:33|130:77,2,127.500004863739,4|0|0,0:0|0:0|0:0,0:0:0:0:
65,121,22618,1,0,0:0:0:0:
65,121,22705,1,0,0:0:0:0:
65,121,22791,1,2,0:0:0:0:
148,143,22965,1,0,0:0:0:0:
29,218,23138,6,0,L|37:349,1,127.500004863739,4|0,0:0|0:0,0:0:0:0:
109,235,23658,2,0,B|153:218|202:237|202:237|158:267,1,127.500004863739,4|0,0:0|0:0,0:0:0:0:
141,349,24179,2,0,P|175:357|206:350,1,63.7500024318696,0|0,0:0|0:0,0:0:0:0:
270,314,24439,1,0,0:0:0:0:
337,351,24525,6,0,P|380:359|423:348,1,85,4|0,0:0|0:0,0:0:0:0:
432,187,24872,2,0,P|397:211|375:247,1,85,8|0,0:0|0:0,0:0:0:0:
359,108,25219,1,0,0:0:0:0:
466,278,25393,1,0,0:0:0:0:
266,165,25566,1,8,0:0:0:0:
468,111,25739,1,0,0:0:0:0:
188,223,25913,6,0,P|170:162|172:148,3,42.5
305,181,26260,1,8,0:0:0:0:
283,176,26346,1,0,0:0:0:0:
266,165,26433,1,0,0:0:0:0:
286,127,26519,1,0,0:0:0:0:
322,107,26606,1,0,0:0:0:0:
364,108,26693,1,0,0:0:0:0:
398,133,26779,1,0,0:0:0:0:
414,171,26866,1,0,0:0:0:0:
406,213,26953,1,8,0:0:0:0:
378,243,27039,1,0,0:0:0:0:
337,254,27127,6,0,B|298:268|261:250|261:250|195:286,1,127.5,0|0,0:0|0:0,0:0:0:0:
146,260,27473,1,0,0:0:0:0:
109,279,27559,1,0,0:0:0:0:
67,274,27646,1,8,0:0:0:0:
35,247,27733,1,0,0:0:0:0:
25,207,27819,1,0,0:0:0:0:
39,167,27906,1,0,0:0:0:0:
73,143,27994,1,0,0:0:0:0:
115,139,28080,1,0,0:0:0:0:
144,109,28167,1,0,0:0:0:0:
149,68,28254,1,0,0:0:0:0:
127,33,28340,1,8,0:0:0:0:
87,19,28427,1,0,0:0:0:0:
48,33,28514,1,0,0:0:0:0:
12,75,28600,1,0,0:0:0:0:
0,127,28687,5,0,0:0:0:0:
4,181,28774,1,0,0:0:0:0:
33,228,28860,1,0,0:0:0:0:
79,258,28947,1,0,0:0:0:0:
133,267,29034,1,8,0:0:0:0:
186,253,29120,1,0,0:0:0:0:
228,218,29207,1,0,0:0:0:0:
253,169,29294,1,0,0:0:0:0:
254,114,29381,1,0,0:0:0:0:
126,137,29554,1,0,0:0:0:0:
342,321,29728,1,8,0:0:0:0:
330,89,29901,6,0,P|277:37|196:60,1,127.5,4|0,0:0|0:0,0:0:0:0:
126,137,30248,1,0,0:0:0:0:
156,165,30334,1,0,0:0:0:0:
197,171,30421,1,8,0:0:0:0:
234,151,30508,1,0,0:0:0:0:
253,114,30594,5,0,0:0:0:0:
269,162,30681,1,0,0:0:0:0:
304,198,30768,1,0,0:0:0:0:
351,217,30855,1,0,0:0:0:0:
402,213,30941,1,0,0:0:0:0:
446,189,31028,1,0,0:0:0:0:
476,148,31115,1,8,0:0:0:0:
480,106,31201,1,0,0:0:0:0:
470,65,31288,1,0,0:0:0:0:
446,31,31375,1,0,0:0:0:0:
411,7,31461,5,0,0:0:0:0:
370,0,31548,1,0,0:0:0:0:
328,2,31635,1,0,0:0:0:0:
290,21,31721,1,0,0:0:0:0:
253,53,31809,2,0,P|250:85|261:131,1,42.5,8|0,0:0|0:0,0:0:0:0:
135,286,31982,2,0,P|132:264|133:243,1,42.5,0|0,0:0|0:0,0:0:0:0:
397,270,32156,2,0,P|379:283|361:293,1,42.5,0|0,0:0|0:0,0:0:0:0:
168,151,32329,1,0,0:0:0:0:
420,170,32502,1,8,0:0:0:0:
188,348,32676,6,0,P|117:369|56:313,1,127.5,4|0,0:0|0:0,0:0:0:0:
96,247,33023,1,0,0:0:0:0:
122,204,33109,1,0,0:0:0:0:
128,153,33196,1,8,0:0:0:0:
110,106,33283,1,0,0:0:0:0:
73,72,33369,5,0,0:0:0:0:
100,39,33455,1,0,0:0:0:0:
137,19,33542,1,0,0:0:0:0:
179,14,33629,1,0,0:0:0:0:
219,24,33715,1,0,0:0:0:0:
254,49,33802,1,0,0:0:0:0:
276,85,33889,1,8,0:0:0:0:
270,127,33976,1,0,0:0:0:0:
285,166,34063,1,0,0:0:0:0:
316,195,34150,1,0,0:0:0:0:
357,205,34236,5,0,0:0:0:0:
399,206,34322,1,0,0:0:0:0:
435,227,34409,1,0,0:0:0:0:
457,262,34496,1,0,0:0:0:0:
458,304,34582,1,8,0:0:0:0:
439,342,34669,1,0,0:0:0:0:
404,365,34756,1,0,0:0:0:0:
362,369,34842,1,0,0:0:0:0:
324,352,34930,2,0,P|304:350|262:359,1,42.5,8|0,0:0|0:0,0:0:0:0:
49,207,35104,2,0,P|69:209|111:200,1,42.5,8|0,0:0|0:0,0:0:0:0:
324,206,35277,2,0,P|311:222|298:263,1,42.5
60,371,35451,2,0,P|72:354|85:313,1,42.5,8|0,0:0|0:0,0:0:0:0:
296,127,35624,6,0,P|359:128|398:163,1,85,4|0,0:0|0:0,0:0:0:0:
426,268,35971,1,8,0:0:0:0:
324,206,36144,1,0,0:0:0:0:
456,128,36317,1,0,0:0:0:0:
459,344,36491,1,0,0:0:0:0:
459,344,36578,1,0,0:0:0:0:
459,344,36664,1,8,0:0:0:0:
279,349,36838,6,0,B|198:375|199:299|95:341,1,170,0|0,0:0|0:0,0:0:0:0:
55,384,37358,1,8,0:0:0:0:
42,154,37531,2,0,B|53:267|53:267|32:287|25:316,1,170,4|0,0:0|0:0,0:0:0:0:
116,56,38051,1,8,0:0:0:0:
84,223,38225,1,0,0:0:0:0:
257,111,38398,6,0,L|363:131,1,85,0|0,0:0|0:0,0:0:0:0:
512,291,38745,2,0,L|406:311,1,85,8|0,0:0|0:0,0:0:0:0:
287,283,39092,1,0,0:0:0:0:
445,190,39265,1,0,0:0:0:0:
368,372,39439,2,0,L|272:369,1,85,8|0,0:0|0:0,0:0:0:0:
209,381,39699,1,0,0:0:0:0:
209,381,39786,5,0,0:0:0:0:
326,249,39959,1,0,0:0:0:0:
326,249,40046,1,0,0:0:0:0:
326,249,40132,1,8,0:0:0:0:
261,101,40306,2,0,B|248:148|272:186|272:186|228:234|251:294,1,170,4|0,0:0|0:0,0:0:0:0:
319,26,40826,2,0,P|260:4|215:18,1,85,8|0,0:0|0:0,0:0:0:0:
169,39,41086,1,0,0:0:0:0:
169,39,41173,5,0,0:0:0:0:
380,146,41346,1,0,0:0:0:0:
97,92,41520,2,0,L|0:111,1,85,12|0,0:0|0:0,0:0:0:0:
173,178,41867,5,0,0:0:0:0:
395,231,42040,2,0,L|386:329,1,85,0|12,0:0|0:0,0:0:0:0:
283,219,42387,1,0,0:0:0:0:
368,62,42560,6,0,P|366:97|326:150,1,85,0|0,0:0|0:0,0:0:0:0:
171,139,42907,2,0,P|148:103|144:62,1,85,8|0,0:0|0:0,0:0:0:0:
256,64,43254,1,0,0:0:0:0:
37,90,43427,1,0,0:0:0:0:
37,90,43514,1,0,0:0:0:0:
37,90,43601,1,8,0:0:0:0:
80,325,43774,6,0,B|155:363|152:294|245:334,1,170,4|0,0:0|0:0,0:0:0:0:
317,290,44294,2,0,P|351:303|433:301,1,85,8|0,0:0|0:0,0:0:0:0:
464,139,44641,2,0,P|423:147|385:166,1,85,0|0,0:0|0:0,0:0:0:0:
285,97,44988,1,8,0:0:0:0:
242,91,45074,1,0,0:0:0:0:
200,93,45161,1,0,0:0:0:0:
159,103,45248,1,0,0:0:0:0:
121,122,45335,6,0,B|109:152|109:152|121:238,1,85,4|0,0:0|0:0,0:0:0:0:
233,352,45682,1,8,0:0:0:0:
399,259,45855,2,0,L|223:243,1,170,0|0,0:0|0:0,0:0:0:0:
151,277,46375,1,8,0:0:0:0:
304,362,46549,1,0,0:0:0:0:
378,135,46722,6,0,B|308:178|308:178|203:168,1,170,6|8,0:0|0:0,0:0:0:0:
162,106,47242,1,0,0:0:0:0:
79,128,47416,1,0,0:0:0:0:
151,277,47589,1,0,0:0:0:0:
330,177,47762,1,8,0:0:0:0:
220,169,47936,1,0,0:0:0:0:
331,50,48109,6,0,B|390:33|390:33|510:55,1,170,0|8,0:0|0:0,0:0:0:0:
385,171,48630,2,0,B|326:188|326:188|206:166,1,170,0|0,0:0|0:0,0:0:0:0:
195,86,49150,1,8,0:0:0:0:
117,51,49323,1,0,0:0:0:0:
57,332,49497,6,0,L|140:315,1,85,0|0,0:0|0:0,0:0:0:0:
227,272,49843,1,8,0:0:0:0:
114,240,50017,1,0,0:0:0:0:
211,357,50190,1,0,0:0:0:0:
181,174,50364,1,0,0:0:0:0:
292,345,50537,2,0,P|235:361|204:354,1,85,8|0,0:0|0:0,0:0:0:0:
334,171,50884,6,0,L|450:183,1,85,0|0,0:0|0:0,0:0:0:0:
386,83,51144,1,0,0:0:0:0:
386,83,51231,1,8,0:0:0:0:
366,267,51404,1,0,0:0:0:0:
178,171,51578,2,0,L|62:183,1,85,0|0,0:0|0:0,0:0:0:0:
126,83,51838,1,0,0:0:0:0:
126,83,51925,1,8,0:0:0:0:
146,267,52098,1,0,0:0:0:0:
206,44,52271,6,0,P|265:34|309:44,1,85,0|0,0:0|0:0,0:0:0:0:
233,197,52618,1,8,0:0:0:0:
142,129,52791,1,0,0:0:0:0:
350,171,52965,2,0,P|409:181|453:171,1,85,0|0,0:0|0:0,0:0:0:0:
398,85,53312,1,8,0:0:0:0:
385,263,53485,1,0,0:0:0:0:
215,33,53658,5,0,0:0:0:0:
156,279,53832,1,0,0:0:0:0:
156,279,53919,1,0,0:0:0:0:
156,279,54005,1,8,0:0:0:0:
109,100,54179,2,0,B|98:194|44:168|30:269,1,170,0|0,0:0|0:0,0:0:0:0:
10,105,54699,1,8,0:0:0:0:
156,279,54872,1,0,0:0:0:0:
159,35,55046,6,0,P|120:18|70:27,1,85,0|0,0:0|0:0,0:0:0:0:
156,279,55393,2,0,P|195:263|224:221,1,85,8|0,0:0|0:0,0:0:0:0:
433,22,55739,2,0,P|391:18|353:35,1,85,0|0,0:0|0:0,0:0:0:0:
290,230,56086,2,0,P|316:263|356:279,1,85,8|0,0:0|0:0,0:0:0:0:
147,198,56433,5,0,0:0:0:0:
295,357,56606,1,0,0:0:0:0:
365,198,56780,1,8,0:0:0:0:
217,357,56953,2,0,B|124:382|124:330|44:358,1,170,0|0,0:0|0:0,0:0:0:0:
102,267,57473,1,8,0:0:0:0:
141,280,57559,1,0,0:0:0:0:
183,271,57646,1,0,0:0:0:0:
214,244,57733,1,0,0:0:0:0:
228,204,57820,6,0,B|229:162|229:162|203:103,1,85,4|0,0:0|0:0,0:0:0:0:
148,66,58167,1,8,0:0:0:0:
137,184,58341,1,0,0:0:0:0:
312,239,58514,2,0,L|396:227,2,85,0|0|8,0:0|0:0|0:0,0:0:0:0:
229,218,59034,1,0,0:0:0:0:
476,172,59208,6,0,P|493:226|480:289,1,85,0|0,0:0|0:0,0:0:0:0:
401,322,59554,1,8,0:0:0:0:
328,72,59728,6,0,P|362:64|412:76,1,85,0|0,0:0|0:0,0:0:0:0:
396,227,60075,1,0,0:0:0:0:
236,105,60248,2,0,P|232:62|247:19,1,85,8|0,0:0|0:0,0:0:0:0:
108,187,60595,6,0,P|67:174|25:178,1,85,0|0,0:0|0:0,0:0:0:0:
58,271,60942,1,8,0:0:0:0:
120,79,61115,1,0,0:0:0:0:
183,255,61288,2,0,P|223:267|265:263,1,85,0|0,0:0|0:0,0:0:0:0:
233,171,61635,1,8,0:0:0:0:
171,363,61808,1,0,0:0:0:0:
362,304,61982,6,0,P|369:272|357:211,1,85,0|0,0:0|0:0,0:0:0:0:
236,86,62329,1,8,0:0:0:0:
195,97,62415,1,0,0:0:0:0:
165,126,62502,1,0,0:0:0:0:
151,166,62589,1,0,0:0:0:0:
158,208,62676,2,0,P|155:253|126:294,1,85,4|0,0:0|0:0,0:0:0:0:
30,345,63023,1,8,0:0:0:0:
51,218,63196,1,0,0:0:0:0:
215,352,63369,6,0,L|311:332,1,85,0|0,0:0|0:0,0:0:0:0:
448,305,63716,1,8,0:0:0:0:
251,246,63890,1,0,0:0:0:0:
424,204,64063,2,0,L|340:221,1,85,0|0,0:0|0:0,0:0:0:0:
426,316,64410,5,8,0:0:0:0:
299,115,64583,1,0,0:0:0:0:
62,331,64757,5,0,0:0:0:0:
219,241,64930,1,0,0:0:0:0:
219,241,65017,1,0,0:0:0:0:
219,241,65104,1,8,0:0:0:0:
61,89,65277,2,0,B|52:141|52:141|103:267,1,170,6|0,0:0|0:0,0:0:0:0:
160,129,65797,2,0,P|186:96|222:73,1,85,8|0,0:0|0:0,0:0:0:0:
432,104,66144,5,0,0:0:0:0:
260,181,66317,1,0,0:0:0:0:
399,206,66491,1,8,0:0:0:0:
251,181,66664,1,0,0:0:0:0:
328,353,66838,2,0,L|421:342,1,85,0|0,0:0|0:0,0:0:0:0:
495,154,67184,2,0,L|402:165,1,85,8|0,0:0|0:0,0:0:0:0:
333,89,67531,5,0,0:0:0:0:
284,269,67705,1,0,0:0:0:0:
284,269,67791,1,0,0:0:0:0:
284,269,67878,2,0,L|387:256,1,85,8|0,0:0|0:0,0:0:0:0:
202,310,68225,1,0,0:0:0:0:
202,310,68312,1,0,0:0:0:0:
202,310,68398,1,0,0:0:0:0:
56,188,68572,1,8,0:0:0:0:
90,211,68658,1,0,0:0:0:0:
132,214,68745,1,0,0:0:0:0:
170,195,68832,1,0,0:0:0:0:
118,134,68919,6,0,L|128:45,1,85,4|0,0:0|0:0,0:0:0:0:
251,39,69265,1,8,0:0:0:0:
170,195,69439,1,0,0:0:0:0:
84,93,69612,1,0,0:0:0:0:
288,146,69786,1,0,0:0:0:0:
56,264,69959,1,8,0:0:0:0:
345,73,70132,6,0,B|408:57|467:92|467:92|410:98,1,170,0|0,0:0|0:0,0:0:0:0:
261,45,70653,1,8,0:0:0:0:
218,166,70826,2,0,B|276:193|341:170|341:170|313:171|286:153,1,170,0|0,0:0|0:0,0:0:0:0:
223,299,71347,1,8,0:0:0:0:
434,227,71520,6,0,B|458:186|429:145,2,85
284,81,72040,2,0,B|308:109|308:109|367:131,1,85,8|0,0:0|0:0,0:0:0:0:
148,101,72387,1,0,0:0:0:0:
434,227,72734,1,8,0:0:0:0:
434,227,72907,1,0,0:0:0:0:
268,307,73080,6,0,L|354:314,1,85,0|0,0:0|0:0,0:0:0:0:
227,188,73427,1,8,0:0:0:0:
103,313,73601,2,0,B|193:271|193:350|290:295,1,170,0|0,0:0|0:0,0:0:0:0:
326,214,74121,1,8,0:0:0:0:
66,141,74294,6,0,B|93:175|88:239|88:239|122:223|188:226,1,170,0|0,0:0|0:0,0:0:0:0:
145,39,74815,2,0,L|41:54,1,85,8|0,0:0|0:0,0:0:0:0:
248,158,75161,2,0,L|352:143,2,85,0|0|8,0:0|0:0|0:0,0:0:0:0:
446,141,75682,6,0,B|419:175|423:239|423:239|390:223|323:226,1,170,0|0,0:0|0:0,0:0:0:0:
367,39,76203,2,0,L|471:54,1,85,8|0,0:0|0:0,0:0:0:0:
264,158,76549,2,0,L|160:143,2,85,0|0|8,0:0|0:0|0:0,0:0:0:0:
321,290,77069,1,0,0:0:0:0:
125,88,77242,5,0,0:0:0:0:
70,332,77416,1,0,0:0:0:0:
19,51,77589,2,0,L|36:143,1,85,12|0,0:0|0:0,0:0:0:0:
223,121,77936,1,0,0:0:0:0:
8,249,78110,1,0,0:0:0:0:
174,18,78283,2,0,L|119:94,1,85,12|0,0:0|0:0,0:0:0:0:
114,264,78630,6,0,B|146:269|146:269|197:304,1,85,0|0,0:0|0:0,0:0:0:0:
426,358,78976,2,0,P|385:367|344:359,1,85,12|0,0:0|0:0,0:0:0:0:
383,271,79323,1,0,0:0:0:0:
268,185,79497,1,0,0:0:0:0:
383,271,79670,1,8,0:0:0:0:
498,185,79843,1,0,0:0:0:0:
319,50,80017,5,4,0:0:0:0:
383,271,80190,1,0,0:0:0:0:
447,47,80364,1,12,0:0:0:0:
383,271,80537,1,0,0:0:0:0:
325,127,80710,1,4,0:0:0:0:
383,271,80884,1,0,0:0:0:0:
442,129,81057,1,12,0:0:0:0:
382,359,81231,1,0,0:0:0:0:
241,210,81404,5,0,0:0:0:0:
198,215,81490,1,0,0:0:0:0:
156,221,81577,1,0,0:0:0:0:
114,227,81664,1,0,0:0:0:0:
72,232,81751,2,0,B|50:202|50:202|57:80,1,127.5,12|0,0:0|0:0,0:0:0:0:
30,39,82098,1,0,0:0:0:0:
71,37,82184,1,0,0:0:0:0:
108,57,82271,1,0,0:0:0:0:
129,94,82358,1,0,0:0:0:0:
127,169,82445,5,10,0:0:0:0:
180,201,82531,1,0,0:0:0:0:
242,195,82618,1,0,0:0:0:0:
287,151,82705,1,0,0:0:0:0:
296,89,82791,6,0,P|326:61|416:47,1,101.999996887207,4|0,0:0|0:0,0:0:0:0:
427,277,83138,2,0,P|395:237|388:188,1,101.999996887207,8|0,0:0|0:0,0:0:0:0:
511,188,83485,1,0,0:0:0:0:
205,118,83658,1,0,0:0:0:0:
205,118,83745,1,0,0:0:0:0:
205,118,83832,1,8,0:0:0:0:
263,303,84005,1,0,0:0:0:0:
85,217,84179,6,0,L|208:224,1,101.999996887207,0|0,0:0|0:0,0:0:0:0:
415,70,84525,2,0,L|313:75,1,101.999996887207,8|0,0:0|0:0,0:0:0:0:
205,118,84872,5,0,0:0:0:0:
334,285,85046,1,0,0:0:0:0:
487,206,85219,1,8,0:0:0:0:
278,178,85393,1,0,0:0:0:0:
147,344,85566,6,0,B|190:329|195:364|251:343,1,101.999996887207,0|0,0:0|0:0,0:0:0:0:
47,189,85913,2,0,B|62:232|27:237|48:293,1,101.999996887207,8|0,0:0|0:0,0:0:0:0:
261,121,86260,2,0,B|218:136|213:101|157:122,1,101.999996887207,0|0,0:0|0:0,0:0:0:0:
361,276,86607,2,0,B|346:233|381:228|360:172,1,101.999996887207,8|0,0:0|0:0,0:0:0:0:
38,88,86953,6,0,B|23:139|23:139|48:301,1,203.999993774414,4|8,0:0|0:0,0:0:0:0:
46,288,87473,1,0,0:0:0:0:
221,216,87647,1,0,0:0:0:0:
64,167,87820,1,0,0:0:0:0:
220,314,87994,2,0,L|321:303,1,101.999996887207,8|0,0:0|0:0,0:0:0:0:
454,153,88341,6,0,B|418:180|412:233|412:233|446:278|430:346,1,203.999993774414,4|8,0:0|0:0,0:0:0:0:
431,338,88861,1,0,0:0:0:0:
339,142,89034,1,0,0:0:0:0:
509,285,89208,1,0,0:0:0:0:
223,319,89381,2,0,P|224:237|240:199,1,101.999996887207,8|0,0:0|0:0,0:0:0:0:
329,274,89641,1,0,0:0:0:0:
329,274,89728,5,0,0:0:0:0:
88,330,89901,1,0,0:0:0:0:
88,330,89988,1,0,0:0:0:0:
88,330,90075,1,8,0:0:0:0:
199,80,90248,6,0,P|240:149|163:234,1,203.999993774414,4|0,0:0|0:0,0:0:0:0:
160,152,90682,1,0,0:0:0:0:
160,152,90768,1,8,0:0:0:0:
365,180,90942,1,0,0:0:0:0:
47,101,91115,6,0,L|43:222,1,101.999996887207,0|0,0:0|0:0,0:0:0:0:
197,320,91462,2,0,P|237:290|259:245,1,101.999996887207,8|0,0:0|0:0,0:0:0:0:
375,151,91809,2,0,P|344:110|299:89,1,101.999996887207,0|0,0:0|0:0,0:0:0:0:
174,87,92069,1,0,0:0:0:0:
174,87,92156,1,8,0:0:0:0:
349,241,92329,1,0,0:0:0:0:
228,24,92502,5,0,0:0:0:0:
91,324,92676,1,0,0:0:0:0:
257,238,92849,1,8,0:0:0:0:
174,87,93023,2,0,B|135:86|135:86|12:132,1,152.999995330811,4|0,0:0|0:0,0:0:0:0:
11,173,93369,1,0,0:0:0:0:
18,224,93456,1,0,0:0:0:0:
47,265,93543,1,8,0:0:0:0:
91,288,93629,1,0,0:0:0:0:
142,289,93716,1,0,0:0:0:0:
189,271,93802,1,0,0:0:0:0:
240,265,93890,6,0,P|297:258|366:289,1,101.999996887207,4|0,0:0|0:0,0:0:0:0:
338,270,94150,1,0,0:0:0:0:
338,270,94236,1,8,0:0:0:0:
445,352,94410,1,0,0:0:0:0:
365,182,94583,2,0,P|290:168|221:177,1,101.999996887207,0|0,0:0|0:0,0:0:0:0:
208,84,94930,1,8,0:0:0:0:
109,248,95104,1,0,0:0:0:0:
466,169,95277,6,0,L|320:188,1,101.999996887207,0|0,0:0|0:0,0:0:0:0:
304,286,95624,1,8,0:0:0:0:
142,169,95797,1,0,0:0:0:0:
353,98,95971,2,0,P|401:88|428:140,1,101.999996887207,0|0,0:0|0:0,0:0:0:0:
236,246,96318,2,0,P|226:197|278:170,1,101.999996887207,8|0,0:0|0:0,0:0:0:0:
301,369,96664,6,0,P|252:378|225:326,1,101.999996887207,0|0,0:0|0:0,0:0:0:0:
418,221,97011,2,0,P|427:269|375:296,1,101.999996887207,8|0,0:0|0:0,0:0:0:0:
267,92,97358,2,0,B|200:91|200:91|131:112,1,101.999996887207,0|0,0:0|0:0,0:0:0:0:
169,203,97618,1,0,0:0:0:0:
169,203,97705,1,8,0:0:0:0:
344,129,97878,1,0,0:0:0:0:
130,23,98051,6,0,P|89:62|84:121,1,101.999996887207,4|0,0:0|0:0,0:0:0:0:
192,295,98398,2,0,P|193:238|155:193,1,101.999996887207,12|0,0:0|0:0,0:0:0:0:
12,369,98745,1,4,0:0:0:0:
102,270,98919,1,0,0:0:0:0:
93,353,99092,1,12,0:0:0:0:
25,233,99265,1,0,0:0:0:0:
269,182,99439,6,0,L|381:192,1,101.999996887207,0|0,0:0|0:0,0:0:0:0:
421,194,99699,1,0,0:0:0:0:
421,194,99786,1,8,0:0:0:0:
257,300,99959,1,0,0:0:0:0:
281,64,100132,2,0,L|393:74,1,101.999996887207,4|0,0:0|0:0,0:0:0:0:
433,76,100392,1,0,0:0:0:0:
433,76,100479,1,8,0:0:0:0:
269,182,100652,1,0,0:0:0:0:
125,69,100826,6,0,L|20:81,2,101.999996887207,0|0|8,0:0|0:0|0:0,0:0:0:0:
342,145,101346,2,0,P|335:230|226:254,1,203.999993774414,0|0,0:0|0:0,0:0:0:0:
75,169,101867,5,8,0:0:0:0:
66,176,102040,1,0,0:0:0:0:
164,330,102213,6,0,P|133:258|151:196,1,101.999996887207,0|0,0:0|0:0,0:0:0:0:
232,257,102473,1,0,0:0:0:0:
232,257,102560,1,8,0:0:0:0:
43,336,102734,1,0,0:0:0:0:
226,91,102907,5,0,0:0:0:0:
256,90,103080,1,0,0:0:0:0:
286,89,103254,1,8,0:0:0:0:
426,115,103427,6,0,B|384:197|481:206|422:325,1,203.999993774414,4|0,0:0|0:0,0:0:0:0:
214,313,103947,5,8,0:0:0:0:
346,254,104121,1,0,0:0:0:0:
150,265,104294,1,0,0:0:0:0:
373,322,104468,1,0,0:0:0:0:
291,167,104641,1,8,0:0:0:0:
291,167,104728,1,0,0:0:0:0:
291,167,104815,1,0,0:0:0:0:
291,167,104901,1,0,0:0:0:0:
291,167,104988,6,0,L|414:175,1,101.999996887207,4|0,0:0|0:0,0:0:0:0:
206,7,105335,2,0,B|226:33|226:33|207:122,1,101.999996887207,8|0,0:0|0:0,0:0:0:0:
143,131,105595,1,0,0:0:0:0:
143,131,105682,1,0,0:0:0:0:
182,272,105855,1,0,0:0:0:0:
182,272,105941,1,0,0:0:0:0:
182,272,106028,1,8,0:0:0:0:
371,120,106202,6,0,B|385:169|336:209|336:209|399:251|360:335,1,203.999993774414,0|0,0:0|0:0,0:0:0:0:
279,133,106722,1,8,0:0:0:0:
460,279,106895,6,0,P|474:219|442:112,1,152.999995330811,0|0,0:0|0:0,0:0:0:0:
331,35,107416,2,0,L|213:47,1,85,8|0,0:0|0:0,0:0:0:0:
288,279,107762,6,0,P|321:253|340:216,1,85
340,215,108023,1,0,0:0:0:0:
340,215,108109,1,8,0:0:0:0:
244,194,108283,1,0,0:0:0:0:
195,350,108456,1,0,0:0:0:0:
340,215,108630,1,0,0:0:0:0:
141,174,108803,2,0,P|103:170|51:183,1,85,8|0,0:0|0:0,0:0:0:0:
122,57,109150,5,0,0:0:0:0:
108,281,109323,1,0,0:0:0:0:
194,106,109497,1,8,0:0:0:0:
181,329,109670,2,0,B|277:303|276:360|352:331,1,170,4|0,0:0|0:0,0:0:0:0:
424,175,110190,2,0,L|339:186,1,85,8|0,0:0|0:0,0:0:0:0:
195,91,110450,1,0,0:0:0:0:
195,91,110537,6,0,L|280:102,1,85
353,59,110884,1,8,0:0:0:0:
437,69,111057,1,0,0:0:0:0:
376,266,111231,2,0,L|291:255,1,85
188,352,111578,1,8,0:0:0:0:
225,191,111751,1,0,0:0:0:0:
331,361,111924,6,0,L|423:348,2,85,4|0|8,0:0|0:0|0:0,0:0:0:0:
81,183,112445,1,0,0:0:0:0:
92,267,112618,1,0,0:0:0:0:
134,106,112791,1,0,0:0:0:0:
35,334,112965,1,8,0:0:0:0:
68,57,113138,6,0,P|134:25|215:91,1,170,4|0,0:0|0:0,0:0:0:0:
269,194,113658,2,0,L|380:182,1,85,8|0,0:0|0:0,0:0:0:0:
462,170,114005,1,0,0:0:0:0:
462,170,114179,1,0,0:0:0:0:
246,322,114352,1,8,0:0:0:0:
224,324,114438,1,0,0:0:0:0:
203,326,114525,1,0,0:0:0:0:
148,331,114611,1,0,0:0:0:0:
93,337,114699,6,0,B|67:305|67:305|69:223,1,85,4|0,0:0|0:0,0:0:0:0:
167,184,115046,1,0,0:0:0:0:
0,44,115219,1,0,0:0:0:0:
13,40,115306,1,0,0:0:0:0:
26,37,115393,2,0,P|51:33|102:44,1,42.5
133,107,115566,2,0,P|158:111|209:100,1,42.5
270,88,115739,1,8,0:0:0:0:
312,86,115825,1,0,0:0:0:0:
350,69,115912,1,0,0:0:0:0:
373,49,115999,1,0,0:0:0:0:
386,18,116086,6,2,P|423:7|512:53,1,136,4|10,0:0|0:0,0:0:0:0:
429,108,116606,1,0,0:0:0:0:
481,171,116780,1,2,0:0:0:0:
382,222,116953,2,0,L|389:317,1,68,0|10,0:0|0:0,0:0:0:0:
334,108,117299,1,0,0:0:0:0:
257,289,117473,1,2,0:0:0:0:
257,289,117820,5,8,0:0:0:0:
160,220,117994,1,0,0:0:0:0:
63,334,118167,2,0,L|149:323,1,68,2|0,0:0|0:0,0:0:0:0:
328,190,118514,2,0,L|242:179,1,68,10|0,0:0|0:0,0:0:0:0:
25,237,118861,6,0,L|167:218,1,136,2|10,0:0|0:0,0:0:0:0:
251,265,119381,1,0,0:0:0:0:
251,265,119554,2,0,P|257:300|244:361,2,68,2|0|10,0:0|0:0|0:0,0:0:0:0:
220,181,120075,1,0,0:0:0:0:
345,259,120248,6,0,B|370:270|370:270|438:255,1,68,2|0,0:0|0:0,0:0:0:0:
476,213,120595,1,10,0:0:0:0:
476,213,120768,1,0,0:0:0:0:
446,60,120942,2,0,B|421:49|421:49|353:64,1,68,2|0,0:0|0:0,0:0:0:0:
315,106,121288,2,0,B|287:118|287:118|217:102,1,102,10|0,0:0|0:0,0:0:0:0:
161,45,121635,6,0,P|137:95|168:168,1,136,2|10,0:0|0:0,0:0:0:0:
237,204,122156,1,0,0:0:0:0:
174,256,122329,1,2,0:0:0:0:
229,315,122502,1,0,0:0:0:0:
165,165,122676,2,0,P|142:132|145:83,1,68,10|0,0:0|0:0,0:0:0:0:
249,50,123023,6,0,L|317:62,2,68,2|0|10,0:0|0:0|0:0,0:0:0:0:
65,140,123543,2,2,B|81:182|81:182|68:296,1,136
27,342,124063,1,10,0:0:0:0:
150,276,124236,1,0,0:0:0:0:
262,217,124410,6,0,P|274:249|278:283,1,68,2|0,0:0|0:0,0:0:0:0:
111,189,124757,2,0,P|85:167|65:140,1,68,10|0,0:0|0:0,0:0:0:0:
216,79,125104,2,0,P|238:54|267:36,1,68,2|0,0:0|0:0,0:0:0:0:
387,141,125450,2,0,B|348:152|348:152|321:149,1,68,10|0,0:0|0:0,0:0:0:0:
487,41,125797,5,2,0:0:0:0:
437,233,125971,1,0,0:0:0:0:
346,61,126144,1,10,0:0:0:0:
387,141,126317,1,0,0:0:0:0:
387,141,126491,1,2,0:0:0:0:
437,233,126664,1,0,0:0:0:0:
211,187,126837,1,10,0:0:0:0:
184,193,126924,1,0,0:0:0:0:
159,202,127010,1,0,0:0:0:0:
135,216,127097,1,0,0:0:0:0:
115,234,127184,6,0,B|102:254|102:254|125:339,1,85,4|0,0:0|0:0,0:0:0:0:
247,352,127531,1,8,0:0:0:0:
118,313,127705,1,0,0:0:0:0:
211,187,127878,2,0,P|259:183|309:209,1,85
387,298,128225,2,0,L|343:372,1,85,8|0,0:0|0:0,0:0:0:0:
437,100,128572,5,0,0:0:0:0:
335,153,128745,1,0,0:0:0:0:
428,224,128919,2,0,L|514:228,2,85,8|0|0,0:0|0:0|0:0,0:0:0:0:
341,262,129439,1,0,0:0:0:0:
244,228,129612,1,0,0:0:0:0:
150,270,129786,1,0,0:0:0:0:
45,142,129959,6,0,L|132:154,1,85
312,77,130306,1,0,0:0:0:0:
312,77,130479,1,0,0:0:0:0:
142,7,130653,2,0,L|195:77,1,85
376,150,131000,1,0,0:0:0:0:
222,186,131173,1,0,0:0:0:0:
222,186,131260,1,0,0:0:0:0:
222,186,131346,6,0,P|221:239|245:286,1,85
314,216,131693,1,0,0:0:0:0:
85,269,131867,1,0,0:0:0:0:
113,87,132040,5,0,0:0:0:0:
170,235,132213,1,0,0:0:0:0:
13,211,132387,2,0,P|1:171|6:120,1,85
195,27,132734,6,0,L|368:36,1,170
364,35,133254,1,0,0:0:0:0:
209,168,133427,1,0,0:0:0:0:
353,159,133601,1,0,0:0:0:0:
275,92,133774,1,0,0:0:0:0:
287,262,133947,1,0,0:0:0:0:
48,161,134121,5,0,0:0:0:0:
88,291,134294,1,0,0:0:0:0:
88,291,134381,1,0,0:0:0:0:
88,291,134468,1,0,0:0:0:0:
287,262,134641,2,0,L|459:274,1,170
203,219,135161,1,0,0:0:0:0:
215,314,135335,1,0,0:0:0:0:
280,84,135508,6,0,L|162:101,1,85
58,225,135855,1,0,0:0:0:0:
232,300,136028,2,0,L|350:283,1,85
454,159,136375,1,0,0:0:0:0:
158,171,136549,2,0,B|145:204|145:204|161:276,1,85
355,63,136895,5,0,0:0:0:0:
291,283,137069,1,0,0:0:0:0:
512,229,137242,5,0,0:0:0:0:
265,147,137416,1,0,0:0:0:0:
235,149,137502,1,0,0:0:0:0:
205,152,137589,1,0,0:0:0:0:
365,250,137762,5,0,0:0:0:0:
372,291,137848,1,0,0:0:0:0:
357,330,137935,1,0,0:0:0:0:
378,375,138022,1,0,0:0:0:0:
425,388,138109,1,0,0:0:0:0:
465,359,138196,1,0,0:0:0:0:
469,310,138283,6,0,P|453:267|466:195,1,85,4|0,0:0|0:0,0:0:0:0:
502,139,138630,1,0,0:0:0:0:
435,62,138803,1,0,0:0:0:0:
333,60,138976,1,0,0:0:0:0:
257,129,139150,1,0,0:0:0:0:
379,181,139323,5,0,0:0:0:0:
181,42,139497,2,0,L|1:77,1,170
257,129,140017,1,0,0:0:0:0:
181,216,140190,2,0,L|1:181,1,170
14,183,140710,1,0,0:0:0:0:
129,107,140884,1,0,0:0:0:0:
155,311,141057,6,0,P|194:315|260:293,2,85
304,233,141578,1,0,0:0:0:0:
400,368,141751,1,0,0:0:0:0:
341,144,142098,2,0,P|261:147|229:172,1,85
140,48,142445,5,0,0:0:0:0:
37,200,142618,1,0,0:0:0:0:
86,274,142791,1,0,0:0:0:0:
176,138,142965,2,0,P|230:123|344:145,1,170
425,85,143485,1,0,0:0:0:0:
401,198,143658,2,0,B|385:242|385:242|415:361,1,170
508,70,144179,6,0,L|413:87,1,85
270,110,144525,2,0,L|175:127,1,85
106,60,144872,1,0,0:0:0:0:
119,258,145046,2,0,P|193:172|163:92,1,170
97,164,145566,2,0,P|23:250|53:330,2,170
139,166,146346,1,0,0:0:0:0:
181,169,146433,1,0,0:0:0:0:
224,172,146520,1,0,0:0:0:0:
266,175,146606,6,0,L|378:188,1,101.999996887207
328,88,146953,1,0,0:0:0:0:
305,273,147127,1,0,0:0:0:0:
405,31,147300,2,0,P|353:50|325:98,1,101.999996887207
367,186,147647,1,0,0:0:0:0:
511,142,147820,1,0,0:0:0:0:
365,328,147994,6,0,L|258:323,1,101.999996887207
205,269,148341,1,0,0:0:0:0:
88,303,148514,1,0,0:0:0:0:
54,186,148687,1,0,0:0:0:0:
171,152,148861,1,0,0:0:0:0:
171,349,149034,1,0,0:0:0:0:
94,104,149208,1,0,0:0:0:0:
344,159,149381,6,0,L|447:152,1,101.999996887207
310,246,149728,1,0,0:0:0:0:
472,71,149901,1,0,0:0:0:0:
195,97,150075,6,0,L|92:104,1,101.999996887207
229,10,150422,1,0,0:0:0:0:
67,185,150595,1,0,0:0:0:0:
211,285,150768,5,0,0:0:0:0:
260,270,150854,1,0,0:0:0:0:
309,256,150941,1,0,0:0:0:0:
337,219,151028,1,0,0:0:0:0:
336,168,151114,1,0,0:0:0:0:
300,135,151201,1,0,0:0:0:0:
262,147,151288,1,0,0:0:0:0:
262,195,151374,1,0,0:0:0:0:
262,195,151461,1,0,0:0:0:0:
409,247,151635,1,0,0:0:0:0:
463,251,151721,1,0,0:0:0:0:
497,294,151808,1,0,0:0:0:0:
491,348,151895,1,0,0:0:0:0:
448,381,151982,1,0,0:0:0:0:
399,366,152068,1,0,0:0:0:0:
349,366,152156,6,0,B|310:375|310:375|225:349,1,101.999996887207
199,118,152502,2,0,B|232:139|232:139|274:218,1,101.999996887207
59,372,152849,1,0,0:0:0:0:
80,118,153023,1,0,0:0:0:0:
80,118,153109,1,0,0:0:0:0:
80,118,153196,1,0,0:0:0:0:
195,78,153369,1,0,0:0:0:0:
32,207,153543,6,0,P|50:268|92:302,1,101.999996887207
197,315,153890,1,0,0:0:0:0:
316,288,154063,1,0,0:0:0:0:
195,78,154236,6,0,B|177:111|177:111|180:207,1,101.999996887207
416,215,154583,2,0,B|434:182|434:182|431:86,1,101.999996887207
282,34,154930,5,0,0:0:0:0:
95,89,155104,1,0,0:0:0:0:
184,21,155277,1,0,0:0:0:0:
90,192,155451,1,0,0:0:0:0:
268,279,155624,2,0,L|372:261,1,101.999996887207
497,114,155971,2,0,L|393:96,1,101.999996887207
166,134,156317,6,0,B|128:192|208:272|159:349,1,203.999993774414
240,176,157011,1,0,0:0:0:0:
96,288,157184,1,0,0:0:0:0:
64,384,157358,1,0,0:0:0:0:
48,192,157531,1,0,0:0:0:0:
272,336,157705,6,0,P|336:320|368:272,1,101.999996887207
