osu file format v14

[General]
AudioFilename: audio.mp3
AudioLeadIn: 0
PreviewTime: 2534303
Countdown: 1
SampleSet: Normal
StackLeniency: 0.7
Mode: 0
LetterboxInBreaks: 0
WidescreenStoryboard: 1

[Editor]
Bookmarks: 151200,280800,334800,376797,415197,453597,549600,621600,756000,852000,967200,1020000,1142400,1201200,1341600,1447200,1585200,1796400,1917663,2097031,2242294,2355978,2436821,2535347,2712189,2803136
DistanceSpacing: 1.2
BeatDivisor: 4
GridSize: 4
TimelineZoom: 1.2

[Metadata]
Title:Largely-Unrelated-To-Trauma Mix Disc
TitleUnicode:Largely-Unrelated-To-Trauma Mix Disc
Artist:Various Artists
ArtistUnicode:Various Artists
Creator:Malikil
Version:Le Jad - Painful Epic
Source:
Tags:Lapfox Trax Renard
BeatmapID:1601929
BeatmapSetID:605704

[Difficulty]
HPDrainRate:6
CircleSize:4
OverallDifficulty:8
ApproachRate:9.3
SliderMultiplier:1.75
SliderTickRate:1

[Events]
//Background and Video events
0,0,"Largely-Unrelated-To-Trauma Mix Disc 1.jpg",0,0
//Break Periods
//Storyboard Layer 0 (Background)
//Storyboard Layer 1 (Fail)
//Storyboard Layer 2 (Pass)
//Storyboard Layer 3 (Foreground)
//Storyboard Layer 4 (Overlay)
//Storyboard Sound Samples

[TimingPoints]
26382,300,4,1,0,50,1,0
26382,-109.89010989011,4,1,0,50,0,0
64332,-200,4,1,0,50,0,0
64782,-86.9565217391304,4,1,0,50,0,1
68832,-200,4,1,0,50,0,1
69282,-86.9565217391304,4,1,0,50,0,1
71532,-100,4,1,0,50,0,1
71682,-86.9565217391304,4,1,0,50,0,1
78432,-200,4,1,0,50,0,1
78882,-86.9565217391304,4,1,0,50,0,1
81132,-100,4,1,0,50,0,1
81282,-86.9565217391304,4,1,0,50,0,1
83982,-111.111111111111,4,1,0,50,0,0
93582,-100,4,1,0,50,0,0
112782,-100,4,1,0,50,0,1
129882,-166.666666666667,4,1,0,50,0,1
130782,-100,4,1,0,50,0,1
131082,-117.647058823529,4,1,0,50,0,1
131382,-125,4,1,0,50,0,1
131607,-111.111111111111,4,1,0,50,0,1
131982,-100,4,1,0,50,0,1
151182,400,4,1,0,50,1,0
151182,-133.333333333333,4,1,0,50,0,0
160782,300,4,1,0,50,1,0
170382,-100,4,1,0,50,0,0
179982,-100,4,1,0,50,0,1
189582,-100,4,1,0,50,0,0
218382,600,4,1,0,50,1,0
236982,-66.6666666666667,4,1,0,50,0,0
237432,-111.111111111111,4,1,0,50,0,0
247182,300,4,1,0,50,1,0
247182,-111.111111111111,4,1,0,50,0,0
256782,-100,4,1,0,50,0,1
266382,-133.333333333333,4,1,0,50,0,0
280182,-200,4,1,0,50,0,0
280782,-100,4,1,0,50,0,0
335982,-100,4,3,0,50,0,0
336582,-100,4,3,0,65,0,0
337182,-100,4,3,0,80,0,0
337782,-100,4,3,0,95,0,0
338382,-117.647058823529,4,3,0,100,0,0
356382,-86.9565217391304,4,3,0,100,0,0
357582,-117.647058823529,4,3,0,100,0,0
357882,-117.647058823529,4,3,0,100,0,1
374382,-100,4,3,0,100,0,0
376782,-133.333333333333,4,3,0,100,0,0
382482,-625,4,3,0,100,0,0
383982,-133.333333333333,4,3,0,100,0,0
392082,-200,4,3,0,100,0,0
393582,-133.333333333333,4,3,0,100,0,0
404382,-100,4,3,0,100,0,0
405582,-133.333333333333,4,3,0,100,0,0
1796382,315.789473684211,4,1,0,50,1,0

[HitObjects]
311,243,280782,1,0,0:0:0:0:
244,324,280932,1,0,0:0:0:0:
152,276,281082,1,0,0:0:0:0:
116,176,281232,1,0,0:0:0:0:
140,76,281382,1,0,0:0:0:0:
244,100,281532,1,0,0:0:0:0:
276,132,281607,1,0,0:0:0:0:
304,164,281682,1,0,0:0:0:0:
404,132,281832,1,0,0:0:0:0:
424,236,281982,2,0,P|392:280|352:296,2,87.5
324,200,282432,1,0,0:0:0:0:
248,272,282582,1,0,0:0:0:0:
148,308,282732,1,0,0:0:0:0:
119,275,282807,1,0,0:0:0:0:
101,235,282882,1,0,0:0:0:0:
96,192,282957,1,0,0:0:0:0:
104,149,283032,1,0,0:0:0:0:
126,111,283107,1,0,0:0:0:0:
164,76,283182,5,0,0:0:0:0:
268,92,283332,1,0,0:0:0:0:
204,176,283482,1,0,0:0:0:0:
300,216,283632,1,0,0:0:0:0:
360,304,283782,1,0,0:0:0:0:
436,232,283932,1,0,0:0:0:0:
440,188,284007,1,0,0:0:0:0:
444,144,284082,1,0,0:0:0:0:
376,64,284232,1,0,0:0:0:0:
316,148,284382,2,0,P|268:184|208:196,1,87.5
156,132,284682,2,0,L|68:80,1,87.5
144,200,284982,2,0,L|48:200,1,87.5
176,264,285207,1,0,0:0:0:0:
176,264,285282,2,0,L|108:336,1,87.5
68,308,285507,1,0,0:0:0:0:
28,276,285582,6,0,P|-8:244|-16:196,2,87.5
88,188,286032,1,0,0:0:0:0:
184,148,286182,1,0,0:0:0:0:
248,232,286332,1,0,0:0:0:0:
288,252,286407,1,0,0:0:0:0:
324,276,286482,1,0,0:0:0:0:
408,212,286632,1,0,0:0:0:0:
364,116,286782,2,0,P|328:84|264:72,1,87.5
208,136,287082,1,0,0:0:0:0:
188,240,287232,1,0,0:0:0:0:
104,176,287382,1,0,0:0:0:0:
84,280,287532,1,0,0:0:0:0:
112,313,287607,1,0,0:0:0:0:
148,338,287682,1,0,0:0:0:0:
188,354,287757,1,0,0:0:0:0:
232,359,287832,1,0,0:0:0:0:
275,354,287907,1,0,0:0:0:0:
316,338,287982,5,0,0:0:0:0:
384,260,288132,1,0,0:0:0:0:
328,172,288282,1,0,0:0:0:0:
376,80,288432,1,0,0:0:0:0:
276,56,288582,2,0,P|208:64|176:100,1,87.5
176,112,288807,1,0,0:0:0:0:
140,148,288882,2,0,P|119:186|121:229,1,87.5
224,208,289182,1,0,0:0:0:0:
288,124,289332,2,0,L|352:64,1,87.5,0|8,0:0|0:0,0:0:0:0:
348,168,289632,2,0,L|433:148,1,87.5,0|8,0:0|0:0,0:0:0:0:
376,236,289932,2,0,L|459:261,1,87.5,0|2,0:0|0:3,0:0:0:0:
484,300,290157,1,2,0:3:0:0:
476,344,290232,1,2,0:3:0:0:
436,364,290307,1,2,0:3:0:0:
392,356,290382,5,2,0:3:0:0:
304,300,290532,1,0,0:0:0:0:
208,340,290682,1,0,0:0:0:0:
216,236,290832,2,0,L|172:156,1,87.5
244,80,291132,1,0,0:0:0:0:
292,100,291207,1,0,0:0:0:0:
340,124,291282,1,0,0:0:0:0:
332,228,291432,1,0,0:0:0:0:
416,288,291582,2,0,P|472:252|488:200,1,87.5
464,132,291882,1,0,0:0:0:0:
376,192,292032,2,0,L|300:120,1,87.5
216,92,292332,1,0,0:0:0:0:
184,136,292407,1,0,0:0:0:0:
176,188,292482,1,0,0:0:0:0:
180,240,292557,1,0,0:0:0:0:
200,288,292632,1,0,0:0:0:0:
304,296,292782,6,0,P|344:256|352:204,2,87.5
256,204,293232,1,0,0:0:0:0:
204,112,293382,1,0,0:0:0:0:
152,204,293532,1,0,0:0:0:0:
108,232,293607,1,0,0:0:0:0:
64,260,293682,1,0,0:0:0:0:
0,176,293832,1,0,0:0:0:0:
84,112,293982,2,0,P|120:92|196:104,1,87.5
228,176,294282,2,0,L|280:248,1,87.5
288,140,294582,2,0,L|400:160,1,87.5
312,72,294807,1,0,0:0:0:0:
312,72,294882,2,0,L|428:32,1,87.5
464,124,295182,6,0,P|484:176|476:224,1,87.5
396,268,295482,1,0,0:0:0:0:
308,212,295632,1,0,0:0:0:0:
228,280,295782,2,0,L|128:244,1,87.5
128,200,296007,1,0,0:0:0:0:
144,148,296082,2,0,L|226:118,1,87.5
304,192,296382,6,0,L|408:192,1,87.5
476,132,296682,1,0,0:0:0:0:
492,236,296832,1,0,0:0:0:0:
412,308,296982,1,0,0:0:0:0:
312,280,297132,1,0,0:0:0:0:
296,228,297207,1,0,0:0:0:0:
268,184,297282,1,0,0:0:0:0:
232,144,297357,1,0,0:0:0:0:
188,116,297432,1,0,0:0:0:0:
136,100,297507,1,0,0:0:0:0:
84,108,297582,5,0,0:0:0:0:
56,208,297732,2,0,L|32:296,1,87.5
24,320,297957,1,0,0:0:0:0:
16,348,298032,1,0,0:0:0:0:
136,272,298182,2,0,L|224:340,1,87.5
248,336,298407,1,0,0:0:0:0:
292,336,298482,1,0,0:0:0:0:
332,316,298557,1,0,0:0:0:0:
360,284,298632,1,0,0:0:0:0:
376,244,298707,1,0,0:0:0:0:
368,200,298782,2,0,L|348:112,1,87.5
276,192,299082,1,0,0:0:0:0:
172,212,299232,2,0,L|72:80,2,131.25
488,60,299982,5,0,0:0:0:0:
488,60,300132,1,0,0:0:0:0:
60,144,300432,1,0,0:0:0:0:
60,144,300582,1,0,0:0:0:0:
440,364,300882,1,0,0:0:0:0:
440,364,301032,1,0,0:0:0:0:
168,20,301332,1,0,0:0:0:0:
168,20,301482,1,0,0:0:0:0:
192,368,301782,1,0,0:0:0:0:
192,368,301932,1,0,0:0:0:0:
240,292,302082,1,0,0:0:0:0:
259,268,302157,1,0,0:0:0:0:
282,246,302232,1,0,0:0:0:0:
312,229,302307,1,0,0:0:0:0:
342,219,302382,5,0,0:0:0:0:
448,212,302532,1,0,0:0:0:0:
396,120,302682,1,0,0:0:0:0:
292,120,302832,1,0,0:0:0:0:
292,120,302982,1,0,0:0:0:0:
192,152,303132,1,0,0:0:0:0:
184,204,303207,1,0,0:0:0:0:
176,256,303282,1,0,0:0:0:0:
80,208,303432,1,0,0:0:0:0:
108,108,303582,2,0,L|188:40,1,87.5
292,120,303882,2,0,L|384:164,1,87.5
272,196,304182,2,0,L|329:280,1,87.5
272,292,304407,1,0,0:0:0:0:
244,340,304482,2,0,L|165:302,1,87.5
132,204,304782,5,0,0:0:0:0:
208,132,304932,1,0,0:0:0:0:
284,60,305082,1,0,0:0:0:0:
304,164,305232,2,0,L|232:236,1,87.5
312,304,305532,1,0,0:0:0:0:
348,268,305607,1,0,0:0:0:0:
384,232,305682,1,0,0:0:0:0:
384,128,305832,1,0,0:0:0:0:
280,140,305982,2,0,L|208:212,1,87.5
112,208,306282,1,0,0:0:0:0:
164,300,306432,2,0,L|256:344,1,87.5
348,324,306732,1,0,0:0:0:0:
388,291,306807,1,0,0:0:0:0:
420,249,306882,1,0,0:0:0:0:
439,200,306957,1,0,0:0:0:0:
445,148,307032,1,0,0:0:0:0:
344,124,307182,6,0,L|252:168,1,87.5
192,236,307482,1,0,0:0:0:0:
96,188,307632,2,0,L|160:100,1,87.5
244,76,307932,1,0,0:0:0:0:
296,88,308007,1,0,0:0:0:0:
348,100,308082,1,0,0:0:0:0:
392,196,308232,1,0,0:0:0:0:
316,268,308382,2,0,P|256:296|200:292,1,87.5
156,228,308682,1,0,0:0:0:0:
160,124,308832,1,0,0:0:0:0:
252,172,308982,1,0,0:0:0:0:
336,112,309132,1,0,0:0:0:0:
352,216,309282,1,0,0:0:0:0:
342,258,309357,1,0,0:0:0:0:
318,294,309432,1,0,0:0:0:0:
283,320,309507,1,0,0:0:0:0:
241,331,309582,6,0,P|184:332|144:320,1,87.5
188,224,309882,1,0,0:0:0:0:
92,184,310032,1,0,0:0:0:0:
56,284,310182,1,0,0:0:0:0:
154,324,310332,1,0,0:0:0:0:
208,320,310407,1,0,0:0:0:0:
260,316,310482,1,0,0:0:0:0:
340,248,310632,2,0,L|376:168,1,87.5
300,96,310932,1,0,0:0:0:0:
232,176,311082,2,0,L|140:220,1,87.5
180,112,311382,2,0,L|78:104,1,87.5
58,131,311607,1,0,0:0:0:0:
44,172,311682,1,0,0:0:0:0:
53,214,311757,1,0,0:0:0:0:
84,244,311832,1,0,0:0:0:0:
184,272,311982,5,0,0:0:0:0:
288,280,312132,1,0,0:0:0:0:
248,184,312282,1,0,0:0:0:0:
232,80,312432,2,0,L|352:88,1,87.5
396,156,312732,1,0,0:0:0:0:
388,208,312807,1,0,0:0:0:0:
380,260,312882,1,0,0:0:0:0:
284,216,313032,1,0,0:0:0:0:
256,116,313182,2,0,L|231:25,1,87.5
169,114,313482,2,0,L|102:47,1,87.5
99,157,313782,2,0,L|8:133,2,87.5
152,172,314157,1,0,0:0:0:0:
204,188,314232,1,0,0:0:0:0:
196,292,314382,6,0,P|264:276|292:236,1,87.5
344,184,314682,1,0,0:0:0:0:
284,96,314832,1,0,0:0:0:0:
188,140,314982,2,0,L|120:200,1,87.5
96,244,315207,1,0,0:0:0:0:
136,280,315282,2,0,L|248:340,1,87.5
248,220,315582,2,0,L|348:208,1,87.5
420,272,315882,1,0,0:0:0:0:
484,188,316032,1,0,0:0:0:0:
404,120,316182,1,0,0:0:0:0:
335,210,316332,1,0,0:0:0:0:
291,215,316407,1,0,0:0:0:0:
248,220,316482,1,0,0:0:0:0:
204,225,316557,1,0,0:0:0:0:
161,230,316632,1,0,0:0:0:0:
46,189,316782,5,0,0:0:0:0:
87,72,316932,1,0,0:0:0:0:
202,115,317082,1,0,0:0:0:0:
161,230,317232,1,0,0:0:0:0:
228,312,317382,2,0,L|320:312,1,87.5
360,280,317607,1,0,0:0:0:0:
400,248,317682,1,0,0:0:0:0:
388,144,317832,1,0,0:0:0:0:
288,180,317982,5,0,0:0:0:0:
262,193,318057,1,0,0:0:0:0:
234,201,318132,1,0,0:0:0:0:
205,203,318207,1,0,0:0:0:0:
176,198,318282,2,0,L|128:184,2,43.75
176,288,318582,2,0,L|136:316,2,43.75
264,276,318882,2,0,P|328:264|408:172,1,175
344,60,319332,1,0,0:0:0:0:
208,96,319482,1,0,0:0:0:0:
240,196,319632,5,0,0:0:0:0:
168,272,319782,2,0,P|108:268|72:252,1,87.5
60,220,320007,1,0,0:0:0:0:
76,180,320082,2,0,P|114:159|157:151,1,87.5
240,196,320382,2,0,L|344:180,1,87.5
308,96,320682,1,0,0:0:0:0:
208,64,320832,1,0,0:0:0:0:
300,116,320982,1,0,0:0:0:0:
396,160,321132,1,0,0:0:0:0:
411,206,321207,1,0,0:0:0:0:
404,254,321282,1,0,0:0:0:0:
375,293,321357,1,0,0:0:0:0:
331,314,321432,1,0,0:0:0:0:
300,212,321582,6,0,L|192:172,2,87.5
400,184,322032,1,0,0:0:0:0:
336,100,322182,1,0,0:0:0:0:
236,132,322332,1,0,0:0:0:0:
217,181,322407,1,0,0:0:0:0:
198,230,322482,1,0,0:0:0:0:
104,184,322632,1,0,0:0:0:0:
140,84,322782,2,0,L|236:28,1,87.5
316,68,323082,1,0,0:0:0:0:
292,172,323232,1,0,0:0:0:0:
396,148,323382,1,0,0:0:0:0:
392,252,323532,2,0,L|347:327,1,87.5
248,304,323832,1,0,0:0:0:0:
132,240,323982,5,0,0:0:0:0:
60,128,324132,1,0,0:0:0:0:
192,120,324282,1,0,0:0:0:0:
268,228,324432,5,0,0:0:0:0:
352,292,324582,2,0,L|448:248,1,87.5
444,204,324807,1,0,0:0:0:0:
452,152,324882,1,0,0:0:0:0:
368,88,325032,1,0,0:0:0:0:
328,184,325182,2,0,L|220:144,1,87.5
232,260,325482,1,0,0:0:0:0:
136,296,325632,1,0,0:0:0:0:
140,192,325782,1,0,0:0:0:0:
40,156,325932,1,0,0:0:0:0:
51,105,326007,1,0,0:0:0:0:
82,63,326082,1,0,0:0:0:0:
128,38,326157,1,0,0:0:0:0:
180,33,326232,1,0,0:0:0:0:
228,128,326382,6,0,L|212:224,2,87.5
316,72,326832,1,0,0:0:0:0:
388,148,326982,1,0,0:0:0:0:
368,252,327132,2,0,L|404:292,2,43.75
264,232,327432,1,0,0:0:0:0:
160,240,327582,2,0,L|52:204,1,87.5
148,136,327882,1,0,0:0:0:0:
160,240,328032,2,0,L|256:180,1,87.5
328,144,328332,2,0,P|376:136|436:164,2,87.5
316,276,328782,5,0,0:0:0:0:
208,200,328932,1,0,0:0:0:0:
100,124,329082,1,0,0:0:0:0:
104,228,329232,6,0,L|128:344,1,87.5
224,340,329532,1,0,0:0:0:0:
276,344,329607,1,0,0:0:0:0:
328,340,329682,1,0,0:0:0:0:
400,264,329832,1,0,0:0:0:0:
300,232,329982,2,0,L|252:152,1,87.5
168,216,330282,2,0,L|76:224,1,87.5
152,144,330582,2,0,L|68:104,1,87.5
67,64,330807,1,0,0:0:0:0:
93,30,330882,1,0,0:0:0:0:
136,24,330957,1,0,0:0:0:0:
170,49,331032,1,0,0:0:0:0:
212,148,331182,6,0,L|260:252,1,87.5
336,288,331482,1,0,0:0:0:0:
360,184,331632,1,0,0:0:0:0:
288,108,331782,1,0,0:0:0:0:
220,188,331932,1,0,0:0:0:0:
172,212,332007,1,0,0:0:0:0:
124,232,332082,1,0,0:0:0:0:
76,140,332232,1,0,0:0:0:0:
176,104,332382,2,0,L|264:88,1,87.5
308,184,332682,1,0,0:0:0:0:
176,104,332832,2,0,L|376:68,1,175
404,160,333282,2,0,L|404:248,1,87.5
288,312,333582,5,0,0:0:0:0:
164,268,333732,1,0,0:0:0:0:
260,180,333882,1,0,0:0:0:0:
364,160,334032,2,0,L|440:92,1,87.5
468,200,334332,1,0,0:0:0:0:
444,248,334407,1,0,0:0:0:0:
412,292,334482,2,0,L|320:312,1,87.5
220,310,334782,2,0,L|134:291,1,87.5
56,220,335082,5,0,0:0:0:0:
156,77,335232,1,0,0:0:0:0:
404,163,335532,1,0,0:0:0:0:
206,335,335832,1,0,0:0:0:0:
256,192,335982,5,8,0:0:0:0:
256,192,336132,1,8,0:0:0:0:
256,192,336282,1,8,0:0:0:0:
256,192,336432,1,8,0:0:0:0:
256,192,336582,1,8,0:0:0:0:
256,192,336732,1,8,0:0:0:0:
256,192,336882,1,8,0:0:0:0:
256,192,337032,1,8,0:0:0:0:
256,192,337182,1,8,0:0:0:0:
256,192,337332,1,8,0:0:0:0:
256,192,337482,1,8,0:0:0:0:
256,192,337632,1,8,0:0:0:0:
256,192,337782,1,8,0:0:0:0:
256,192,337932,1,8,0:0:0:0:
320,252,338082,1,4,0:0:0:0:
400,128,338382,5,8,0:0:0:0:
400,128,338682,2,0,L|264:56,1,148.750002837181,8|2,0:0|0:0,0:0:0:0:
300,152,339132,2,0,L|164:80,1,148.750002837181,8|2,0:0|0:0,0:0:0:0:
112,256,339582,5,8,0:0:0:0:
112,256,339882,2,0,L|248:328,1,148.750002837181,8|2,0:0|0:0,0:0:0:0:
212,232,340332,2,0,L|348:304,1,148.750002837181,8|2,0:0|0:0,0:0:0:0:
400,128,340782,5,8,0:0:0:0:
400,128,341082,2,0,L|264:56,1,148.750002837181,8|2,0:0|0:0,0:0:0:0:
300,152,341532,2,0,L|164:80,1,148.750002837181,8|2,0:0|0:0,0:0:0:0:
112,256,341982,5,8,0:0:0:0:
112,256,342132,1,0,0:0:0:0:
112,256,342282,2,0,L|248:328,1,148.750002837181,8|2,0:0|0:0,0:0:0:0:
212,232,342732,1,0,0:0:0:0:
280,268,342882,2,0,B|288:267|288:267|288:258|288:258|299:263|299:263|299:254|299:254|310:260|310:260|309:251|309:251|320:256|320:256|320:247|320:247|331:252|331:252|331:243|331:243|338:246|343:244,1,111.562502127886
304,112,343182,5,0,0:0:0:0:
304,112,343482,2,0,L|199:224,1,148.750002837181,8|2,0:0|0:0,0:0:0:0:
301,214,343932,2,0,L|196:326,1,148.750002837181,8|2,0:0|0:0,0:0:0:0:
128,300,344382,5,0,0:0:0:0:
128,300,344682,2,0,L|232:187,1,148.750002837181,8|2,0:0|0:0,0:0:0:0:
131,198,345132,2,0,L|235:85,1,148.750002837181,8|2,0:0|0:0,0:0:0:0:
402,105,345582,5,0,0:0:0:0:
402,105,345882,2,0,L|297:217,1,148.750002837181,8|2,0:0|0:0,0:0:0:0:
399,207,346332,2,0,L|294:319,1,148.750002837181,8|2,0:0|0:0,0:0:0:0:
110,279,346782,6,0,L|92:264,2,18.5937503546476
162,227,346932,1,0,0:0:0:0:
164,116,347157,1,0,0:0:0:0:
276,116,347382,2,0,B|276:121|276:121|281:121|281:121|278:128|278:128|284:128|284:128|281:135|281:135|287:135|287:135|283:142|283:142|289:142|289:142|286:149|286:149|292:149|292:149|289:154|291:157,1,74.3750014185906
280,228,347607,2,0,P|296:288|376:308,1,148.750002837181
352,240,347982,2,0,L|400:184,2,74.3750014185906
432,260,348357,2,0,L|452:256,6,18.5937503546476
248,296,348732,2,0,L|96:320,1,148.750002837181,8|2,0:0|0:0,0:0:0:0:
264,88,349182,5,8,0:0:0:0:
264,88,349482,2,0,L|416:64,1,148.750002837181,8|2,0:0|0:0,0:0:0:0:
268,92,349932,2,0,L|420:68,1,148.750002837181,8|2,0:0|0:0,0:0:0:0:
248,296,350382,5,8,0:0:0:0:
248,296,350682,2,0,L|96:320,1,148.750002837181,8|2,0:0|0:0,0:0:0:0:
252,300,351132,2,0,L|100:324,1,148.750002837181,8|2,0:0|0:0,0:0:0:0:
264,88,351582,5,8,0:0:0:0:
264,88,351732,1,0,0:0:0:0:
264,88,351882,2,0,L|416:64,1,148.750002837181,8|2,0:0|0:0,0:0:0:0:
276,160,352332,1,8,0:0:0:0:
348,152,352482,2,0,B|353:157|353:157|360:152|360:152|362:164|362:164|370:159|370:159|371:171|371:171|378:166|378:166|380:177|380:177|388:172|388:172|390:184|390:184|397:179|397:179|399:186|403:189,1,111.562502127886
432,288,352782,5,8,0:0:0:0:
432,288,353082,2,0,L|288:232,1,148.750002837181,8|2,0:0|0:0,0:0:0:0:
436,292,353532,2,0,L|292:236,1,148.750002837181,8|2,0:0|0:0,0:0:0:0:
80,96,353982,5,8,0:0:0:0:
80,96,354282,2,0,L|223:151,1,148.750002837181,8|2,0:0|0:0,0:0:0:0:
80,96,354732,2,0,P|168:84|223:151,1,148.750002837181,8|2,0:0|0:0,0:0:0:0:
130,207,355182,5,0,0:0:0:0:
231,316,355332,1,0,0:0:0:0:
366,253,355482,1,0,0:0:0:0:
348,105,355632,1,0,0:0:0:0:
202,77,355782,1,0,0:0:0:0:
130,207,355932,1,0,0:0:0:0:
260,168,356382,5,0,0:0:0:0:
296,180,356457,1,0,0:0:0:0:
332,184,356532,1,0,0:0:0:0:
364,204,356607,2,0,P|412:168|344:152,1,150.937502878904
300,256,356982,1,0,0:0:0:0:
192,256,357132,1,0,0:0:0:0:
172,228,357207,1,0,0:0:0:0:
156,196,357282,2,0,L|112:104,1,100.62500191927
180,60,357582,2,0,P|248:76|288:120,1,111.562502127886
320,160,357882,5,2,0:0:0:0:
368,220,358032,1,8,0:0:0:0:
368,220,358182,2,0,L|316:280,1,74.3750014185906,2|2,0:0|0:0,0:0:0:0:
236,260,358482,1,8,0:0:0:0:
236,260,358632,2,0,L|288:200,1,74.3750014185906,2|2,0:0|0:0,0:0:0:0:
256,124,358932,1,8,0:0:0:0:
256,124,359082,2,0,L|204:184,1,74.3750014185906,2|2,0:0|0:0,0:0:0:0:
124,164,359382,1,8,0:0:0:0:
124,164,359532,2,0,L|176:104,1,74.3750014185906,2|6,0:0|0:0,0:0:0:0:
124,275,359982,5,8,0:0:0:0:
124,275,360132,2,0,L|176:335,1,74.3750014185906,2|2,0:0|0:0,0:0:0:0:
256,315,360432,1,8,0:0:0:0:
256,315,360582,2,0,L|204:255,1,74.3750014185906,2|2,0:0|0:0,0:0:0:0:
236,179,360882,1,8,0:0:0:0:
236,179,361032,2,0,L|288:239,1,74.3750014185906,2|2,0:0|0:0,0:0:0:0:
368,219,361332,1,8,0:0:0:0:
368,219,361482,2,0,L|316:159,1,74.3750014185906,2|10,0:0|0:0,0:0:0:0:
272,104,361782,5,0,0:0:0:0:
196,104,361932,1,0,0:0:0:0:
172,132,362007,1,0,0:0:0:0:
148,160,362082,2,0,L|88:240,1,74.3750014185906
132,280,362382,6,0,L|220:280,1,74.3750014185906,8|0,0:0|0:0,0:0:0:0:
206,280,362682,1,2,0:0:0:0:
172,212,362832,2,0,L|260:212,1,74.3750014185906,8|0,0:0|0:0,0:0:0:0:
246,212,363132,1,2,0:0:0:0:
212,144,363282,2,0,L|300:144,1,74.3750014185906,8|0,0:0|0:0,0:0:0:0:
286,144,363582,1,2,0:0:0:0:
252,76,363732,2,0,L|340:76,1,74.3750014185906,8|0,0:0|0:0,0:0:0:0:
326,76,364032,1,2,0:0:0:0:
420,76,364182,1,8,0:0:0:0:
376,148,364332,2,0,L|336:220,1,74.3750014185906
256,336,364782,6,0,L|180:336,1,74.3750014185906,8|0,0:0|0:0,0:0:0:0:
123,277,365082,1,2,0:0:0:0:
123,277,365232,2,0,L|123:197,1,74.3750014185906,8|0,0:0|0:0,0:0:0:0:
181,144,365532,1,2,0:0:0:0:
181,144,365682,2,0,L|269:144,1,74.3750014185906
312,204,365982,2,0,B|312:212|312:212|308:216|308:216|316:220|316:220|308:224|308:224|316:228|316:228|308:232|308:232|316:236|316:236|308:240|308:240|316:244|316:244|308:248|308:248|316:252|316:252|308:256|308:256|316:260|316:260|308:264|308:264|316:268|316:268|308:272|308:272|312:276|312:276|312:280,1,148.750002837181,8|0,0:0|0:0,0:0:0:0:
424,280,366432,5,0,0:0:0:0:
424,244,366507,1,0,0:0:0:0:
424,208,366582,2,0,L|424:160,1,37.1875007092953
352,236,366807,1,0,0:0:0:0:
326,210,366882,2,0,L|292:176,1,37.1875007092953
296,280,367107,1,0,0:0:0:0:
260,280,367182,6,0,L|184:280,1,74.3750014185906,8|0,0:0|0:0,0:0:0:0:
185,280,367482,1,2,0:0:0:0:
148,208,367632,2,0,L|224:208,1,74.3750014185906,8|0,0:0|0:0,0:0:0:0:
222,208,367932,1,2,0:0:0:0:
264,136,368082,2,0,L|188:136,1,74.3750014185906,8|0,0:0|0:0,0:0:0:0:
190,136,368382,1,2,0:0:0:0:
148,64,368532,2,0,L|224:64,1,74.3750014185906,8|0,0:0|0:0,0:0:0:0:
222,64,368832,1,2,0:0:0:0:
304,64,368982,1,0,0:0:0:0:
264,136,369132,2,0,L|320:192,1,74.3750014185906,0|2,0:0|0:0,0:0:0:0:
424,312,369582,6,0,L|368:256,1,74.3750014185906,8|0,0:0|0:0,0:0:0:0:
313,317,369882,1,2,0:0:0:0:
313,317,370032,2,0,L|261:265,1,74.3750014185906,8|0,0:0|0:0,0:0:0:0:
202,322,370332,1,2,0:0:0:0:
202,322,370482,2,0,L|150:270,1,74.3750014185906,8|0,0:0|0:0,0:0:0:0:
91,327,370782,1,2,0:0:0:0:
91,327,370932,2,0,L|39:275,1,74.3750014185906,8|0,0:0|0:0,0:0:0:0:
40,160,371232,5,0,0:0:0:0:
97,102,371382,1,0,0:0:0:0:
120,180,371532,1,2,0:0:0:0:
120,180,371607,1,2,0:0:0:0:
120,180,371682,1,10,0:0:0:0:
228,144,371832,5,8,0:0:0:0:
276,76,371982,2,0,L|343:120,1,74.3750014185906,8|0,0:0|0:0,0:0:0:0:
338,116,372282,1,2,0:0:0:0:
404,72,372432,2,0,L|420:150,1,74.3750014185906,8|0,0:0|0:0,0:0:0:0:
418,144,372732,1,2,0:0:0:0:
500,152,372882,2,0,L|455:219,1,74.3750014185906,8|0,0:0|0:0,0:0:0:0:
459,213,373182,1,2,0:0:0:0:
512,276,373332,2,0,L|433:292,1,74.3750014185906,8|0,0:0|0:0,0:0:0:0:
438,290,373632,1,2,0:0:0:0:
376,344,373782,1,8,0:0:0:0:
300,316,373932,1,0,0:0:0:0:
364,268,374082,2,0,L|304:212,1,74.3750014185906,2|0,0:0|0:0,0:0:0:0:
224,224,374382,5,2,0:0:0:0:
148,267,374532,1,2,0:0:0:0:
62,251,374682,1,2,0:0:0:0:
5,185,374832,1,2,0:0:0:0:
4,97,374982,1,2,0:0:0:0:
62,30,375132,1,2,0:0:0:0:
148,15,375282,1,2,0:0:0:0:
224,59,375432,1,2,0:0:0:0:
253,141,375582,5,2,0:0:0:0:
264,159,375657,1,2,0:0:0:0:
279,175,375732,1,2,0:0:0:0:
295,190,375807,1,2,0:0:0:0:
313,202,375882,1,2,0:0:0:0:
333,212,375957,1,2,0:0:0:0:
354,218,376032,1,2,0:0:0:0:
375,222,376107,1,2,0:0:0:0:
397,223,376182,1,2,0:0:0:0:
419,221,376257,1,2,0:0:0:0:
440,216,376332,1,2,0:0:0:0:
460,209,376407,1,2,0:0:0:0:
479,198,376482,1,6,0:2:0:0:
