osu file format v14

[General]
AudioFilename: audio.mp3
AudioLeadIn: 0
PreviewTime: 2534303
Countdown: 1
SampleSet: Drum
StackLeniency: 0.7
Mode: 0
LetterboxInBreaks: 0
WidescreenStoryboard: 1

[Editor]
Bookmarks: 151200,280800,334800,376797,415197,453582,482382,549582,568782,621582,717582,746382,755982,832782,851982,967182,1020000,1142400,1201200,1341600,1447200,1585200,1796400,1917663,2097031,2242294,2355978,2436821,2535347,2712189,2803136
DistanceSpacing: 1.5
BeatDivisor: 4
GridSize: 8
TimelineZoom: 1.7

[Metadata]
Title:Largely-Unrelated-To-Trauma Mix Disc
TitleUnicode:Largely-Unrelated-To-Trauma Mix Disc
Artist:Various Artists
ArtistUnicode:Various Artists
Creator:Malikil
Version:Detest - 2Obscore
Source:
Tags:Lapfox Trax Renard
BeatmapID:3797255
BeatmapSetID:605704

[Difficulty]
HPDrainRate:6
CircleSize:4
OverallDifficulty:8
ApproachRate:9.3
SliderMultiplier:1.75
SliderTickRate:1

[Events]
//Background and Video events
0,0,"Largely-Unrelated-To-Trauma Mix Disc 1.jpg",0,0
//Break Periods
//Storyboard Layer 0 (Background)
//Storyboard Layer 1 (Fail)
//Storyboard Layer 2 (Pass)
//Storyboard Layer 3 (Foreground)
//Storyboard Layer 4 (Overlay)
//Storyboard Sound Samples

[TimingPoints]
26382,300,4,1,0,50,1,0
26382,-109.89010989011,4,1,0,50,0,0
64332,-200,4,1,0,50,0,0
64782,-86.9565217391304,4,1,0,50,0,1
68832,-200,4,1,0,50,0,1
69282,-86.9565217391304,4,1,0,50,0,1
71532,-100,4,1,0,50,0,1
71682,-86.9565217391304,4,1,0,50,0,1
78432,-200,4,1,0,50,0,1
78882,-86.9565217391304,4,1,0,50,0,1
81132,-100,4,1,0,50,0,1
81282,-86.9565217391304,4,1,0,50,0,1
83982,-111.111111111111,4,1,0,50,0,0
93582,-100,4,1,0,50,0,0
112782,-100,4,1,0,50,0,1
129882,-166.666666666667,4,1,0,50,0,1
130782,-100,4,1,0,50,0,1
131082,-117.647058823529,4,1,0,50,0,1
131382,-125,4,1,0,50,0,1
131607,-111.111111111111,4,1,0,50,0,1
131982,-100,4,1,0,50,0,1
151182,400,4,1,0,50,1,0
151182,-133.333333333333,4,1,0,50,0,0
160782,300,4,1,0,50,1,0
170382,-100,4,1,0,50,0,0
179982,-100,4,1,0,50,0,1
189582,-100,4,1,0,50,0,0
218382,600,4,1,0,50,1,0
236982,-66.6666666666667,4,1,0,50,0,0
237432,-111.111111111111,4,1,0,50,0,0
247182,300,4,1,0,50,1,0
247182,-111.111111111111,4,1,0,50,0,0
256782,-100,4,1,0,50,0,1
266382,-133.333333333333,4,1,0,50,0,0
280182,-200,4,1,0,50,0,0
280782,-100,4,1,0,50,0,0
335982,-100,4,3,0,50,0,0
336582,-100,4,3,0,65,0,0
337182,-100,4,3,0,80,0,0
337782,-100,4,3,0,95,0,0
338382,-117.647058823529,4,3,0,100,0,0
356382,-86.9565217391304,4,3,0,100,0,0
357582,-117.647058823529,4,3,0,100,0,0
357882,-117.647058823529,4,3,0,100,0,1
374382,-100,4,3,0,100,0,0
376782,-133.333333333333,4,3,0,100,0,0
382482,-625,4,3,0,100,0,0
383982,-133.333333333333,4,3,0,100,0,0
392082,-200,4,3,0,100,0,0
393582,-133.333333333333,4,3,0,100,0,0
404382,-100,4,3,0,100,0,0
405582,-133.333333333333,4,3,0,100,0,0
413982,-100,4,3,0,100,0,0
415182,-100,4,1,0,100,0,1
434382,-95.2380952380952,4,1,0,100,0,1
443982,-100,4,3,0,100,0,0
453582,-111.111111111111,4,1,0,100,0,0
463182,-133.333333333333,4,3,0,80,0,0
472782,-133.333333333333,4,3,0,100,0,0
476382,-250,4,3,0,100,0,0
477282,-200,4,3,0,100,0,0
477882,-133.333333333333,4,3,0,100,0,0
481182,-133.333333333333,4,1,0,100,0,0
482382,-117.647058823529,4,2,0,100,0,0
491982,-111.111111111111,4,1,0,100,0,0
501582,-105.263157894737,4,1,0,100,0,0
507582,-105.263157894737,4,3,0,100,0,0
509982,-105.263157894737,4,3,0,80,0,0
511182,-90.9090909090909,4,1,0,100,0,1
515682,-111.111111111111,4,1,0,100,0,1
515982,-90.9090909090909,4,1,0,100,0,1
525282,-111.111111111111,4,1,0,100,0,1
525582,-90.9090909090909,4,1,0,100,0,1
529182,-100,4,1,0,100,0,0
530382,-100,4,1,0,100,0,1
534882,-111.111111111111,4,1,0,100,0,1
535182,-100,4,1,0,100,0,1
544482,-111.111111111111,4,1,0,100,0,1
544782,-100,4,1,0,100,0,1
548382,-100,4,2,0,100,0,0
549582,-100,4,3,0,100,0,0
568332,-50,4,3,0,100,0,0
568782,-100,4,3,0,100,0,1
587982,-90.9090909090909,4,1,0,80,0,0
592482,-66.6666666666667,4,1,0,80,0,0
592782,-100,4,3,0,100,0,0
611982,-125,4,3,0,90,0,0
631182,-133.333333333333,4,3,0,60,0,0
650382,-100,4,3,0,100,0,1
673482,-66.6666666666667,4,3,0,100,0,1
673782,-100,4,3,0,100,0,1
679182,-100,4,3,0,100,0,0
717582,-105.263157894737,4,3,0,100,0,0
719982,-106.382978723404,4,3,0,100,0,0
722382,-107.52688172043,4,3,0,100,0,0
724782,-108.695652173913,4,3,0,100,0,0
727182,-109.89010989011,4,3,0,100,0,0
729582,-111.111111111111,4,3,0,100,0,0
731982,-112.359550561798,4,3,0,100,0,0
734382,-113.636363636364,4,3,0,100,0,0
736782,-114.942528735632,4,3,0,100,0,0
739182,-116.279069767442,4,3,0,100,0,0
740982,-232.558139534884,4,3,0,100,0,0
741582,-117.647058823529,4,3,0,100,0,0
743982,-119.047619047619,4,3,0,100,0,0
746382,-125,4,3,0,100,0,0
755982,-100,4,3,0,100,0,0
758682,-133.333333333333,4,3,0,100,0,0
758982,-100,4,3,0,100,0,0
764682,-133.333333333333,4,3,0,100,0,0
765282,-100,4,3,0,100,0,0
768582,-133.333333333333,4,3,0,100,0,0
768882,-100,4,3,0,100,0,0
770682,-200,4,3,0,100,0,0
772182,-100,4,3,0,100,0,0
775182,-303.030303030303,4,3,0,100,0,0
776082,-100,4,3,0,100,0,0
777132,-111.111111111111,4,3,0,100,0,0
777582,-133.333333333333,4,3,0,100,0,0
778782,-100,4,3,0,100,0,0
782082,-125,4,3,0,100,0,0
783582,-100,4,3,0,100,0,0
790782,-200,4,3,0,100,0,0
791382,-100,4,3,0,100,0,0
792432,-151.515151515152,4,3,0,100,0,0
794382,-100,4,3,0,100,0,0
795882,-133.333333333333,4,3,0,100,0,0
796032,-133.333333333333,4,3,0,95,0,0
796182,-133.333333333333,4,3,0,90,0,0
796332,-133.333333333333,4,3,0,85,0,0
796482,-133.333333333333,4,3,0,80,0,0
796632,-133.333333333333,4,3,0,75,0,0
796782,-100,4,3,0,70,0,0
796932,-100,4,3,0,65,0,0
797082,-100,4,3,0,60,0,0
797232,-100,4,3,0,55,0,0
797382,-100,4,3,0,50,0,0
797532,-100,4,3,0,45,0,0
797682,-100,4,3,0,40,0,0
797982,-100,4,3,0,50,0,0
798282,-100,4,3,0,60,0,0
798582,-100,4,3,0,70,0,0
798882,-100,4,3,0,80,0,0
799182,-100,4,3,0,100,0,0
801057,-133.333333333333,4,3,0,100,0,0
802782,-100,4,3,0,100,0,0
803532,-500,4,3,0,100,0,0
803982,-100,4,3,0,100,0,0
809982,-200,4,3,0,100,0,0
811182,-150.15015015015,4,3,0,100,0,0
813582,-100,4,3,0,100,0,0
814782,-133.333333333333,4,3,0,100,0,0
818382,-100,4,3,0,100,0,0
820782,-250,4,3,0,100,0,0
822432,-133.333333333333,4,3,0,100,0,0
823182,-100,4,3,0,100,0,0
827082,-125,4,3,0,100,0,0
828132,-100,4,3,0,100,0,0
832782,-111.111111111111,4,3,0,100,0,0
833982,-125,4,3,0,100,0,0
839082,-142.857142857143,4,3,0,100,0,0
847782,-133.333333333333,4,3,0,100,0,0
848382,-125,4,3,0,100,0,0
848982,-117.647058823529,4,3,0,100,0,0
851982,-83.3333333333333,4,3,0,100,0,0
858582,-100,4,3,0,100,0,0
859182,-100,4,3,0,100,0,0
860382,-100,4,3,0,100,0,0
861582,-83.3333333333333,4,3,0,100,0,1
863382,-100,4,3,0,100,0,1
863682,-83.3333333333333,4,3,0,100,0,1
865182,-57.1428571428571,4,3,0,100,0,1
866082,-133.333333333333,4,3,0,100,0,1
866382,-83.3333333333333,4,3,0,100,0,1
867582,-100,4,3,0,100,0,1
868182,-66.6666666666667,4,3,0,100,0,1
868782,-100,4,2,0,100,0,0
870582,-66.6666666666667,4,2,0,100,0,0
871182,-83.3333333333333,4,3,0,100,0,1
878082,-100,4,3,0,100,0,0
880782,-83.3333333333333,4,3,0,100,0,1
887682,-41.6666666666667,4,3,0,100,0,1
887982,-83.3333333333333,4,3,0,100,0,1
889182,-83.3333333333333,4,3,0,100,0,0
889482,-133.333333333333,4,3,0,100,0,0
889632,-100,4,3,0,100,0,0
890382,-76.9230769230769,4,3,0,100,0,1
892782,-76.9230769230769,4,3,0,100,0,0
893982,-83.3333333333333,4,3,0,100,0,0
895182,-83.3333333333333,4,3,0,100,0,1
897282,-100,4,3,0,100,0,1
897582,-83.3333333333333,4,3,0,100,0,1
903582,-58.8235294117647,4,3,0,100,0,1
904482,-133.333333333333,4,3,0,100,0,1
904782,-83.3333333333333,4,3,0,100,0,1
907182,-100,4,3,0,100,0,0
908982,-200,4,3,0,100,0,0
909282,-66.6666666666667,4,3,0,100,0,0
909582,-100,4,3,0,100,0,1
917982,-83.3333333333333,4,3,0,100,0,0
918882,-58.8235294117647,4,3,0,100,0,0
919182,-83.3333333333333,4,3,0,100,0,1
923682,-133.333333333333,4,3,0,100,0,1
923982,-83.3333333333333,4,3,0,100,0,1
927882,-83.3333333333333,4,3,0,100,0,0
932082,-125,4,3,0,100,0,0
932382,-83.3333333333333,4,3,0,100,0,0
947982,-80,4,3,0,100,0,1
967182,-83.3333333333333,4,3,0,100,0,0
1796382,315.789473684211,4,1,0,50,1,0

[HitObjects]
263,107,851982,54,0,L|373:52,1,104.999996795654,8|2,0:0|0:0,0:0:0:0:
313,155,852282,2,0,L|433:130,1,104.999996795654,8|2,0:0|0:0,0:0:0:0:
349,215,852582,2,0,L|471:222,1,104.999996795654,8|2,0:0|0:0,0:0:0:0:
368,281,852882,2,0,L|484:319,1,104.999996795654,8|2,0:0|0:0,0:0:0:0:
249,277,853182,2,0,L|139:332,1,104.999996795654,8|2,0:0|0:0,0:0:0:0:
199,229,853482,2,0,L|78:253,1,104.999996795654,8|2,0:0|0:0,0:0:0:0:
163,169,853782,1,8,0:0:0:0:
48,162,853932,2,0,L|3:161,8,26.2499991989136,2|2|2|2|2|2|2|2|2,0:0|0:2|0:2|0:2|0:2|0:2|0:2|0:2|0:2,0:0:0:0:
104,122,854307,5,2,0:0:0:0:
164,90,854382,2,0,L|240:8,1,104.999996795654,8|0,0:0|0:0,0:0:0:0:
234,117,854682,2,0,L|333:65,1,104.999996795654,8|0,0:0|0:0,0:0:0:0:
291,166,854982,2,0,L|401:152,1,104.999996795654,8|0,0:0|0:0,0:0:0:0:
327,231,855282,2,0,L|436:255,1,104.999996795654,8|0,0:0|0:0,0:0:0:0:
339,305,855582,1,8,0:0:0:0:
427,361,855732,1,8,0:0:0:0:
202,221,855882,5,2,0:0:0:0:
202,221,855957,1,2,0:2:0:0:
202,221,856032,1,2,0:0:0:0:
326,111,856182,1,8,0:0:0:0:
415,55,856332,1,8,0:0:0:0:
202,221,856482,2,0,L|167:248,6,26.2499991989136,2|2|2|2|2|2|2,0:2|0:2|0:2|0:2|0:2|0:2|0:2,0:0:0:0:
295,266,856782,6,0,L|410:321,1,104.999996795654,8|0,0:0|0:0,0:0:0:0:
297,192,857082,2,0,L|412:247,1,104.999996795654,8|0,0:0|0:0,0:0:0:0:
299,118,857382,2,0,L|414:173,1,104.999996795654,8|0,0:0|0:0,0:0:0:0:
301,44,857682,2,0,L|416:99,1,104.999996795654,8|0,0:0|0:0,0:0:0:0:
236,80,857982,2,0,L|141:125,1,104.999996795654,8|0,0:0|0:0,0:0:0:0:
238,154,858282,1,8,0:0:0:0:
114,212,858432,1,8,0:0:0:0:
297,192,858582,6,0,L|435:258,1,131.25,2|0,0:0|0:0,0:0:0:0:
452,309,858882,1,2,0:0:0:0:
375,151,859032,1,2,0:0:0:0:
216,289,859182,6,0,P|136:328|48:317,1,175,8|10,0:2|0:2,0:0:0:0:
229,187,859632,2,0,P|309:148|397:159,1,175,8|10,0:2|0:2,0:0:0:0:
330,262,860082,1,0,0:0:0:0:
116,216,860232,1,0,0:0:0:0:
272,158,860382,5,2,0:0:0:0:
297,150,860457,1,0,0:0:0:0:
323,146,860532,1,2,0:0:0:0:
349,146,860607,1,0,0:0:0:0:
375,151,860682,1,8,0:2:0:0:
330,262,860832,5,2,0:0:0:0:
305,270,860907,1,0,0:0:0:0:
279,274,860982,1,2,0:0:0:0:
253,273,861057,1,0,0:0:0:0:
227,269,861132,1,8,0:2:0:0:
448,246,861282,5,10,0:2:0:0:
493,136,861432,1,10,0:2:0:0:
421,42,861582,6,0,L|315:59,1,104.999996795654,8|2,0:0|0:2,0:0:0:0:
365,106,861807,1,2,0:2:0:0:
413,154,861882,2,0,L|307:171,1,104.999996795654,8|2,0:0|0:2,0:0:0:0:
357,218,862107,1,2,0:2:0:0:
405,266,862182,2,0,L|299:283,1,104.999996795654,8|2,0:0|0:2,0:0:0:0:
238,309,862407,1,2,0:2:0:0:
177,341,862482,1,2,0:0:0:0:
309,170,862632,1,2,0:0:0:0:
172,91,862782,5,2,0:0:0:0:
147,80,862857,1,0,0:0:0:0:
122,75,862932,1,2,0:0:0:0:
96,74,863007,1,0,0:0:0:0:
70,78,863082,1,2,0:0:0:0:
108,176,863232,1,8,0:0:0:0:
172,259,863382,2,0,L|243:339,1,87.5,8|2,0:0|0:0,0:0:0:0:
124,316,863682,2,0,P|98:258|119:207,1,104.999996795654,8|8,0:2|0:2,0:0:0:0:
191,155,863982,6,0,L|237:57,1,104.999996795654,8|2,0:0|0:2,0:0:0:0:
283,38,864207,1,2,0:2:0:0:
297,88,864282,2,0,L|252:183,1,104.999996795654,8|2,0:0|0:2,0:0:0:0:
266,233,864507,1,2,0:2:0:0:
313,211,864582,2,0,L|358:116,1,104.999996795654,8|2,0:0|0:2,0:0:0:0:
405,94,864807,1,2,0:2:0:0:
419,144,864882,1,10,0:2:0:0:
341,281,865032,1,10,0:2:0:0:
256,343,865182,6,0,L|5:293,1,229.687502190471,8|0,0:0|0:0,0:0:0:0:
30,230,865482,6,0,L|280:180,1,229.687502190471,8|0,0:0|0:0,0:0:0:0:
255,117,865782,6,0,L|4:67,1,229.687502190471,8|0,0:0|0:0,0:0:0:0:
30,140,866082,6,0,L|142:162,1,98.4375037550928,8|0,0:0|0:0,0:0:0:0:
180,204,866382,6,0,L|246:293,1,104.999996795654,8|2,0:0|0:2,0:0:0:0:
276,247,866607,1,2,0:2:0:0:
291,196,866682,2,0,L|378:265,1,104.999996795654,8|2,0:0|0:2,0:0:0:0:
395,213,866907,1,2,0:2:0:0:
396,160,866982,2,0,L|498:204,1,104.999996795654,8|0,0:0|0:0,0:0:0:0:
432,79,867282,1,8,0:2:0:0:
276,101,867432,1,8,0:2:0:0:
203,241,867582,6,0,P|161:286|129:302,1,87.5,2|0,0:0|0:0,0:0:0:0:
96,312,867807,1,0,0:0:0:0:
52,304,867882,1,8,0:2:0:0:
106,201,868032,5,2,0:2:0:0:
134,168,868107,1,2,0:2:0:0:
163,135,868182,2,0,L|252:38,1,131.25000500679,2|0,0:0|0:0,0:0:0:0:
257,170,868482,1,4,0:0:0:0:
257,170,868632,1,4,0:0:0:0:
339,264,868782,6,0,L|422:312,1,87.5,8|2,0:0|0:0,0:0:0:0:
414,307,869007,1,2,0:0:0:0:
414,307,869082,1,2,0:0:0:0:
428,221,869232,2,0,L|345:173,1,87.5,8|2,0:0|0:0,0:0:0:0:
352,177,869457,1,2,0:0:0:0:
352,177,869532,5,10,0:0:0:0:
280,125,869682,1,8,0:0:0:0:
199,161,869832,1,8,0:0:0:0:
268,261,869982,5,4,0:3:0:0:
268,261,870132,1,4,0:3:0:0:
417,148,870282,5,10,0:0:0:0:
291,57,870432,1,8,0:0:0:0:
150,120,870582,2,0,P|139:170|200:151,2,131.25000500679,8|0|0,0:0|0:0|0:0,0:0:0:0:
440,68,871182,6,0,L|502:152,1,104.999996795654,8|0,0:0|0:0,0:0:0:0:
366,95,871482,2,0,L|428:179,1,104.999996795654,8|0,0:0|0:0,0:0:0:0:
292,122,871782,2,0,L|354:206,1,104.999996795654,8|0,0:0|0:0,0:0:0:0:
218,149,872082,2,0,L|280:233,1,104.999996795654,8|0,0:0|0:0,0:0:0:0:
147,169,872382,6,0,L|63:107,1,104.999996795654,8|0,0:0|0:0,0:0:0:0:
174,95,872682,2,0,L|90:33,1,104.999996795654,8|0,0:0|0:0,0:0:0:0:
201,21,872982,1,10,0:0:0:0:
334,210,873132,1,0,0:0:0:0:
12,153,873282,1,2,0:0:0:0:
145,343,873432,1,2,0:0:0:0:
334,210,873582,6,0,L|456:165,1,104.999996795654,10|0,0:0|0:0,0:0:0:0:
298,145,873882,2,0,L|396:108,1,104.999996795654,8|0,0:0|0:0,0:0:0:0:
262,80,874182,2,0,L|360:43,1,104.999996795654,8|0,0:0|0:0,0:0:0:0:
214,26,874482,1,2,0:0:0:0:
101,228,874632,1,2,0:0:0:0:
277,291,874782,5,0,0:0:0:0:
352,154,874932,1,2,0:0:0:0:
352,154,875007,1,8,0:1:0:0:
198,160,875157,1,2,0:0:0:0:
198,160,875232,1,8,0:1:0:0:
301,41,875382,2,0,P|363:34|430:61,1,104.999996795654
512,165,875682,1,0,0:0:0:0:
512,165,875832,1,0,0:0:0:0:
360,178,875982,6,0,L|396:276,1,104.999996795654,8|0,0:0|0:0,0:0:0:0:
295,214,876282,2,0,L|331:312,1,104.999996795654,8|0,0:0|0:0,0:0:0:0:
230,250,876582,2,0,L|266:348,1,104.999996795654,8|0,0:0|0:0,0:0:0:0:
165,286,876882,2,0,L|201:384,1,104.999996795654,8|0,0:0|0:0,0:0:0:0:
102,248,877182,5,8,0:0:0:0:
49,99,877332,1,8,0:0:0:0:
204,125,877482,2,0,L|311:60,1,104.999996795654,2|2,0:0|0:0,0:0:0:0:
363,213,877782,2,0,L|470:278,2,104.999996795654,8|2|8,0:0|0:0|0:0,0:0:0:0:
188,230,878382,5,10,0:2:0:0:
95,289,878532,1,0,0:2:0:0:
76,300,878607,1,0,0:0:0:0:
57,312,878682,1,2,0:2:0:0:
90,186,878832,2,0,P|137:140|180:132,1,87.5,10|0,0:2|0:0,0:0:0:0:
178,132,879057,1,0,0:0:0:0:
199,133,879132,1,2,0:2:0:0:
269,300,879282,5,2,0:0:0:0:
423,78,879432,1,2,0:0:0:0:
451,182,879582,5,10,0:2:0:0:
401,248,879732,1,2,0:2:0:0:
380,254,879807,1,0,0:0:0:0:
358,257,879882,1,2,0:2:0:0:
336,256,879957,1,0,0:0:0:0:
315,250,880032,1,2,0:2:0:0:
251,146,880182,1,2,0:2:0:0:
247,142,880257,1,0,0:0:0:0:
243,138,880332,1,2,0:2:0:0:
150,217,880482,1,14,0:2:0:0:
385,171,880782,6,0,L|486:130,1,104.999996795654,8|0,0:0|0:0,0:0:0:0:
273,156,881082,2,0,L|172:197,1,104.999996795654,8|0,0:0|0:0,0:0:0:0:
378,238,881382,2,0,L|486:253,1,104.999996795654,8|0,0:0|0:0,0:0:0:0:
288,169,881682,2,0,L|180:154,1,104.999996795654,8|0,0:0|0:0,0:0:0:0:
338,293,881982,2,0,L|424:360,1,104.999996795654,8|0,0:0|0:0,0:0:0:0:
295,188,882282,2,0,L|209:121,1,104.999996795654,8|0,0:0|0:0,0:0:0:0:
482,131,882582,1,10,0:0:0:0:
175,195,882732,1,10,0:0:0:0:
482,252,882882,1,10,0:0:0:0:
212,124,883032,1,10,0:0:0:0:
341,262,883182,6,0,L|423:358,1,104.999996795654,8|0,0:0|0:0,0:0:0:0:
328,188,883482,2,0,L|424:106,1,104.999996795654,8|0,0:0|0:0,0:0:0:0:
254,201,883782,2,0,L|172:105,1,104.999996795654,8|0,0:0|0:0,0:0:0:0:
187,343,884082,2,0,L|267:275,1,104.999996795654,8|0,0:0|0:0,0:0:0:0:
407,119,884382,5,2,0:0:0:0:
255,74,884532,1,0,0:0:0:0:
222,91,884607,1,2,0:0:0:0:
254,201,884757,1,0,0:0:0:0:
221,218,884832,1,2,0:0:0:0:
253,328,884982,5,2,0:0:0:0:
401,274,885132,1,2,0:0:0:0:
241,150,885282,5,8,0:2:0:0:
241,150,885432,1,8,0:2:0:0:
97,215,885582,6,0,P|126:286|183:328,1,104.999996795654,2|0,0:2|0:0,0:0:0:0:
179,330,885807,1,2,0:0:0:0:
218,343,885882,1,2,0:0:0:0:
218,238,886032,6,0,L|336:283,1,104.999996795654,2|0,0:2|0:0,0:0:0:0:
374,298,886257,1,2,0:0:0:0:
281,170,886482,6,0,L|399:215,1,104.999996795654,2|0,0:2|0:0,0:0:0:0:
437,230,886707,1,2,0:0:0:0:
450,169,886782,6,0,P|414:96|330:54,1,157.499995193482,8|8,0:2|0:2,0:0:0:0:
381,101,887082,2,0,P|299:95|221:147,1,157.499995193482,8|8,0:2|0:2,0:0:0:0:
288,127,887382,2,0,P|242:194|248:288,1,157.499995193482,8|8,0:2|0:2,0:0:0:0:
264,220,887682,2,0,P|270:244|282:269,6,52.4999983978272,2|0|2|0|2|0|2,0:2|0:0|0:2|0:0|0:2|0:0|0:2,0:0:0:0:
347,218,887982,6,0,P|365:281|336:332,1,104.999996795654,8|0,0:0|0:0,0:0:0:0:
306,344,888207,1,0,0:0:0:0:
253,341,888282,1,2,0:0:0:0:
241,224,888432,6,0,L|170:145,1,104.999996795654,8|0,0:0|0:0,0:0:0:0:
138,188,888657,1,0,0:0:0:0:
105,228,888732,2,0,L|34:149,1,104.999996795654,8|0,0:0|0:0,0:0:0:0:
102,68,889032,1,8,0:2:0:0:
206,62,889182,5,2,0:2:0:0:
230,72,889257,1,0,0:2:0:0:
254,83,889332,1,2,0:2:0:0:
278,93,889407,1,0,0:2:0:0:
302,104,889482,2,0,L|363:135,1,65.6250025033952
316,320,889782,5,0,0:0:0:0:
168,231,889932,2,0,L|131:227,3,21.875
194,205,890082,2,0,L|179:182,4,21.875
366,244,890382,6,0,L|494:289,1,113.749994792938,8|0,0:0|0:0,0:0:0:0:
146,140,890682,2,0,L|18:95,1,113.749994792938,8|0,0:0|0:0,0:0:0:0:
375,213,890982,2,0,L|510:224,1,113.749994792938,8|0,0:0|0:0,0:0:0:0:
136,170,891282,1,8,0:0:0:0:
377,182,891432,1,8,0:0:0:0:
134,201,891582,2,0,L|1:226,1,113.749994792938,8|0,0:0|0:0,0:0:0:0:
370,150,891882,2,0,L|492:92,1,113.749994792938,8|0,0:0|0:0,0:0:0:0:
141,233,892182,1,8,0:0:0:0:
356,122,892332,1,8,0:0:0:0:
155,261,892482,1,8,0:0:0:0:
334,99,892632,2,0,L|353:71,2,28.4374986982346,8|0|0,0:0|0:0|0:0,0:0:0:0:
176,284,892782,6,0,L|108:383,1,113.749994792938,2|0,0:0|0:0,0:0:0:0:
181,284,892982,2,0,L|113:382,1,113.749994792938,2|0,0:0|0:0,0:0:0:0:
186,284,893182,2,0,L|118:382,1,113.749994792938,2|0,0:0|0:0,0:0:0:0:
326,100,893432,5,8,0:0:0:0:
336,100,893632,1,8,0:0:0:0:
346,100,893832,1,8,0:0:0:0:
321,256,893982,5,2,0:0:0:0:
169,213,894132,1,2,0:0:0:0:
169,213,894207,1,0,0:0:0:0:
169,213,894282,1,2,0:0:0:0:
280,102,894432,1,0,0:0:0:0:
383,220,894582,2,0,P|371:306|276:313,1,157.499995193482,8|0,0:2|0:0,0:0:0:0:
267,322,894882,2,0,B|262:318|262:318|257:323|257:323|254:317|254:317|248:322|248:322|245:315|245:315|239:321|239:321|236:314|236:314|230:320|230:320|225:313|225:313|218:319|218:319|214:311|214:311|209:317|209:317|207:308|207:308|201:315|201:315|197:306|197:306|191:313|191:313|186:305|186:305|181:311|181:311|175:303|175:303|156:305,1,157.499995193482
258,232,895182,6,0,L|366:174,1,104.999996795654,8|0,0:0|0:0,0:0:0:0:
193,188,895482,2,0,L|282:104,1,104.999996795654,8|0,0:0|0:0,0:0:0:0:
119,162,895782,2,0,L|183:57,1,104.999996795654,8|0,0:0|0:0,0:0:0:0:
41,156,896082,2,0,L|76:38,1,104.999996795654,8|0,0:0|0:0,0:0:0:0:
130,252,896382,2,0,L|213:341,1,104.999996795654,8|0,0:0|0:0,0:0:0:0:
261,129,896682,1,10,0:0:0:0:
261,129,896832,1,10,0:0:0:0:
156,178,896982,2,0,L|260:242,1,104.999996795654,8|0,0:0|0:0,0:0:0:0:
161,99,897282,2,0,B|134:50,1,43.75,2|0,0:0|0:0,0:0:0:0:
168,96,897432,2,0,B|141:47,1,43.75,2|0,0:0|0:0,0:0:0:0:
261,129,897582,5,2,0:2:0:0:
297,142,897657,1,0,0:0:0:0:
327,167,897732,1,2,0:2:0:0:
345,202,897807,1,0,0:0:0:0:
349,241,897882,1,2,0:0:0:0:
245,233,898032,5,2,0:2:0:0:
248,271,898107,1,0,0:0:0:0:
266,306,898182,1,2,0:2:0:0:
296,332,898257,1,0,0:0:0:0:
333,345,898332,1,2,0:0:0:0:
442,308,898482,5,2,0:2:0:0:
458,272,898557,1,2,0:2:0:0:
462,233,898632,1,2,0:0:0:0:
349,241,898782,5,2,0:2:0:0:
311,229,898857,1,0,0:0:0:0:
274,217,898932,1,2,0:2:0:0:
236,205,899007,1,0,0:0:0:0:
199,193,899082,6,0,L|42:148,1,157.499995193482,8|0,0:2|0:0,0:0:0:0:
47,149,899382,1,8,0:2:0:0:
312,190,899532,2,0,L|470:236,1,157.499995193482,8|0,0:2|0:0,0:0:0:0:
464,234,899832,1,8,0:2:0:0:
268,117,899982,6,0,L|183:43,1,104.999996795654,8|8,0:0|0:2,0:0:0:0:
226,181,900282,2,0,L|141:107,1,104.999996795654,8|8,0:0|0:2,0:0:0:0:
305,185,900582,6,0,L|347:222,1,52.4999983978272,8|0,0:0|0:0,0:0:0:0:
384,253,900732,1,8,0:2:0:0:
263,249,900882,2,0,L|305:286,1,52.4999983978272,8|0,0:0|0:0,0:0:0:0:
342,317,901032,1,8,0:2:0:0:
187,278,901182,5,10,0:0:0:0:
161,270,901257,1,0,0:0:0:0:
136,263,901332,1,2,0:0:0:0:
116,128,901482,2,0,P|179:69|258:64,1,157.499995193482,8|0,0:0|0:0,0:0:0:0:
246,61,901782,1,8,0:2:0:0:
226,181,901932,1,8,0:2:0:0:
316,93,902082,5,10,0:0:0:0:
205,300,902232,1,10,0:0:0:0:
347,249,902382,5,10,0:2:0:0:
347,249,902457,1,2,0:2:0:0:
347,249,902532,1,2,0:2:0:0:
226,181,902682,1,10,0:2:0:0:
226,181,902757,1,2,0:2:0:0:
226,181,902832,1,2,0:2:0:0:
93,233,902982,1,10,0:2:0:0:
93,233,903057,1,2,0:2:0:0:
93,233,903132,1,2,0:2:0:0:
215,314,903282,1,8,0:0:0:0:
347,249,903432,5,2,0:0:0:0:
383,219,903507,1,2,0:0:0:0:
397,174,903582,2,0,P|366:95|237:73,1,223.125004255772,8|0,0:2|0:0,0:0:0:0:
126,67,903882,6,0,P|157:146|286:168,1,223.125004255772,8|0,0:2|0:0,0:0:0:0:
397,174,904182,6,0,P|366:95|237:73,1,223.125004255772,8|0,0:2|0:0,0:0:0:0:
126,67,904482,6,0,P|134:110|205:175,1,131.25000500679,2|8,0:0|0:0,0:0:0:0:
397,174,904932,1,8,0:0:0:0:
263,306,905082,5,2,0:0:0:0:
263,306,905157,1,0,0:0:0:0:
263,306,905232,1,2,0:0:0:0:
121,241,905382,2,0,P|163:184|220:166,1,104.999996795654,8|0,0:0|0:0,0:0:0:0:
397,174,905682,1,8,0:0:0:0:
397,174,905832,1,8,0:0:0:0:
263,78,905982,5,2,0:0:0:0:
263,78,906057,1,0,0:0:0:0:
263,78,906132,1,2,0:0:0:0:
115,210,906282,6,0,L|17:298,1,104.999996795654,8|0,0:0|0:0,0:0:0:0:
397,174,906582,2,0,L|495:86,1,104.999996795654,8|0,0:0|0:0,0:0:0:0:
311,270,906882,5,2,0:0:0:0:
292,288,906957,1,0,0:0:0:0:
270,302,907032,1,2,0:0:0:0:
245,311,907107,1,0,0:0:0:0:
219,314,907182,1,8,0:2:0:0:
122,226,907407,5,2,0:0:0:0:
67,164,907557,1,0,0:0:0:0:
67,164,907632,1,8,0:2:0:0:
205,159,907857,5,2,0:0:0:0:
272,222,908007,1,0,0:0:0:0:
272,222,908082,1,8,0:2:0:0:
292,136,908232,1,8,0:2:0:0:
402,162,908382,5,8,0:2:0:0:
402,162,908457,1,0,0:0:0:0:
383,250,908607,1,0,0:0:0:0:
383,250,908682,1,8,0:2:0:0:
303,313,908832,1,2,0:0:0:0:
215,310,908982,6,0,L|147:303,1,65.625,2|0,0:0|0:0,0:0:0:0:
102,258,909282,6,0,P|95:208|133:251,1,131.25000500679,2|2,0:2|0:2,0:0:0:0:
214,285,909582,5,8,0:0:0:0:
241,278,909657,1,0,0:0:0:0:
270,272,909732,1,0,0:0:0:0:
297,266,909807,1,0,0:0:0:0:
358,271,909882,5,10,0:0:0:0:
367,242,909957,1,0,0:0:0:0:
377,216,910032,1,0,0:0:0:0:
385,188,910107,1,0,0:0:0:0:
430,152,910182,5,10,0:0:0:0:
422,123,910257,1,0,0:0:0:0:
415,96,910332,1,0,0:0:0:0:
407,67,910407,1,0,0:0:0:0:
339,41,910482,6,0,L|289:11,1,43.75,8|0,0:0|0:0,0:0:0:0:
344,101,910632,2,0,L|397:121,1,43.75,8|0,0:0|0:0,0:0:0:0:
334,46,910782,2,0,L|275:35,1,43.75,8|0,0:0|0:0,0:0:0:0:
257,36,910932,5,0,0:0:0:0:
228,33,911007,1,0,0:0:0:0:
199,36,911082,1,8,0:0:0:0:
172,46,911157,1,0,0:0:0:0:
148,61,911232,1,0,0:0:0:0:
126,80,911307,1,0,0:0:0:0:
114,106,911382,6,0,L|81:170,1,43.75,8|0,0:0|0:0,0:0:0:0:
155,153,911532,2,0,L|140:222,1,43.75,8|0,0:0|0:0,0:0:0:0:
208,188,911682,2,0,L|212:260,3,43.75,8|0|0|0,0:0|0:0|0:0|0:0,0:0:0:0:
176,307,911982,5,8,0:0:0:0:
147,306,912057,1,0,0:0:0:0:
119,300,912132,1,0,0:0:0:0:
93,288,912207,1,0,0:0:0:0:
66,237,912282,6,0,L|19:188,1,43.75,8|0,0:0|0:0,0:0:0:0:
127,221,912432,2,0,L|174:270,1,43.75,8|0,0:0|0:0,0:0:0:0:
114,160,912582,5,8,0:0:0:0:
124,132,912657,1,0,0:0:0:0:
135,106,912732,1,0,0:0:0:0:
146,79,912807,1,0,0:0:0:0:
204,84,912882,5,8,0:0:0:0:
231,76,912957,1,0,0:0:0:0:
259,68,913032,1,0,0:0:0:0:
286,59,913107,1,0,0:0:0:0:
337,86,913182,6,0,L|413:113,1,43.75,8|0,0:0|0:0,0:0:0:0:
290,134,913332,2,0,L|214:162,1,43.75,8|0,0:0|0:0,0:0:0:0:
336,181,913482,2,0,L|412:208,3,43.75,8|0|0|0,0:0|0:0|0:0|0:0,0:0:0:0:
382,294,913782,5,10,0:0:0:0:
295,333,913857,1,2,0:0:0:0:
199,335,913932,1,2,0:0:0:0:
113,295,914007,1,2,0:0:0:0:
49,223,914082,1,2,0:0:0:0:
218,66,914382,5,8,0:0:0:0:
247,68,914457,1,0,0:0:0:0:
275,71,914532,1,0,0:0:0:0:
304,74,914607,1,0,0:0:0:0:
358,54,914682,5,8,0:0:0:0:
375,75,914757,1,0,0:0:0:0:
395,97,914832,1,0,0:0:0:0:
414,120,914907,1,0,0:0:0:0:
468,139,914982,5,8,0:0:0:0:
460,166,915057,1,0,0:0:0:0:
454,194,915132,1,0,0:0:0:0:
445,222,915207,1,0,0:0:0:0:
385,253,915282,6,0,L|340:283,1,43.75,8|0,0:0|0:0,0:0:0:0:
369,194,915432,2,0,L|418:172,1,43.75,8|0,0:0|0:0,0:0:0:0:
380,248,915582,2,0,L|327:260,1,43.75,8|0,0:0|0:0,0:0:0:0:
304,264,915732,5,0,0:0:0:0:
274,266,915807,1,0,0:0:0:0:
246,264,915882,1,8,0:0:0:0:
218,255,915957,1,0,0:0:0:0:
193,243,916032,1,0,0:0:0:0:
170,226,916107,1,0,0:0:0:0:
125,189,916182,6,0,L|57:163,1,43.75,8|0,0:0|0:0,0:0:0:0:
154,135,916332,2,0,L|114:82,1,43.75,8|0,0:0|0:0,0:0:0:0:
207,99,916482,2,0,L|199:33,3,43.75,8|0|0|0,0:0|0:0|0:0|0:0,0:0:0:0:
278,71,916782,5,8,0:0:0:0:
298,90,916857,1,0,0:0:0:0:
314,113,916932,1,0,0:0:0:0:
323,141,917007,1,0,0:0:0:0:
351,192,917082,6,0,L|391:223,1,43.75,8|0,0:0|0:0,0:0:0:0:
287,205,917232,2,0,L|248:173,1,43.75,8|0,0:0|0:0,0:0:0:0:
203,209,917382,5,8,0:0:0:0:
180,227,917457,1,0,0:0:0:0:
158,245,917532,1,0,0:0:0:0:
136,264,917607,1,0,0:0:0:0:
155,319,917682,5,8,0:0:0:0:
184,320,917757,1,0,0:0:0:0:
213,321,917832,1,0,0:0:0:0:
241,322,917907,1,0,0:0:0:0:
309,238,917982,6,0,L|369:214,1,52.4999983978272,2|0,0:2|0:0,0:0:0:0:
306,232,918132,2,0,L|366:208,1,52.4999983978272,2|0,0:2|0:0,0:0:0:0:
303,226,918282,2,0,L|363:202,1,52.4999983978272,2|0,0:2|0:0,0:0:0:0:
300,220,918432,2,0,L|360:196,1,52.4999983978272,2|0,0:2|0:0,0:0:0:0:
297,214,918582,2,0,L|357:190,1,52.4999983978272,2|0,0:2|0:0,0:0:0:0:
294,208,918732,2,0,L|354:184,1,52.4999983978272,2|0,0:2|0:0,0:0:0:0:
314,132,918882,2,0,P|223:176|220:233,1,148.750002837181,2|0,0:0|0:0,0:0:0:0:
358,282,919182,6,0,L|463:324,1,104.999996795654,8|0,0:0|0:0,0:0:0:0:
154,102,919482,2,0,L|49:60,1,104.999996795654,8|0,0:0|0:0,0:0:0:0:
358,102,919782,6,0,L|463:60,1,104.999996795654,8|0,0:0|0:0,0:0:0:0:
154,282,920082,2,0,L|49:324,1,104.999996795654,8|0,0:0|0:0,0:0:0:0:
389,165,920382,6,0,L|493:180,1,104.999996795654,8|0,0:0|0:0,0:0:0:0:
122,218,920682,2,0,L|18:203,1,104.999996795654,8|0,0:0|0:0,0:0:0:0:
358,282,920982,2,0,L|463:324,1,104.999996795654,8|0,0:0|0:0,0:0:0:0:
134,131,921282,5,4,0:0:0:0:
377,252,921432,1,4,0:0:0:0:
154,102,921582,2,0,L|49:60,1,104.999996795654,8|0,0:0|0:0,0:0:0:0:
358,282,921882,2,0,L|463:324,1,104.999996795654,8|0,0:0|0:0,0:0:0:0:
154,282,922182,6,0,L|49:324,1,104.999996795654,8|0,0:0|0:0,0:0:0:0:
358,102,922482,2,0,L|463:60,1,104.999996795654,8|0,0:0|0:0,0:0:0:0:
101,223,922782,5,8,0:0:0:0:
410,160,922932,1,8,0:0:0:0:
98,195,923082,1,8,0:0:0:0:
413,188,923232,1,8,0:0:0:0:
99,168,923382,1,8,0:0:0:0:
412,215,923532,1,8,0:0:0:0:
106,141,923682,6,0,L|46:117,1,65.6250025033952,2|0,0:0|0:0,0:0:0:0:
270,241,923982,6,0,L|310:359,1,104.999996795654,8|0,0:0|0:0,0:0:0:0:
353,224,924282,2,0,L|393:342,1,104.999996795654,8|0,0:0|0:0,0:0:0:0:
436,207,924582,2,0,P|401:153|341:140,1,104.999996795654,2|2,0:0|0:0,0:0:0:0:
142,258,924882,5,8,0:0:0:0:
164,80,925032,1,8,0:0:0:0:
187,258,925182,2,0,L|227:376,1,104.999996795654,8|0,0:0|0:0,0:0:0:0:
270,241,925482,2,0,L|310:359,1,104.999996795654,8|0,0:0|0:0,0:0:0:0:
353,224,925782,1,8,0:0:0:0:
386,323,925932,1,8,0:0:0:0:
436,207,926082,2,0,P|401:153|341:140,1,104.999996795654,2|2,0:0|0:0,0:0:0:0:
159,160,926382,6,0,L|119:42,1,104.999996795654,8|0,0:0|0:0,0:0:0:0:
230,151,926682,1,0,0:0:0:0:
264,315,926832,1,0,0:0:0:0:
242,143,926982,2,0,L|202:25,1,104.999996795654,8|0,0:0|0:0,0:0:0:0:
313,134,927282,1,0,0:0:0:0:
347,298,927432,1,0,0:0:0:0:
325,126,927582,2,0,L|285:8,2,104.999996795654,8|0|0,0:0|0:0|0:0,0:0:0:0:
360,164,928032,5,0,0:0:0:0:
392,198,928182,1,0,0:0:0:0:
420,228,928332,1,0,0:0:0:0:
444,254,928482,1,0,0:0:0:0:
465,276,928632,1,0,0:0:0:0:
298,298,928782,6,0,L|182:333,1,104.999996795654,4|0,0:1|0:0,0:0:0:0:
271,177,929082,2,0,L|387:142,1,104.999996795654,2|0,0:0|0:0,0:0:0:0:
281,299,929382,2,0,L|160:303,1,104.999996795654,2|0,0:0|0:0,0:0:0:0:
287,175,929682,2,0,L|408:171,1,104.999996795654,2|0,0:0|0:0,0:0:0:0:
163,272,929982,1,2,0:0:0:0:
163,272,930057,1,2,0:0:0:0:
163,272,930132,1,2,0:0:0:0:
303,178,930282,1,2,0:0:0:0:
405,202,930432,1,2,0:0:0:0:
265,296,930582,2,0,L|147:268,1,104.999996795654,8|0,0:2|0:0,0:0:0:0:
270,291,930882,2,0,L|152:263,1,104.999996795654,8|0,0:2|0:0,0:0:0:0:
170,125,931182,6,0,L|78:40,2,104.999996795654,8|0|0,0:0|0:0|0:0,0:0:0:0:
324,90,931632,1,0,0:0:0:0:
359,243,931782,1,8,0:0:0:0:
206,279,931932,1,0,0:0:0:0:
170,125,932082,2,0,L|78:40,1,104.999996795654,2|0,0:0|0:0,0:0:0:0:
324,90,932382,5,2,0:0:0:0:
476,128,932532,1,2,0:0:0:0:
319,100,932682,2,0,L|210:75,1,104.999996795654,2|0,0:0|0:0,0:0:0:0:
334,180,932982,2,0,L|225:155,1,104.999996795654,2|0,0:0|0:0,0:0:0:0:
387,132,933282,2,0,P|405:187|374:239,1,104.999996795654,2|0,0:2|0:0,0:0:0:0:
193,284,933582,6,0,L|302:309,1,104.999996795654,2|0,0:0|0:0,0:0:0:0:
259,154,933882,5,8,0:0:0:0:
196,70,934032,1,8,0:0:0:0:
193,284,934182,6,0,L|302:309,1,104.999996795654,2|0,0:0|0:0,0:0:0:0:
271,157,934482,5,8,0:0:0:0:
241,56,934632,1,8,0:0:0:0:
193,284,934782,6,0,L|302:309,1,69.9999978637696,2|0,0:0|2:0,0:0:0:0:
188,289,934932,2,0,L|297:314,1,69.9999978637696,2|0,0:0|2:0,0:0:0:0:
183,294,935082,2,0,L|292:319,1,69.9999978637696,2|0,0:0|2:0,0:0:0:0:
282,164,935382,5,2,0:0:0:0:
285,112,935457,1,0,0:0:0:0:
288,59,935532,1,2,0:0:0:0:
387,132,935682,2,0,B|387:130|419:162|399:212,1,69.9999978637696,8|0,0:2|2:0,0:0:0:0:
392,127,935832,2,0,B|392:125|424:157|404:207,1,69.9999978637696,8|0,0:2|2:0,0:0:0:0:
337,179,935982,6,0,L|239:239,1,104.999996795654,8|0,0:0|0:0,0:0:0:0:
186,122,936282,1,8,0:0:0:0:
156,314,936432,1,8,0:0:0:0:
91,231,936582,6,0,B|91:233|59:201|79:151,1,69.9999978637696,8|0,0:2|2:0,0:0:0:0:
86,236,936732,2,0,B|86:238|54:206|74:156,1,69.9999978637696,8|0,0:2|2:0,0:0:0:0:
143,183,936882,6,0,L|241:123,1,104.999996795654,8|0,0:0|0:0,0:0:0:0:
234,233,937182,1,2,0:0:0:0:
323,287,937332,1,2,0:0:0:0:
443,160,937482,1,2,0:2:0:0:
447,156,937557,1,2,0:2:0:0:
451,152,937632,1,2,0:2:0:0:
346,152,937782,6,0,P|334:98|285:59,1,104.999996795654,8|0,0:0|0:0,0:0:0:0:
232,128,938082,2,0,L|143:183,1,104.999996795654,2|0,0:2|0:0,0:0:0:0:
143,319,938382,1,0,0:0:0:0:
299,302,938532,1,0,0:0:0:0:
346,152,938682,1,2,0:2:0:0:
370,161,938757,1,2,0:2:0:0:
392,175,938832,1,2,0:2:0:0:
412,193,938907,1,2,0:2:0:0:
428,213,938982,1,2,0:2:0:0:
299,302,939132,5,8,0:0:0:0:
183,202,939282,1,4,0:0:0:0:
183,202,939432,1,4,0:0:0:0:
337,136,939582,1,2,0:0:0:0:
363,142,939657,1,2,0:0:0:0:
387,152,939732,1,2,0:0:0:0:
409,166,939807,1,2,0:0:0:0:
429,183,939882,6,0,L|526:258,1,104.999996795654,10|0,0:0|0:0,0:0:0:0:
82,200,940182,2,0,L|-14:126,1,104.999996795654,10|0,0:0|0:0,0:0:0:0:
214,158,940482,2,0,L|297:225,1,104.999996795654,10|0,0:2|0:0,0:0:0:0:
275,354,940782,5,8,0:0:0:0:
386,228,940932,1,8,0:0:0:0:
267,110,941082,1,10,0:0:0:0:
245,95,941157,1,2,0:0:0:0:
220,88,941232,1,2,0:0:0:0:
194,90,941307,1,2,0:0:0:0:
170,101,941382,1,2,0:2:0:0:
101,180,941532,6,0,L|31:265,1,104.999996795654,2|8,0:0|0:2,0:0:0:0:
157,287,941832,1,0,0:0:0:0:
310,143,941982,5,2,0:0:0:0:
310,143,942057,1,2,0:0:0:0:
310,143,942132,1,2,0:0:0:0:
102,177,942282,1,2,0:0:0:0:
102,177,942357,1,2,0:0:0:0:
102,177,942432,1,2,0:0:0:0:
243,331,942582,1,2,0:0:0:0:
243,331,942657,1,2,0:0:0:0:
243,331,942732,1,2,0:0:0:0:
91,166,942882,1,8,0:2:0:0:
299,132,943032,1,8,0:2:0:0:
388,261,943182,5,8,0:0:0:0:
388,261,943332,1,8,0:0:0:0:
289,297,943482,1,2,0:0:0:0:
252,310,943557,1,2,0:0:0:0:
213,318,943632,1,2,0:0:0:0:
174,318,943707,1,2,0:0:0:0:
135,312,943782,1,2,0:0:0:0:
199,199,943932,1,8,0:0:0:0:
127,122,944082,1,2,0:0:0:0:
109,102,944157,1,0,0:0:0:0:
91,83,944232,1,10,0:2:0:0:
325,60,944382,5,8,0:0:0:0:
325,60,944532,1,8,0:0:0:0:
361,159,944682,1,2,0:0:0:0:
374,195,944757,1,2,0:0:0:0:
382,234,944832,1,2,0:0:0:0:
382,273,944907,1,2,0:0:0:0:
376,312,944982,1,2,0:0:0:0:
263,249,945132,2,0,L|166:291,1,104.999996795654,8|8,0:0|0:2,0:0:0:0:
145,174,945432,1,8,0:0:0:0:
153,121,945507,1,8,0:0:0:0:
135,71,945582,5,8,0:0:0:0:
376,312,945732,1,2,0:0:0:0:
209,63,945882,5,8,0:0:0:0:
209,63,945957,1,0,0:0:0:0:
209,63,946032,1,0,0:0:0:0:
302,320,946182,1,2,0:0:0:0:
265,83,946332,5,8,0:0:0:0:
246,300,946482,1,0,0:0:0:0:
246,300,946557,1,0,0:0:0:0:
246,300,946632,1,2,0:0:0:0:
300,116,946782,5,0,0:0:0:0:
296,133,946857,1,0,0:0:0:0:
290,150,946932,1,0,0:0:0:0:
281,165,947007,1,0,0:0:0:0:
269,179,947082,1,0,0:0:0:0:
256,191,947157,1,0,0:0:0:0:
242,203,947232,1,0,0:0:0:0:
231,217,947307,1,0,0:0:0:0:
221,232,947382,1,0,0:0:0:0:
215,249,947457,1,0,0:0:0:0:
212,267,947532,1,0,0:0:0:0:
301,273,947682,5,10,0:2:0:0:
211,111,947832,1,10,0:2:0:0:
300,211,947982,6,0,L|412:239,1,109.375,8|0,0:0|0:0,0:0:0:0:
459,252,948207,1,0,0:0:0:0:
512,265,948282,1,8,0:2:0:0:
392,152,948432,1,0,0:0:0:0:
212,173,948582,6,0,L|100:145,1,109.375,8|0,0:0|0:0,0:0:0:0:
53,132,948807,1,0,0:0:0:0:
0,119,948882,1,8,0:2:0:0:
120,232,949032,1,0,0:0:0:0:
300,211,949182,6,0,L|412:239,1,109.375,8|0,0:0|0:0,0:0:0:0:
459,252,949407,1,0,0:0:0:0:
512,265,949482,1,8,0:2:0:0:
392,152,949632,1,0,0:0:0:0:
124,243,949782,5,8,0:0:0:0:
382,128,949932,1,0,0:0:0:0:
134,265,950082,1,8,0:2:0:0:
370,107,950232,1,0,0:0:0:0:
208,193,950382,6,0,L|94:215,1,109.375,8|0,0:0|0:0,0:0:0:0:
46,223,950607,1,0,0:0:0:0:
-7,236,950682,1,8,0:2:0:0:
149,285,950832,1,0,0:0:0:0:
304,191,950982,6,0,L|418:169,1,109.375,8|0,0:0|0:0,0:0:0:0:
466,161,951207,1,0,0:0:0:0:
519,148,951282,1,8,0:2:0:0:
363,99,951432,1,0,0:0:0:0:
208,193,951582,6,0,L|94:215,1,109.375,8|0,0:0|0:0,0:0:0:0:
154,159,951807,1,0,0:0:0:0:
213,208,951882,2,0,L|99:230,1,109.375,8|2,0:2|0:0,0:0:0:0:
87,280,952107,1,2,0:0:0:0:
126,317,952182,5,2,0:0:0:0:
255,293,952332,1,2,0:0:0:0:
363,99,952482,5,8,0:2:0:0:
154,159,952632,1,8,0:2:0:0:
317,193,952782,6,0,L|418:256,1,109.375,8|0,0:0|0:0,0:0:0:0:
455,282,953007,1,0,0:0:0:0:
499,314,953082,1,8,0:2:0:0:
335,309,953232,1,0,0:0:0:0:
195,191,953382,6,0,L|94:128,1,109.375,8|0,0:0|0:0,0:0:0:0:
57,102,953607,1,0,0:0:0:0:
13,70,953682,1,8,0:2:0:0:
177,75,953832,1,0,0:0:0:0:
314,208,953982,6,0,L|395:295,1,109.375,8|0,0:0|0:0,0:0:0:0:
424,330,954207,1,0,0:0:0:0:
459,372,954282,1,8,0:2:0:0:
302,325,954432,1,0,0:0:0:0:
197,175,954582,6,0,L|116:88,1,109.375,8|0,0:0|0:0,0:0:0:0:
87,53,954807,1,0,0:0:0:0:
52,11,954882,1,8,0:2:0:0:
209,58,955032,1,0,0:0:0:0:
239,250,955182,6,0,L|152:331,1,109.375,8|0,0:0|0:0,0:0:0:0:
272,133,955482,2,0,L|359:52,1,109.375,8|0,0:2|0:0,0:0:0:0:
190,255,955782,6,0,L|59:285,1,109.375,8|0,0:0|0:0,0:0:0:0:
321,128,956082,2,0,L|436:101,1,109.375,8|0,0:2|0:0,0:0:0:0:
138,221,956382,5,8,0:0:0:0:
33,189,956532,1,8,0:0:0:0:
373,162,956682,2,0,L|477:194,1,109.375,8|0,0:2|0:0,0:0:0:0:
190,255,956982,5,10,0:0:0:0:
163,261,957057,1,0,0:0:0:0:
136,267,957132,1,2,0:0:0:0:
110,274,957207,1,0,0:0:0:0:
83,280,957282,1,8,0:2:0:0:
321,128,957432,1,8,0:2:0:0:
148,221,957582,6,0,L|47:284,1,109.375,8|0,0:0|0:0,0:0:0:0:
13,314,957882,1,8,0:2:0:0:
177,309,958032,1,0,0:0:0:0:
364,163,958182,6,0,L|465:100,1,109.375,8|0,0:0|0:0,0:0:0:0:
499,70,958482,1,8,0:2:0:0:
335,75,958632,1,0,0:0:0:0:
144,192,958782,6,0,L|30:226,1,109.375,8|0,0:0|0:0,0:0:0:0:
0,246,959082,1,8,0:2:0:0:
149,284,959232,1,0,0:0:0:0:
367,191,959382,6,0,L|481:157,1,109.375,8|0,0:0|0:0,0:0:0:0:
512,137,959682,1,8,0:2:0:0:
362,99,959832,1,0,0:0:0:0:
147,163,959982,6,0,L|29:167,1,109.375,8|0,0:0|0:0,0:0:0:0:
189,231,960282,2,0,L|70:235,1,109.375,8|0,0:2|0:0,0:0:0:0:
364,220,960582,6,0,L|482:216,1,109.375,8|0,0:0|0:0,0:0:0:0:
323,153,960882,2,0,L|441:148,1,109.375,8|0,0:2|0:0,0:0:0:0:
159,136,961182,6,0,L|43:109,1,109.375,8|0,0:0|0:0,0:0:0:0:
0,106,961482,1,8,0:2:0:0:
117,218,961632,1,0,0:0:0:0:
352,247,961782,6,0,P|411:257|461:229,1,109.375,8|0,0:0|0:0,0:0:0:0:
394,165,962007,2,0,P|303:169|262:232,1,164.0625,2|0,0:0|0:0,0:0:0:0:
128,314,962382,5,8,0:0:0:0:
352,247,962532,1,8,0:0:0:0:
159,209,962682,2,0,L|46:186,1,109.375,8|0,0:2|0:0,0:0:0:0:
192,270,962982,5,8,0:0:0:0:
416,203,963132,1,8,0:0:0:0:
223,165,963282,2,0,L|194:159,4,27.34375,2|0|2|0|2,0:2|0:0|0:2|0:0|0:2,0:0:0:0:
476,162,963582,5,8,0:0:0:0:
283,124,963732,2,0,L|254:118,4,27.34375,2|0|2|0|2,0:2|0:0|0:2|0:0|0:2,0:0:0:0:
192,270,964032,5,8,0:0:0:0:
416,203,964182,1,8,0:0:0:0:
223,165,964332,2,0,L|194:159,8,27.34375,2|0|2|0|2|0|0|0|0,0:2|0:0|0:2|0:0|0:2|0:0|0:0|0:0|0:0,0:0:0:0:
279,224,964782,5,8,0:0:0:0:
332,286,964932,2,0,P|359:229|339:171,1,109.375,8|0,0:2|0:0,0:0:0:0:
196,159,965232,5,8,0:0:0:0:
143,97,965382,2,0,P|116:154|136:212,1,109.375,8|0,0:2|0:0,0:0:0:0:
332,286,965682,2,0,P|359:229|339:171,1,109.375,8|0,0:2|0:0,0:0:0:0:
219,85,965982,5,8,0:0:0:0:
438,329,966282,1,8,0:0:0:0:
110,304,966582,1,8,0:2:0:0:
95,289,966657,1,2,0:0:0:0:
83,272,966732,1,2,0:0:0:0:
73,254,966807,1,2,0:0:0:0:
66,235,966882,1,8,0:2:0:0:
61,215,966957,1,2,0:0:0:0:
60,195,967032,1,2,0:0:0:0:
61,174,967107,1,2,0:0:0:0:
65,154,967182,5,12,0:0:0:0:
