osu file format v14

[General]
AudioFilename: audio.mp3
AudioLeadIn: 0
PreviewTime: 2534303
Countdown: 1
SampleSet: Normal
StackLeniency: 0.7
Mode: 0
LetterboxInBreaks: 0
WidescreenStoryboard: 1

[Editor]
Bookmarks: 151200,280800,334800,376782,415182,453582,482382,549582,621600,756000,852000,967200,1020000,1142400,1201200,1341600,1447200,1585200,1796400,1917663,2097031,2242294,2355978,2436821,2535347,2712189,2803136
DistanceSpacing: 1.5
BeatDivisor: 4
GridSize: 4
TimelineZoom: 1.5

[Metadata]
Title:Largely-Unrelated-To-Trauma Mix Disc
TitleUnicode:Largely-Unrelated-To-Trauma Mix Disc
Artist:Various Artists
ArtistUnicode:Various Artists
Creator:Malikil
Version:DJ Technorch - Japanese Hardcore (Cardopusher Remix)
Source:
Tags:Lapfox Trax Renard
BeatmapID:2498293
BeatmapSetID:605704

[Difficulty]
HPDrainRate:6
CircleSize:4
OverallDifficulty:8
ApproachRate:9.3
SliderMultiplier:1.75
SliderTickRate:1

[Events]
//Background and Video events
0,0,"Largely-Unrelated-To-Trauma Mix Disc 1.jpg",0,0
//Break Periods
2,453782,462628
//Storyboard Layer 0 (Background)
//Storyboard Layer 1 (Fail)
//Storyboard Layer 2 (Pass)
//Storyboard Layer 3 (Foreground)
//Storyboard Layer 4 (Overlay)
//Storyboard Sound Samples

[TimingPoints]
26382,300,4,1,0,50,1,0
26382,-109.89010989011,4,1,0,50,0,0
64332,-200,4,1,0,50,0,0
64782,-86.9565217391304,4,1,0,50,0,1
68832,-200,4,1,0,50,0,1
69282,-86.9565217391304,4,1,0,50,0,1
71532,-100,4,1,0,50,0,1
71682,-86.9565217391304,4,1,0,50,0,1
78432,-200,4,1,0,50,0,1
78882,-86.9565217391304,4,1,0,50,0,1
81132,-100,4,1,0,50,0,1
81282,-86.9565217391304,4,1,0,50,0,1
83982,-111.111111111111,4,1,0,50,0,0
93582,-100,4,1,0,50,0,0
112782,-100,4,1,0,50,0,1
129882,-166.666666666667,4,1,0,50,0,1
130782,-100,4,1,0,50,0,1
131082,-117.647058823529,4,1,0,50,0,1
131382,-125,4,1,0,50,0,1
131607,-111.111111111111,4,1,0,50,0,1
131982,-100,4,1,0,50,0,1
151182,400,4,1,0,50,1,0
151182,-133.333333333333,4,1,0,50,0,0
160782,300,4,1,0,50,1,0
170382,-100,4,1,0,50,0,0
179982,-100,4,1,0,50,0,1
189582,-100,4,1,0,50,0,0
218382,600,4,1,0,50,1,0
236982,-66.6666666666667,4,1,0,50,0,0
237432,-111.111111111111,4,1,0,50,0,0
247182,300,4,1,0,50,1,0
247182,-111.111111111111,4,1,0,50,0,0
256782,-100,4,1,0,50,0,1
266382,-133.333333333333,4,1,0,50,0,0
280182,-200,4,1,0,50,0,0
280782,-100,4,1,0,50,0,0
335982,-100,4,3,0,50,0,0
336582,-100,4,3,0,65,0,0
337182,-100,4,3,0,80,0,0
337782,-100,4,3,0,95,0,0
338382,-117.647058823529,4,3,0,100,0,0
356382,-86.9565217391304,4,3,0,100,0,0
357582,-117.647058823529,4,3,0,100,0,0
357882,-117.647058823529,4,3,0,100,0,1
374382,-100,4,3,0,100,0,0
376782,-133.333333333333,4,3,0,100,0,0
382482,-625,4,3,0,100,0,0
383982,-133.333333333333,4,3,0,100,0,0
392082,-200,4,3,0,100,0,0
393582,-133.333333333333,4,3,0,100,0,0
404382,-100,4,3,0,100,0,0
405582,-133.333333333333,4,3,0,100,0,0
413982,-100,4,3,0,100,0,0
415182,-100,4,1,0,100,0,1
434382,-95.2380952380952,4,1,0,100,0,1
443982,-100,4,3,0,100,0,0
453582,-111.111111111111,4,1,0,100,0,0
463182,-133.333333333333,4,3,0,80,0,0
472782,-133.333333333333,4,3,0,100,0,0
476382,-250,4,3,0,100,0,0
477282,-200,4,3,0,100,0,0
477882,-133.333333333333,4,3,0,100,0,0
481182,-133.333333333333,4,1,0,100,0,0
482382,-117.647058823529,4,2,0,100,0,0
491982,-111.111111111111,4,1,0,100,0,0
501582,-105.263157894737,4,1,0,100,0,0
507582,-105.263157894737,4,3,0,100,0,0
509982,-105.263157894737,4,3,0,80,0,0
511182,-90.9090909090909,4,1,0,100,0,1
515682,-111.111111111111,4,1,0,100,0,1
515982,-90.9090909090909,4,1,0,100,0,1
525282,-111.111111111111,4,1,0,100,0,1
525582,-90.9090909090909,4,1,0,100,0,1
529182,-100,4,1,0,100,0,0
530382,-100,4,1,0,100,0,1
534882,-111.111111111111,4,1,0,100,0,1
535182,-100,4,1,0,100,0,1
544482,-111.111111111111,4,1,0,100,0,1
544782,-100,4,1,0,100,0,1
548382,-100,4,2,0,100,0,0
549582,-100,4,1,0,100,0,0
1796382,315.789473684211,4,1,0,50,1,0

[HitObjects]
344,96,376782,6,0,P|256:56|168:96,2,196.875007510186
344,96,377832,1,0,0:0:0:0:
168,288,379182,6,0,P|256:328|344:288,2,196.875007510186
208,164,380382,2,0,L|208:92,1,65.6250025033952
304,164,380832,2,0,L|304:92,1,65.6250025033952
256,236,381282,2,0,L|256:308,1,65.6250025033952
168,176,381582,2,0,P|256:136|344:176,1,196.875007510186
256,236,382482,6,0,B|256:240|256:240|252:244|252:244|260:248|260:248|252:252|252:252|260:256|260:256|252:260|252:260|260:264|260:264|252:268|252:268|260:272|260:272|252:276|252:276|260:280|260:280|256:284|256:284|256:304,1,112,0|0,0:0|2:0,0:0:0:0:
344,176,383982,6,0,P|256:136|168:176,2,196.875007510186
312,304,385182,2,0,L|284:228,1,65.6250025033952
156,240,385632,2,0,L|232:212,1,65.6250025033952
232,88,386082,2,0,L|260:164,1,65.6250025033952
326,178,386382,2,0,L|528:104,1,196.875007510186
448,276,388782,6,0,L|256:328,1,196.875007510186
64,276,389682,2,0,L|256:328,1,196.875007510186
256,192,390582,1,0,0:0:0:0:
256,108,390882,5,2,0:0:0:0:
224,72,391032,1,2,0:0:0:0:
176,64,391182,2,0,P|128:108|128:244,1,196.875007510186
336,64,392082,2,0,P|384:108|364:288,1,262.5,0|0,0:0|2:0,0:0:0:0:
256,352,393582,6,0,L|256:156,1,196.875007510186
256,155,394182,1,0,0:0:0:0:
140,280,394482,2,0,L|140:84,1,196.875007510186
292,116,395232,1,0,0:0:0:0:
360,140,395382,2,0,L|360:272,1,131.25
244,308,395982,6,0,L|192:356,2,65.6250025033952,2|0|0,0:0|0:0|0:0,0:0:0:0:
244,236,396432,1,0,0:0:0:0:
188,184,396582,2,0,P|248:160|316:208,1,131.25000500679,8|2,0:1|0:0,0:0:0:0:
352,244,397032,1,0,1:0:0:0:
376,176,397182,2,0,L|408:152,2,32.8125012516976,0|0|2,1:0|0:0|0:3,0:0:0:0:
316,140,397482,1,0,0:0:0:0:
252,112,397632,1,0,0:0:0:0:
180,100,397782,6,0,P|120:96|64:140,1,131.25000500679,8|0,0:1|0:0,0:0:0:0:
64,208,398232,1,0,0:0:0:0:
112,264,398382,2,0,L|136:336,1,65.6250025033952,2|0,0:0|0:0,0:0:0:0:
192,264,398682,2,0,L|260:300,1,65.6250025033952,2|0,0:0|0:0,0:0:0:0:
260,216,398982,1,8,0:1:0:0:
384,272,399282,5,0,0:0:0:0:
408,200,399432,1,0,0:0:0:0:
404,128,399582,2,0,L|448:64,2,65.6250025033952,0|2|0,0:0|0:0|0:0,0:0:0:0:
340,164,400032,1,0,0:0:0:0:
292,220,400182,2,0,P|224:256|164:244,1,131.25000500679,8|2,0:1|0:0,0:0:0:0:
120,200,400632,1,0,1:0:0:0:
156,136,400782,2,0,L|112:68,2,65.6250025033952,2|0|0,0:0|0:0|0:0,0:0:0:0:
200,196,401232,2,0,L|235:251,1,65.6250025033952,2|8,0:0|0:1,0:0:0:0:
368,260,401682,5,0,0:0:0:0:
408,200,401832,1,0,0:0:0:0:
452,144,401982,2,0,L|492:80,2,65.6250025033952,2|0|2,0:0|0:0|0:0,0:0:0:0:
400,88,402432,1,0,0:0:0:0:
344,140,402582,2,0,L|304:76,1,65.6250025033952,8|0,0:1|0:0,0:0:0:0:
272,160,402882,2,0,L|198:143,1,65.6250025033952,8|0,0:1|1:0,0:0:0:0:
160,208,403182,2,0,L|312:244,1,131.25000500679,2|2,0:0|0:0,0:0:0:0:
356,264,403632,1,0,0:0:0:0:
424,236,403782,1,8,0:1:0:0:
356,124,404082,5,0,0:0:0:0:
296,168,404232,1,0,0:0:0:0:
191,168,404382,6,0,L|87:168,1,87.5,2|8,1:3|0:2,0:0:0:0:
103,168,404682,1,8,0:0:0:0:
321,216,404832,2,0,L|425:216,1,87.5,2|8,1:3|0:2,0:0:0:0:
408,216,405132,1,8,0:0:0:0:
192,264,405282,2,0,L|88:264,1,87.5,2|8,1:3|0:2,0:0:0:0:
322,315,405582,6,0,L|426:195,1,131.25000500679,0|2,1:0|0:0,0:0:0:0:
408,148,406032,1,0,0:0:0:0:
408,80,406182,1,8,0:1:0:0:
256,192,406482,5,0,0:0:0:0:
256,192,406632,1,2,0:0:0:0:
200,248,406782,2,0,L|168:280,2,32.8125012516976,2|0|2,0:0|0:0|0:2,0:0:0:0:
180,172,407082,1,2,0:0:0:0:
235,115,407232,1,2,0:0:0:0:
311,135,407382,2,0,L|375:155,1,65.6250025033952,8|2,0:1|0:0,0:0:0:0:
328,219,407682,2,0,L|392:239,1,65.6250025033952,8|2,1:0|0:0,0:0:0:0:
347,304,407982,2,0,L|205:260,1,131.25000500679,0|2,1:0|1:3,0:0:0:0:
148,236,408432,1,0,0:0:0:0:
76,208,408582,1,8,0:1:0:0:
160,76,408882,5,0,0:0:0:0:
136,152,409032,1,0,0:0:0:0:
212,132,409182,2,0,L|264:76,2,65.6250025033952,0|2|2,1:0|1:3|0:2,0:0:0:0:
192,208,409632,1,2,0:0:0:0:
272,196,409782,2,0,L|356:156,1,65.6250025033952,8|0,0:1|0:0,0:0:0:0:
336,248,410082,2,0,L|428:240,1,65.6250025033952,8|0,0:1|0:0,0:0:0:0:
464,196,410382,2,0,P|440:152|348:104,1,131.25000500679,2|2,1:3|0:0,0:0:0:0:
296,128,410832,1,0,0:0:0:0:
352,184,410982,1,8,0:1:0:0:
196,216,411282,5,0,0:0:0:0:
256,268,411432,1,0,0:0:0:0:
336,264,411582,2,0,L|372:304,2,32.8125012516976
284,204,411882,1,0,0:1:0:0:
232,144,412032,1,2,0:0:0:0:
152,136,412182,2,0,L|88:120,1,65.6250025033952,8|0,0:1|0:0,0:0:0:0:
196,80,412482,2,0,L|172:16,1,65.6250025033952,8|0,3:1|0:0,0:0:0:0:
272,80,412782,2,0,P|344:116|372:172,1,131.25000500679,2|2,0:0|1:2,0:0:0:0:
352,236,413232,1,0,0:0:0:0:
292,288,413382,1,8,0:1:0:0:
176,180,413682,5,0,0:0:0:0:
176,101,413832,1,0,0:0:0:0:
232,257,413982,6,0,L|232:361,1,87.5,2|8,1:3|0:2,0:0:0:0:
232,345,414282,1,8,0:0:0:0:
280,127,414432,2,0,L|280:23,1,87.5,2|8,1:3|0:2,0:0:0:0:
280,40,414732,1,8,0:0:0:0:
328,256,414882,5,2,0:3:0:0:
328,277,414957,1,2,0:3:0:0:
328,299,415032,1,2,0:3:0:0:
328,321,415107,1,2,0:3:0:0:
328,343,415182,2,0,P|380:360|448:272,2,175,10|0|10,0:2|0:0|0:2,0:0:0:0:
324,132,416082,5,0,0:0:0:0:
256,52,416232,1,0,0:0:0:0:
188,132,416382,2,0,P|156:200|96:240,2,131.25,8|0|0,0:2|0:0|0:0,0:0:0:0:
324,176,416982,2,0,L|448:176,1,87.5,8|0,0:3|2:0,0:0:0:0:
68,176,417282,2,0,P|40:236|128:304,1,175,8|8,0:3|0:0,0:0:0:0:
240,312,417732,5,0,0:0:0:0:
301,250,417882,1,8,3:0:0:0:
239,188,418032,1,0,0:0:0:0:
177,249,418182,1,10,0:2:0:0:
177,249,418332,1,2,0:3:0:0:
328,160,418482,1,2,0:2:0:0:
328,160,418632,1,2,0:3:0:0:
380,332,418782,2,0,P|468:304|480:200,1,175,8|2,0:0|0:3,0:0:0:0:
428,68,419232,5,2,0:3:0:0:
400,240,419382,1,2,0:3:0:0:
200,68,419532,1,2,0:3:0:0:
320,252,419682,1,2,0:3:0:0:
82,137,419832,1,2,0:3:0:0:
248,280,419982,5,8,0:0:0:0:
340,328,420132,1,2,0:2:0:0:
400,240,420282,2,0,L|440:152,1,87.5,0|0,0:0|2:0,0:0:0:0:
332,168,420582,2,0,P|244:128|144:164,1,175,10|0,0:2|0:0,0:0:0:0:
196,248,421032,1,0,0:0:0:0:
300,256,421182,2,0,P|380:240|416:184,2,131.25,8|0|0,0:2|0:0|0:0,0:0:0:0:
208,140,421782,6,0,L|152:68,1,87.5,8|0,0:3|3:0,0:0:0:0:
308,120,422082,2,0,P|360:80|476:104,1,175,8|8,0:3|0:0,0:0:0:0:
400,176,422532,1,0,0:0:0:0:
320,240,422682,2,0,L|240:300,1,87.5,2|0,0:2|0:0,0:0:0:0:
124,200,422982,5,10,0:2:0:0:
124,200,423132,1,2,0:2:0:0:
248,100,423282,1,2,0:3:0:0:
248,100,423432,1,2,0:2:0:0:
320,240,423582,2,0,P|404:300|480:268,1,175,8|2,0:0|0:3,0:0:0:0:
416,112,424032,1,2,0:3:0:0:
180,228,424182,6,0,L|100:188,1,87.5,8|2,0:3|2:3,0:0:0:0:
332,156,424482,2,0,L|412:196,1,87.5,8|2,0:3|2:3,0:0:0:0:
180,320,424782,5,12,0:0:0:0:
96,296,424932,2,0,P|40:272|16:224,1,87.5
8,164,425232,1,2,0:2:0:0:
104,124,425382,1,10,0:2:0:0:
182,54,425532,1,2,0:3:0:0:
203,156,425682,2,0,P|230:204|350:224,1,175,2|8,0:3|0:2,0:0:0:0:
320,116,426132,1,2,1:3:0:0:
398,46,426282,1,2,1:3:0:0:
420,148,426432,1,2,0:3:0:0:
256,292,426582,6,0,L|184:348,1,87.5,8|0,0:3|2:0,0:0:0:0:
132,136,426882,2,0,L|204:80,1,87.5,8|0,0:3|2:0,0:0:0:0:
320,136,427182,6,0,L|416:68,2,87.5,8|2|0,0:0|3:0|0:0,0:0:0:0:
212,212,427632,1,2,0:3:0:0:
96,148,427782,2,0,L|0:80,1,87.5,10|0,0:2|0:0,0:0:0:0:
140,36,428082,1,0,0:0:0:0:
272,36,428232,1,0,0:0:0:0:
212,152,428382,2,0,L|212:244,1,87.5,8|0,0:0|0:0,0:0:0:0:
372,312,428682,5,2,0:2:0:0:
372,312,428832,1,2,0:3:0:0:
356,136,428982,1,10,0:2:0:0:
356,136,429132,1,2,0:3:0:0:
212,239,429282,2,0,B|206:239|206:239|203:242|203:242|197:237|197:237|192:243|192:243|186:238|186:238|181:245|181:245|175:240|175:240|170:246|170:246|163:241|163:241|158:247|158:247|152:242|152:242|150:245|150:245|144:246,1,87.5,4|0,0:2|0:0,0:0:0:0:
76,136,429582,5,8,0:0:0:0:
196,88,429732,2,0,P|248:96|372:64,1,175
380,200,430182,2,0,P|297:226|224:220,2,131.25,10|2|0,0:2|0:3|0:0,0:0:0:0:
424,324,430782,1,8,0:0:0:0:
296,348,430932,1,0,0:0:0:0:
204,252,431082,1,0,0:0:0:0:
332,228,431232,1,2,0:2:0:0:
236,136,431382,2,0,L|200:32,1,87.5,8|0,0:3|0:0,0:0:0:0:
68,184,431682,2,0,L|96:266,1,87.5,8|0,0:3|0:0,0:0:0:0:
212,324,431982,5,8,0:0:0:0:
308,272,432132,1,0,0:0:0:0:
404,220,432282,2,0,P|396:168|360:120,1,87.5,0|0,0:0|2:0,0:0:0:0:
256,88,432582,1,10,0:2:0:0:
144,156,432732,1,0,0:0:0:0:
268,192,432882,1,0,0:0:0:0:
156,256,433032,1,0,0:0:0:0:
248,348,433182,1,8,0:0:0:0:
368,296,433332,1,0,0:0:0:0:
400,148,433482,5,0,0:0:0:0:
400,148,433632,1,0,0:0:0:0:
228,108,433782,2,0,L|128:144,1,87.5,8|0,0:3|0:0,0:0:0:0:
328,256,434082,2,0,L|245:285,1,87.5,8|0,0:3|0:0,0:0:0:0:
108,264,434382,5,8,0:0:0:0:
12,164,434532,1,0,0:0:0:0:
76,44,434682,2,0,P|180:52|228:112,1,183.749994392395,0|10,0:0|3:2,0:0:0:0:
272,240,435132,1,2,0:3:0:0:
344,124,435282,1,2,0:3:0:0:
400,252,435432,1,2,0:3:0:0:
304,352,435582,2,0,P|224:352|180:308,2,137.812495794296,8|2|2,0:0|0:3|0:2,0:0:0:0:
416,160,436182,6,0,P|448:120|456:72,1,91.8749971961976,8|2,0:3|0:3,0:0:0:0:
272,76,436482,2,0,P|240:116|232:164,1,91.8749971961976,8|2,0:3|2:3,0:0:0:0:
183,315,436782,6,0,P|103:315|75:291,1,91.8749971961976,8|2,0:0|0:3,0:0:0:0:
52,180,437082,1,0,0:0:0:0:
168,108,437232,1,0,0:0:0:0:
264,204,437382,1,8,0:2:0:0:
264,204,437532,1,2,0:3:0:0:
404,88,437682,1,8,0:2:0:0:
404,88,437832,1,2,0:3:0:0:
440,268,437982,2,0,P|400:316|344:336,1,91.8749971961976,8|2,0:3|2:3,0:0:0:0:
151,281,438282,5,2,0:3:0:0:
360,102,438432,1,2,0:3:0:0:
180,200,438582,2,0,L|96:144,1,91.8749971961976,8|0,0:3|0:0,0:0:0:0:
332,184,438882,2,0,L|416:240,1,91.8749971961976,8|0,0:3|0:0,0:0:0:0:
256,272,439182,5,12,0:0:0:0:
256,136,439332,1,2,0:3:0:0:
140,64,439482,2,0,P|64:112|56:148,1,91.8749971961976,2|0,0:3|0:0,0:0:0:0:
172,196,439782,2,0,P|152:304|204:368,1,183.749994392395,10|0,0:2|0:0,0:0:0:0:
300,272,440232,1,0,0:0:0:0:
400,176,440382,2,0,L|500:80,2,137.812495794296,8|2|2,0:0|0:3|0:2,0:0:0:0:
264,160,440982,6,0,L|176:88,1,91.8749971961976,8|2,0:3|3:0,0:0:0:0:
28,184,441282,2,0,L|116:256,1,91.8749971961976,8|0,0:3|2:0,0:0:0:0:
272,308,441582,5,8,0:0:0:0:
408,296,441732,1,2,3:0:0:0:
324,188,441882,1,2,3:0:0:0:
440,112,442032,1,2,3:0:0:0:
288,56,442182,1,8,0:2:0:0:
288,56,442332,1,2,0:3:0:0:
104,88,442482,1,8,0:2:0:0:
104,88,442632,1,2,0:3:0:0:
84,272,442782,2,0,P|128:308|192:312,1,91.8749971961976,8|0,0:3|0:0,0:0:0:0:
300,296,443082,5,8,0:2:0:0:
212,88,443232,1,8,0:2:0:0:
161,315,443382,1,8,0:0:0:0:
351,69,443532,1,2,0:3:0:0:
224,260,443682,1,8,0:0:0:0:
472,144,443832,1,2,0:3:0:0:
387,296,443982,6,0,L|279:296,1,87.5,2|0,0:0|0:0,0:0:0:0:
299,296,444282,1,2,0:0:0:0:
200,208,444432,2,0,L|308:208,1,87.5,2|0,0:0|0:0,0:0:0:0:
287,208,444732,1,2,0:0:0:0:
388,124,444882,1,2,0:0:0:0:
264,80,445032,1,2,0:0:0:0:
116,208,445182,5,2,0:0:0:0:
116,208,445332,1,2,0:0:0:0:
228,280,445482,2,0,L|212:372,1,87.5,8|0,0:2|0:0,0:0:0:0:
308,248,445782,2,0,L|340:335,1,87.5,8|0,0:2|0:0,0:0:0:0:
360,180,446082,2,0,L|431:239,1,87.5,8|0,0:2|0:0,0:0:0:0:
384,44,446382,5,2,0:0:0:0:
124,88,446532,1,0,0:0:0:0:
384,208,446682,1,8,0:2:0:0:
124,164,446832,1,0,0:0:0:0:
383,126,446982,5,2,0:0:0:0:
142,235,447132,1,0,0:0:0:0:
425,284,447282,1,8,0:2:0:0:
162,308,447432,1,0,0:0:0:0:
256,64,447582,5,2,0:0:0:0:
256,64,447732,1,2,0:0:0:0:
148,216,447882,2,0,L|216:296,1,87.5,8|0,0:2|0:0,0:0:0:0:
256,260,448107,1,0,0:0:0:0:
304,288,448182,2,0,L|360:221,1,87.5
256,176,448482,1,8,0:2:0:0:
256,64,448632,1,2,0:0:0:0:
152,204,448782,6,0,L|96:284,1,87.5,8|0,0:0|0:0,0:0:0:0:
101,275,449082,1,2,0:0:0:0:
276,256,449232,2,0,L|250:350,1,87.5,8|0,0:0|0:0,0:0:0:0:
253,340,449532,1,2,0:0:0:0:
408,256,449682,2,0,L|416:353,1,87.5,8|0,0:0|0:0,0:0:0:0:
484,232,449982,5,10,0:0:0:0:
452,104,450132,1,2,0:2:0:0:
328,64,450282,1,10,0:2:0:0:
204,100,450432,1,2,0:2:0:0:
452,104,450582,5,2,0:0:0:0:
416,248,450732,1,2,0:0:0:0:
276,293,450882,1,2,0:0:0:0:
137,253,451032,1,2,0:0:0:0:
280,136,451182,6,0,L|360:56,1,87.5,8|0,0:0|0:0,0:0:0:0:
384,80,451407,1,2,0:0:0:0:
420,104,451482,1,10,0:1:0:0:
400,232,451632,1,8,0:0:0:0:
392,276,451707,1,2,0:0:0:0:
368,312,451782,1,2,0:0:0:0:
332,340,451857,1,2,0:0:0:0:
288,348,451932,2,2,L|180:348,1,87.5
160,336,452157,1,2,0:0:0:0:
124,308,452232,1,2,0:0:0:0:
100,272,452307,1,2,0:0:0:0:
92,228,452382,5,8,0:0:0:0:
104,140,452532,1,8,0:0:0:0:
180,96,452682,2,0,L|280:72,1,87.5,8|2,0:1|0:0,0:0:0:0:
236,204,452982,1,8,0:0:0:0:
320,184,453132,2,0,L|420:160,1,87.5,8|2,0:1|0:0,0:0:0:0:
376,292,453432,1,8,0:0:0:0:
224,328,453582,5,4,0:0:0:0:
224,328,463182,6,0,P|155:320|105:262,1,131.25000500679,2|0,0:3|0:0,0:0:0:0:
96,147,463782,1,2,0:3:0:0:
148,99,463932,2,0,P|207:65|273:85,1,131.25000500679
324,119,464382,1,2,0:3:0:0:
188,160,464682,6,0,P|252:158|299:201,1,131.25000500679,0|2,0:0|0:3,0:0:0:0:
331,265,465132,2,0,P|378:308|442:306,1,131.25000500679
491,255,465582,1,2,0:3:0:0:
450,119,465882,1,0,0:0:0:0:
352,222,466182,1,2,0:3:0:0:
302,273,466332,2,0,P|255:296|175:266,1,131.25000500679
134,221,466782,5,2,3:0:0:0:
184,88,467082,1,0,0:0:0:0:
284,188,467382,1,2,0:3:0:0:
350,163,467532,1,0,0:0:0:0:
389,222,467682,2,0,P|372:261|288:301,1,131.25000500679,0|4,1:0|0:2,0:0:0:0:
155,311,468282,5,0,0:0:0:0:
76,192,468582,1,2,0:3:0:0:
110,130,468732,2,0,P|151:98|240:95,1,131.25000500679
289,126,469182,1,2,0:3:0:0:
424,85,469482,6,0,P|423:130|379:210,1,131.25000500679,0|2,0:0|0:3,0:0:0:0:
313,196,469932,2,0,P|280:227|192:252,1,131.25000500679
166,189,470382,1,2,0:3:0:0:
50,271,470682,1,0,0:0:0:0:
182,321,470982,1,2,0:3:0:0:
252,312,471132,2,0,P|322:279|365:237,1,131.25000500679
389,177,471582,5,2,3:0:0:0:
269,100,471882,1,0,0:0:0:0:
211,229,472182,1,2,0:3:0:0:
177,291,472332,1,0,0:0:0:0:
115,256,472482,1,0,1:0:0:0:
145,85,472782,6,0,L|145:38,16,32.8125012516976,4|0|0|0|0|0|0|0|0|0|0|0|0|0|0|0|2,1:0|2:0|2:0|2:0|2:0|2:0|2:0|2:0|2:0|2:0|2:0|2:0|2:0|2:0|2:0|2:0|2:0,2:0:0:0:
142,216,474282,6,0,P|184:264|262:289,1,131.25000500679,0|2,0:0|0:0,0:0:0:0:
330,298,474732,1,0,0:0:0:0:
279,137,475032,1,0,0:0:0:0:
355,98,475182,2,0,P|365:139|311:216,1,131.25000500679
159,281,475782,1,0,0:0:0:0:
111,210,475932,1,0,0:0:0:0:
223,81,476232,1,0,0:0:0:0:
292,77,476382,6,0,L|357:118,1,70,0|0,1:0|2:0,0:0:0:0:
275,158,476832,2,0,L|340:199,1,70,0|0,1:0|2:0,0:0:0:0:
265,249,477282,2,0,L|350:303,1,87.5,0|4,1:0|2:0,0:0:0:0:
465,181,477882,5,2,0:0:0:0:
318,94,478182,1,2,0:0:0:0:
240,59,478332,2,0,P|177:63|116:119,1,131.25000500679
105,186,478782,1,2,0:0:0:0:
161,250,478932,1,0,0:0:0:0:
161,250,479007,1,0,0:0:0:0:
161,250,479082,2,0,L|228:242,1,65.6250025033952,2|0,0:0|0:0,0:0:0:0:
281,163,479382,6,0,L|364:178,1,65.6250025033952,2|0,0:0|0:0,0:0:0:0:
338,259,479682,2,0,L|402:313,1,65.6250025033952,2|0,0:0|0:0,0:0:0:0:
443,235,479982,1,8,0:0:0:0:
449,224,480057,1,0,0:0:0:0:
454,213,480132,1,0,0:0:0:0:
457,201,480207,1,0,0:0:0:0:
460,189,480282,1,2,0:0:0:0:
461,177,480357,1,0,0:0:0:0:
460,164,480432,1,0,0:0:0:0:
459,152,480507,1,0,0:0:0:0:
456,140,480582,5,8,0:0:0:0:
452,128,480657,1,0,0:0:0:0:
446,117,480732,1,0,0:0:0:0:
440,107,480807,1,0,0:0:0:0:
432,97,480882,1,2,0:0:0:0:
424,89,480957,1,0,0:0:0:0:
414,81,481032,1,0,0:0:0:0:
404,74,481107,1,0,0:0:0:0:
393,69,481182,5,8,0:3:0:0:
295,53,481332,1,0,0:0:0:0:
232,168,481482,5,2,0:3:0:0:
354,84,481632,1,0,0:0:0:0:
392,277,481782,5,8,0:3:0:0:
262,108,481932,1,0,0:0:0:0:
174,355,482082,5,2,0:3:0:0:
369,154,482232,1,0,0:0:0:0:
468,264,482382,5,6,0:0:0:0:
419,320,482532,1,0,0:0:0:0:
352,353,482682,2,0,P|292:360|261:348,1,74.3750014185906,0|0,0:0|3:0,0:0:0:0:
226,310,482982,2,0,L|234:235,1,74.3750014185906
241,162,483282,1,0,0:0:0:0:
330,229,483432,1,0,0:0:0:0:
409,103,483732,1,0,0:0:0:0:
330,229,484032,5,0,0:0:0:0:
282,172,484182,2,0,P|232:152|153:211,1,148.750002837181
263,303,484782,6,0,L|339:303,1,74.3750014185906
330,229,485082,2,0,L|254:229,1,74.3750014185906
217,164,485382,1,0,0:0:0:0:
254,99,485532,1,0,0:0:0:0:
326,82,485682,1,0,0:0:0:0:
384,128,485832,5,0,0:0:0:0:
282,236,486132,1,0,0:0:0:0:
384,128,486432,1,0,0:0:0:0:
458,132,486582,2,0,P|399:201|334:184,1,148.750002837181
226,110,487182,6,0,L|143:140,1,74.3750014185906
199,195,487482,2,0,L|291:224,1,74.3750014185906
297,147,487782,2,0,L|366:121,2,74.3750014185906
269,217,488232,1,0,0:0:0:0:
163,112,488532,6,0,P|118:158|121:239,1,148.750002837181
172,291,488982,1,0,0:0:0:0:
258,170,489282,1,0,0:0:0:0:
394,111,489582,5,0,0:0:0:0:
458,148,489732,1,0,0:0:0:0:
456,222,489882,2,0,L|508:289,2,74.3750014185906
394,185,490332,1,0,0:0:0:0:
330,146,490482,5,0,0:0:0:0:
279,200,490632,1,0,0:0:0:0:
133,168,490932,1,0,0:0:0:0:
313,237,491232,5,2,0:0:0:0:
338,144,491382,1,2,0:0:0:0:
270,75,491532,1,2,0:0:0:0:
177,100,491682,1,2,0:0:0:0:
152,194,491832,1,2,0:0:0:0:
220,262,491982,5,2,0:3:0:0:
368,315,492282,1,0,0:0:0:0:
349,158,492582,1,0,0:0:0:0:
292,102,492732,1,0,3:0:0:0:
213,101,492882,1,2,2:0:0:0:
264,180,493032,5,2,3:0:0:0:
150,330,493332,1,2,3:0:0:0:
31,226,493632,2,0,L|38:144,1,78.7499975967408,2|0,3:0|0:0,0:0:0:0:
164,53,494082,1,0,0:0:0:0:
204,205,494382,6,0,L|221:287,1,78.7499975967408,0|0,0:0|3:0,0:0:0:0:
285,238,494682,2,0,L|315:316,1,78.7499975967408,0|0,0:0|3:0,0:0:0:0:
376,264,494982,1,0,0:0:0:0:
399,188,495132,1,0,3:0:0:0:
377,112,495282,1,2,2:0:0:0:
308,73,495432,5,2,3:0:0:0:
211,197,495732,1,2,3:0:0:0:
347,276,496032,2,0,L|422:313,2,78.7499975967408,2|0|0,3:0|0:0|3:0,0:0:0:0:
268,276,496482,2,0,L|193:313,1,78.7499975967408,0|0,0:0|3:0,0:0:0:0:
119,318,496782,5,0,0:0:0:0:
68,280,496932,1,0,3:0:0:0:
56,218,497082,2,0,P|82:140|167:127,1,157.499995193482
134,200,497532,5,0,3:0:0:0:
195,249,497682,2,0,L|277:266,1,78.7499975967408,2|2,2:0|3:0,0:0:0:0:
405,181,498132,1,2,3:0:0:0:
273,93,498432,1,2,3:0:0:0:
247,167,498582,5,0,0:0:0:0:
405,181,498882,1,0,0:0:0:0:
273,93,499182,6,0,P|191:110|171:180,1,157.499995193482
187,249,499632,1,0,3:0:0:0:
255,278,499782,2,0,L|343:305,2,78.7499975967408,0|0|2,0:0|3:0|2:0,0:0:0:0:
188,320,500232,1,2,3:0:0:0:
30,325,500532,1,2,3:0:0:0:
62,170,500832,5,2,3:2:0:0:
137,78,500982,1,2,2:0:0:0:
252,52,501132,1,2,2:0:0:0:
361,97,501282,1,2,2:0:0:0:
420,199,501432,1,2,2:0:0:0:
328,337,501582,5,8,0:0:0:0:
179,261,501882,1,8,0:0:0:0:
256,113,502182,2,0,L|328:64,1,83.1249977803231,8|0,0:0|0:0,0:0:0:0:
381,126,502482,1,8,0:0:0:0:
320,182,502632,2,2,P|392:209|461:143,2,166.249995560646,2|2|2,0:2|0:3|0:3,2:0:0:0:
237,194,503382,5,8,0:0:0:0:
144,277,503607,1,0,0:0:0:0:
144,277,503682,1,8,0:0:0:0:
76,228,503832,1,0,0:0:0:0:
100,148,503982,6,0,P|138:107|260:106,1,166.249995560646,8|8,0:0|0:0,0:0:0:0:
303,155,504432,1,0,0:0:0:0:
222,174,504582,2,0,L|156:229,2,83.1249977803231,8|0|8,0:0|0:0|0:0,0:0:0:0:
289,125,505032,5,2,0:2:0:0:
363,273,505332,1,2,0:2:0:0:
196,272,505632,1,2,0:2:0:0:
119,195,505782,5,8,0:0:0:0:
171,100,505932,1,0,0:0:0:0:
257,165,506082,1,8,0:0:0:0:
345,102,506232,1,0,0:0:0:0:
389,218,506382,5,8,0:0:0:0:
328,274,506532,1,0,0:0:0:0:
262,325,506682,2,0,P|260:225|314:193,1,166.249995560646,8|8,0:0|0:0,0:0:0:0:
389,218,507132,1,0,0:0:0:0:
367,137,507282,2,0,P|323:114|256:131,1,83.1249977803231,8|0,0:0|0:0,0:0:0:0:
216,152,507582,5,8,0:1:0:0:
167,219,507732,1,2,0:0:0:0:
179,301,507882,1,8,0:1:0:0:
246,351,508032,1,2,0:0:0:0:
328,338,508182,1,8,0:1:0:0:
377,272,508332,1,2,0:0:0:0:
365,189,508482,1,8,0:1:0:0:
298,140,508632,1,2,0:0:0:0:
231,189,508782,5,8,0:1:0:0:
211,201,508857,1,2,0:0:0:0:
188,210,508932,1,2,0:0:0:0:
165,213,509007,1,2,0:0:0:0:
141,212,509082,1,8,0:1:0:0:
119,206,509157,1,2,0:0:0:0:
97,195,509232,1,2,0:0:0:0:
79,180,509307,1,2,0:0:0:0:
50,150,509382,6,0,L|19:112,7,41.5624988901615,8|2|2|2|8|2|2|2,0:1|0:0|0:0|0:0|0:1|0:0|0:0|0:0,0:0:0:0:
99,122,509982,2,0,L|114:93,30,20.7812494450808
125,190,511182,6,0,L|225:230,1,96.250002937317,8|0,0:3|0:0,0:0:0:0:
314,267,511482,1,0,0:0:0:0:
291,163,511632,2,0,L|391:203,1,96.250002937317,8|0,0:3|0:0,0:0:0:0:
480,240,511932,1,0,0:0:0:0:
463,135,512082,5,8,0:3:0:0:
418,116,512157,1,0,0:0:0:0:
373,98,512232,1,0,0:0:0:0:
329,80,512307,1,0,0:0:0:0:
284,62,512382,5,8,0:3:0:0:
159,134,512532,1,0,0:0:0:0:
284,206,512682,2,0,L|374:149,1,96.250002937317,8|2,3:2|3:2,3:0:0:0:
233,95,512982,5,0,0:0:0:0:
107,167,513132,1,0,0:0:0:0:
232,239,513282,2,0,L|322:182,1,96.250002937317,8|2,3:2|3:2,3:0:0:0:
181,127,513582,5,2,0:3:0:0:
32,167,513732,1,2,0:3:0:0:
25,319,513882,1,2,0:3:0:0:
168,375,514032,1,2,0:3:0:0:
276,263,514182,2,0,L|363:201,2,96.250002937317
153,248,514632,1,0,0:0:0:0:
220,120,514782,5,2,0:3:0:0:
361,146,514932,1,0,0:0:0:0:
276,263,515082,1,2,0:3:0:0:
220,120,515232,5,2,0:3:0:0:
178,143,515307,1,0,0:0:0:0:
146,178,515382,1,0,0:0:0:0:
127,222,515457,1,0,0:0:0:0:
123,270,515532,1,2,0:3:0:0:
175,329,515682,6,0,L|294:352,1,118.124996395111,8|0,0:2|2:0,0:0:0:0:
357,322,515982,6,0,L|399:215,1,96.250002937317,8|2,0:3|0:3,0:0:0:0:
427,142,516282,1,8,0:0:0:0:
302,258,516432,2,0,L|344:151,1,96.250002937317,8|2,0:3|0:3,0:0:0:0:
372,78,516732,1,8,0:0:0:0:
247,194,516882,2,0,L|289:87,1,96.250002937317,8|2,0:3|0:3,0:0:0:0:
169,47,517182,5,10,0:3:0:0:
71,125,517332,1,2,0:3:0:0:
196,129,517482,1,2,0:3:0:0:
99,208,517632,1,2,0:3:0:0:
176,329,517782,5,2,0:2:0:0:
320,329,517932,1,2,0:2:0:0:
422,226,518082,1,2,0:2:0:0:
422,81,518232,1,2,0:2:0:0:
291,49,518382,5,8,0:3:0:0:
224,118,518532,1,2,0:3:0:0:
192,154,518607,1,2,0:3:0:0:
159,190,518682,1,8,0:0:0:0:
284,178,518832,1,2,0:3:0:0:
253,215,518907,1,2,0:3:0:0:
221,251,518982,1,0,0:0:0:0:
190,288,519057,1,0,0:0:0:0:
158,324,519132,1,8,0:0:0:0:
71,284,519282,6,0,P|44:229|62:137,1,144.375004405975,2|2,0:3|0:3,0:0:0:0:
109,101,519582,5,0,0:0:0:0:
233,48,519732,1,0,0:0:0:0:
217,182,519882,1,2,0:2:0:0:
164,58,520032,5,0,0:0:0:0:
298,74,520182,1,0,0:0:0:0:
217,182,520332,1,2,0:2:0:0:
93,257,520482,5,0,0:0:0:0:
124,292,520557,1,0,0:0:0:0:
166,317,520632,1,0,0:0:0:0:
212,327,520707,1,0,0:0:0:0:
260,322,520782,6,0,L|358:276,1,96.250002937317,8|0,0:3|0:0,0:0:0:0:
365,176,521082,1,2,0:3:0:0:
231,252,521232,2,0,L|267:150,1,96.250002937317,8|0,0:3|0:0,0:0:0:0:
203,75,521532,1,2,0:3:0:0:
94,170,521682,1,8,0:3:0:0:
161,297,521832,1,8,0:3:0:0:
351,297,521982,5,8,0:3:0:0:
418,170,522132,1,0,0:0:0:0:
275,149,522282,2,0,L|220:238,1,96.250002937317,2|0,0:3|0:0,0:0:0:0:
368,223,522582,5,8,0:3:0:0:
435,96,522732,1,0,0:0:0:0:
292,76,522882,2,0,L|237:165,1,96.250002937317,2|0,0:3|0:0,0:0:0:0:
152,271,523182,5,10,0:3:0:0:
62,157,523332,1,2,0:3:0:0:
195,211,523482,1,2,0:3:0:0:
105,97,523632,1,2,0:3:0:0:
248,80,523782,6,2,P|341:83|380:102,1,96.250002937317,8|2,0:2|0:3,0:2:0:0:
241,157,524082,2,2,P|334:160|373:179,1,96.250002937317,8|0,0:2|0:3,0:2:0:0:
454,245,524382,5,8,0:3:0:0:
326,312,524532,1,2,0:3:0:0:
186,312,524682,1,2,0:3:0:0:
58,245,524832,1,10,0:3:0:0:
55,209,524907,1,2,0:3:0:0:
68,175,524982,1,0,0:0:0:0:
94,150,525057,1,0,0:0:0:0:
127,138,525132,1,2,0:2:0:0:
188,240,525282,6,0,L|312:240,1,118.124996395111,8|0,3:0|2:0,3:0:0:0:
368,201,525582,6,0,L|434:126,1,96.250002937317,8|0,0:3|0:0,0:0:0:0:
256,84,525882,1,8,0:0:0:0:
144,201,526032,2,0,L|78:126,1,96.250002937317,8|0,0:3|0:0,0:0:0:0:
256,84,526332,1,8,0:2:0:0:
256,180,526482,2,0,L|256:276,1,96.250002937317,8|8,0:3|0:2,0:0:0:0:
392,324,526782,5,8,0:3:0:0:
452,248,526932,1,0,0:0:0:0:
436,152,527082,1,2,0:3:0:0:
360,92,527232,1,0,0:0:0:0:
256,252,527382,5,2,0:2:0:0:
92,212,527532,1,0,0:3:0:0:
236,124,527682,1,2,0:3:0:0:
72,80,527832,1,0,0:3:0:0:
24,248,527982,5,8,0:3:0:0:
120,316,528132,1,2,0:3:0:0:
166,302,528207,1,2,0:3:0:0:
212,288,528282,1,10,0:0:0:0:
216,172,528432,1,0,0:0:0:0:
262,159,528507,1,0,0:0:0:0:
309,147,528582,1,2,0:3:0:0:
355,135,528657,1,2,0:3:0:0:
402,122,528732,1,10,0:0:0:0:
468,220,528882,5,2,0:3:0:0:
433,229,528957,1,2,0:3:0:0:
398,238,529032,1,0,0:0:0:0:
363,248,529107,1,0,0:0:0:0:
328,257,529182,2,0,L|235:281,1,87.5,8|0,0:3|0:0,0:0:0:0:
64,88,529482,2,0,L|156:63,1,87.5,8|0,0:3|0:0,0:0:0:0:
60,288,529782,5,4,0:3:0:0:
452,96,530082,5,4,0:3:0:0:
368,248,530232,5,8,0:0:0:0:
273,291,530382,2,0,L|193:328,1,87.5,2|0,0:2|0:0,0:0:0:0:
204,240,530682,1,8,0:0:0:0:
276,192,530832,2,0,L|196:155,1,87.5,2|0,0:2|0:0,0:0:0:0:
272,108,531132,1,8,0:0:0:0:
356,132,531282,1,2,0:3:0:0:
384,165,531357,1,0,0:0:0:0:
412,198,531432,1,0,0:0:0:0:
312,284,531582,5,8,0:3:0:0:
180,284,531732,1,0,0:0:0:0:
240,168,531882,2,0,L|332:148,1,87.5,2|0,0:3|0:0,0:0:0:0:
247,259,532182,5,8,0:3:0:0:
132,192,532332,1,0,0:0:0:0:
242,122,532482,2,0,L|331:150,1,87.5,2|0,0:3|0:0,0:0:0:0:
436,220,532782,6,0,L|504:152,1,87.5,2|2,0:3|0:2,0:0:0:0:
400,120,533082,2,0,L|468:52,1,87.5,2|2,0:3|0:2,0:0:0:0:
316,56,533382,1,2,0:3:0:0:
316,56,533457,1,0,0:0:0:0:
316,56,533532,1,2,0:2:0:0:
212,64,533682,2,0,P|152:96|124:136,1,87.5,2|0,0:3|0:0,0:0:0:0:
228,208,533982,6,0,L|264:288,2,87.5,8|0|2,0:2|0:0|0:3,0:0:0:0:
280,136,534432,1,8,0:2:0:0:
312,138,534507,1,0,0:0:0:0:
342,152,534582,1,2,0:3:0:0:
365,175,534657,1,0,0:0:0:0:
380,204,534732,1,8,0:2:0:0:
380,292,534882,2,0,P|356:340|300:372,1,118.124996395111,8|0,0:2|2:0,0:0:0:0:
236,372,535182,6,0,L|128:344,1,87.5,8|0,0:3|0:0,0:0:0:0:
68,320,535482,1,2,0:3:0:0:
136,268,535632,2,0,L|79:171,1,87.5,8|0,0:3|0:0,0:0:0:0:
53,112,535932,1,2,0:3:0:0:
140,124,536082,2,0,L|168:16,1,87.5,8|0,0:3|0:0,0:0:0:0:
256,84,536382,5,8,0:3:0:0:
360,108,536532,1,0,0:0:0:0:
444,172,536682,1,2,0:3:0:0:
496,264,536832,1,0,0:0:0:0:
332,200,536982,5,2,0:3:0:0:
192,152,537132,1,2,0:3:0:0:
60,220,537282,1,2,0:3:0:0:
40,368,537432,1,2,0:3:0:0:
204,308,537582,5,8,0:3:0:0:
272,196,537732,1,2,0:3:0:0:
272,196,537807,1,2,0:3:0:0:
272,196,537882,1,8,0:2:0:0:
348,304,538032,1,8,0:3:0:0:
370,266,538107,1,0,0:0:0:0:
393,229,538182,1,2,0:3:0:0:
416,192,538257,1,2,0:3:0:0:
439,154,538332,1,8,0:2:0:0:
420,68,538482,6,0,P|368:48|288:56,1,131.25,8|0,0:3|0:0,0:0:0:0:
256,76,538782,1,0,0:0:0:0:
188,128,538932,1,0,0:0:0:0:
144,204,539082,1,2,0:2:0:0:
139,225,539157,1,2,0:2:0:0:
134,246,539232,1,2,0:2:0:0:
130,268,539307,1,2,0:2:0:0:
125,289,539382,1,2,0:2:0:0:
256,276,539532,5,8,0:2:0:0:
368,340,539682,1,2,0:3:0:0:
397,307,539757,1,2,0:3:0:0:
414,267,539832,1,2,0:3:0:0:
417,224,539907,1,2,0:3:0:0:
405,182,539982,6,0,L|364:88,1,87.5,8|0,0:3|0:0,0:0:0:0:
296,148,540282,1,2,0:3:0:0:
272,232,540432,2,0,L|307:312,2,87.5,8|0|0,0:3|0:0|0:0,0:0:0:0:
216,164,540882,1,8,0:3:0:0:
132,140,541032,1,0,0:3:0:0:
68,256,541182,5,10,0:3:0:0:
200,252,541332,1,0,0:0:0:0:
132,140,541482,2,0,L|216:64,1,87.5,2|0,0:2|3:0,0:0:0:0:
152,204,541782,5,2,0:3:0:0:
277,244,541932,1,0,0:0:0:0:
251,115,542082,2,0,L|355:72,1,87.5,2|0,0:2|3:0,0:0:0:0:
432,168,542382,5,8,0:3:0:0:
392,276,542532,1,0,0:0:0:0:
284,308,542682,1,8,0:0:0:0:
296,196,542832,1,8,0:3:0:0:
253,186,542907,1,0,0:0:0:0:
210,177,542982,1,2,0:3:0:0:
167,167,543057,1,0,0:0:0:0:
125,158,543132,1,8,0:0:0:0:
100,268,543282,6,0,L|168:352,1,87.5,8|0,0:3|0:0,0:0:0:0:
268,312,543582,1,8,0:2:0:0:
368,260,543732,1,8,0:2:0:0:
268,204,543882,1,2,0:3:0:0:
297,190,543957,1,2,0:3:0:0:
327,176,544032,1,2,0:3:0:0:
357,162,544107,1,2,0:3:0:0:
387,149,544182,1,8,0:0:0:0:
296,80,544332,1,8,0:0:0:0:
188,112,544482,2,0,P|148:160|140:224,1,118.124996395111,8|0,0:3|0:0,0:0:0:0:
176,268,544782,6,0,L|264:328,1,87.5,8|0,0:3|0:0,0:0:0:0:
372,192,545082,1,8,0:0:0:0:
176,116,545232,2,0,L|264:56,1,87.5,8|0,0:3|0:0,0:0:0:0:
372,192,545532,1,8,0:0:0:0:
335,317,545682,2,0,L|231:317,1,87.5,8|0,0:3|0:0,0:0:0:0:
140,244,545982,5,8,0:2:0:0:
116,160,546132,1,0,0:0:0:0:
144,76,546282,1,8,0:2:0:0:
224,36,546432,1,0,0:0:0:0:
244,164,546582,5,2,0:3:0:0:
370,130,546732,1,2,0:3:0:0:
404,256,546882,1,2,0:3:0:0:
277,290,547032,1,2,0:3:0:0:
152,256,547182,5,8,0:2:0:0:
126,235,547257,1,0,0:0:0:0:
101,214,547332,1,0,0:0:0:0:
75,193,547407,1,0,0:0:0:0:
50,173,547482,1,10,0:0:0:0:
176,136,547632,5,8,0:2:0:0:
201,156,547707,1,0,0:0:0:0:
226,177,547782,1,0,0:0:0:0:
252,198,547857,1,0,0:0:0:0:
277,218,547932,1,10,0:0:0:0:
404,188,548082,5,8,0:2:0:0:
378,167,548157,1,0,0:0:0:0:
353,146,548232,1,0,0:0:0:0:
327,125,548307,1,0,0:0:0:0:
256,192,548382,12,0,549582,0:0:0:0:
