osu file format v14

[General]
AudioFilename: audio.mp3
AudioLeadIn: 0
PreviewTime: 2534303
Countdown: 1
SampleSet: Normal
StackLeniency: 0.7
Mode: 0
LetterboxInBreaks: 0
WidescreenStoryboard: 1

[Editor]
Bookmarks: 151200,280800,334800,376797,415197,453597,549600,621600,756000,852000,967200,1020000,1142400,1201200,1341600,1447200,1585200,1796400,1917663,2097031,2242294,2355978,2436821,2535347,2712189,2803136
DistanceSpacing: 1
BeatDivisor: 4
GridSize: 4
TimelineZoom: 1.2

[Metadata]
Title:Largely-Unrelated-To-Trauma Mix Disc
TitleUnicode:Largely-Unrelated-To-Trauma Mix Disc
Artist:Various Artists
ArtistUnicode:Various Artists
Creator:Malikil
Version:Cardopusher - Travestieten Transsexuelen Over The Rainbow
Source:
Tags:Lapfox Trax Renard
BeatmapID:1601927
BeatmapSetID:605704

[Difficulty]
HPDrainRate:6
CircleSize:4
OverallDifficulty:8
ApproachRate:9.3
SliderMultiplier:1.75
SliderTickRate:1

[Events]
//Background and Video events
0,0,"Largely-Unrelated-To-Trauma Mix Disc 1.jpg",0,0
//Break Periods
//Storyboard Layer 0 (Background)
//Storyboard Layer 1 (Fail)
//Storyboard Layer 2 (Pass)
//Storyboard Layer 3 (Foreground)
//Storyboard Layer 4 (Overlay)
//Storyboard Sound Samples

[TimingPoints]
26382,300,4,1,0,50,1,0
26382,-109.89010989011,4,1,0,50,0,0
64332,-200,4,1,0,50,0,0
64782,-86.9565217391304,4,1,0,50,0,1
68832,-200,4,1,0,50,0,1
69282,-86.9565217391304,4,1,0,50,0,1
71532,-100,4,1,0,50,0,1
71682,-86.9565217391304,4,1,0,50,0,1
78432,-200,4,1,0,50,0,1
78882,-86.9565217391304,4,1,0,50,0,1
81132,-100,4,1,0,50,0,1
81282,-86.9565217391304,4,1,0,50,0,1
83982,-111.111111111111,4,1,0,50,0,0
93582,-100,4,1,0,50,0,0
112782,-100,4,1,0,50,0,1
129882,-166.666666666667,4,1,0,50,0,1
130782,-100,4,1,0,50,0,1
131082,-117.647058823529,4,1,0,50,0,1
131382,-125,4,1,0,50,0,1
131607,-111.111111111111,4,1,0,50,0,1
131982,-100,4,1,0,50,0,1
151182,400,4,1,0,50,1,0
151182,-133.333333333333,4,1,0,50,0,0
160782,300,4,1,0,50,1,0
170382,-100,4,1,0,50,0,0
179982,-100,4,1,0,50,0,1
189582,-100,4,1,0,50,0,0
218382,600,4,1,0,50,1,0
236982,-66.6666666666667,4,1,0,50,0,0
237432,-111.111111111111,4,1,0,50,0,0
247182,300,4,1,0,50,1,0
247182,-111.111111111111,4,1,0,50,0,0
256782,-100,4,1,0,50,0,1
266382,-133.333333333333,4,1,0,50,0,0
280182,-200,4,1,0,50,0,0
280782,-100,4,1,0,50,0,0
335982,-100,4,3,0,50,0,0
336582,-100,4,3,0,65,0,0
337182,-100,4,3,0,80,0,0
337782,-100,4,3,0,95,0,0
338382,-117.647058823529,4,3,0,100,0,0
356382,-86.9565217391304,4,3,0,100,0,0
357582,-117.647058823529,4,3,0,100,0,0
357882,-117.647058823529,4,3,0,100,0,1
374382,-100,4,3,0,100,0,0
376782,-133.333333333333,4,3,0,100,0,0
382482,-625,4,3,0,100,0,0
383982,-133.333333333333,4,3,0,100,0,0
392082,-200,4,3,0,100,0,0
393582,-133.333333333333,4,3,0,100,0,0
404382,-100,4,3,0,100,0,0
405582,-133.333333333333,4,3,0,100,0,0
1796382,315.789473684211,4,1,0,50,1,0

[HitObjects]
144,123,151182,5,0,0:0:0:0:
120,192,151382,2,0,P|112:228|120:260,1,65.6250025033952
164,312,151782,1,0,0:0:0:0:
236,328,151982,2,0,P|288:328|324:312,1,65.6250025033952
320,256,152382,1,0,0:0:0:0:
340,188,152582,1,0,0:0:0:0:
336,116,152782,2,0,P|364:84|400:76,2,65.6250025033952
272,152,153382,2,0,P|220:184|136:176,1,131.25000500679
128,116,153982,2,0,L|208:88,1,65.6250025033952
284,60,154382,5,0,0:0:0:0:
356,68,154582,1,0,0:0:0:0:
404,124,154782,2,0,P|424:176|416:212,1,65.6250025033952
384,244,155182,1,0,0:0:0:0:
320,168,155382,1,0,0:0:0:0:
268,216,155582,1,0,0:0:0:0:
244,284,155782,1,0,0:0:0:0:
196,336,155982,2,0,P|144:300|112:216,1,131.25000500679
124,160,156582,5,0,0:0:0:0:
176,108,156782,1,0,0:0:0:0:
248,104,156982,1,0,0:0:0:0:
292,164,157182,2,0,P|352:148|420:80,1,131.25000500679
452,160,157782,2,0,P|388:216|320:240,1,131.25000500679
264,212,158382,6,0,P|224:256|256:340,1,131.25000500679
292,280,158982,1,0,0:0:0:0:
348,324,159182,1,0,0:0:0:0:
356,252,159382,1,0,0:0:0:0:
332,156,159582,6,0,P|372:112|340:28,1,131.25000500679
304,88,160182,1,0,0:0:0:0:
228,52,160382,1,0,0:0:0:0:
160,104,160582,1,0,0:0:0:0:
152,244,160782,6,0,P|196:288|316:280,1,175
400,324,161232,1,0,0:0:0:0:
476,252,161382,2,0,P|424:192|320:188,1,175
288,184,161757,1,0,0:0:0:0:
244,180,161832,1,0,0:0:0:0:
208,156,161907,1,0,0:0:0:0:
184,120,161982,2,0,L|132:24,1,87.5
120,148,162282,2,0,L|64:72,1,87.5
152,224,162582,1,0,0:0:0:0:
220,184,162732,1,0,0:0:0:0:
184,324,162882,1,0,0:0:0:0:
312,232,163032,1,0,0:0:0:0:
288,340,163182,2,0,P|360:348|452:288,1,175
452,212,163632,1,0,0:0:0:0:
380,160,163782,6,0,P|360:112|364:48,2,87.5
364,248,164232,1,0,0:0:0:0:
276,244,164382,2,0,P|220:224|176:232,2,87.5
364,248,164832,1,0,0:0:0:0:
428,308,164982,2,0,L|492:376,2,87.5
364,248,165432,1,0,0:0:0:0:
304,184,165582,2,0,P|204:124|120:120,1,175
76,164,166032,1,0,0:0:0:0:
104,248,166182,5,0,0:0:0:0:
164,312,166332,1,0,0:0:0:0:
236,264,166482,1,0,0:0:0:0:
296,328,166632,1,0,0:0:0:0:
364,272,166782,2,0,L|456:244,1,87.5
356,196,167082,2,0,L|420:128,1,87.5
312,128,167382,2,0,L|348:40,1,87.5
244,72,167682,1,0,0:0:0:0:
244,72,167757,1,0,0:0:0:0:
244,72,167832,1,0,0:0:0:0:
244,160,167982,6,0,P|192:236|104:252,1,175
40,208,168432,1,0,0:0:0:0:
64,336,168582,1,0,0:0:0:0:
196,332,168732,1,0,0:0:0:0:
324,300,168882,1,0,0:0:0:0:
339,270,168957,1,0,0:0:0:0:
354,241,169032,1,0,0:0:0:0:
369,212,169107,1,0,0:0:0:0:
384,183,169182,2,0,L|424:96,1,87.5
328,152,169482,2,0,L|372:60,1,87.5
296,208,169782,2,0,L|252:300,1,87.5
239,176,170082,2,0,L|199:263,1,87.5
72,232,170382,6,0,P|84:160|176:88,1,175
188,176,170832,2,0,P|240:128|352:128,1,175
316,208,171282,1,0,0:0:0:0:
368,280,171432,2,0,L|416:296,2,43.75
280,288,171732,1,0,0:0:0:0:
200,320,171882,1,0,0:0:0:0:
200,232,172032,2,0,P|196:168|104:112,1,175
96,200,172482,1,0,0:0:0:0:
102,228,172557,1,0,0:0:0:0:
108,256,172632,1,0,0:0:0:0:
115,285,172707,1,0,0:0:0:0:
136,324,172782,6,0,P|200:340|368:232,2,262.5
164,240,173832,1,0,0:0:0:0:
176,212,173907,1,0,0:0:0:0:
188,184,173982,2,0,P|224:136|284:128,1,87.5
331,146,174282,1,0,0:0:0:0:
272,212,174432,2,0,P|376:224|416:168,1,175
396,92,174882,5,0,0:0:0:0:
375,66,174957,1,0,0:0:0:0:
347,50,175032,1,0,0:0:0:0:
315,44,175107,1,0,0:0:0:0:
283,50,175182,2,0,P|220:84|196:184,1,175
112,204,175632,2,0,P|108:280|180:352,1,175
248,308,176082,1,0,0:0:0:0:
324,264,176232,1,0,0:0:0:0:
336,224,176307,1,0,0:0:0:0:
348,180,176382,1,0,0:0:0:0:
432,152,176532,1,0,0:0:0:0:
436,64,176682,1,0,0:0:0:0:
348,52,176832,2,0,P|256:44|180:80,1,175
168,164,177282,6,0,L|192:200,2,43.75
84,136,177582,2,0,P|36:196|36:240,2,87.5
92,48,178032,1,0,0:0:0:0:
176,64,178182,2,0,P|236:16|280:16,2,87.5
172,152,178632,1,0,0:0:0:0:
200,236,178782,2,0,P|240:284|284:292,1,87.5
348,288,179082,1,0,0:0:0:0:
396,216,179232,2,0,L|436:128,1,87.5
344,148,179532,2,0,L|384:60,1,87.5
292,76,179832,1,0,0:0:0:0:
168,112,179982,6,0,L|68:140,1,87.5
152,192,180282,1,0,0:0:0:0:
83,248,180432,2,0,L|168:272,1,87.5
224,192,180732,1,0,0:0:0:0:
292,136,180882,1,0,0:0:0:0:
327,111,180957,1,0,0:0:0:0:
370,103,181032,1,0,0:0:0:0:
412,115,181107,1,0,0:0:0:0:
444,148,181182,2,0,P|480:184|524:184,1,87.5
512,100,181482,1,0,0:0:0:0:
444,44,181632,1,0,0:0:0:0:
356,44,181782,5,0,0:0:0:0:
327,44,181857,1,0,0:0:0:0:
301,56,181932,1,0,0:0:0:0:
282,79,182007,1,0,0:0:0:0:
276,108,182082,2,0,P|248:156|196:180,1,87.5
188,92,182382,2,0,P|144:136|168:240,1,175
188,260,182757,1,0,0:0:0:0:
216,272,182832,1,0,0:0:0:0:
248,276,182907,1,0,0:0:0:0:
280,272,182982,2,0,L|324:264,2,43.75
288,352,183282,5,0,0:0:0:0:
368,320,183432,1,0,0:0:0:0:
328,224,183582,2,0,P|338:180|370:152,1,87.5
292,96,183882,1,0,0:0:0:0:
204,96,184032,1,0,0:0:0:0:
136,152,184182,2,0,P|164:192|156:252,1,87.5
248,276,184482,1,0,0:0:0:0:
248,188,184632,1,0,0:0:0:0:
248,100,184782,2,0,P|264:48|392:40,1,175
444,100,185232,5,0,0:0:0:0:
491,192,185382,1,0,0:0:0:0:
417,266,185532,1,0,0:0:0:0:
323,218,185682,1,0,0:0:0:0:
340,115,185832,1,0,0:0:0:0:
404,180,185982,1,0,0:0:0:0:
407,212,186057,1,0,0:0:0:0:
398,244,186132,1,0,0:0:0:0:
379,270,186207,1,0,0:0:0:0:
352,288,186282,1,0,0:0:0:0:
268,308,186432,1,0,0:0:0:0:
268,204,186582,1,0,0:0:0:0:
232,124,186732,1,0,0:0:0:0:
199,129,186807,1,0,0:0:0:0:
170,144,186882,1,0,0:0:0:0:
146,166,186957,1,0,0:0:0:0:
129,193,187032,1,0,0:0:0:0:
120,225,187107,1,0,0:0:0:0:
120,258,187182,6,0,P|104:304|56:328,2,87.5
200,224,187632,1,0,0:0:0:0:
236,304,187782,2,0,P|272:280|284:228,1,87.5
324,160,188082,1,0,0:0:0:0:
353,151,188157,1,0,0:0:0:0:
383,152,188232,1,0,0:0:0:0:
412,163,188307,1,0,0:0:0:0:
435,182,188382,2,0,P|464:216|468:264,1,87.5
396,308,188682,1,0,0:0:0:0:
367,311,188757,1,0,0:0:0:0:
338,315,188832,1,0,0:0:0:0:
309,318,188907,1,0,0:0:0:0:
280,324,188982,2,0,L|252:368,3,43.75
212,348,189282,2,0,P|168:320|160:272,1,87.5
244,272,189582,6,0,P|264:232|196:116,1,175
184,208,190032,2,0,P|140:172|164:52,1,175
236,40,190482,1,0,0:0:0:0:
324,52,190632,2,0,L|376:40,2,43.75
284,128,190932,2,0,P|280:176|332:216,1,87.5
372,156,191232,2,0,P|384:228|296:292,1,175
232,256,191682,1,0,0:0:0:0:
206,235,191757,1,0,0:0:0:0:
175,223,191832,1,0,0:0:0:0:
143,221,191907,1,0,0:0:0:0:
111,228,191982,2,0,P|44:236|4:200,2,87.5
132,144,192432,2,0,P|204:112|308:140,1,175
348,200,192882,1,0,0:0:0:0:
424,240,193032,2,0,L|460:288,2,43.75
416,152,193332,2,0,P|428:104|468:72,1,87.5
512,144,193632,2,0,P|508:236|436:292,1,175
372,328,194082,2,0,B|376:376,2,43.75
312,264,194382,6,0,P|256:216|56:212,2,262.5
388,304,195432,1,0,0:0:0:0:
428,284,195507,1,0,0:0:0:0:
444,244,195582,2,0,P|452:188|372:84,1,175
308,64,196032,2,0,P|212:68|128:136,1,175
144,200,196482,1,0,0:0:0:0:
171,217,196557,1,0,0:0:0:0:
203,224,196632,1,0,0:0:0:0:
235,220,196707,1,0,0:0:0:0:
264,205,196782,2,0,P|324:176|440:176,1,175
428,260,197232,2,0,P|360:268|264:336,1,175
184,316,197682,1,0,0:0:0:0:
124,252,197832,1,0,0:0:0:0:
184,168,197982,5,0,0:0:0:0:
270,107,198132,1,0,0:0:0:0:
330,193,198282,1,0,0:0:0:0:
244,254,198432,1,0,0:0:0:0:
272,303,198582,5,0,0:0:0:0:
372,160,198732,1,0,0:0:0:0:
229,59,198882,1,0,0:0:0:0:
128,203,199032,1,0,0:0:0:0:
256,184,199182,6,0,B|312:100,1,87.5
356,36,199482,1,0,0:0:0:0:
428,88,199632,1,0,0:0:0:0:
444,176,199782,2,0,P|408:244|376:260,1,87.5
312,260,200082,2,0,L|296:304,3,43.75
280,340,200382,2,0,P|236:360|184:344,1,87.5
128,300,200682,2,0,P|164:272|220:268,1,87.5
276,212,200982,2,0,L|332:212,2,43.75
232,200,201207,1,0,0:0:0:0:
200,172,201282,2,0,P|168:136|164:84,2,87.5
276,128,201732,5,0,0:0:0:0:
356,96,201882,2,0,L|380:56,2,43.75
356,140,202107,1,0,0:0:0:0:
364,184,202182,2,0,L|336:232,2,43.75
408,176,202407,1,0,0:0:0:0:
452,180,202482,2,0,P|476:232|476:300,1,87.5
416,324,202782,6,0,P|368:344|316:344,1,87.5
252,312,203082,1,0,0:0:0:0:
272,228,203232,2,0,P|324:196|376:196,1,87.5
428,232,203532,1,0,0:0:0:0:
444,148,203682,2,0,P|460:96|496:60,2,87.5
364,112,204132,5,0,0:0:0:0:
272,60,204282,1,0,0:0:0:0:
184,60,204432,1,0,0:0:0:0:
132,132,204582,2,0,P|168:176|228:200,1,87.5
252,124,204882,2,0,P|300:156|320:192,1,87.5
292,264,205182,1,0,0:0:0:0:
272,281,205257,1,0,0:0:0:0:
249,293,205332,1,0,0:0:0:0:
223,299,205407,1,0,0:0:0:0:
196,304,205482,2,0,P|152:288|120:252,1,87.5
128,172,205782,2,0,P|180:152|240:160,1,87.5
256,160,206007,1,0,0:0:0:0:
296,180,206082,2,0,P|348:184|396:160,1,87.5
408,136,206307,1,0,0:0:0:0:
396,92,206382,6,0,P|328:52|216:64,1,175
156,92,206832,1,0,0:0:0:0:
144,180,206982,2,0,P|208:232|308:232,2,175
60,160,207732,1,0,0:0:0:0:
76,244,207882,1,0,0:0:0:0:
91,270,207957,1,0,0:0:0:0:
113,291,208032,1,0,0:0:0:0:
140,305,208107,1,0,0:0:0:0:
170,312,208182,2,0,L|220:312,3,43.75
252,288,208482,2,0,P|296:256|344:248,1,87.5
408,280,208782,6,0,P|460:228|460:192,1,87.5
452,112,209082,1,0,0:0:0:0:
388,52,209232,1,0,0:0:0:0:
312,92,209382,2,0,P|280:128|232:144,1,87.5
156,132,209682,1,0,0:0:0:0:
129,154,209757,1,0,0:0:0:0:
115,186,209832,1,0,0:0:0:0:
117,220,209907,1,0,0:0:0:0:
132,264,209982,2,0,P|168:292|232:288,1,87.5
204,208,210282,1,0,0:0:0:0:
256,280,210432,2,0,P|288:240|284:184,1,87.5
292,168,210657,1,0,0:0:0:0:
310,138,210732,1,0,0:0:0:0:
342,126,210807,1,0,0:0:0:0:
376,132,210882,1,0,0:0:0:0:
376,220,211032,1,0,0:0:0:0:
452,260,211182,6,0,P|472:208|460:148,1,87.5
444,92,211482,2,0,L|448:44,3,43.75
396,88,211782,2,0,L|380:40,3,43.75
348,100,212082,1,0,0:0:0:0:
260,116,212232,1,0,0:0:0:0:
216,192,212382,1,0,0:0:0:0:
184,272,212532,2,0,P|108:296|56:224,1,175
84,144,212982,1,0,0:0:0:0:
128,220,213132,1,0,0:0:0:0:
160,140,213282,2,0,P|192:84|232:44,1,87.5
272,124,213582,6,0,P|312:84|356:68,1,87.5
440,100,213882,1,0,0:0:0:0:
496,168,214032,1,0,0:0:0:0:
408,180,214182,2,0,P|360:216|336:248,2,87.5
460,248,214632,1,0,0:0:0:0:
388,296,214782,1,0,0:0:0:0:
362,313,214857,1,0,0:0:0:0:
334,324,214932,1,0,0:0:0:0:
303,327,215007,1,0,0:0:0:0:
273,324,215082,2,0,P|216:316|168:324,1,87.5
100,320,215382,1,0,0:0:0:0:
88,232,215532,2,0,L|32:180,2,43.75
176,232,215832,5,0,0:0:0:0:
220,232,215907,1,0,0:0:0:0:
264,232,215982,2,0,P|320:220|352:184,2,87.5
272,144,216432,1,0,0:0:0:0:
184,132,216582,2,0,P|232:64|344:92,1,175
380,128,217032,1,0,0:0:0:0:
376,216,217182,5,0,0:0:0:0:
354,237,217257,1,0,0:0:0:0:
329,255,217332,1,0,0:0:0:0:
302,269,217407,1,0,0:0:0:0:
273,279,217482,1,0,0:0:0:0:
243,285,217557,1,0,0:0:0:0:
212,287,217632,1,0,0:0:0:0:
182,284,217707,1,0,0:0:0:0:
152,277,217782,2,0,L|104:252,7,43.75
88,224,218382,6,0,P|81:179|97:147,1,65.625,0|0,0:0|2:0,0:0:0:0:
180,184,218907,2,0,P|196:142|224:123,1,65.625,0|0,0:0|2:0,0:0:0:0:
276,196,219432,2,0,P|311:168|346:164,1,65.625,0|0,0:0|2:0,0:0:0:0:
360,252,219957,2,0,P|404:245|433:261,1,65.625,0|0,0:0|2:0,0:0:0:0:
224,332,220782,5,0,0:0:0:0:
164,304,220932,2,0,P|128:276|116:248,1,43.75,0|0,0:0|2:0,0:0:0:0:
224,256,221307,1,0,0:0:0:0:
186,201,221457,2,0,P|168:158|172:128,1,43.75,0|0,0:0|2:0,0:0:0:0:
264,192,221832,1,0,0:0:0:0:
258,125,221982,2,0,P|264:79|282:55,1,43.75,0|0,0:0|2:0,0:0:0:0:
332,152,222357,1,0,0:0:0:0:
360,90,222507,2,0,P|388:54|416:42,1,43.75,0|0,0:0|2:0,0:0:0:0:
440,280,223182,6,0,P|417:318|385:337,1,65.625,0|0,0:0|2:0,0:0:0:0:
344,256,223707,2,0,P|305:278|268:278,1,65.625,0|0,0:0|2:0,0:0:0:0:
276,188,224232,2,0,P|231:187|198:169,1,65.625,0|0,0:0|2:0,0:0:0:0:
244,92,224757,2,0,P|205:69|186:37,1,65.625,0|0,0:0|2:0,0:0:0:0:
408,68,225582,5,0,0:0:0:0:
464,104,225732,2,0,P|484:124|496:152,1,43.75,0|0,0:0|2:0,0:0:0:0:
392,144,226107,1,0,0:0:0:0:
422,203,226257,2,0,P|429:230|425:260,1,43.75,0|0,0:0|2:0,0:0:0:0:
340,204,226632,1,0,0:0:0:0:
336,270,226782,2,0,P|328:297|310:321,1,43.75,0|0,0:0|2:0,0:0:0:0:
268,228,227157,1,0,0:0:0:0:
231,283,227307,2,0,L|210:302,8,21.875,0|0|0|0|0|0|0|0|0,2:0|2:0|2:0|2:0|2:0|2:0|2:0|2:0|2:0,0:0:0:0:
196,220,227982,5,0,0:0:0:0:
216,148,228507,1,0,0:0:0:0:
276,100,229032,1,0,0:0:0:0:
352,96,229557,1,0,0:0:0:0:
400,204,230382,5,0,0:0:0:0:
428,240,230532,1,0,0:0:0:0:
320,260,230907,1,0,0:0:0:0:
328,304,231057,1,0,0:0:0:0:
224,272,231432,1,0,0:0:0:0:
208,312,231582,1,0,0:0:0:0:
160,216,231957,1,0,0:0:0:0:
116,224,232107,1,0,0:0:0:0:
156,112,232782,5,0,0:0:0:0:
216,160,233307,1,0,0:0:0:0:
276,116,233832,1,0,0:0:0:0:
336,160,234357,1,0,0:0:0:0:
244,236,235182,5,0,0:0:0:0:
216,268,235332,1,0,0:0:0:0:
200,184,235707,1,0,0:0:0:0:
168,152,235857,1,0,0:0:0:0:
256,140,236232,1,0,0:0:0:0:
288,112,236382,2,0,P|352:92|440:132,1,153.125,0|0,0:0|2:0,0:0:0:0:
380,188,236982,6,0,P|324:224|374:181,1,196.875007510186,0|0,0:0|2:0,0:0:0:0:
468,212,237582,6,0,P|456:264|356:324,1,157.499995193482
296,320,238382,1,0,0:0:0:0:
224,288,238582,1,0,0:0:0:0:
176,224,238782,2,0,P|168:176|200:116,1,104.999996795654
244,184,239382,2,0,P|292:176|336:112,1,104.999996795654
372,72,239982,1,0,0:0:0:0:
440,112,240182,1,0,0:0:0:0:
400,180,240382,2,0,P|424:236|464:284,2,104.999996795654
260,108,241582,2,0,P|192:96|144:128,1,104.999996795654
116,176,242182,1,0,0:0:0:0:
156,244,242382,6,0,P|228:296|328:272,1,157.499995193482
324,152,243382,2,0,P|392:128|440:176,1,104.999996795654
472,196,243982,2,0,P|430:222|363:186,1,104.999996795654
324,152,244582,1,0,0:0:0:0:
212,80,244782,5,0,0:0:0:0:
124,136,244982,1,0,0:0:0:0:
216,188,245182,1,0,0:0:0:0:
336,304,245382,5,0,0:0:0:0:
364,204,245582,1,0,0:0:0:0:
444,272,245782,1,0,0:0:0:0:
256,192,245982,12,0,246657,0:0:0:0:
256,184,246957,5,0,0:0:0:0:
166,130,247182,6,0,P|191:94|259:80,2,78.7499975967408
166,209,247632,1,0,0:0:0:0:
198,281,247782,2,0,P|259:292|324:224,1,157.499995193482
248,206,248232,1,0,0:0:0:0:
258,175,248307,1,0,0:0:0:0:
268,146,248382,2,0,P|309:94|475:84,2,236.249992790222
255,174,249357,1,0,0:0:0:0:
231,194,249432,1,0,0:0:0:0:
202,204,249507,1,0,0:0:0:0:
171,200,249582,2,0,P|133:181|133:73,1,157.499995193482
191,127,250032,2,0,P|263:94|335:145,1,157.499995193482
385,184,250482,1,0,0:0:0:0:
327,238,250632,2,0,L|331:278,2,39.3749987983704
281,174,250932,1,0,0:0:0:0:
324,105,251082,1,0,0:0:0:0:
259,62,251232,2,0,P|198:51|137:120,1,157.499995193482
155,192,251682,1,0,0:0:0:0:
179,210,251757,1,0,0:0:0:0:
203,230,251832,1,0,0:0:0:0:
228,250,251907,1,0,0:0:0:0:
253,270,251982,6,0,P|302:289|450:188,2,236.249992790222
191,224,253032,1,0,0:0:0:0:
172,199,253107,1,0,0:0:0:0:
165,168,253182,2,0,P|169:116|205:76,1,78.7499975967408
245,141,253482,1,0,0:0:0:0:
281,73,253632,2,0,P|317:112|277:209,1,157.499995193482
241,267,254082,1,0,0:0:0:0:
264,281,254157,1,0,0:0:0:0:
291,285,254232,1,0,0:0:0:0:
318,279,254307,1,0,0:0:0:0:
341,263,254382,6,0,P|380:232|417:227,2,78.7499975967408
288,206,254832,1,0,0:0:0:0:
234,263,254982,2,0,P|195:231|158:227,2,78.7499975967408
288,321,255432,1,0,0:0:0:0:
317,332,255507,1,0,0:0:0:0:
349,332,255582,2,0,P|392:325|421:299,2,78.7499975967408
356,253,256032,1,0,0:0:0:0:
295,206,256182,2,0,P|326:182|364:176,1,78.7499975967408
356,253,256482,1,0,0:0:0:0:
332,279,256557,1,0,0:0:0:0:
300,294,256632,1,0,0:0:0:0:
265,297,256707,1,0,0:0:0:0:
232,292,256782,6,0,L|138:243,1,87.5
230,207,257082,1,0,0:0:0:0:
306,247,257232,2,0,L|302:147,1,87.5
378,199,257532,1,0,0:0:0:0:
398,283,257682,1,0,0:0:0:0:
435,270,257757,1,0,0:0:0:0:
466,246,257832,1,0,0:0:0:0:
488,214,257907,1,0,0:0:0:0:
500,177,257982,2,0,P|494:123|474:83,1,87.5
404,132,258282,1,0,0:0:0:0:
340,72,258432,1,0,0:0:0:0:
256,100,258582,2,0,L|208:84,2,43.75
288,128,258807,1,0,0:0:0:0:
308,168,258882,2,0,P|308:216|268:248,1,87.5
196,244,259182,5,0,0:0:0:0:
112,220,259332,1,0,0:0:0:0:
120,132,259482,1,0,0:0:0:0:
145,114,259557,1,0,0:0:0:0:
173,104,259632,1,0,0:0:0:0:
204,102,259707,1,0,0:0:0:0:
248,88,259783,2,0,L|272:52,3,43.75
272,124,260082,2,0,P|333:139|385:127,1,87.5
444,152,260382,2,0,P|428:216|392:248,1,87.5
328,220,260682,1,0,0:0:0:0:
260,164,260832,2,0,P|200:184|168:216,1,87.5
140,296,261132,1,0,0:0:0:0:
260,344,261282,1,0,0:0:0:0:
372,276,261432,1,0,0:0:0:0:
384,144,261582,6,0,P|352:96|288:72,1,87.5
240,92,261882,1,0,0:0:0:0:
156,120,262032,1,0,0:0:0:0:
220,180,262182,2,0,P|272:208|328:204,2,87.5
140,216,262632,1,0,0:0:0:0:
200,280,262782,1,0,0:0:0:0:
232,292,262857,1,0,0:0:0:0:
266,300,262932,1,0,0:0:0:0:
301,301,263007,1,0,0:0:0:0:
336,296,263082,2,0,P|384:284|416:256,1,87.5
384,176,263382,1,0,0:0:0:0:
412,92,263532,1,0,0:0:0:0:
383,71,263607,1,0,0:0:0:0:
351,57,263682,1,0,0:0:0:0:
317,49,263757,1,0,0:0:0:0:
282,48,263832,1,0,0:0:0:0:
248,53,263907,1,0,0:0:0:0:
215,65,263982,6,0,P|168:92|112:96,1,87.5
180,172,264282,1,0,0:0:0:0:
268,164,264432,2,0,L|356:208,2,87.5
232,244,264882,2,0,L|288:276,2,43.75
144,256,265182,2,0,P|100:228|76:172,1,87.5
96,112,265482,2,0,L|100:60,2,43.75
124,148,265707,1,0,0:0:0:0:
168,152,265782,2,0,L|220:164,1,43.75
224,204,265932,2,0,L|284:224,1,43.75
296,252,266082,2,0,P|344:260|408:244,1,87.5
428,208,266382,6,0,P|416:152|240:64,1,262.500010013581
180,116,267182,2,0,P|152:148|100:160,1,87.5000033378602
136,244,267582,2,0,P|200:316|276:308,1,175.00000667572
356,292,268182,1,0,0:0:0:0:
444,308,268382,1,0,0:0:0:0:
416,224,268582,1,0,0:0:0:0:
332,204,268782,2,0,P|332:112|472:32,1,262.500010013581
492,116,269582,6,0,P|460:144|396:144,1,87.5000033378602
320,160,269982,2,0,L|248:104,2,87.5000033378602
272,244,270582,2,0,L|356:312,2,87.5000033378602
192,296,271182,6,0,P|108:256|132:92,1,262.500010013581
188,156,271982,1,0,0:0:0:0:
260,104,272182,1,0,0:0:0:0:
348,104,272382,2,0,P|416:136|440:236,1,175.00000667572
388,296,272982,1,0,0:0:0:0:
312,252,273182,1,0,0:0:0:0:
252,316,273382,1,0,0:0:0:0:
164,316,273582,2,0,P|136:264|252:124,1,262.500010013581
260,212,274382,6,0,P|324:220|368:200,1,87.5000033378602
408,148,274782,1,0,0:0:0:0:
352,108,274982,1,0,0:0:0:0:
284,100,275182,1,0,0:0:0:0:
188,188,275382,1,0,0:0:0:0:
236,240,275582,1,0,0:0:0:0:
304,264,275782,1,0,0:0:0:0:
436,272,275982,6,0,P|480:240|484:128,1,175.00000667572
416,184,276582,2,0,P|404:124|312:48,1,175.00000667572
296,136,277182,2,0,P|232:88|136:100,1,175.00000667572
184,172,277782,2,0,P|104:188|52:260,1,175.00000667572
128,304,278382,6,0,P|192:284|256:196,1,175.00000667572
312,268,278982,2,0,P|340:208|292:112,1,175.00000667572
380,84,279582,2,0,P|312:28|192:48,1,175.00000667572
212,112,280182,2,0,B|220:200|304:156|312:248,1,175
