osu file format v14

[General]
AudioFilename: audio.mp3
AudioLeadIn: 0
PreviewTime: 2534303
Countdown: 1
SampleSet: Normal
StackLeniency: 0.7
Mode: 0
LetterboxInBreaks: 0
WidescreenStoryboard: 1

[Editor]
Bookmarks: 151200,280800,334800,376797,415197,453582,482382,549582,568782,621582,717582,746382,755982,852000,967200,1020000,1142400,1201200,1341600,1447200,1585200,1796400,1917663,2097031,2242294,2355978,2436821,2535347,2712189,2803136
DistanceSpacing: 1.3
BeatDivisor: 4
GridSize: 8
TimelineZoom: 1.4

[Metadata]
Title:Largely-Unrelated-To-Trauma Mix Disc
TitleUnicode:Largely-Unrelated-To-Trauma Mix Disc
Artist:Various Artists
ArtistUnicode:Various Artists
Creator:Malikil
Version:Bong-Ra - Coke Sniffah
Source:
Tags:Lapfox Trax Renard
BeatmapID:3073193
BeatmapSetID:605704

[Difficulty]
HPDrainRate:6
CircleSize:4
OverallDifficulty:8
ApproachRate:9.3
SliderMultiplier:1.75
SliderTickRate:1

[Events]
//Background and Video events
0,0,"Largely-Unrelated-To-Trauma Mix Disc 1.jpg",0,0
//Break Periods
//Storyboard Layer 0 (Background)
//Storyboard Layer 1 (Fail)
//Storyboard Layer 2 (Pass)
//Storyboard Layer 3 (Foreground)
//Storyboard Layer 4 (Overlay)
//Storyboard Sound Samples

[TimingPoints]
26382,300,4,1,0,50,1,0
26382,-109.89010989011,4,1,0,50,0,0
64332,-200,4,1,0,50,0,0
64782,-86.9565217391304,4,1,0,50,0,1
68832,-200,4,1,0,50,0,1
69282,-86.9565217391304,4,1,0,50,0,1
71532,-100,4,1,0,50,0,1
71682,-86.9565217391304,4,1,0,50,0,1
78432,-200,4,1,0,50,0,1
78882,-86.9565217391304,4,1,0,50,0,1
81132,-100,4,1,0,50,0,1
81282,-86.9565217391304,4,1,0,50,0,1
83982,-111.111111111111,4,1,0,50,0,0
93582,-100,4,1,0,50,0,0
112782,-100,4,1,0,50,0,1
129882,-166.666666666667,4,1,0,50,0,1
130782,-100,4,1,0,50,0,1
131082,-117.647058823529,4,1,0,50,0,1
131382,-125,4,1,0,50,0,1
131607,-111.111111111111,4,1,0,50,0,1
131982,-100,4,1,0,50,0,1
151182,400,4,1,0,50,1,0
151182,-133.333333333333,4,1,0,50,0,0
160782,300,4,1,0,50,1,0
170382,-100,4,1,0,50,0,0
179982,-100,4,1,0,50,0,1
189582,-100,4,1,0,50,0,0
218382,600,4,1,0,50,1,0
236982,-66.6666666666667,4,1,0,50,0,0
237432,-111.111111111111,4,1,0,50,0,0
247182,300,4,1,0,50,1,0
247182,-111.111111111111,4,1,0,50,0,0
256782,-100,4,1,0,50,0,1
266382,-133.333333333333,4,1,0,50,0,0
280182,-200,4,1,0,50,0,0
280782,-100,4,1,0,50,0,0
335982,-100,4,3,0,50,0,0
336582,-100,4,3,0,65,0,0
337182,-100,4,3,0,80,0,0
337782,-100,4,3,0,95,0,0
338382,-117.647058823529,4,3,0,100,0,0
356382,-86.9565217391304,4,3,0,100,0,0
357582,-117.647058823529,4,3,0,100,0,0
357882,-117.647058823529,4,3,0,100,0,1
374382,-100,4,3,0,100,0,0
376782,-133.333333333333,4,3,0,100,0,0
382482,-625,4,3,0,100,0,0
383982,-133.333333333333,4,3,0,100,0,0
392082,-200,4,3,0,100,0,0
393582,-133.333333333333,4,3,0,100,0,0
404382,-100,4,3,0,100,0,0
405582,-133.333333333333,4,3,0,100,0,0
413982,-100,4,3,0,100,0,0
415182,-100,4,1,0,100,0,1
434382,-95.2380952380952,4,1,0,100,0,1
443982,-100,4,3,0,100,0,0
453582,-111.111111111111,4,1,0,100,0,0
463182,-133.333333333333,4,3,0,80,0,0
472782,-133.333333333333,4,3,0,100,0,0
476382,-250,4,3,0,100,0,0
477282,-200,4,3,0,100,0,0
477882,-133.333333333333,4,3,0,100,0,0
481182,-133.333333333333,4,1,0,100,0,0
482382,-117.647058823529,4,2,0,100,0,0
491982,-111.111111111111,4,1,0,100,0,0
501582,-105.263157894737,4,1,0,100,0,0
507582,-105.263157894737,4,3,0,100,0,0
509982,-105.263157894737,4,3,0,80,0,0
511182,-90.9090909090909,4,1,0,100,0,1
515682,-111.111111111111,4,1,0,100,0,1
515982,-90.9090909090909,4,1,0,100,0,1
525282,-111.111111111111,4,1,0,100,0,1
525582,-90.9090909090909,4,1,0,100,0,1
529182,-100,4,1,0,100,0,0
530382,-100,4,1,0,100,0,1
534882,-111.111111111111,4,1,0,100,0,1
535182,-100,4,1,0,100,0,1
544482,-111.111111111111,4,1,0,100,0,1
544782,-100,4,1,0,100,0,1
548382,-100,4,2,0,100,0,0
549582,-100,4,3,0,100,0,0
568332,-50,4,3,0,100,0,0
568782,-100,4,3,0,100,0,1
587982,-90.9090909090909,4,1,0,80,0,0
592482,-66.6666666666667,4,1,0,80,0,0
592782,-100,4,3,0,100,0,0
611982,-125,4,3,0,90,0,0
631182,-133.333333333333,4,3,0,60,0,0
650382,-100,4,3,0,100,0,1
673482,-66.6666666666667,4,3,0,100,0,1
673782,-100,4,3,0,100,0,1
679182,-100,4,3,0,100,0,0
717582,-105.263157894737,4,3,0,100,0,0
719982,-106.382978723404,4,3,0,100,0,0
722382,-107.52688172043,4,3,0,100,0,0
724782,-108.695652173913,4,3,0,100,0,0
727182,-109.89010989011,4,3,0,100,0,0
729582,-111.111111111111,4,3,0,100,0,0
731982,-112.359550561798,4,3,0,100,0,0
734382,-113.636363636364,4,3,0,100,0,0
736782,-114.942528735632,4,3,0,100,0,0
739182,-116.279069767442,4,3,0,100,0,0
740982,-232.558139534884,4,3,0,100,0,0
741582,-117.647058823529,4,3,0,100,0,0
743982,-119.047619047619,4,3,0,100,0,0
746382,-125,4,3,0,100,0,0
755982,-100,4,3,0,100,0,0
1796382,315.789473684211,4,1,0,50,1,0

[HitObjects]
256,192,631182,5,8,0:0:0:0:
192,232,631482,5,0,0:0:0:0:
320,232,631632,1,8,0:0:0:0:
195,136,631932,5,0,0:0:0:0:
256,104,632082,1,8,0:0:0:0:
317,136,632232,1,0,0:0:0:0:
256,192,632382,2,0,L|256:264,2,65.6250025033952,0|0|2,0:0|0:0|0:2,0:0:0:0:
256,104,632832,1,2,0:0:0:0:
333,64,632982,5,2,0:0:0:0:
404,114,633132,1,2,0:0:0:0:
387,199,633282,1,2,0:0:0:0:
306,232,633432,1,2,0:0:0:0:
229,189,633582,6,0,L|142:220,1,65.6250025033952,8|0,0:0|0:0,0:0:0:0:
106,236,633882,1,0,0:0:0:0:
156,143,634032,2,0,L|69:174,1,65.6250025033952,8|0,0:0|0:0,0:0:0:0:
33,190,634332,1,0,0:0:0:0:
21,119,634482,1,8,0:0:0:0:
88,92,634632,1,0,0:0:0:0:
145,134,634782,2,0,L|204:174,2,65.6250025033952
202,90,635232,5,2,0:0:0:0:
234,25,635382,1,2,0:0:0:0:
306,20,635532,1,2,0:0:0:0:
346,80,635682,1,2,0:0:0:0:
314,144,635832,1,2,0:0:0:0:
242,149,635982,6,0,P|191:212|210:270,1,131.25000500679,8|0,0:0|0:0,0:0:0:0:
221,325,636432,2,0,P|270:285|265:219,1,131.25000500679,8|0,0:0|0:0,0:0:0:0:
313,166,636882,1,8,0:0:0:0:
383,149,637032,1,0,0:0:0:0:
363,218,637182,5,2,0:0:0:0:
293,236,637332,1,2,0:0:0:0:
223,254,637482,2,0,L|151:275,2,65.6250025033952,2|2|2,0:0|0:0|0:0,0:0:0:0:
241,183,637932,5,8,0:0:0:0:
190,131,638082,1,8,0:0:0:0:
244,84,638232,1,8,0:0:0:0:
184,43,638382,2,0,P|129:64|106:109,1,98.4375037550928,8|2,0:0|0:2,0:0:0:0:
103,132,638682,1,2,0:0:0:0:
54,185,638832,2,0,P|106:211|187:199,1,131.25000500679,8|0,0:0|0:0,0:0:0:0:
238,165,639282,1,8,0:0:0:0:
309,156,639432,1,0,0:0:0:0:
364,202,639582,6,0,L|423:261,2,65.6250025033952,8|0|2,0:0|0:0|0:2,0:0:0:0:
309,156,640032,1,2,0:0:0:0:
258,104,640182,1,2,0:0:0:0:
185,108,640332,2,0,L|143:164,1,65.6250025033952,2|2,0:0|0:0,0:0:0:0:
151,232,640632,1,2,0:0:0:0:
219,253,640782,5,10,0:0:0:0:
237,157,640932,1,2,0:0:0:0:
334,176,641082,1,2,0:0:0:0:
315,272,641232,1,10,0:0:0:0:
237,157,641532,5,2,0:0:0:0:
315,272,641682,1,10,0:0:0:0:
442,242,641982,5,10,0:0:0:0:
442,173,642132,1,2,0:2:0:0:
442,173,642282,2,0,L|371:115,1,65.6250025033952,2|2,0:2|0:0,0:0:0:0:
319,116,642582,1,2,0:0:0:0:
248,130,642732,1,2,0:0:0:0:
250,205,642882,5,2,0:0:0:0:
166,256,643032,1,2,0:0:0:0:
108,176,643182,1,8,0:0:0:0:
204,68,643482,5,2,0:0:0:0:
275,76,643632,2,0,L|357:87,1,65.6250025033952,8|0,0:0|0:0,0:0:0:0:
411,94,643932,1,8,0:2:0:0:
289,150,644082,2,0,L|371:161,1,65.6250025033952,8|0,0:0|0:0,0:0:0:0:
425,168,644382,1,8,0:2:0:0:
312,225,644532,2,0,L|394:236,1,65.6250025033952,8|0,0:0|0:0,0:0:0:0:
448,243,644832,1,8,0:2:0:0:
339,300,644982,2,0,L|273:291,1,65.6250025033952,8|2,0:0|0:0,0:0:0:0:
210,255,645282,1,0,0:0:0:0:
182,188,645432,1,0,0:0:0:0:
204,119,645582,6,0,P|231:77|281:46,1,98.4375037550928,8|2,0:0|0:2,0:0:0:0:
306,41,645882,1,2,0:0:0:0:
306,113,646032,2,0,P|354:102|412:115,1,98.4375037550928,8|2,0:0|0:2,0:0:0:0:
433,130,646332,1,2,0:0:0:0:
387,185,646482,2,0,P|429:212|465:287,1,131.25000500679,8|2,0:0|0:2,0:0:0:0:
414,336,646932,1,2,0:0:0:0:
378,273,647082,1,2,0:0:0:0:
313,240,647232,2,0,L|224:222,2,65.6250025033952,2|2|8,0:0|0:0|0:2,0:0:0:0:
387,174,647682,5,8,0:2:0:0:
358,79,647832,1,8,0:2:0:0:
261,60,647982,2,0,L|121:68,1,131.25000500679,8|2,0:0|0:2,0:0:0:0:
76,150,648432,2,0,L|207:142,1,131.25000500679,8|2,0:0|0:2,0:0:0:0:
271,217,648882,1,8,0:0:0:0:
205,220,649032,5,0,0:0:0:0:
172,222,649107,1,0,0:0:0:0:
139,224,649182,2,0,L|7:231,1,131.25000500679,8|10,0:1|0:2,0:0:0:0:
373,160,649632,2,0,L|504:152,1,131.25000500679,8|10,0:1|0:2,0:0:0:0:
139,160,650082,1,8,0:1:0:0:
373,224,650382,5,8,0:0:0:0:
373,224,650532,1,8,0:0:0:0:
328,148,650682,2,0,P|296:109|230:87,1,87.5,8|2,0:2|0:0,0:0:0:0:
221,81,650907,1,0,0:0:0:0:
177,83,650982,1,2,0:0:0:0:
137,98,651057,1,0,0:0:0:0:
102,125,651132,1,8,0:2:0:0:
102,258,651282,5,2,0:0:0:0:
137,285,651357,1,0,0:0:0:0:
177,300,651432,1,2,0:0:0:0:
221,302,651507,1,0,0:0:0:0:
263,291,651582,1,2,0:2:0:0:
308,192,651732,1,2,0:2:0:0:
391,121,651882,6,0,P|416:177|414:205,1,87.5,8|2,0:2|0:0,0:0:0:0:
403,243,652107,1,0,0:0:0:0:
376,277,652182,1,2,0:0:0:0:
337,297,652257,1,0,0:0:0:0:
294,303,652332,2,0,P|233:329|213:354,1,87.5,8|2,0:2|0:2,0:0:0:0:
126,286,652632,5,8,0:1:0:0:
63,151,652782,1,4,0:2:0:0:
177,82,652932,5,0,0:0:0:0:
177,82,653007,1,0,0:0:0:0:
177,82,653082,1,8,0:1:0:0:
282,187,653232,1,4,0:2:0:0:
324,86,653382,6,0,P|383:98|413:120,1,87.5,8|0,0:2|0:0,0:0:0:0:
432,147,653607,1,0,0:0:0:0:
452,185,653682,1,8,0:2:0:0:
410,261,653832,1,8,0:2:0:0:
343,204,653982,1,2,0:0:0:0:
315,186,654057,1,0,0:0:0:0:
285,173,654132,1,2,0:0:0:0:
253,165,654207,1,0,0:0:0:0:
220,162,654282,5,8,0:1:0:0:
122,114,654432,1,8,0:1:0:0:
37,183,654582,1,8,0:1:0:0:
56,290,654732,1,8,0:1:0:0:
159,323,654882,2,0,L|166:346,4,21.875,2|2|2|2|10,0:2|0:2|0:2|0:2|0:2,0:0:0:0:
208,201,655182,5,2,0:0:0:0:
237,168,655257,1,2,0:0:0:0:
276,149,655332,1,2,0:0:0:0:
319,143,655407,1,2,0:0:0:0:
362,146,655482,1,2,0:0:0:0:
450,202,655632,1,2,0:0:0:0:
387,286,655782,1,2,0:0:0:0:
296,232,655932,6,0,P|239:255|195:245,1,87.5,2|2,0:0|0:0,0:0:0:0:
171,242,656157,1,0,0:0:0:0:
133,222,656232,1,2,0:0:0:0:
99,194,656307,1,0,0:0:0:0:
74,159,656382,1,10,0:0:0:0:
146,82,656532,5,0,0:0:0:0:
146,82,656607,1,0,0:0:0:0:
146,82,656682,1,2,0:0:0:0:
212,163,656832,1,8,0:0:0:0:
312,132,656982,1,0,0:0:0:0:
312,132,657057,1,0,0:0:0:0:
312,132,657132,1,2,0:0:0:0:
380,211,657282,1,8,0:0:0:0:
316,294,657432,5,8,0:2:0:0:
167,306,657582,1,4,0:2:0:0:
395,115,657882,5,8,0:2:0:0:
265,63,658032,5,0,0:0:0:0:
265,63,658107,1,0,0:0:0:0:
265,63,658182,1,8,0:2:0:0:
171,178,658332,5,8,0:2:0:0:
149,203,658407,1,0,0:0:0:0:
135,232,658482,1,2,0:0:0:0:
128,264,658557,1,0,0:0:0:0:
129,297,658632,1,2,0:0:0:0:
227,332,658782,6,0,L|409:349,1,175,8|2,0:0|0:0,0:0:0:0:
422,244,659232,2,0,L|247:227,1,175,8|2,0:0|0:0,0:0:0:0:
237,123,659682,1,8,0:0:0:0:
341,122,659832,5,2,0:0:0:0:
382,135,659907,1,0,0:0:0:0:
424,149,659982,1,8,0:2:0:0:
468,224,660132,1,8,0:2:0:0:
417,295,660282,6,0,P|370:308|318:302,1,87.5,2|2,0:0|0:0,0:0:0:0:
287,299,660507,1,0,0:0:0:0:
244,290,660582,1,2,0:0:0:0:
203,274,660657,1,0,0:0:0:0:
166,251,660732,1,2,0:0:0:0:
253,185,660882,1,8,0:0:0:0:
173,110,661032,1,8,0:0:0:0:
78,165,661182,2,0,P|58:208|59:263,1,87.5,10|2,0:0|0:0,0:0:0:0:
66,290,661407,1,2,0:0:0:0:
90,326,661482,1,8,0:2:0:0:
161,261,661632,5,2,0:0:0:0:
197,237,661707,1,0,0:0:0:0:
239,225,661782,1,2,0:0:0:0:
283,227,661857,1,0,0:0:0:0:
324,242,661932,5,10,0:2:0:0:
403,296,662082,1,2,0:2:0:0:
419,201,662232,1,2,0:2:0:0:
311,102,662382,5,8,0:2:0:0:
164,145,662532,1,8,0:2:0:0:
172,254,662682,5,2,0:0:0:0:
213,267,662757,1,0,0:0:0:0:
257,272,662832,1,2,0:0:0:0:
300,268,662907,1,0,0:0:0:0:
342,256,662982,2,0,L|391:235,3,43.75,2|2|2|2,0:0|0:0|0:0|0:0,0:0:0:0:
343,174,663282,5,2,0:0:0:0:
444,145,663432,1,2,0:0:0:0:
488,240,663582,2,0,L|511:265,8,21.875,2|2|2|2|2|2|2|2|2,0:2|0:2|0:2|0:2|0:2|0:2|0:2|0:2|0:0,0:0:0:0:
392,257,664032,1,0,0:0:0:0:
299,323,664182,5,2,0:0:0:0:
260,301,664257,1,0,0:0:0:0:
225,276,664332,1,2,0:0:0:0:
194,245,664407,1,0,0:0:0:0:
166,211,664482,1,2,0:0:0:0:
210,111,664632,5,8,0:2:0:0:
351,170,664782,1,8,0:2:0:0:
184,311,664932,5,2,0:0:0:0:
184,311,665007,1,0,0:0:0:0:
184,311,665082,1,8,0:2:0:0:
119,172,665232,1,8,0:2:0:0:
210,111,665382,6,0,P|253:96|303:97,1,87.5,2|2,0:0|0:0,0:0:0:0:
336,108,665607,1,2,0:0:0:0:
372,132,665682,1,2,0:0:0:0:
382,218,665832,1,2,0:0:0:0:
283,304,665982,5,8,0:0:0:0:
152,320,666132,1,8,0:0:0:0:
195,195,666282,1,8,0:0:0:0:
282,137,666432,5,2,0:0:0:0:
323,123,666507,1,0,0:0:0:0:
366,124,666582,1,2,0:0:0:0:
406,141,666657,1,0,0:0:0:0:
438,170,666732,2,0,P|481:151|483:103,1,87.5,8|2,0:2|0:0,0:0:0:0:
477,84,666957,1,0,0:0:0:0:
457,60,667032,1,2,0:0:0:0:
282,46,667182,5,4,0:2:0:0:
358,204,667332,1,2,0:0:0:0:
358,204,667407,1,0,0:0:0:0:
358,204,667482,1,2,0:0:0:0:
190,100,667632,5,4,0:2:0:0:
213,303,667782,1,2,0:0:0:0:
213,303,667857,1,0,0:0:0:0:
213,303,667932,1,2,0:0:0:0:
88,122,668082,5,4,0:2:0:0:
52,303,668232,1,2,0:0:0:0:
68,342,668307,1,0,0:0:0:0:
102,370,668382,1,2,0:0:0:0:
142,387,668457,1,0,0:0:0:0:
185,396,668532,1,2,0:0:0:0:
228,394,668607,1,0,0:0:0:0:
262,369,668682,1,8,0:2:0:0:
203,282,668832,5,0,0:0:0:0:
228,246,668907,1,0,0:0:0:0:
254,211,668982,2,0,L|294:155,2,43.75,8|0|8,0:0|0:0|0:0,0:0:0:0:
295,288,669282,1,8,0:0:0:0:
376,320,669432,1,8,0:0:0:0:
453,192,669582,1,8,0:2:0:0:
378,118,669732,5,2,0:0:0:0:
342,93,669807,1,0,0:0:0:0:
306,68,669882,2,0,P|261:49|218:56,1,87.5,8|2,0:2|0:0,0:0:0:0:
182,71,670107,1,0,0:0:0:0:
150,101,670182,5,8,0:2:0:0:
258,202,670332,1,8,0:2:0:0:
236,240,670407,1,0,0:0:0:0:
206,272,670482,1,2,0:0:0:0:
170,295,670557,1,0,0:0:0:0:
128,309,670632,1,2,0:0:0:0:
85,313,670707,1,0,0:0:0:0:
42,306,670782,1,8,0:0:0:0:
1,199,670932,1,8,0:0:0:0:
114,208,671082,1,8,0:0:0:0:
210,147,671232,5,2,0:0:0:0:
249,129,671307,1,0,0:0:0:0:
291,136,671382,1,2,0:0:0:0:
322,167,671457,1,0,0:0:0:0:
329,209,671532,1,8,0:2:0:0:
253,316,671682,5,0,0:0:0:0:
253,316,671757,1,0,0:0:0:0:
253,316,671832,1,8,0:2:0:0:
114,208,671982,1,8,0:2:0:0:
218,67,672132,1,8,0:2:0:0:
280,183,672282,6,0,P|322:204|377:206,1,87.5,8|0,0:0|0:0,0:0:0:0:
405,205,672507,1,0,0:0:0:0:
446,192,672582,1,8,0:0:0:0:
478,162,672657,1,0,0:0:0:0:
495,121,672732,1,8,0:2:0:0:
397,81,672882,1,0,0:0:0:0:
354,90,672957,1,0,0:0:0:0:
312,103,673032,2,0,L|279:114,8,21.875
332,203,673482,6,0,L|364:228,8,32.8125012516976,2|2|2|2|2|2|2|2|10,0:0|0:0|0:0|0:0|0:0|0:0|0:0|0:0|0:0,0:0:0:0:
293,182,673857,1,2,0:0:0:0:
250,172,673932,1,2,0:0:0:0:
206,168,674007,1,0,0:0:0:0:
162,174,674082,1,8,0:2:0:0:
79,239,674232,6,0,L|41:280,1,43.75,2|2,0:2|0:2,0:0:0:0:
142,281,674382,1,8,0:2:0:0:
183,294,674457,1,0,0:0:0:0:
226,299,674532,1,8,0:2:0:0:
270,291,674607,1,0,0:0:0:0:
311,276,674682,1,2,0:0:0:0:
323,162,674832,5,2,0:0:0:0:
323,162,674907,1,0,0:0:0:0:
323,162,674982,1,8,0:0:0:0:
196,83,675132,2,0,L|160:47,2,43.75,8|0|0,0:0|0:0|0:0,0:0:0:0:
251,202,675432,1,8,0:0:0:0:
140,301,675582,1,8,0:0:0:0:
73,200,675732,1,2,0:0:0:0:
73,200,675807,1,0,0:0:0:0:
73,200,675882,1,8,0:1:0:0:
124,60,676032,2,0,P|200:8|256:36,1,131.25,8|0,0:0|0:0,0:0:0:0:
268,38,676332,1,8,0:1:0:0:
205,122,676482,1,8,0:0:0:0:
269,236,676632,5,8,0:2:0:0:
331,370,676782,1,8,0:2:0:0:
359,223,676932,5,2,0:0:0:0:
359,223,677007,1,0,0:0:0:0:
359,223,677082,1,8,0:2:0:0:
490,293,677232,1,8,0:2:0:0:
466,163,677382,6,0,P|429:116|373:98,1,87.5,2|8,0:0|0:1,0:0:0:0:
306,76,677682,1,2,0:0:0:0:
263,69,677757,1,0,0:0:0:0:
221,81,677832,1,2,0:0:0:0:
188,110,677907,1,0,0:0:0:0:
169,149,677982,1,8,0:0:0:0:
125,244,678132,2,0,L|105:291,1,43.75,8|0,0:0|0:0,0:0:0:0:
58,226,678282,1,8,0:2:0:0:
33,76,678432,5,2,0:0:0:0:
76,70,678507,1,0,0:0:0:0:
118,82,678582,1,2,0:0:0:0:
151,110,678657,1,0,0:0:0:0:
169,149,678732,1,8,0:0:0:0:
209,245,678882,1,8,0:0:0:0:
307,158,679032,5,8,0:2:0:0:
445,212,679182,1,8,0:2:0:0:
327,303,679332,5,2,0:0:0:0:
327,303,679407,1,0,0:0:0:0:
327,303,679482,1,8,0:2:0:0:
215,254,679632,1,0,0:0:0:0:
215,254,679707,1,0,0:0:0:0:
215,254,679782,2,0,L|155:221,1,43.75,8|0,0:2|0:0,0:0:0:0:
140,208,679932,6,0,P|102:167|104:107,1,87.5,8|8,0:1|0:0,0:0:0:0:
133,38,680232,1,8,0:0:0:0:
236,19,680382,1,8,0:0:0:0:
330,85,680532,5,2,0:0:0:0:
330,85,680607,1,0,0:0:0:0:
330,85,680682,1,8,0:2:0:0:
345,189,680832,2,0,P|354:231|348:284,1,87.5,8|2,0:0|0:0,0:0:0:0:
330,314,681057,1,0,0:0:0:0:
294,338,681132,1,8,0:2:0:0:
193,307,681282,6,0,P|180:264|190:212,1,87.5,8|8,0:0|0:2,0:0:0:0:
279,107,681582,1,8,0:2:0:0:
345,189,681732,2,0,P|381:133|383:98,2,87.5,2|0|2,0:0|0:0|0:0,0:0:0:0:
266,259,682182,5,8,0:2:0:0:
132,193,682332,1,8,0:2:0:0:
97,93,682482,5,2,0:0:0:0:
136,73,682557,1,0,0:0:0:0:
179,66,682632,1,2,0:0:0:0:
222,73,682707,1,0,0:0:0:0:
261,94,682782,1,8,0:0:0:0:
307,187,682932,1,8,0:0:0:0:
374,106,683082,1,8,0:0:0:0:
477,125,683232,5,2,0:0:0:0:
496,163,683307,1,0,0:0:0:0:
497,207,683382,1,2,0:0:0:0:
488,249,683457,1,0,0:0:0:0:
462,283,683532,2,0,P|417:317|382:322,1,87.5,8|0,0:0|0:0,0:0:0:0:
335,315,683757,1,2,0:0:0:0:
284,301,683832,1,2,0:0:0:0:
219,217,683982,5,8,0:2:0:0:
88,291,684132,1,8,0:2:0:0:
54,191,684282,1,2,0:0:0:0:
64,148,684357,1,0,0:0:0:0:
86,110,684432,2,0,P|120:70|154:56,1,87.5,2|8,0:0|0:0,0:0:0:0:
288,85,684732,5,2,0:0:0:0:
288,85,684807,1,0,0:0:0:0:
288,85,684882,2,0,L|343:47,1,43.75,8|0,0:0|2:0,0:0:0:0:
295,162,685032,5,2,0:0:0:0:
295,162,685107,1,0,0:0:0:0:
295,162,685182,2,0,L|360:174,1,43.75,8|0,0:0|2:0,0:0:0:0:
245,219,685332,5,2,0:0:0:0:
245,219,685407,1,0,0:0:0:0:
245,219,685482,2,0,P|276:267|309:296,1,87.5,8|2,0:0|0:0,0:0:0:0:
334,311,685707,1,0,0:0:0:0:
375,325,685782,1,8,0:0:0:0:
418,326,685857,1,0,0:0:0:0:
459,315,685932,2,0,P|500:295|522:255,2,87.5,2|2|2,0:2|0:2|0:2,0:0:0:0:
424,215,686382,5,8,0:2:0:0:
302,129,686532,1,8,0:2:0:0:
257,233,686682,6,0,P|208:269|159:275,1,87.5,2|0,0:0|0:0,0:0:0:0:
136,369,686982,1,2,0:0:0:0:
102,342,687057,1,0,0:0:0:0:
82,303,687132,1,2,0:0:0:0:
79,260,687207,1,0,0:0:0:0:
93,219,687282,1,2,0:0:0:0:
123,187,687357,1,2,0:0:0:0:
270,131,687582,5,8,0:0:0:0:
341,241,687732,1,8,0:0:0:0:
409,128,687882,1,8,0:0:0:0:
339,49,688032,1,0,0:0:0:0:
300,29,688107,1,0,0:0:0:0:
257,28,688182,2,0,L|164:37,1,87.5,8|8,0:0|0:2,0:0:0:0:
122,130,688482,5,2,0:0:0:0:
122,130,688557,1,0,0:0:0:0:
122,130,688632,1,2,0:0:0:0:
79,272,688782,1,8,0:2:0:0:
181,189,688932,5,2,0:0:0:0:
181,189,689007,1,0,0:0:0:0:
181,189,689082,1,2,0:0:0:0:
203,336,689232,1,8,0:2:0:0:
262,218,689382,5,2,0:0:0:0:
262,218,689457,1,0,0:0:0:0:
262,218,689532,2,0,L|382:204,1,87.5,2|2,0:0|0:2,0:0:0:0:
272,143,689832,1,2,0:0:0:0:
344,136,689982,2,0,L|464:122,1,87.5,2|2,0:0|0:2,0:0:0:0:
354,63,690282,1,2,0:0:0:0:
426,56,690432,2,0,L|546:42,1,87.5,2|2,0:0|0:2,0:0:0:0:
508,133,690732,1,2,0:0:0:0:
498,220,690882,2,0,L|486:312,2,87.5,2|2|8,0:0|0:2|0:0,0:0:0:0:
424,160,691332,5,2,0:0:0:0:
424,160,691407,1,0,0:0:0:0:
424,160,691482,1,2,0:0:0:0:
348,245,691632,1,8,0:0:0:0:
245,224,691782,1,0,0:0:0:0:
245,224,691857,1,0,0:0:0:0:
245,224,691932,1,0,0:0:0:0:
314,133,692082,5,10,0:0:0:0:
213,104,692232,1,2,0:0:0:0:
133,173,692382,1,2,0:0:0:0:
143,277,692532,1,10,0:0:0:0:
230,334,692682,2,0,P|281:331|319:303,1,87.5,10|2,0:0|0:0,0:0:0:0:
337,283,692907,1,0,0:0:0:0:
348,245,692982,2,0,L|357:198,2,43.75,10|2|2,0:0|0:0|0:0,0:0:0:0:
385,338,693282,5,8,0:0:0:0:
257,261,693432,1,8,0:0:0:0:
234,113,693582,1,8,0:0:0:0:
368,56,693732,1,2,0:0:0:0:
368,56,693807,1,0,0:0:0:0:
368,56,693882,1,2,0:2:0:0:
344,172,694032,1,8,0:0:0:0:
454,143,694182,5,2,0:0:0:0:
454,173,694257,1,0,0:0:0:0:
448,207,694332,1,2,0:0:0:0:
431,242,694407,1,0,0:0:0:0:
397,269,694482,1,2,0:0:0:0:
351,285,694557,1,0,0:0:0:0:
298,289,694632,1,2,0:0:0:0:
241,284,694707,1,0,0:0:0:0:
183,263,694782,5,10,0:0:0:0:
51,255,694932,1,8,0:0:0:0:
116,141,695082,1,8,0:0:0:0:
225,194,695232,5,2,0:0:0:0:
252,160,695307,1,0,0:0:0:0:
288,135,695382,1,2,0:0:0:0:
330,123,695457,1,0,0:0:0:0:
373,123,695532,1,2,0:0:0:0:
340,231,695682,1,0,0:0:0:0:
258,297,695832,1,2,0:0:0:0:
225,302,695907,1,0,0:0:0:0:
193,297,695982,1,2,0:0:0:0:
164,282,696057,1,0,0:0:0:0:
142,258,696132,6,0,L|91:187,1,87.5,10|0,0:2|0:0,0:0:0:0:
197,184,696432,1,2,0:0:0:0:
282,225,696582,2,0,P|287:166|258:115,1,87.5,10|0,0:2|0:0,0:0:0:0:
197,184,696882,2,0,L|145:112,2,87.5,8|0|4,0:0|0:0|0:1,0:0:0:0:
277,140,697332,1,2,0:2:0:0:
282,225,697482,1,2,0:2:0:0:
400,178,697632,5,2,0:0:0:0:
400,178,697707,1,0,0:0:0:0:
400,178,697782,1,8,0:2:0:0:
373,279,697932,1,2,0:0:0:0:
474,252,698082,1,2,0:0:0:0:
502,150,698232,2,0,P|465:93|417:76,1,87.5,2|8,0:0|0:0,0:0:0:0:
319,63,698532,5,2,0:0:0:0:
216,144,698682,1,2,0:0:0:0:
337,193,698832,2,0,P|371:240|342:320,1,131.25,8|0,0:0|0:0,0:0:0:0:
344,323,699132,2,0,L|323:344,12,21.875,2|0|0|0|2|0|0|0|2|0|0|0|2,0:0|0:0|0:0|0:0|0:0|0:0|0:0|0:0|0:0|0:0|0:0|0:0|0:0,0:0:0:0:
213,304,699732,6,0,L|88:281,1,87.5,2|0,0:0|0:0,0:0:0:0:
62,228,700032,1,2,0:0:0:0:
168,211,700182,2,0,L|75:130,1,87.5,2|0,0:0|0:0,0:0:0:0:
153,49,700482,5,8,0:0:0:0:
241,120,700632,1,8,0:0:0:0:
168,211,700782,2,0,L|118:303,1,87.5,8|2,0:0|0:0,0:0:0:0:
295,335,701082,5,10,0:2:0:0:
400,195,701232,1,10,0:2:0:0:
241,120,701382,1,10,0:2:0:0:
244,233,701532,6,0,L|127:262,2,87.5,2|0|0,0:0|0:0|0:0,0:0:0:0:
355,208,701982,2,0,L|450:184,1,87.5,2|0,0:0|0:0,0:0:0:0:
336,139,702282,1,0,0:0:0:0:
225,164,702432,2,0,L|130:188,1,87.5,2|0,0:0|0:0,0:0:0:0:
244,233,702732,1,2,0:0:0:0:
320,316,702882,1,2,0:2:0:0:
355,208,703032,1,2,0:2:0:0:
273,128,703182,6,0,L|241:43,1,87.5,8|0,0:2|0:0,0:0:0:0:
273,128,703482,2,0,P|205:112|173:119,1,87.5,8|0,0:2|0:0,0:0:0:0:
164,124,703707,1,2,0:2:0:0:
143,139,703782,1,2,0:2:0:0:
102,245,703932,1,8,0:2:0:0:
215,237,704082,2,0,P|268:251|305:246,2,87.5,8|0|8,0:2|0:0|0:2,0:0:0:0:
273,128,704532,1,0,0:0:0:0:
383,100,704682,6,0,L|492:74,1,87.5,8|0,0:0|0:0,0:0:0:0:
435,189,704982,1,0,0:0:0:0:
325,217,705132,2,0,L|216:243,1,87.5,8|0,0:0|0:0,0:0:0:0:
184,336,705432,1,0,0:0:0:0:
123,239,705582,5,2,0:0:0:0:
254,307,705732,2,0,P|315:332|396:305,1,131.25,2|0,0:0|0:0,0:0:0:0:
434,270,706032,1,2,0:0:0:0:
325,217,706182,1,2,0:0:0:0:
325,217,706257,1,0,0:0:0:0:
325,217,706332,1,0,0:0:0:0:
254,307,706482,2,0,L|172:337,1,87.5,2|0,0:0|0:0,0:0:0:0:
75,276,706782,1,2,0:0:0:0:
69,162,706932,2,0,L|25:113,2,43.75,0|0|2,0:0|0:0|0:0,0:0:0:0:
173,207,707232,1,2,0:2:0:0:
282,175,707382,1,2,0:2:0:0:
387,280,707532,5,8,0:2:0:0:
430,137,707682,1,8,0:2:0:0:
324,32,707832,1,8,0:2:0:0:
282,175,707982,2,0,L|182:200,1,87.5,8|0,0:2|0:0,0:0:0:0:
126,106,708282,1,8,0:2:0:0:
115,115,708357,1,0,0:0:0:0:
105,127,708432,1,2,0:0:0:0:
97,139,708507,1,0,0:0:0:0:
91,152,708582,1,2,0:2:0:0:
86,166,708657,1,0,0:0:0:0:
83,180,708732,1,2,0:0:0:0:
82,194,708807,1,0,0:0:0:0:
83,209,708882,1,2,0:2:0:0:
85,223,708957,1,0,0:0:0:0:
90,237,709032,1,2,0:0:0:0:
96,251,709107,1,0,0:0:0:0:
103,263,709182,6,0,L|153:342,1,87.5,10|0,0:0|0:0,0:0:0:0:
219,225,709482,1,8,0:2:0:0:
136,123,709632,2,0,L|226:91,1,87.5,8|0,0:0|0:0,0:0:0:0:
219,225,709932,1,8,0:2:0:0:
150,337,710082,6,0,L|235:357,2,87.5,10|0|8,0:0|0:0|0:2,0:0:0:0:
219,225,710532,1,2,0:0:0:0:
218,93,710682,2,0,L|301:121,1,87.5,8|0,0:2|0:0,0:0:0:0:
219,225,710982,5,2,0:0:0:0:
240,227,711057,1,0,0:0:0:0:
262,230,711132,1,2,0:0:0:0:
284,233,711207,1,0,0:0:0:0:
305,236,711282,1,8,0:2:0:0:
394,183,711432,1,8,0:2:0:0:
301,121,711582,2,0,L|218:93,2,87.5,8|0|0,0:2|0:0|0:0,0:0:0:0:
305,236,712032,1,2,0:2:0:0:
305,236,712107,1,0,0:0:0:0:
305,236,712182,1,2,0:2:0:0:
217,309,712332,5,8,0:2:0:0:
107,236,712482,1,8,0:2:0:0:
176,124,712632,1,8,0:2:0:0:
285,196,712782,2,0,L|374:246,1,87.5,8|0,0:2|0:0,0:0:0:0:
285,196,713082,2,0,P|341:171|364:144,2,87.5,8|0|0,0:2|0:0|0:0,0:0:0:0:
171,207,713532,1,8,0:2:0:0:
73,148,713682,2,0,P|41:102|33:63,1,87.5,8|0,0:2|0:0,0:0:0:0:
147,59,713982,1,2,0:0:0:0:
257,86,714132,1,2,0:0:0:0:
285,196,714282,6,0,P|280:246|263:286,1,87.5,8|0,0:0|0:0,0:0:0:0:
187,362,714582,1,2,0:2:0:0:
91,300,714732,2,0,P|96:250|113:210,1,87.5,8|0,0:0|0:0,0:0:0:0:
189,134,715032,1,2,0:2:0:0:
308,80,715182,5,8,0:2:0:0:
420,147,715332,1,8,0:2:0:0:
301,203,715482,1,8,0:2:0:0:
189,134,715632,1,2,0:2:0:0:
189,134,715707,1,0,0:0:0:0:
189,134,715782,1,2,0:2:0:0:
185,265,715932,1,0,0:0:0:0:
301,203,716082,1,2,0:0:0:0:
408,278,716232,1,0,0:0:0:0:
420,147,716382,2,0,L|473:65,2,87.5,2|0|2,0:0|0:0|0:0,0:0:0:0:
347,256,716832,5,2,0:2:0:0:
332,271,716907,1,0,0:0:0:0:
314,284,716982,1,2,0:2:0:0:
293,292,717057,1,0,0:0:0:0:
272,295,717132,1,2,0:2:0:0:
167,251,717282,1,2,0:2:0:0:
258,182,717432,1,2,0:2:0:0:
365,170,717582,6,0,L|453:157,2,83.1249977803231,2|0|2,0:0|0:0|0:0,0:0:0:0:
298,84,718032,1,2,0:2:0:0:
190,90,718182,2,0,P|152:137|144:190,1,83.1249977803231,8|0,0:2|0:0,0:0:0:0:
258,182,718482,1,2,0:2:0:0:
145,157,718632,2,0,P|147:217|175:262,1,83.1249977803231,8|0,0:2|0:0,0:0:0:0:
258,182,718932,1,2,0:2:0:0:
156,237,719082,2,0,P|197:281|248:296,1,83.1249977803231,8|0,0:2|0:0,0:0:0:0:
258,182,719382,1,2,0:2:0:0:
298,290,719532,5,4,0:0:0:0:
359,236,719682,1,4,0:0:0:0:
369,155,719832,1,4,0:0:0:0:
258,182,719982,6,0,L|166:220,2,82.2499987449646,8|0|2,0:2|0:0|0:0,0:0:0:0:
296,95,720432,2,0,P|361:66|455:117,1,164.499997489929,8|0,0:2|0:0,0:0:0:0:
369,155,720882,2,0,P|369:212|348:247,1,82.2499987449646,8|2,0:2|0:0,0:0:0:0:
284,294,721182,1,8,0:2:0:0:
191,272,721332,5,2,0:0:0:0:
257,204,721482,1,2,0:0:0:0:
166,175,721632,2,0,L|91:114,1,82.2499987449646,8|0,0:2|0:0,0:0:0:0:
190,89,721932,1,2,0:0:0:0:
281,114,722082,5,8,0:2:0:0:
347,180,722232,1,8,0:2:0:0:
321,269,722382,2,0,L|292:354,1,81.3750025454522,8|0,0:2|0:0,0:0:0:0:
232,276,722682,1,2,0:0:0:0:
148,317,722832,2,0,P|144:245|182:197,1,122.062503818178,8|0,0:2|0:0,0:0:0:0:
212,184,723132,1,8,0:2:0:0:
326,141,723282,1,8,0:2:0:0:
213,92,723432,1,2,0:0:0:0:
326,221,723582,6,0,L|384:283,2,81.3750025454522,10|2|2,0:2|0:2|0:2,0:0:0:0:
234,199,724032,1,2,0:0:0:0:
137,215,724182,1,0,0:0:0:0:
75,139,724332,5,2,0:0:0:0:
111,48,724482,1,2,0:0:0:0:
207,32,724632,1,2,0:0:0:0:
305,101,724782,6,0,L|457:167,1,160.999994595337,4|0,0:2|0:0,0:0:0:0:
241,157,725232,2,0,L|393:223,1,160.999994595337,4|0,0:2|0:0,0:0:0:0:
177,215,725682,2,0,L|253:248,2,80.4999972976685,4|2|2,0:2|0:0|0:0,0:0:0:0:
87,190,726132,1,2,0:0:0:0:
156,128,726282,1,8,0:2:0:0:
241,157,726432,2,0,L|317:190,2,80.4999972976685,2|0|8,0:0|0:0|0:2,0:0:0:0:
227,64,726882,1,2,0:0:0:0:
313,97,727032,1,2,0:0:0:0:
389,146,727182,6,0,P|398:206|385:238,1,79.6250026729585,4|4,0:0|0:0,0:0:0:0:
317,275,727482,1,0,0:0:0:0:
314,189,727632,2,0,P|248:224|246:322,2,159.250005345917,4|2|0,0:0|0:0|0:0,0:0:0:0:
317,275,728382,2,0,P|382:239|383:145,1,159.250005345917,4|2,0:0|0:0,0:0:0:0:
318,104,728832,1,2,0:0:0:0:
236,144,728982,2,0,L|155:199,1,79.6250026729585,2|2,0:0|0:2,0:0:0:0:
170,96,729282,2,0,L|89:151,1,79.6250026729585,2|2,0:0|0:0,0:0:0:0:
95,231,729582,5,2,0:2:0:0:
107,250,729657,1,0,0:0:0:0:
125,266,729732,1,0,0:0:0:0:
215,253,729882,2,0,L|280:208,1,79.6250026729585,2|0,0:2|0:0,0:0:0:0:
355,158,730182,2,0,P|429:165|470:215,2,118.124996395111,2|0|2,0:2|0:0|0:2,0:0:0:0:
385,243,730782,2,0,P|329:244|273:193,2,118.124996395111,2|0|2,0:2|0:0|0:2,0:0:0:0:
355,158,731382,1,2,0:2:0:0:
274,117,731532,1,2,0:0:0:0:
200,169,731682,1,2,0:0:0:0:
210,259,731832,1,2,0:0:0:0:
127,224,731982,6,0,L|42:186,1,77.8750000594139,4|0,0:0|0:0,0:0:0:0:
119,129,732282,1,8,0:2:0:0:
200,169,732432,2,0,L|200:75,1,77.8750000594139,4|0,0:0|0:0,0:0:0:0:
281,129,732732,2,0,P|330:144|361:182,1,77.8750000594139,8|2,0:2|0:0,0:0:0:0:
396,224,733032,2,0,L|413:250,4,19.4687500148535,2|2|2|2|2,0:2|0:2|0:2|0:2|0:2,0:0:0:0:
348,161,733332,5,2,0:0:0:0:
285,115,733482,2,0,P|251:89|206:70,1,77.8750000594139,2|2,0:0|0:2,0:0:0:0:
141,62,733782,1,2,0:2:0:0:
141,139,733932,2,0,P|155:178|177:214,2,77.8750000594139,2|0|2,0:0|0:0|0:0,0:0:0:0:
227,160,734382,5,2,0:0:0:0:
242,177,734457,1,0,0:0:0:0:
258,194,734532,1,2,0:2:0:0:
319,258,734682,1,0,0:0:0:0:
398,297,734832,2,0,P|388:202|322:170,1,154.000004699707,2|0,0:0|0:0,0:0:0:0:
258,194,735282,2,0,L|114:249,2,154.000004699707,2|2|2,0:0|0:0|0:2,0:0:0:0:
285,109,736032,1,0,0:0:0:0:
345,173,736182,5,8,0:0:0:0:
319,258,736332,1,2,0:2:0:0:
350,177,736482,1,2,0:2:0:0:
314,254,736632,1,2,0:2:0:0:
227,268,736782,6,0,L|136:281,1,76.1250006388664,2|0,0:0|0:0,0:0:0:0:
97,209,737082,1,2,0:2:0:0:
181,184,737232,2,0,L|137:108,1,76.1250006388664,2|0,0:0|0:0,0:0:0:0:
207,57,737532,1,2,0:2:0:0:
262,124,737682,2,0,L|331:73,1,76.1250006388664,2|0,0:0|0:0,0:0:0:0:
396,128,737982,2,0,P|396:175|319:247,1,152.250001277733,2|2,0:0|0:0,0:0:0:0:
306,153,738432,1,2,0:2:0:0:
245,216,738582,5,2,0:0:0:0:
179,267,738732,1,2,0:0:0:0:
127,201,738882,1,2,0:0:0:0:
194,149,739032,1,2,0:0:0:0:
306,153,739182,6,0,L|410:153,2,75.2500011482239,4|0|2,0:0|0:0|0:0,0:0:0:0:
309,240,739632,2,0,P|234:204|226:120,1,150.500002296448,4|0,0:0|0:0,0:0:0:0:
306,153,740082,2,0,P|353:151|396:119,1,75.2500011482239,4|0,0:0|0:0,0:0:0:0:
325,68,740382,2,0,P|246:85|219:145,1,150.500002296448,4|2,0:0|0:0,0:0:0:0:
212,231,740832,1,2,0:0:0:0:
180,311,740982,6,0,P|138:277|126:217,1,112.875001722336,10|0,0:0|0:0,0:0:0:0:
172,151,741582,5,4,0:0:0:0:
172,151,741657,1,0,0:0:0:0:
172,151,741732,1,2,0:0:0:0:
257,158,741882,1,2,0:0:0:0:
212,231,742032,2,0,L|183:313,2,74.3750014185906,4|0|0,0:0|0:0|0:0,0:0:0:0:
297,231,742482,1,4,0:0:0:0:
318,213,742557,1,2,0:2:0:0:
333,190,742632,1,2,0:2:0:0:
339,163,742707,1,2,0:2:0:0:
336,135,742782,2,0,P|307:91|244:76,1,111.562502127886,2|0,0:2|0:0,0:0:0:0:
184,82,743082,5,8,0:2:0:0:
112,186,743232,1,8,0:2:0:0:
104,100,743382,1,8,0:2:0:0:
112,186,743532,1,8,0:2:0:0:
212,231,743682,5,4,0:0:0:0:
297,231,743832,1,2,0:0:0:0:
364,180,743982,2,0,L|423:113,1,73.4999977569581,4|0,0:0|0:0,0:0:0:0:
337,84,744282,5,8,0:2:0:0:
254,158,744432,1,8,0:2:0:0:
171,172,744582,6,0,P|184:206|211:230,1,73.4999977569581,0|0,0:2|0:0,0:0:0:0:
171,172,744882,2,0,P|148:201|141:236,1,73.4999977569581,2|0,0:0|0:0,0:0:0:0:
171,172,745182,2,0,P|132:167|73:257,1,146.999995513916,6|2,0:0|0:2,0:0:0:0:
72,260,745557,1,2,0:2:0:0:
80,276,745632,1,2,0:2:0:0:
92,290,745707,1,2,0:2:0:0:
108,300,745782,5,2,0:0:0:0:
192,309,745932,1,2,0:0:0:0:
165,228,746082,1,2,0:0:0:0:
186,224,746157,1,0,0:0:0:0:
208,226,746232,1,2,0:0:0:0:
229,233,746307,1,0,0:0:0:0:
247,246,746382,6,0,L|309:304,1,70,6|0,0:0|0:0,0:0:0:0:
366,233,746682,1,2,0:0:0:0:
298,171,746832,2,0,L|321:98,1,70,4|0,0:0|0:0,0:0:0:0:
234,71,747132,2,0,P|182:71|155:87,3,70,2|0|0|4,0:0|0:0|0:0|0:0,0:0:0:0:
207,149,747882,5,2,0:0:0:0:
194,171,747957,1,0,0:0:0:0:
178,192,748032,1,2,0:2:0:0:
158,210,748107,1,0,0:0:0:0:
137,225,748182,1,2,0:0:0:0:
55,186,748332,1,2,0:2:0:0:
55,186,748407,1,2,0:2:0:0:
55,186,748482,2,0,P|45:236|57:268,1,70,2|2,0:0|0:0,0:0:0:0:
117,314,748782,5,2,0:0:0:0:
140,315,748857,1,0,0:0:0:0:
163,310,748932,1,2,0:2:0:0:
183,300,749007,1,2,0:2:0:0:
201,285,749082,1,2,0:2:0:0:
213,265,749157,1,2,0:2:0:0:
220,243,749232,2,0,P|248:190|336:171,1,140,8|0,0:0|0:0,0:0:0:0:
309,257,749682,2,0,P|381:233|408:152,2,140,8|8|2,0:0|0:0|0:0,0:0:0:0:
320,167,750432,6,0,L|263:95,1,70,2|2,0:0|0:0,0:0:0:0:
189,86,750732,1,2,0:0:0:0:
213,173,750882,1,2,0:2:0:0:
186,175,750957,1,2,0:2:0:0:
161,171,751032,1,2,0:2:0:0:
137,160,751107,1,2,0:2:0:0:
117,143,751182,5,4,0:0:0:0:
71,319,751482,1,4,0:0:0:0:
248,279,751782,1,4,0:0:0:0:
322,227,751932,2,0,L|436:141,1,140,12|0,0:0|0:0,0:0:0:0:
263,183,752382,2,0,L|377:97,1,140,8|0,0:0|0:0,0:0:0:0:
204,138,752832,2,0,L|318:52,1,140,8|0,0:0|0:0,0:0:0:0:
145,94,753282,1,8,0:0:0:0:
145,94,753432,2,0,P|133:155|263:183,1,210,8|0,0:0|2:0,0:0:0:0:
145,94,755682,5,0,0:0:0:0:
322,227,755832,1,0,0:0:0:0:
