osu file format v14

[General]
AudioFilename: a.mp3
AudioLeadIn: 0
PreviewTime: -1
Countdown: 0
SampleSet: None
StackLeniency: 0.7
Mode: 3
LetterboxInBreaks: 0
SpecialStyle: 0
WidescreenStoryboard: 1

[Editor]
DistanceSpacing: 0.5
BeatDivisor: 4
GridSize: 32
TimelineZoom: 1.7

[Metadata]
Title:Keikiri Song Pack
TitleUnicode:Keikiri Song Pack
Artist:Various Artists
ArtistUnicode:Various Artists
Creator:Weabonie
Version:Neko Kanimaru - Hidamari no Machi - A!
Source:
Tags:
BeatmapID:1736081
BeatmapSetID:828637

[Difficulty]
HPDrainRate:8
CircleSize:4
OverallDifficulty:8
ApproachRate:5
SliderMultiplier:1.4
SliderTickRate:1

[Events]
//Background and Video events
0,0,"reworks_a2.jpg",0,0
//Break Periods
//Storyboard Layer 0 (Background)
//Storyboard Layer 1 (Fail)
//Storyboard Layer 2 (Pass)
//Storyboard Layer 3 (Foreground)
//Storyboard Sound Samples

[TimingPoints]
1237,291.26213592233,4,2,0,44,1,0

[HitObjects]
64,192,1237,5,0,0:0:0:0:
64,192,1528,1,0,0:0:0:0:
320,192,1528,1,0,0:0:0:0:
64,192,1746,1,0,0:0:0:0:
64,192,1892,1,0,0:0:0:0:
320,192,2110,1,0,0:0:0:0:
64,192,2110,1,0,0:0:0:0:
64,192,2256,1,0,0:0:0:0:
64,192,2474,1,0,0:0:0:0:
320,192,2693,1,0,0:0:0:0:
64,192,2693,1,0,0:0:0:0:
64,192,2911,1,0,0:0:0:0:
64,192,3057,1,0,0:0:0:0:
64,192,3275,1,0,0:0:0:0:
320,192,3275,1,0,0:0:0:0:
64,192,3421,1,0,0:0:0:0:
448,192,3567,1,0,0:0:0:0:
192,192,3858,1,0,0:0:0:0:
448,192,3858,1,0,0:0:0:0:
448,192,4076,1,0,0:0:0:0:
448,192,4222,1,0,0:0:0:0:
192,192,4440,1,0,0:0:0:0:
448,192,4440,1,0,0:0:0:0:
448,192,4586,1,0,0:0:0:0:
448,192,4804,1,0,0:0:0:0:
192,192,5023,1,0,0:0:0:0:
448,192,5023,1,0,0:0:0:0:
448,192,5241,1,0,0:0:0:0:
448,192,5387,1,0,0:0:0:0:
192,192,5605,1,0,0:0:0:0:
448,192,5605,1,0,0:0:0:0:
448,192,5751,1,0,0:0:0:0:
320,192,5897,1,0,0:0:0:0:
320,192,6188,1,0,0:0:0:0:
64,192,6188,1,0,0:0:0:0:
320,192,6406,1,0,0:0:0:0:
320,192,6552,1,0,0:0:0:0:
64,192,6770,1,0,0:0:0:0:
320,192,6770,1,0,0:0:0:0:
320,192,6916,1,0,0:0:0:0:
320,192,7135,1,0,0:0:0:0:
320,192,7353,1,0,0:0:0:0:
64,192,7353,1,0,0:0:0:0:
320,192,7571,1,0,0:0:0:0:
320,192,7717,1,0,0:0:0:0:
64,192,7936,1,0,0:0:0:0:
320,192,7936,1,0,0:0:0:0:
320,192,8081,1,0,0:0:0:0:
192,192,8227,1,0,0:0:0:0:
192,192,8518,1,0,0:0:0:0:
448,192,8518,1,0,0:0:0:0:
192,192,8736,1,0,0:0:0:0:
192,192,8882,1,0,0:0:0:0:
192,192,9101,1,0,0:0:0:0:
448,192,9101,1,0,0:0:0:0:
192,192,9246,1,0,0:0:0:0:
320,192,9392,1,0,0:0:0:0:
448,192,9392,1,0,0:0:0:0:
448,192,9537,1,0,0:0:0:0:
320,192,9537,1,0,0:0:0:0:
192,192,9683,1,0,0:0:0:0:
64,192,9683,1,0,0:0:0:0:
192,192,9829,1,0,0:0:0:0:
64,192,9829,1,0,0:0:0:0:
64,192,9974,1,0,0:0:0:0:
192,192,9974,1,0,0:0:0:0:
320,192,10047,1,0,0:0:0:0:
192,192,10120,1,0,0:0:0:0:
448,192,10120,1,0,0:0:0:0:
64,192,10193,1,0,0:0:0:0:
320,192,10266,1,0,0:0:0:0:
448,192,10266,1,0,0:0:0:0:
192,192,10314,1,0,0:0:0:0:
64,192,10363,1,0,0:0:0:0:
320,192,10363,1,0,0:0:0:0:
448,192,10411,1,0,0:0:0:0:
192,192,10460,1,0,0:0:0:0:
64,192,10460,1,0,0:0:0:0:
320,192,10508,1,0,0:0:0:0:
448,192,10557,1,0,0:0:0:0:
64,192,10557,128,0,12596:0:0:0:0:
320,192,10848,1,0,0:0:0:0:
448,192,10848,1,0,0:0:0:0:
192,192,11139,1,0,0:0:0:0:
448,192,11139,1,0,0:0:0:0:
192,192,11431,1,0,0:0:0:0:
320,192,11431,1,0,0:0:0:0:
320,192,11576,1,0,0:0:0:0:
448,192,11576,1,0,0:0:0:0:
192,192,11722,1,0,0:0:0:0:
448,192,11722,1,0,0:0:0:0:
320,192,12013,1,0,0:0:0:0:
448,192,12013,1,0,0:0:0:0:
192,192,12304,1,0,0:0:0:0:
320,192,12304,1,0,0:0:0:0:
192,192,12596,128,0,12887:0:0:0:0:
320,192,12596,1,0,0:0:0:0:
448,192,12596,1,0,0:0:0:0:
64,192,12741,1,0,0:0:0:0:
320,192,12741,1,0,0:0:0:0:
320,192,12887,128,0,14052:0:0:0:0:
64,192,12887,1,0,0:0:0:0:
448,192,12887,1,0,0:0:0:0:
192,192,13178,1,0,0:0:0:0:
448,192,13178,1,0,0:0:0:0:
192,192,13470,1,0,0:0:0:0:
64,192,13470,1,0,0:0:0:0:
448,192,13761,1,0,0:0:0:0:
64,192,13761,1,0,0:0:0:0:
192,192,13906,1,0,0:0:0:0:
448,192,13906,1,0,0:0:0:0:
192,192,14052,1,0,0:0:0:0:
64,192,14052,1,0,0:0:0:0:
448,192,14052,128,0,15217:0:0:0:0:
192,192,14343,1,0,0:0:0:0:
320,192,14343,1,0,0:0:0:0:
64,192,14489,1,0,0:0:0:0:
192,192,14489,1,0,0:0:0:0:
64,192,14635,1,0,0:0:0:0:
320,192,14635,1,0,0:0:0:0:
64,192,14926,1,0,0:0:0:0:
192,192,14926,1,0,0:0:0:0:
192,192,15071,1,0,0:0:0:0:
320,192,15071,1,0,0:0:0:0:
64,192,15217,1,0,0:0:0:0:
192,192,15217,1,0,0:0:0:0:
320,192,15217,128,0,16965:0:0:0:0:
192,192,15508,1,0,0:0:0:0:
448,192,15508,1,0,0:0:0:0:
64,192,15800,1,0,0:0:0:0:
448,192,15800,1,0,0:0:0:0:
192,192,16091,1,0,0:0:0:0:
64,192,16091,1,0,0:0:0:0:
192,192,16236,1,0,0:0:0:0:
448,192,16236,1,0,0:0:0:0:
64,192,16382,1,0,0:0:0:0:
448,192,16382,1,0,0:0:0:0:
192,192,16673,1,0,0:0:0:0:
64,192,16673,1,0,0:0:0:0:
64,192,16965,1,0,0:0:0:0:
448,192,16965,1,0,0:0:0:0:
192,192,16965,128,0,17256:0:0:0:0:
320,192,17256,128,0,17547:0:0:0:0:
64,192,17256,1,0,0:0:0:0:
448,192,17256,1,0,0:0:0:0:
192,192,17402,1,0,0:0:0:0:
448,192,17402,1,0,0:0:0:0:
64,192,17547,128,0,18421:0:0:0:0:
192,192,17547,1,0,0:0:0:0:
448,192,17547,1,0,0:0:0:0:
320,192,17838,1,0,0:0:0:0:
448,192,17838,1,0,0:0:0:0:
192,192,18130,1,0,0:0:0:0:
320,192,18130,1,0,0:0:0:0:
320,192,18421,1,0,0:0:0:0:
192,192,18421,1,0,0:0:0:0:
448,192,18421,128,0,18712:0:0:0:0:
64,192,18567,1,0,0:0:0:0:
320,192,18567,1,0,0:0:0:0:
192,192,18712,1,0,0:0:0:0:
64,192,18712,1,0,0:0:0:0:
192,192,18858,1,0,0:0:0:0:
64,192,18858,1,0,0:0:0:0:
320,192,19003,1,0,0:0:0:0:
448,192,19003,1,0,0:0:0:0:
320,192,19149,1,0,0:0:0:0:
448,192,19149,1,0,0:0:0:0:
192,192,19295,1,0,0:0:0:0:
64,192,19295,1,0,0:0:0:0:
320,192,19368,1,0,0:0:0:0:
192,192,19440,1,0,0:0:0:0:
448,192,19440,1,0,0:0:0:0:
64,192,19513,1,0,0:0:0:0:
320,192,19586,1,0,0:0:0:0:
448,192,19586,1,0,0:0:0:0:
192,192,19635,1,0,0:0:0:0:
64,192,19683,1,0,0:0:0:0:
320,192,19683,1,0,0:0:0:0:
448,192,19732,1,0,0:0:0:0:
192,192,19780,1,0,0:0:0:0:
64,192,19780,1,0,0:0:0:0:
320,192,19829,1,0,0:0:0:0:
192,192,19877,1,0,0:0:0:0:
448,192,19877,1,0,0:0:0:0:
64,192,19950,1,0,0:0:0:0:
320,192,20023,1,0,0:0:0:0:
448,192,20023,1,0,0:0:0:0:
192,192,20096,1,0,0:0:0:0:
448,192,20169,1,0,0:0:0:0:
64,192,20169,1,0,0:0:0:0:
320,192,20241,1,0,0:0:0:0:
192,192,20314,1,0,0:0:0:0:
64,192,20314,1,0,0:0:0:0:
320,192,20387,1,0,0:0:0:0:
448,192,20460,1,0,0:0:0:0:
64,192,20460,1,0,0:0:0:0:
192,192,20533,1,0,0:0:0:0:
320,192,20605,1,0,0:0:0:0:
448,192,20678,1,0,0:0:0:0:
64,192,20751,1,0,0:0:0:0:
192,192,20751,1,0,0:0:0:0:
320,192,20824,1,0,0:0:0:0:
64,192,20897,1,0,0:0:0:0:
192,192,20897,1,0,0:0:0:0:
448,192,20970,1,0,0:0:0:0:
64,192,21042,1,0,0:0:0:0:
320,192,21042,1,0,0:0:0:0:
192,192,21115,1,0,0:0:0:0:
64,192,21188,1,0,0:0:0:0:
448,192,21261,1,0,0:0:0:0:
64,192,21334,1,0,0:0:0:0:
320,192,21334,1,0,0:0:0:0:
192,192,21406,1,0,0:0:0:0:
448,192,21479,1,0,0:0:0:0:
64,192,21479,1,0,0:0:0:0:
320,192,21552,1,0,0:0:0:0:
192,192,21625,1,0,0:0:0:0:
64,192,21625,1,0,0:0:0:0:
448,192,21698,1,0,0:0:0:0:
320,192,21770,1,0,0:0:0:0:
64,192,21770,1,0,0:0:0:0:
192,192,21843,1,0,0:0:0:0:
64,192,21916,1,0,0:0:0:0:
448,192,21916,1,0,0:0:0:0:
320,192,21989,1,0,0:0:0:0:
192,192,22062,1,0,0:0:0:0:
448,192,22062,1,0,0:0:0:0:
64,192,22135,1,0,0:0:0:0:
320,192,22207,1,0,0:0:0:0:
448,192,22207,1,0,0:0:0:0:
192,192,22280,1,0,0:0:0:0:
64,192,22353,1,0,0:0:0:0:
320,192,22426,1,0,0:0:0:0:
192,192,22499,1,0,0:0:0:0:
64,192,22499,1,0,0:0:0:0:
448,192,22571,1,0,0:0:0:0:
320,192,22644,1,0,0:0:0:0:
192,192,22717,1,0,0:0:0:0:
448,192,22790,1,0,0:0:0:0:
64,192,22790,1,0,0:0:0:0:
320,192,22863,1,0,0:0:0:0:
64,192,22936,1,0,0:0:0:0:
448,192,22936,1,0,0:0:0:0:
192,192,23008,1,0,0:0:0:0:
320,192,23081,1,0,0:0:0:0:
448,192,23081,1,0,0:0:0:0:
192,192,23154,1,0,0:0:0:0:
64,192,23227,1,0,0:0:0:0:
320,192,23227,1,0,0:0:0:0:
448,192,23300,1,0,0:0:0:0:
192,192,23372,1,0,0:0:0:0:
64,192,23372,1,0,0:0:0:0:
320,192,23445,1,0,0:0:0:0:
448,192,23518,1,0,0:0:0:0:
64,192,23591,1,0,0:0:0:0:
192,192,23664,1,0,0:0:0:0:
448,192,23664,1,0,0:0:0:0:
320,192,23736,1,0,0:0:0:0:
448,192,23809,1,0,0:0:0:0:
64,192,23809,1,0,0:0:0:0:
192,192,23882,1,0,0:0:0:0:
320,192,23955,1,0,0:0:0:0:
448,192,23955,1,0,0:0:0:0:
64,192,24028,1,0,0:0:0:0:
192,192,24101,1,0,0:0:0:0:
448,192,24101,1,0,0:0:0:0:
320,192,24173,1,0,0:0:0:0:
64,192,24246,1,0,0:0:0:0:
192,192,24246,1,0,0:0:0:0:
448,192,24319,1,0,0:0:0:0:
320,192,24392,1,0,0:0:0:0:
64,192,24392,1,0,0:0:0:0:
192,192,24465,1,0,0:0:0:0:
448,192,24537,1,0,0:0:0:0:
320,192,24537,1,0,0:0:0:0:
64,192,24610,1,0,0:0:0:0:
192,192,24683,1,0,0:0:0:0:
320,192,24756,1,0,0:0:0:0:
64,192,24829,1,0,0:0:0:0:
448,192,24829,1,0,0:0:0:0:
192,192,24902,1,0,0:0:0:0:
448,192,24974,1,0,0:0:0:0:
320,192,24974,1,0,0:0:0:0:
192,192,25047,1,0,0:0:0:0:
64,192,25120,1,0,0:0:0:0:
320,192,25120,1,0,0:0:0:0:
448,192,25193,1,0,0:0:0:0:
192,192,25266,1,0,0:0:0:0:
320,192,25338,1,0,0:0:0:0:
64,192,25411,1,0,0:0:0:0:
192,192,25411,1,0,0:0:0:0:
320,192,25484,1,0,0:0:0:0:
448,192,25557,1,0,0:0:0:0:
192,192,25557,1,0,0:0:0:0:
64,192,25630,1,0,0:0:0:0:
320,192,25703,1,0,0:0:0:0:
448,192,25703,1,0,0:0:0:0:
192,192,25775,1,0,0:0:0:0:
64,192,25848,1,0,0:0:0:0:
320,192,25848,1,0,0:0:0:0:
192,192,25921,1,0,0:0:0:0:
448,192,25994,1,0,0:0:0:0:
64,192,25994,1,0,0:0:0:0:
320,192,26067,1,0,0:0:0:0:
192,192,26139,1,0,0:0:0:0:
64,192,26212,1,0,0:0:0:0:
320,192,26285,1,0,0:0:0:0:
448,192,26285,1,0,0:0:0:0:
192,192,26358,1,0,0:0:0:0:
64,192,26431,1,0,0:0:0:0:
320,192,26503,1,0,0:0:0:0:
192,192,26576,1,0,0:0:0:0:
64,192,26576,1,0,0:0:0:0:
320,192,26649,1,0,0:0:0:0:
448,192,26722,1,0,0:0:0:0:
64,192,26722,1,0,0:0:0:0:
192,192,26795,1,0,0:0:0:0:
320,192,26868,1,0,0:0:0:0:
448,192,26868,1,0,0:0:0:0:
192,192,26940,1,0,0:0:0:0:
64,192,27013,1,0,0:0:0:0:
448,192,27086,1,0,0:0:0:0:
320,192,27159,1,0,0:0:0:0:
64,192,27159,1,0,0:0:0:0:
192,192,27232,1,0,0:0:0:0:
64,192,27304,1,0,0:0:0:0:
448,192,27377,1,0,0:0:0:0:
320,192,27450,1,0,0:0:0:0:
64,192,27450,1,0,0:0:0:0:
192,192,27523,1,0,0:0:0:0:
320,192,27596,1,0,0:0:0:0:
448,192,27669,1,0,0:0:0:0:
192,192,27741,1,0,0:0:0:0:
64,192,27741,1,0,0:0:0:0:
320,192,27814,1,0,0:0:0:0:
64,192,27887,1,0,0:0:0:0:
448,192,27887,1,0,0:0:0:0:
192,192,27960,1,0,0:0:0:0:
320,192,28033,1,0,0:0:0:0:
448,192,28033,1,0,0:0:0:0:
64,192,28105,1,0,0:0:0:0:
320,192,28178,1,0,0:0:0:0:
448,192,28178,1,0,0:0:0:0:
192,192,28251,1,0,0:0:0:0:
64,192,28324,1,0,0:0:0:0:
448,192,28324,1,0,0:0:0:0:
320,192,28397,1,0,0:0:0:0:
192,192,28470,1,0,0:0:0:0:
64,192,28470,1,0,0:0:0:0:
448,192,28542,1,0,0:0:0:0:
192,192,28615,1,0,0:0:0:0:
64,192,28615,1,0,0:0:0:0:
320,192,28688,1,0,0:0:0:0:
448,192,28688,1,0,0:0:0:0:
192,192,28761,1,0,0:0:0:0:
64,192,28761,1,0,0:0:0:0:
448,192,28834,1,0,0:0:0:0:
320,192,28834,1,0,0:0:0:0:
64,192,28906,1,0,0:0:0:0:
192,192,28906,1,0,0:0:0:0:
320,192,28955,1,0,0:0:0:0:
192,192,29003,1,0,0:0:0:0:
448,192,29003,1,0,0:0:0:0:
64,192,29052,1,0,0:0:0:0:
320,192,29101,1,0,0:0:0:0:
448,192,29101,1,0,0:0:0:0:
192,192,29149,1,0,0:0:0:0:
64,192,29198,1,0,0:0:0:0:
320,192,29198,1,0,0:0:0:0:
448,192,29270,1,0,0:0:0:0:
192,192,29343,1,0,0:0:0:0:
64,192,29343,1,0,0:0:0:0:
320,192,29416,1,0,0:0:0:0:
448,192,29489,1,0,0:0:0:0:
192,192,29489,1,0,0:0:0:0:
64,192,29562,1,0,0:0:0:0:
320,192,29635,1,0,0:0:0:0:
448,192,29635,1,0,0:0:0:0:
192,192,29707,1,0,0:0:0:0:
64,192,29780,1,0,0:0:0:0:
448,192,29780,1,0,0:0:0:0:
320,192,29853,1,0,0:0:0:0:
192,192,29926,1,0,0:0:0:0:
64,192,29999,1,0,0:0:0:0:
320,192,30071,1,0,0:0:0:0:
448,192,30071,1,0,0:0:0:0:
192,192,30144,1,0,0:0:0:0:
448,192,30217,1,0,0:0:0:0:
320,192,30217,1,0,0:0:0:0:
64,192,30290,1,0,0:0:0:0:
192,192,30363,1,0,0:0:0:0:
448,192,30363,1,0,0:0:0:0:
320,192,30436,1,0,0:0:0:0:
192,192,30508,1,0,0:0:0:0:
64,192,30581,1,0,0:0:0:0:
448,192,30654,1,0,0:0:0:0:
320,192,30654,1,0,0:0:0:0:
192,192,30727,1,0,0:0:0:0:
448,192,30800,1,0,0:0:0:0:
64,192,30800,1,0,0:0:0:0:
192,192,30872,1,0,0:0:0:0:
320,192,30945,1,0,0:0:0:0:
448,192,30945,1,0,0:0:0:0:
64,192,31018,1,0,0:0:0:0:
320,192,31091,1,0,0:0:0:0:
192,192,31091,1,0,0:0:0:0:
64,192,31164,1,0,0:0:0:0:
448,192,31236,1,0,0:0:0:0:
192,192,31236,1,0,0:0:0:0:
320,192,31309,1,0,0:0:0:0:
192,192,31382,1,0,0:0:0:0:
64,192,31382,1,0,0:0:0:0:
320,192,31455,1,0,0:0:0:0:
448,192,31528,1,0,0:0:0:0:
64,192,31528,1,0,0:0:0:0:
192,192,31601,1,0,0:0:0:0:
320,192,31673,1,0,0:0:0:0:
448,192,31746,1,0,0:0:0:0:
192,192,31819,1,0,0:0:0:0:
64,192,31819,1,0,0:0:0:0:
320,192,31892,1,0,0:0:0:0:
448,192,31965,1,0,0:0:0:0:
64,192,32037,1,0,0:0:0:0:
448,192,32110,1,0,0:0:0:0:
192,192,32110,1,0,0:0:0:0:
320,192,32183,1,0,0:0:0:0:
64,192,32256,1,0,0:0:0:0:
192,192,32256,1,0,0:0:0:0:
320,192,32329,1,0,0:0:0:0:
192,192,32402,1,0,0:0:0:0:
64,192,32402,1,0,0:0:0:0:
320,192,32474,1,0,0:0:0:0:
448,192,32547,1,0,0:0:0:0:
64,192,32547,1,0,0:0:0:0:
320,192,32620,1,0,0:0:0:0:
192,192,32693,1,0,0:0:0:0:
448,192,32693,1,0,0:0:0:0:
64,192,32766,1,0,0:0:0:0:
448,192,32838,1,0,0:0:0:0:
320,192,32911,1,0,0:0:0:0:
192,192,32984,1,0,0:0:0:0:
64,192,32984,1,0,0:0:0:0:
320,192,33057,1,0,0:0:0:0:
448,192,33130,1,0,0:0:0:0:
64,192,33130,1,0,0:0:0:0:
192,192,33203,1,0,0:0:0:0:
320,192,33275,1,0,0:0:0:0:
448,192,33275,1,0,0:0:0:0:
64,192,33348,1,0,0:0:0:0:
192,192,33421,1,0,0:0:0:0:
448,192,33421,1,0,0:0:0:0:
320,192,33494,1,0,0:0:0:0:
192,192,33567,1,0,0:0:0:0:
64,192,33567,1,0,0:0:0:0:
320,192,33639,1,0,0:0:0:0:
192,192,33712,1,0,0:0:0:0:
64,192,33712,1,0,0:0:0:0:
448,192,33785,1,0,0:0:0:0:
320,192,33858,1,0,0:0:0:0:
64,192,33858,1,0,0:0:0:0:
192,192,33931,1,0,0:0:0:0:
64,192,34003,1,0,0:0:0:0:
320,192,34076,1,0,0:0:0:0:
448,192,34149,1,0,0:0:0:0:
192,192,34149,1,0,0:0:0:0:
64,192,34222,1,0,0:0:0:0:
320,192,34295,1,0,0:0:0:0:
448,192,34295,1,0,0:0:0:0:
192,192,34368,1,0,0:0:0:0:
64,192,34440,1,0,0:0:0:0:
448,192,34440,1,0,0:0:0:0:
320,192,34513,1,0,0:0:0:0:
192,192,34586,1,0,0:0:0:0:
64,192,34659,1,0,0:0:0:0:
320,192,34732,1,0,0:0:0:0:
448,192,34732,1,0,0:0:0:0:
192,192,34804,1,0,0:0:0:0:
320,192,34877,1,0,0:0:0:0:
448,192,34877,1,0,0:0:0:0:
64,192,34950,1,0,0:0:0:0:
192,192,35023,1,0,0:0:0:0:
448,192,35023,1,0,0:0:0:0:
320,192,35096,1,0,0:0:0:0:
448,192,35169,1,0,0:0:0:0:
64,192,35169,1,0,0:0:0:0:
192,192,35241,1,0,0:0:0:0:
448,192,35314,1,0,0:0:0:0:
320,192,35314,1,0,0:0:0:0:
192,192,35387,1,0,0:0:0:0:
64,192,35460,1,0,0:0:0:0:
448,192,35533,1,0,0:0:0:0:
320,192,35605,1,0,0:0:0:0:
64,192,35605,1,0,0:0:0:0:
192,192,35678,1,0,0:0:0:0:
320,192,35751,1,0,0:0:0:0:
448,192,35824,1,0,0:0:0:0:
192,192,35897,1,0,0:0:0:0:
64,192,35897,1,0,0:0:0:0:
320,192,35970,1,0,0:0:0:0:
192,192,36042,1,0,0:0:0:0:
448,192,36042,1,0,0:0:0:0:
64,192,36115,1,0,0:0:0:0:
320,192,36188,1,0,0:0:0:0:
448,192,36188,1,0,0:0:0:0:
192,192,36261,1,0,0:0:0:0:
64,192,36334,1,0,0:0:0:0:
448,192,36406,1,0,0:0:0:0:
320,192,36479,1,0,0:0:0:0:
64,192,36479,1,0,0:0:0:0:
192,192,36552,1,0,0:0:0:0:
64,192,36625,1,0,0:0:0:0:
448,192,36698,1,0,0:0:0:0:
320,192,36770,1,0,0:0:0:0:
64,192,36770,1,0,0:0:0:0:
192,192,36843,1,0,0:0:0:0:
320,192,36916,1,0,0:0:0:0:
448,192,36989,1,0,0:0:0:0:
192,192,37062,1,0,0:0:0:0:
64,192,37062,1,0,0:0:0:0:
320,192,37135,1,0,0:0:0:0:
448,192,37207,1,0,0:0:0:0:
64,192,37207,1,0,0:0:0:0:
192,192,37280,1,0,0:0:0:0:
320,192,37353,1,0,0:0:0:0:
448,192,37353,1,0,0:0:0:0:
192,192,37426,1,0,0:0:0:0:
64,192,37499,1,0,0:0:0:0:
320,192,37499,1,0,0:0:0:0:
448,192,37571,1,0,0:0:0:0:
192,192,37644,1,0,0:0:0:0:
64,192,37644,1,0,0:0:0:0:
448,192,37717,1,0,0:0:0:0:
320,192,37790,1,0,0:0:0:0:
64,192,37790,1,0,0:0:0:0:
192,192,37863,1,0,0:0:0:0:
320,192,37936,1,0,0:0:0:0:
448,192,37936,1,0,0:0:0:0:
192,192,38008,1,0,0:0:0:0:
64,192,38008,1,0,0:0:0:0:
320,192,38081,1,0,0:0:0:0:
448,192,38081,1,0,0:0:0:0:
192,192,38154,1,0,0:0:0:0:
64,192,38154,1,0,0:0:0:0:
320,192,38227,1,0,0:0:0:0:
448,192,38227,1,0,0:0:0:0:
192,192,38275,1,0,0:0:0:0:
64,192,38324,1,0,0:0:0:0:
320,192,38324,1,0,0:0:0:0:
448,192,38372,1,0,0:0:0:0:
192,192,38421,1,0,0:0:0:0:
64,192,38421,1,0,0:0:0:0:
320,192,38470,1,0,0:0:0:0:
192,192,38518,1,0,0:0:0:0:
448,192,38518,1,0,0:0:0:0:
64,192,38591,1,0,0:0:0:0:
448,192,38664,1,0,0:0:0:0:
320,192,38736,1,0,0:0:0:0:
192,192,38809,1,0,0:0:0:0:
64,192,38809,1,0,0:0:0:0:
320,192,38882,1,0,0:0:0:0:
448,192,38955,1,0,0:0:0:0:
64,192,39028,1,0,0:0:0:0:
192,192,39101,1,0,0:0:0:0:
320,192,39101,1,0,0:0:0:0:
448,192,39173,1,0,0:0:0:0:
64,192,39246,1,0,0:0:0:0:
192,192,39246,1,0,0:0:0:0:
320,192,39319,1,0,0:0:0:0:
448,192,39392,1,0,0:0:0:0:
64,192,39392,1,0,0:0:0:0:
192,192,39465,1,0,0:0:0:0:
320,192,39537,1,0,0:0:0:0:
448,192,39537,1,0,0:0:0:0:
192,192,39610,1,0,0:0:0:0:
64,192,39683,1,0,0:0:0:0:
448,192,39683,1,0,0:0:0:0:
320,192,39756,1,0,0:0:0:0:
192,192,39829,1,0,0:0:0:0:
64,192,39902,1,0,0:0:0:0:
320,192,39974,1,0,0:0:0:0:
448,192,39974,1,0,0:0:0:0:
192,192,40047,1,0,0:0:0:0:
64,192,40120,1,0,0:0:0:0:
448,192,40193,1,0,0:0:0:0:
320,192,40266,1,0,0:0:0:0:
64,192,40266,1,0,0:0:0:0:
192,192,40338,1,0,0:0:0:0:
320,192,40411,1,0,0:0:0:0:
448,192,40411,1,0,0:0:0:0:
64,192,40484,1,0,0:0:0:0:
192,192,40557,1,0,0:0:0:0:
320,192,40557,1,0,0:0:0:0:
448,192,40630,1,0,0:0:0:0:
192,192,40703,1,0,0:0:0:0:
64,192,40703,1,0,0:0:0:0:
320,192,40775,1,0,0:0:0:0:
64,192,40848,1,0,0:0:0:0:
448,192,40848,1,0,0:0:0:0:
320,192,40921,1,0,0:0:0:0:
192,192,40994,1,0,0:0:0:0:
64,192,41067,1,0,0:0:0:0:
320,192,41139,1,0,0:0:0:0:
448,192,41139,1,0,0:0:0:0:
192,192,41212,1,0,0:0:0:0:
64,192,41285,1,0,0:0:0:0:
448,192,41358,1,0,0:0:0:0:
64,192,41431,1,0,0:0:0:0:
320,192,41431,1,0,0:0:0:0:
192,192,41503,1,0,0:0:0:0:
320,192,41576,1,0,0:0:0:0:
448,192,41649,1,0,0:0:0:0:
192,192,41722,1,0,0:0:0:0:
64,192,41722,1,0,0:0:0:0:
448,192,41795,1,0,0:0:0:0:
320,192,41868,1,0,0:0:0:0:
192,192,41868,1,0,0:0:0:0:
64,192,41940,1,0,0:0:0:0:
320,192,42013,1,0,0:0:0:0:
448,192,42013,1,0,0:0:0:0:
192,192,42086,1,0,0:0:0:0:
64,192,42159,1,0,0:0:0:0:
448,192,42232,1,0,0:0:0:0:
320,192,42304,1,0,0:0:0:0:
192,192,42304,1,0,0:0:0:0:
64,192,42377,1,0,0:0:0:0:
320,192,42450,1,0,0:0:0:0:
448,192,42450,1,0,0:0:0:0:
192,192,42523,1,0,0:0:0:0:
64,192,42596,1,0,0:0:0:0:
448,192,42596,1,0,0:0:0:0:
320,192,42669,1,0,0:0:0:0:
192,192,42741,1,0,0:0:0:0:
64,192,42814,1,0,0:0:0:0:
320,192,42887,1,0,0:0:0:0:
448,192,42887,1,0,0:0:0:0:
192,192,42960,1,0,0:0:0:0:
64,192,43033,1,0,0:0:0:0:
448,192,43033,1,0,0:0:0:0:
192,192,43105,1,0,0:0:0:0:
320,192,43178,1,0,0:0:0:0:
448,192,43178,1,0,0:0:0:0:
64,192,43251,1,0,0:0:0:0:
192,192,43324,1,0,0:0:0:0:
320,192,43397,1,0,0:0:0:0:
64,192,43470,1,0,0:0:0:0:
448,192,43470,1,0,0:0:0:0:
192,192,43542,1,0,0:0:0:0:
320,192,43615,1,0,0:0:0:0:
64,192,43615,1,0,0:0:0:0:
448,192,43688,1,0,0:0:0:0:
192,192,43761,1,0,0:0:0:0:
64,192,43761,1,0,0:0:0:0:
320,192,43834,1,0,0:0:0:0:
192,192,43906,1,0,0:0:0:0:
448,192,43906,1,0,0:0:0:0:
64,192,43979,1,0,0:0:0:0:
320,192,44052,1,0,0:0:0:0:
448,192,44052,1,0,0:0:0:0:
192,192,44125,1,0,0:0:0:0:
320,192,44198,1,0,0:0:0:0:
448,192,44198,1,0,0:0:0:0:
64,192,44270,1,0,0:0:0:0:
192,192,44343,1,0,0:0:0:0:
448,192,44343,1,0,0:0:0:0:
320,192,44416,1,0,0:0:0:0:
448,192,44489,1,0,0:0:0:0:
64,192,44562,1,0,0:0:0:0:
192,192,44635,1,0,0:0:0:0:
320,192,44635,1,0,0:0:0:0:
448,192,44707,1,0,0:0:0:0:
64,192,44780,1,0,0:0:0:0:
192,192,44853,1,0,0:0:0:0:
320,192,44926,1,0,0:0:0:0:
448,192,44926,1,0,0:0:0:0:
64,192,44999,1,0,0:0:0:0:
192,192,45071,1,0,0:0:0:0:
320,192,45144,1,0,0:0:0:0:
192,192,45217,1,0,0:0:0:0:
448,192,45217,1,0,0:0:0:0:
64,192,45290,1,0,0:0:0:0:
320,192,45363,1,0,0:0:0:0:
448,192,45363,1,0,0:0:0:0:
192,192,45436,1,0,0:0:0:0:
64,192,45508,1,0,0:0:0:0:
448,192,45508,1,0,0:0:0:0:
320,192,45581,1,0,0:0:0:0:
192,192,45654,1,0,0:0:0:0:
64,192,45727,1,0,0:0:0:0:
320,192,45800,1,0,0:0:0:0:
448,192,45800,1,0,0:0:0:0:
192,192,45872,1,0,0:0:0:0:
64,192,45945,1,0,0:0:0:0:
448,192,46018,1,0,0:0:0:0:
320,192,46091,1,0,0:0:0:0:
64,192,46091,1,0,0:0:0:0:
192,192,46164,1,0,0:0:0:0:
320,192,46236,1,0,0:0:0:0:
448,192,46309,1,0,0:0:0:0:
192,192,46382,1,0,0:0:0:0:
64,192,46382,1,0,0:0:0:0:
320,192,46455,1,0,0:0:0:0:
192,192,46528,1,0,0:0:0:0:
64,192,46528,1,0,0:0:0:0:
448,192,46601,1,0,0:0:0:0:
320,192,46673,1,0,0:0:0:0:
64,192,46673,1,0,0:0:0:0:
192,192,46746,1,0,0:0:0:0:
64,192,46819,1,0,0:0:0:0:
448,192,46819,1,0,0:0:0:0:
320,192,46892,1,0,0:0:0:0:
192,192,46965,1,0,0:0:0:0:
64,192,46965,1,0,0:0:0:0:
448,192,47037,1,0,0:0:0:0:
320,192,47110,1,0,0:0:0:0:
64,192,47110,1,0,0:0:0:0:
192,192,47183,1,0,0:0:0:0:
320,192,47256,1,0,0:0:0:0:
448,192,47256,1,0,0:0:0:0:
192,192,47329,1,0,0:0:0:0:
64,192,47329,1,0,0:0:0:0:
320,192,47402,1,0,0:0:0:0:
448,192,47402,1,0,0:0:0:0:
192,192,47474,1,0,0:0:0:0:
64,192,47474,1,0,0:0:0:0:
320,192,47547,1,0,0:0:0:0:
448,192,47547,1,0,0:0:0:0:
64,192,47596,1,0,0:0:0:0:
192,192,47644,1,0,0:0:0:0:
448,192,47644,1,0,0:0:0:0:
320,192,47693,1,0,0:0:0:0:
192,192,47741,1,0,0:0:0:0:
64,192,47741,1,0,0:0:0:0:
448,192,47790,1,0,0:0:0:0:
320,192,47838,1,0,0:0:0:0:
64,192,47838,1,0,0:0:0:0:
192,192,47911,1,0,0:0:0:0:
448,192,47984,1,0,0:0:0:0:
320,192,48057,1,0,0:0:0:0:
192,192,48130,1,0,0:0:0:0:
64,192,48130,1,0,0:0:0:0:
448,192,48203,1,0,0:0:0:0:
320,192,48275,1,0,0:0:0:0:
192,192,48348,1,0,0:0:0:0:
64,192,48421,1,0,0:0:0:0:
448,192,48421,1,0,0:0:0:0:
320,192,48494,1,0,0:0:0:0:
192,192,48567,1,0,0:0:0:0:
64,192,48567,1,0,0:0:0:0:
320,192,48639,1,0,0:0:0:0:
448,192,48712,1,0,0:0:0:0:
64,192,48712,1,0,0:0:0:0:
192,192,48785,1,0,0:0:0:0:
320,192,48858,1,0,0:0:0:0:
448,192,48858,1,0,0:0:0:0:
192,192,48931,1,0,0:0:0:0:
64,192,49003,1,0,0:0:0:0:
320,192,49003,1,0,0:0:0:0:
448,192,49076,1,0,0:0:0:0:
64,192,49149,1,0,0:0:0:0:
192,192,49222,1,0,0:0:0:0:
320,192,49295,1,0,0:0:0:0:
448,192,49295,1,0,0:0:0:0:
64,192,49368,1,0,0:0:0:0:
192,192,49440,1,0,0:0:0:0:
320,192,49513,1,0,0:0:0:0:
448,192,49586,1,0,0:0:0:0:
192,192,49586,1,0,0:0:0:0:
64,192,49659,1,0,0:0:0:0:
320,192,49732,1,0,0:0:0:0:
448,192,49732,1,0,0:0:0:0:
192,192,49804,1,0,0:0:0:0:
64,192,49877,1,0,0:0:0:0:
448,192,49877,1,0,0:0:0:0:
320,192,49950,1,0,0:0:0:0:
192,192,50023,1,0,0:0:0:0:
64,192,50023,1,0,0:0:0:0:
320,192,50096,1,0,0:0:0:0:
448,192,50169,1,0,0:0:0:0:
192,192,50169,1,0,0:0:0:0:
64,192,50241,1,0,0:0:0:0:
448,192,50314,1,0,0:0:0:0:
320,192,50387,1,0,0:0:0:0:
192,192,50460,1,0,0:0:0:0:
64,192,50460,1,0,0:0:0:0:
448,192,50533,1,0,0:0:0:0:
320,192,50605,1,0,0:0:0:0:
192,192,50678,1,0,0:0:0:0:
64,192,50751,1,0,0:0:0:0:
448,192,50751,1,0,0:0:0:0:
192,192,50824,1,0,0:0:0:0:
320,192,50897,1,0,0:0:0:0:
64,192,50897,1,0,0:0:0:0:
448,192,50970,1,0,0:0:0:0:
192,192,51042,1,0,0:0:0:0:
64,192,51042,1,0,0:0:0:0:
320,192,51115,1,0,0:0:0:0:
448,192,51188,1,0,0:0:0:0:
192,192,51188,1,0,0:0:0:0:
64,192,51261,1,0,0:0:0:0:
320,192,51334,1,0,0:0:0:0:
448,192,51334,1,0,0:0:0:0:
192,192,51406,1,0,0:0:0:0:
64,192,51479,1,0,0:0:0:0:
448,192,51552,1,0,0:0:0:0:
320,192,51625,1,0,0:0:0:0:
64,192,51625,1,0,0:0:0:0:
192,192,51698,1,0,0:0:0:0:
320,192,51770,1,0,0:0:0:0:
448,192,51770,1,0,0:0:0:0:
192,192,51843,1,0,0:0:0:0:
64,192,51916,1,0,0:0:0:0:
448,192,51916,1,0,0:0:0:0:
320,192,51989,1,0,0:0:0:0:
192,192,52062,1,0,0:0:0:0:
64,192,52062,1,0,0:0:0:0:
448,192,52135,1,0,0:0:0:0:
320,192,52207,1,0,0:0:0:0:
64,192,52207,1,0,0:0:0:0:
192,192,52280,1,0,0:0:0:0:
448,192,52353,1,0,0:0:0:0:
64,192,52353,1,0,0:0:0:0:
320,192,52426,1,0,0:0:0:0:
192,192,52499,1,0,0:0:0:0:
448,192,52499,1,0,0:0:0:0:
64,192,52571,1,0,0:0:0:0:
320,192,52644,1,0,0:0:0:0:
448,192,52717,1,0,0:0:0:0:
192,192,52790,1,0,0:0:0:0:
64,192,52790,1,0,0:0:0:0:
320,192,52863,1,0,0:0:0:0:
448,192,52936,1,0,0:0:0:0:
192,192,52936,1,0,0:0:0:0:
64,192,53008,1,0,0:0:0:0:
448,192,53081,1,0,0:0:0:0:
320,192,53081,1,0,0:0:0:0:
192,192,53154,1,0,0:0:0:0:
448,192,53227,1,0,0:0:0:0:
64,192,53227,1,0,0:0:0:0:
320,192,53300,1,0,0:0:0:0:
192,192,53372,1,0,0:0:0:0:
64,192,53372,1,0,0:0:0:0:
448,192,53445,1,0,0:0:0:0:
192,192,53518,1,0,0:0:0:0:
64,192,53518,1,0,0:0:0:0:
320,192,53591,1,0,0:0:0:0:
192,192,53664,1,0,0:0:0:0:
448,192,53664,1,0,0:0:0:0:
64,192,53736,1,0,0:0:0:0:
320,192,53809,1,0,0:0:0:0:
448,192,53882,1,0,0:0:0:0:
192,192,53955,1,0,0:0:0:0:
64,192,53955,1,0,0:0:0:0:
320,192,54028,1,0,0:0:0:0:
448,192,54101,1,0,0:0:0:0:
64,192,54173,1,0,0:0:0:0:
192,192,54246,1,0,0:0:0:0:
448,192,54246,1,0,0:0:0:0:
320,192,54319,1,0,0:0:0:0:
192,192,54392,1,0,0:0:0:0:
64,192,54392,1,0,0:0:0:0:
448,192,54465,1,0,0:0:0:0:
320,192,54537,1,0,0:0:0:0:
192,192,54537,1,0,0:0:0:0:
64,192,54610,1,0,0:0:0:0:
320,192,54683,1,0,0:0:0:0:
448,192,54683,1,0,0:0:0:0:
192,192,54756,1,0,0:0:0:0:
64,192,54829,1,0,0:0:0:0:
448,192,54829,1,0,0:0:0:0:
320,192,54902,1,0,0:0:0:0:
192,192,54974,1,0,0:0:0:0:
64,192,55047,1,0,0:0:0:0:
192,192,55120,1,0,0:0:0:0:
448,192,55120,1,0,0:0:0:0:
320,192,55193,1,0,0:0:0:0:
448,192,55266,1,0,0:0:0:0:
320,192,55338,1,0,0:0:0:0:
448,192,55411,1,0,0:0:0:0:
192,192,55411,1,0,0:0:0:0:
64,192,55484,1,0,0:0:0:0:
192,192,55557,1,0,0:0:0:0:
320,192,55630,1,0,0:0:0:0:
192,192,55703,1,0,0:0:0:0:
64,192,55703,1,0,0:0:0:0:
448,192,55775,1,0,0:0:0:0:
320,192,55848,1,0,0:0:0:0:
64,192,55848,1,0,0:0:0:0:
192,192,55921,1,0,0:0:0:0:
320,192,55994,1,0,0:0:0:0:
448,192,55994,1,0,0:0:0:0:
192,192,56067,1,0,0:0:0:0:
64,192,56139,1,0,0:0:0:0:
320,192,56139,1,0,0:0:0:0:
192,192,56212,1,0,0:0:0:0:
448,192,56285,1,0,0:0:0:0:
64,192,56285,1,0,0:0:0:0:
320,192,56358,1,0,0:0:0:0:
192,192,56431,1,0,0:0:0:0:
448,192,56431,1,0,0:0:0:0:
64,192,56503,1,0,0:0:0:0:
448,192,56576,1,0,0:0:0:0:
320,192,56576,1,0,0:0:0:0:
192,192,56649,1,0,0:0:0:0:
64,192,56649,1,0,0:0:0:0:
320,192,56722,1,0,0:0:0:0:
448,192,56722,1,0,0:0:0:0:
192,192,56795,1,0,0:0:0:0:
64,192,56795,1,0,0:0:0:0:
448,192,56868,1,0,0:0:0:0:
320,192,56868,1,0,0:0:0:0:
64,192,56916,1,0,0:0:0:0:
192,192,56965,1,0,0:0:0:0:
448,192,56965,1,0,0:0:0:0:
320,192,57013,1,0,0:0:0:0:
64,192,57062,1,0,0:0:0:0:
192,192,57062,1,0,0:0:0:0:
448,192,57110,1,0,0:0:0:0:
320,192,57159,1,0,0:0:0:0:
64,192,57159,128,0,59198:0:0:0:0:
192,192,59198,128,0,59489:0:0:0:0:
320,192,59489,128,0,60654:0:0:0:0:
448,192,60654,128,0,61819:0:0:0:0:
192,192,61819,128,0,63567:0:0:0:0:
320,192,63567,128,0,63858:0:0:0:0:
192,192,63858,128,0,64149:0:0:0:0:
64,192,64149,128,0,65023:0:0:0:0:
448,192,65023,128,0,65314:0:0:0:0:
192,192,65314,1,0,0:0:0:0:
64,192,65314,1,0,0:0:0:0:
64,192,65460,1,0,0:0:0:0:
192,192,65460,1,0,0:0:0:0:
320,192,65605,1,0,0:0:0:0:
448,192,65605,1,0,0:0:0:0:
320,192,65751,1,0,0:0:0:0:
448,192,65751,1,0,0:0:0:0:
192,192,65897,1,0,0:0:0:0:
64,192,65897,1,0,0:0:0:0:
320,192,65970,1,0,0:0:0:0:
448,192,65970,1,0,0:0:0:0:
192,192,66042,1,0,0:0:0:0:
64,192,66042,1,0,0:0:0:0:
320,192,66115,1,0,0:0:0:0:
448,192,66115,1,0,0:0:0:0:
192,192,66188,1,0,0:0:0:0:
64,192,66188,1,0,0:0:0:0:
320,192,66236,1,0,0:0:0:0:
448,192,66285,1,0,0:0:0:0:
64,192,66285,1,0,0:0:0:0:
192,192,66334,1,0,0:0:0:0:
448,192,66382,1,0,0:0:0:0:
320,192,66382,1,0,0:0:0:0:
192,192,66431,1,0,0:0:0:0:
64,192,66479,1,0,0:0:0:0:
448,192,66479,1,0,0:0:0:0:
320,192,66552,1,0,0:0:0:0:
192,192,66625,1,0,0:0:0:0:
64,192,66625,1,0,0:0:0:0:
448,192,66698,1,0,0:0:0:0:
320,192,66770,1,0,0:0:0:0:
64,192,66770,1,0,0:0:0:0:
192,192,66843,1,0,0:0:0:0:
320,192,66916,1,0,0:0:0:0:
448,192,66916,1,0,0:0:0:0:
192,192,66989,1,0,0:0:0:0:
64,192,67062,1,0,0:0:0:0:
448,192,67062,1,0,0:0:0:0:
320,192,67135,1,0,0:0:0:0:
192,192,67207,1,0,0:0:0:0:
64,192,67280,1,0,0:0:0:0:
320,192,67353,1,0,0:0:0:0:
448,192,67353,1,0,0:0:0:0:
192,192,67426,1,0,0:0:0:0:
448,192,67499,1,0,0:0:0:0:
320,192,67499,1,0,0:0:0:0:
192,192,67571,1,0,0:0:0:0:
64,192,67644,1,0,0:0:0:0:
448,192,67644,1,0,0:0:0:0:
320,192,67717,1,0,0:0:0:0:
192,192,67790,1,0,0:0:0:0:
64,192,67863,1,0,0:0:0:0:
448,192,67936,1,0,0:0:0:0:
320,192,67936,1,0,0:0:0:0:
192,192,68008,1,0,0:0:0:0:
64,192,68081,1,0,0:0:0:0:
448,192,68081,1,0,0:0:0:0:
320,192,68154,1,0,0:0:0:0:
64,192,68227,1,0,0:0:0:0:
192,192,68227,1,0,0:0:0:0:
320,192,68300,1,0,0:0:0:0:
448,192,68372,1,0,0:0:0:0:
64,192,68372,1,0,0:0:0:0:
192,192,68445,1,0,0:0:0:0:
320,192,68518,1,0,0:0:0:0:
448,192,68518,1,0,0:0:0:0:
64,192,68591,1,0,0:0:0:0:
192,192,68664,1,0,0:0:0:0:
448,192,68664,1,0,0:0:0:0:
320,192,68736,1,0,0:0:0:0:
448,192,68809,1,0,0:0:0:0:
64,192,68809,1,0,0:0:0:0:
192,192,68882,1,0,0:0:0:0:
320,192,68955,1,0,0:0:0:0:
448,192,69028,1,0,0:0:0:0:
192,192,69101,1,0,0:0:0:0:
64,192,69101,1,0,0:0:0:0:
320,192,69173,1,0,0:0:0:0:
448,192,69246,1,0,0:0:0:0:
64,192,69319,1,0,0:0:0:0:
192,192,69392,1,0,0:0:0:0:
448,192,69392,1,0,0:0:0:0:
320,192,69465,1,0,0:0:0:0:
192,192,69537,1,0,0:0:0:0:
64,192,69537,1,0,0:0:0:0:
320,192,69610,1,0,0:0:0:0:
448,192,69683,1,0,0:0:0:0:
64,192,69683,1,0,0:0:0:0:
192,192,69756,1,0,0:0:0:0:
64,192,69829,1,0,0:0:0:0:
448,192,69829,1,0,0:0:0:0:
320,192,69902,1,0,0:0:0:0:
192,192,69974,1,0,0:0:0:0:
64,192,69974,1,0,0:0:0:0:
320,192,70047,1,0,0:0:0:0:
448,192,70120,1,0,0:0:0:0:
64,192,70193,1,0,0:0:0:0:
192,192,70266,1,0,0:0:0:0:
448,192,70266,1,0,0:0:0:0:
320,192,70338,1,0,0:0:0:0:
64,192,70411,1,0,0:0:0:0:
448,192,70411,1,0,0:0:0:0:
192,192,70484,1,0,0:0:0:0:
320,192,70557,1,0,0:0:0:0:
448,192,70557,1,0,0:0:0:0:
192,192,70630,1,0,0:0:0:0:
64,192,70703,1,0,0:0:0:0:
448,192,70703,1,0,0:0:0:0:
320,192,70775,1,0,0:0:0:0:
192,192,70848,1,0,0:0:0:0:
64,192,70848,1,0,0:0:0:0:
448,192,70921,1,0,0:0:0:0:
192,192,70994,1,0,0:0:0:0:
64,192,70994,1,0,0:0:0:0:
320,192,71067,1,0,0:0:0:0:
192,192,71139,1,0,0:0:0:0:
448,192,71139,1,0,0:0:0:0:
64,192,71212,1,0,0:0:0:0:
448,192,71285,1,0,0:0:0:0:
320,192,71358,1,0,0:0:0:0:
192,192,71431,1,0,0:0:0:0:
64,192,71431,1,0,0:0:0:0:
448,192,71503,1,0,0:0:0:0:
320,192,71576,1,0,0:0:0:0:
64,192,71576,1,0,0:0:0:0:
192,192,71649,1,0,0:0:0:0:
320,192,71722,1,0,0:0:0:0:
448,192,71722,1,0,0:0:0:0:
64,192,71795,1,0,0:0:0:0:
192,192,71868,1,0,0:0:0:0:
320,192,71940,1,0,0:0:0:0:
448,192,72013,1,0,0:0:0:0:
64,192,72013,1,0,0:0:0:0:
192,192,72086,1,0,0:0:0:0:
320,192,72159,1,0,0:0:0:0:
448,192,72159,1,0,0:0:0:0:
192,192,72232,1,0,0:0:0:0:
64,192,72304,1,0,0:0:0:0:
448,192,72304,1,0,0:0:0:0:
320,192,72377,1,0,0:0:0:0:
192,192,72450,1,0,0:0:0:0:
448,192,72450,1,0,0:0:0:0:
64,192,72523,1,0,0:0:0:0:
448,192,72596,1,0,0:0:0:0:
320,192,72596,1,0,0:0:0:0:
192,192,72669,1,0,0:0:0:0:
64,192,72741,1,0,0:0:0:0:
448,192,72814,1,0,0:0:0:0:
320,192,72887,1,0,0:0:0:0:
64,192,72887,1,0,0:0:0:0:
192,192,72960,1,0,0:0:0:0:
320,192,73033,1,0,0:0:0:0:
448,192,73105,1,0,0:0:0:0:
64,192,73178,1,0,0:0:0:0:
192,192,73178,1,0,0:0:0:0:
320,192,73251,1,0,0:0:0:0:
448,192,73324,1,0,0:0:0:0:
192,192,73324,1,0,0:0:0:0:
64,192,73397,1,0,0:0:0:0:
448,192,73470,1,0,0:0:0:0:
320,192,73470,1,0,0:0:0:0:
192,192,73542,1,0,0:0:0:0:
64,192,73615,1,0,0:0:0:0:
448,192,73688,1,0,0:0:0:0:
320,192,73761,1,0,0:0:0:0:
64,192,73761,1,0,0:0:0:0:
192,192,73834,1,0,0:0:0:0:
64,192,73906,1,0,0:0:0:0:
448,192,73979,1,0,0:0:0:0:
320,192,74052,1,0,0:0:0:0:
192,192,74052,1,0,0:0:0:0:
64,192,74125,1,0,0:0:0:0:
448,192,74198,1,0,0:0:0:0:
320,192,74270,1,0,0:0:0:0:
192,192,74343,1,0,0:0:0:0:
64,192,74343,1,0,0:0:0:0:
320,192,74416,1,0,0:0:0:0:
448,192,74489,1,0,0:0:0:0:
64,192,74489,1,0,0:0:0:0:
192,192,74562,1,0,0:0:0:0:
320,192,74635,1,0,0:0:0:0:
448,192,74635,1,0,0:0:0:0:
64,192,74707,1,0,0:0:0:0:
192,192,74780,1,0,0:0:0:0:
320,192,74780,1,0,0:0:0:0:
64,192,74853,1,0,0:0:0:0:
320,192,74926,1,0,0:0:0:0:
448,192,74926,1,0,0:0:0:0:
192,192,74999,1,0,0:0:0:0:
64,192,75071,1,0,0:0:0:0:
448,192,75071,1,0,0:0:0:0:
320,192,75144,1,0,0:0:0:0:
192,192,75217,1,0,0:0:0:0:
64,192,75217,1,0,0:0:0:0:
320,192,75290,1,0,0:0:0:0:
448,192,75290,1,0,0:0:0:0:
192,192,75363,1,0,0:0:0:0:
64,192,75363,1,0,0:0:0:0:
320,192,75436,1,0,0:0:0:0:
448,192,75436,1,0,0:0:0:0:
192,192,75508,1,0,0:0:0:0:
64,192,75508,1,0,0:0:0:0:
448,192,75557,1,0,0:0:0:0:
320,192,75605,1,0,0:0:0:0:
64,192,75605,1,0,0:0:0:0:
192,192,75654,1,0,0:0:0:0:
448,192,75703,1,0,0:0:0:0:
320,192,75703,1,0,0:0:0:0:
64,192,75751,1,0,0:0:0:0:
192,192,75800,1,0,0:0:0:0:
448,192,75800,1,0,0:0:0:0:
320,192,75872,1,0,0:0:0:0:
192,192,75945,1,0,0:0:0:0:
64,192,75945,1,0,0:0:0:0:
448,192,76018,1,0,0:0:0:0:
320,192,76091,1,0,0:0:0:0:
64,192,76091,1,0,0:0:0:0:
192,192,76164,1,0,0:0:0:0:
320,192,76236,1,0,0:0:0:0:
448,192,76236,1,0,0:0:0:0:
64,192,76309,1,0,0:0:0:0:
192,192,76382,1,0,0:0:0:0:
448,192,76382,1,0,0:0:0:0:
320,192,76455,1,0,0:0:0:0:
448,192,76528,1,0,0:0:0:0:
64,192,76601,1,0,0:0:0:0:
192,192,76673,1,0,0:0:0:0:
448,192,76673,1,0,0:0:0:0:
320,192,76746,1,0,0:0:0:0:
192,192,76819,1,0,0:0:0:0:
448,192,76819,1,0,0:0:0:0:
64,192,76892,1,0,0:0:0:0:
448,192,76965,1,0,0:0:0:0:
320,192,76965,1,0,0:0:0:0:
192,192,77037,1,0,0:0:0:0:
64,192,77110,1,0,0:0:0:0:
448,192,77183,1,0,0:0:0:0:
320,192,77256,1,0,0:0:0:0:
64,192,77256,1,0,0:0:0:0:
192,192,77329,1,0,0:0:0:0:
64,192,77402,1,0,0:0:0:0:
448,192,77402,1,0,0:0:0:0:
320,192,77474,1,0,0:0:0:0:
192,192,77547,1,0,0:0:0:0:
64,192,77547,1,0,0:0:0:0:
320,192,77620,1,0,0:0:0:0:
448,192,77693,1,0,0:0:0:0:
64,192,77693,1,0,0:0:0:0:
192,192,77766,1,0,0:0:0:0:
320,192,77838,1,0,0:0:0:0:
448,192,77838,1,0,0:0:0:0:
64,192,77911,1,0,0:0:0:0:
320,192,77984,1,0,0:0:0:0:
448,192,77984,1,0,0:0:0:0:
192,192,78057,1,0,0:0:0:0:
64,192,78130,1,0,0:0:0:0:
448,192,78130,1,0,0:0:0:0:
320,192,78203,1,0,0:0:0:0:
192,192,78275,1,0,0:0:0:0:
64,192,78348,1,0,0:0:0:0:
320,192,78421,1,0,0:0:0:0:
448,192,78421,1,0,0:0:0:0:
192,192,78494,1,0,0:0:0:0:
64,192,78567,1,0,0:0:0:0:
448,192,78639,1,0,0:0:0:0:
320,192,78712,1,0,0:0:0:0:
64,192,78712,1,0,0:0:0:0:
192,192,78785,1,0,0:0:0:0:
320,192,78858,1,0,0:0:0:0:
448,192,78858,1,0,0:0:0:0:
64,192,78931,1,0,0:0:0:0:
192,192,79003,1,0,0:0:0:0:
448,192,79003,1,0,0:0:0:0:
320,192,79076,1,0,0:0:0:0:
192,192,79149,1,0,0:0:0:0:
64,192,79149,1,0,0:0:0:0:
320,192,79222,1,0,0:0:0:0:
448,192,79295,1,0,0:0:0:0:
64,192,79295,1,0,0:0:0:0:
192,192,79368,1,0,0:0:0:0:
320,192,79440,1,0,0:0:0:0:
448,192,79513,1,0,0:0:0:0:
64,192,79586,1,0,0:0:0:0:
192,192,79586,1,0,0:0:0:0:
320,192,79659,1,0,0:0:0:0:
448,192,79732,1,0,0:0:0:0:
64,192,79732,1,0,0:0:0:0:
192,192,79804,1,0,0:0:0:0:
320,192,79877,1,0,0:0:0:0:
448,192,79877,1,0,0:0:0:0:
192,192,79950,1,0,0:0:0:0:
64,192,80023,1,0,0:0:0:0:
448,192,80096,1,0,0:0:0:0:
320,192,80169,1,0,0:0:0:0:
64,192,80169,1,0,0:0:0:0:
192,192,80241,1,0,0:0:0:0:
64,192,80314,1,0,0:0:0:0:
320,192,80314,1,0,0:0:0:0:
448,192,80387,1,0,0:0:0:0:
192,192,80460,1,0,0:0:0:0:
64,192,80460,1,0,0:0:0:0:
320,192,80533,1,0,0:0:0:0:
448,192,80605,1,0,0:0:0:0:
64,192,80678,1,0,0:0:0:0:
192,192,80751,1,0,0:0:0:0:
448,192,80751,1,0,0:0:0:0:
320,192,80824,1,0,0:0:0:0:
448,192,80897,1,0,0:0:0:0:
64,192,80897,1,0,0:0:0:0:
192,192,80970,1,0,0:0:0:0:
448,192,81042,1,0,0:0:0:0:
320,192,81042,1,0,0:0:0:0:
64,192,81115,1,0,0:0:0:0:
192,192,81188,1,0,0:0:0:0:
320,192,81261,1,0,0:0:0:0:
448,192,81334,1,0,0:0:0:0:
64,192,81334,1,0,0:0:0:0:
192,192,81406,1,0,0:0:0:0:
320,192,81479,1,0,0:0:0:0:
64,192,81479,1,0,0:0:0:0:
448,192,81552,1,0,0:0:0:0:
192,192,81625,1,0,0:0:0:0:
64,192,81625,1,0,0:0:0:0:
320,192,81698,1,0,0:0:0:0:
448,192,81770,1,0,0:0:0:0:
64,192,81770,1,0,0:0:0:0:
192,192,81843,1,0,0:0:0:0:
448,192,81916,1,0,0:0:0:0:
320,192,81916,1,0,0:0:0:0:
192,192,81989,1,0,0:0:0:0:
64,192,82062,1,0,0:0:0:0:
448,192,82135,1,0,0:0:0:0:
320,192,82207,1,0,0:0:0:0:
64,192,82207,1,0,0:0:0:0:
192,192,82280,1,0,0:0:0:0:
320,192,82353,1,0,0:0:0:0:
448,192,82426,1,0,0:0:0:0:
192,192,82499,1,0,0:0:0:0:
64,192,82499,1,0,0:0:0:0:
448,192,82571,1,0,0:0:0:0:
320,192,82644,1,0,0:0:0:0:
192,192,82717,1,0,0:0:0:0:
64,192,82790,1,0,0:0:0:0:
448,192,82790,1,0,0:0:0:0:
320,192,82863,1,0,0:0:0:0:
192,192,82936,1,0,0:0:0:0:
64,192,83008,1,0,0:0:0:0:
448,192,83081,1,0,0:0:0:0:
320,192,83081,1,0,0:0:0:0:
192,192,83154,1,0,0:0:0:0:
64,192,83227,1,0,0:0:0:0:
448,192,83300,1,0,0:0:0:0:
320,192,83372,1,0,0:0:0:0:
64,192,83372,1,0,0:0:0:0:
192,192,83445,1,0,0:0:0:0:
64,192,83518,1,0,0:0:0:0:
448,192,83591,1,0,0:0:0:0:
320,192,83664,1,0,0:0:0:0:
192,192,83664,1,0,0:0:0:0:
64,192,83736,1,0,0:0:0:0:
448,192,83809,1,0,0:0:0:0:
320,192,83809,1,0,0:0:0:0:
192,192,83882,1,0,0:0:0:0:
64,192,83955,1,0,0:0:0:0:
448,192,83955,1,0,0:0:0:0:
320,192,84028,1,0,0:0:0:0:
192,192,84101,1,0,0:0:0:0:
64,192,84101,1,0,0:0:0:0:
320,192,84173,1,0,0:0:0:0:
192,192,84246,1,0,0:0:0:0:
64,192,84246,1,0,0:0:0:0:
320,192,84319,1,0,0:0:0:0:
448,192,84392,1,0,0:0:0:0:
64,192,84392,1,0,0:0:0:0:
192,192,84465,1,0,0:0:0:0:
320,192,84537,1,0,0:0:0:0:
448,192,84537,1,0,0:0:0:0:
192,192,84610,1,0,0:0:0:0:
64,192,84610,1,0,0:0:0:0:
320,192,84683,1,0,0:0:0:0:
448,192,84683,1,0,0:0:0:0:
192,192,84756,1,0,0:0:0:0:
64,192,84756,1,0,0:0:0:0:
448,192,84829,1,0,0:0:0:0:
320,192,84829,1,0,0:0:0:0:
64,192,84877,1,0,0:0:0:0:
192,192,84926,1,0,0:0:0:0:
448,192,84926,1,0,0:0:0:0:
320,192,84974,1,0,0:0:0:0:
192,192,85023,1,0,0:0:0:0:
64,192,85023,1,0,0:0:0:0:
448,192,85071,1,0,0:0:0:0:
320,192,85120,1,0,0:0:0:0:
64,192,85120,1,0,0:0:0:0:
192,192,85193,1,0,0:0:0:0:
320,192,85266,1,0,0:0:0:0:
448,192,85338,1,0,0:0:0:0:
192,192,85411,1,0,0:0:0:0:
64,192,85411,1,0,0:0:0:0:
320,192,85484,1,0,0:0:0:0:
448,192,85557,1,0,0:0:0:0:
64,192,85630,1,0,0:0:0:0:
192,192,85703,1,0,0:0:0:0:
448,192,85703,1,0,0:0:0:0:
320,192,85775,1,0,0:0:0:0:
448,192,85848,1,0,0:0:0:0:
64,192,85848,1,0,0:0:0:0:
192,192,85921,1,0,0:0:0:0:
320,192,85994,1,0,0:0:0:0:
448,192,85994,1,0,0:0:0:0:
192,192,86067,1,0,0:0:0:0:
320,192,86139,1,0,0:0:0:0:
448,192,86139,1,0,0:0:0:0:
64,192,86212,1,0,0:0:0:0:
192,192,86285,1,0,0:0:0:0:
448,192,86285,1,0,0:0:0:0:
320,192,86358,1,0,0:0:0:0:
192,192,86431,1,0,0:0:0:0:
64,192,86503,1,0,0:0:0:0:
448,192,86576,1,0,0:0:0:0:
320,192,86576,1,0,0:0:0:0:
192,192,86649,1,0,0:0:0:0:
64,192,86722,1,0,0:0:0:0:
448,192,86795,1,0,0:0:0:0:
320,192,86868,1,0,0:0:0:0:
64,192,86868,1,0,0:0:0:0:
192,192,86940,1,0,0:0:0:0:
320,192,87013,1,0,0:0:0:0:
448,192,87013,1,0,0:0:0:0:
192,192,87086,1,0,0:0:0:0:
64,192,87159,1,0,0:0:0:0:
448,192,87159,1,0,0:0:0:0:
320,192,87232,1,0,0:0:0:0:
64,192,87304,1,0,0:0:0:0:
192,192,87304,1,0,0:0:0:0:
320,192,87377,1,0,0:0:0:0:
448,192,87450,1,0,0:0:0:0:
64,192,87450,1,0,0:0:0:0:
192,192,87523,1,0,0:0:0:0:
320,192,87596,1,0,0:0:0:0:
448,192,87669,1,0,0:0:0:0:
192,192,87741,1,0,0:0:0:0:
64,192,87741,1,0,0:0:0:0:
320,192,87814,1,0,0:0:0:0:
448,192,87887,1,0,0:0:0:0:
64,192,87960,1,0,0:0:0:0:
192,192,88033,1,0,0:0:0:0:
448,192,88033,1,0,0:0:0:0:
320,192,88105,1,0,0:0:0:0:
192,192,88178,1,0,0:0:0:0:
64,192,88178,1,0,0:0:0:0:
448,192,88251,1,0,0:0:0:0:
320,192,88324,1,0,0:0:0:0:
64,192,88324,1,0,0:0:0:0:
192,192,88397,1,0,0:0:0:0:
64,192,88470,1,0,0:0:0:0:
448,192,88470,1,0,0:0:0:0:
320,192,88542,1,0,0:0:0:0:
192,192,88615,1,0,0:0:0:0:
448,192,88615,1,0,0:0:0:0:
64,192,88688,1,0,0:0:0:0:
448,192,88761,1,0,0:0:0:0:
320,192,88834,1,0,0:0:0:0:
192,192,88906,1,0,0:0:0:0:
64,192,88906,1,0,0:0:0:0:
448,192,88979,1,0,0:0:0:0:
320,192,89052,1,0,0:0:0:0:
64,192,89052,1,0,0:0:0:0:
192,192,89125,1,0,0:0:0:0:
64,192,89198,1,0,0:0:0:0:
448,192,89198,1,0,0:0:0:0:
320,192,89270,1,0,0:0:0:0:
192,192,89343,1,0,0:0:0:0:
64,192,89416,1,0,0:0:0:0:
448,192,89489,1,0,0:0:0:0:
320,192,89489,1,0,0:0:0:0:
192,192,89562,1,0,0:0:0:0:
64,192,89635,1,0,0:0:0:0:
448,192,89635,1,0,0:0:0:0:
320,192,89707,1,0,0:0:0:0:
192,192,89780,1,0,0:0:0:0:
64,192,89780,1,0,0:0:0:0:
320,192,89853,1,0,0:0:0:0:
448,192,89926,1,0,0:0:0:0:
64,192,89999,1,0,0:0:0:0:
192,192,90071,1,0,0:0:0:0:
448,192,90071,1,0,0:0:0:0:
320,192,90144,1,0,0:0:0:0:
64,192,90217,1,0,0:0:0:0:
448,192,90217,1,0,0:0:0:0:
192,192,90290,1,0,0:0:0:0:
320,192,90363,1,0,0:0:0:0:
448,192,90363,1,0,0:0:0:0:
192,192,90436,1,0,0:0:0:0:
64,192,90508,1,0,0:0:0:0:
448,192,90508,1,0,0:0:0:0:
320,192,90581,1,0,0:0:0:0:
192,192,90654,1,0,0:0:0:0:
64,192,90654,1,0,0:0:0:0:
320,192,90727,1,0,0:0:0:0:
448,192,90800,1,0,0:0:0:0:
192,192,90800,1,0,0:0:0:0:
64,192,90872,1,0,0:0:0:0:
320,192,90945,1,0,0:0:0:0:
448,192,90945,1,0,0:0:0:0:
192,192,91018,1,0,0:0:0:0:
64,192,91091,1,0,0:0:0:0:
448,192,91164,1,0,0:0:0:0:
320,192,91236,1,0,0:0:0:0:
64,192,91236,1,0,0:0:0:0:
192,192,91309,1,0,0:0:0:0:
64,192,91382,1,0,0:0:0:0:
448,192,91455,1,0,0:0:0:0:
320,192,91528,1,0,0:0:0:0:
192,192,91528,1,0,0:0:0:0:
64,192,91601,1,0,0:0:0:0:
320,192,91673,1,0,0:0:0:0:
448,192,91673,1,0,0:0:0:0:
192,192,91746,1,0,0:0:0:0:
64,192,91819,1,0,0:0:0:0:
448,192,91819,1,0,0:0:0:0:
320,192,91892,1,0,0:0:0:0:
64,192,91965,1,0,0:0:0:0:
448,192,91965,1,0,0:0:0:0:
192,192,92037,1,0,0:0:0:0:
320,192,92110,1,0,0:0:0:0:
448,192,92110,1,0,0:0:0:0:
64,192,92183,1,0,0:0:0:0:
192,192,92256,1,0,0:0:0:0:
320,192,92329,1,0,0:0:0:0:
448,192,92402,1,0,0:0:0:0:
64,192,92402,1,0,0:0:0:0:
192,192,92474,1,0,0:0:0:0:
320,192,92547,1,0,0:0:0:0:
448,192,92620,1,0,0:0:0:0:
64,192,92693,1,0,0:0:0:0:
192,192,92693,1,0,0:0:0:0:
448,192,92766,1,0,0:0:0:0:
320,192,92838,1,0,0:0:0:0:
192,192,92911,1,0,0:0:0:0:
64,192,92984,1,0,0:0:0:0:
448,192,92984,1,0,0:0:0:0:
320,192,93057,1,0,0:0:0:0:
192,192,93130,1,0,0:0:0:0:
64,192,93130,1,0,0:0:0:0:
448,192,93203,1,0,0:0:0:0:
320,192,93275,1,0,0:0:0:0:
64,192,93275,1,0,0:0:0:0:
192,192,93348,1,0,0:0:0:0:
320,192,93421,1,0,0:0:0:0:
448,192,93421,1,0,0:0:0:0:
64,192,93494,1,0,0:0:0:0:
192,192,93567,1,0,0:0:0:0:
448,192,93567,1,0,0:0:0:0:
320,192,93639,1,0,0:0:0:0:
192,192,93712,1,0,0:0:0:0:
64,192,93712,1,0,0:0:0:0:
320,192,93785,1,0,0:0:0:0:
448,192,93858,1,0,0:0:0:0:
64,192,93858,1,0,0:0:0:0:
192,192,93931,1,0,0:0:0:0:
320,192,93931,1,0,0:0:0:0:
64,192,94003,1,0,0:0:0:0:
448,192,94003,1,0,0:0:0:0:
192,192,94076,1,0,0:0:0:0:
320,192,94076,1,0,0:0:0:0:
64,192,94149,1,0,0:0:0:0:
448,192,94149,1,0,0:0:0:0:
320,192,94198,1,0,0:0:0:0:
192,192,94246,1,0,0:0:0:0:
64,192,94246,1,0,0:0:0:0:
320,192,94295,1,0,0:0:0:0:
448,192,94343,1,0,0:0:0:0:
64,192,94343,1,0,0:0:0:0:
192,192,94392,1,0,0:0:0:0:
320,192,94440,1,0,0:0:0:0:
448,192,94440,1,0,0:0:0:0:
192,192,94513,1,0,0:0:0:0:
64,192,94586,1,0,0:0:0:0:
448,192,94659,1,0,0:0:0:0:
320,192,94732,1,0,0:0:0:0:
64,192,94732,1,0,0:0:0:0:
192,192,94804,1,0,0:0:0:0:
320,192,94877,1,0,0:0:0:0:
448,192,94950,1,0,0:0:0:0:
192,192,95023,1,0,0:0:0:0:
64,192,95023,1,0,0:0:0:0:
320,192,95096,1,0,0:0:0:0:
448,192,95169,1,0,0:0:0:0:
64,192,95169,1,0,0:0:0:0:
192,192,95241,1,0,0:0:0:0:
320,192,95314,1,0,0:0:0:0:
448,192,95314,1,0,0:0:0:0:
192,192,95387,1,0,0:0:0:0:
320,192,95460,1,0,0:0:0:0:
448,192,95460,1,0,0:0:0:0:
64,192,95533,1,0,0:0:0:0:
192,192,95605,1,0,0:0:0:0:
448,192,95605,1,0,0:0:0:0:
320,192,95678,1,0,0:0:0:0:
192,192,95751,1,0,0:0:0:0:
64,192,95824,1,0,0:0:0:0:
448,192,95897,1,0,0:0:0:0:
320,192,95897,1,0,0:0:0:0:
192,192,95970,1,0,0:0:0:0:
64,192,96042,1,0,0:0:0:0:
448,192,96115,1,0,0:0:0:0:
320,192,96188,1,0,0:0:0:0:
64,192,96188,1,0,0:0:0:0:
192,192,96261,1,0,0:0:0:0:
320,192,96334,1,0,0:0:0:0:
448,192,96334,1,0,0:0:0:0:
64,192,96406,1,0,0:0:0:0:
192,192,96479,1,0,0:0:0:0:
320,192,96479,1,0,0:0:0:0:
448,192,96552,1,0,0:0:0:0:
192,192,96625,1,0,0:0:0:0:
64,192,96625,1,0,0:0:0:0:
320,192,96698,1,0,0:0:0:0:
192,192,96770,1,0,0:0:0:0:
64,192,96770,1,0,0:0:0:0:
320,192,96843,1,0,0:0:0:0:
448,192,96916,1,0,0:0:0:0:
64,192,96989,1,0,0:0:0:0:
192,192,97062,1,0,0:0:0:0:
448,192,97062,1,0,0:0:0:0:
320,192,97135,1,0,0:0:0:0:
448,192,97207,1,0,0:0:0:0:
64,192,97280,1,0,0:0:0:0:
192,192,97353,1,0,0:0:0:0:
448,192,97353,1,0,0:0:0:0:
320,192,97426,1,0,0:0:0:0:
192,192,97499,1,0,0:0:0:0:
64,192,97571,1,0,0:0:0:0:
320,192,97644,1,0,0:0:0:0:
448,192,97644,1,0,0:0:0:0:
64,192,97717,1,0,0:0:0:0:
192,192,97790,1,0,0:0:0:0:
320,192,97790,1,0,0:0:0:0:
448,192,97863,1,0,0:0:0:0:
192,192,97936,1,0,0:0:0:0:
64,192,97936,1,0,0:0:0:0:
448,192,98008,1,0,0:0:0:0:
320,192,98081,1,0,0:0:0:0:
192,192,98154,1,0,0:0:0:0:
64,192,98227,1,0,0:0:0:0:
448,192,98227,1,0,0:0:0:0:
320,192,98300,1,0,0:0:0:0:
192,192,98372,1,0,0:0:0:0:
64,192,98372,1,0,0:0:0:0:
448,192,98445,1,0,0:0:0:0:
320,192,98518,1,0,0:0:0:0:
64,192,98518,1,0,0:0:0:0:
192,192,98591,1,0,0:0:0:0:
64,192,98664,1,0,0:0:0:0:
448,192,98664,1,0,0:0:0:0:
320,192,98736,1,0,0:0:0:0:
192,192,98809,1,0,0:0:0:0:
64,192,98809,1,0,0:0:0:0:
448,192,98882,1,0,0:0:0:0:
320,192,98955,1,0,0:0:0:0:
192,192,98955,1,0,0:0:0:0:
64,192,99028,1,0,0:0:0:0:
320,192,99101,1,0,0:0:0:0:
448,192,99101,1,0,0:0:0:0:
64,192,99173,1,0,0:0:0:0:
192,192,99246,1,0,0:0:0:0:
320,192,99319,1,0,0:0:0:0:
448,192,99392,1,0,0:0:0:0:
64,192,99392,1,0,0:0:0:0:
192,192,99465,1,0,0:0:0:0:
320,192,99537,1,0,0:0:0:0:
448,192,99537,1,0,0:0:0:0:
192,192,99610,1,0,0:0:0:0:
64,192,99683,1,0,0:0:0:0:
448,192,99683,1,0,0:0:0:0:
320,192,99756,1,0,0:0:0:0:
192,192,99829,1,0,0:0:0:0:
64,192,99829,1,0,0:0:0:0:
320,192,99902,1,0,0:0:0:0:
448,192,99974,1,0,0:0:0:0:
192,192,99974,1,0,0:0:0:0:
64,192,100047,1,0,0:0:0:0:
192,192,100120,1,0,0:0:0:0:
448,192,100120,1,0,0:0:0:0:
320,192,100193,1,0,0:0:0:0:
192,192,100266,1,0,0:0:0:0:
64,192,100266,1,0,0:0:0:0:
320,192,100338,1,0,0:0:0:0:
448,192,100411,1,0,0:0:0:0:
64,192,100484,1,0,0:0:0:0:
192,192,100557,1,0,0:0:0:0:
448,192,100557,1,0,0:0:0:0:
320,192,100630,1,0,0:0:0:0:
192,192,100703,1,0,0:0:0:0:
64,192,100775,1,0,0:0:0:0:
320,192,100848,1,0,0:0:0:0:
448,192,100848,1,0,0:0:0:0:
64,192,100921,1,0,0:0:0:0:
192,192,100994,1,0,0:0:0:0:
320,192,100994,1,0,0:0:0:0:
448,192,101067,1,0,0:0:0:0:
192,192,101139,1,0,0:0:0:0:
64,192,101139,1,0,0:0:0:0:
448,192,101212,1,0,0:0:0:0:
320,192,101285,1,0,0:0:0:0:
192,192,101285,1,0,0:0:0:0:
64,192,101358,1,0,0:0:0:0:
320,192,101431,1,0,0:0:0:0:
448,192,101431,1,0,0:0:0:0:
192,192,101503,1,0,0:0:0:0:
64,192,101576,1,0,0:0:0:0:
448,192,101649,1,0,0:0:0:0:
320,192,101722,1,0,0:0:0:0:
64,192,101722,1,0,0:0:0:0:
192,192,101795,1,0,0:0:0:0:
64,192,101868,1,0,0:0:0:0:
448,192,101940,1,0,0:0:0:0:
320,192,102013,1,0,0:0:0:0:
64,192,102013,1,0,0:0:0:0:
192,192,102086,1,0,0:0:0:0:
320,192,102159,1,0,0:0:0:0:
448,192,102232,1,0,0:0:0:0:
64,192,102304,1,0,0:0:0:0:
192,192,102304,1,0,0:0:0:0:
320,192,102377,1,0,0:0:0:0:
448,192,102450,1,0,0:0:0:0:
64,192,102450,1,0,0:0:0:0:
192,192,102523,1,0,0:0:0:0:
320,192,102596,1,0,0:0:0:0:
448,192,102596,1,0,0:0:0:0:
64,192,102669,1,0,0:0:0:0:
320,192,102741,1,0,0:0:0:0:
192,192,102741,1,0,0:0:0:0:
448,192,102814,1,0,0:0:0:0:
192,192,102887,1,0,0:0:0:0:
64,192,102887,1,0,0:0:0:0:
448,192,102960,1,0,0:0:0:0:
320,192,103033,1,0,0:0:0:0:
192,192,103033,1,0,0:0:0:0:
64,192,103105,1,0,0:0:0:0:
192,192,103178,1,0,0:0:0:0:
320,192,103178,1,0,0:0:0:0:
448,192,103251,1,0,0:0:0:0:
64,192,103251,1,0,0:0:0:0:
192,192,103324,1,0,0:0:0:0:
320,192,103324,1,0,0:0:0:0:
64,192,103397,1,0,0:0:0:0:
448,192,103397,1,0,0:0:0:0:
192,192,103470,1,0,0:0:0:0:
320,192,103470,1,0,0:0:0:0:
448,192,103518,1,0,0:0:0:0:
64,192,103567,1,0,0:0:0:0:
192,192,103567,1,0,0:0:0:0:
320,192,103615,1,0,0:0:0:0:
448,192,103664,1,0,0:0:0:0:
192,192,103664,1,0,0:0:0:0:
64,192,103712,1,0,0:0:0:0:
448,192,103761,1,0,0:0:0:0:
320,192,103761,1,0,0:0:0:0:
