osu file format v14

[General]
AudioFilename: audio.ogg
AudioLeadIn: 0
PreviewTime: 2637
Countdown: 0
SampleSet: Soft
StackLeniency: 0.7
Mode: 3
LetterboxInBreaks: 0
SpecialStyle: 0
WidescreenStoryboard: 1

[Editor]
Bookmarks: 8300,13786,24757,35729,46700,54929,57672,68643,78243,89215,100186,111157,113900,121615,124872,135843,146815,156415,167386,194815,211272,216757,222243,227729,233215,244186,255157,266129,274186,277100,277443,279980
DistanceSpacing: 0.85
BeatDivisor: 4
GridSize: 32
TimelineZoom: 2.6

[Metadata]
Title:Kao mo Honmyou mo Shiranakuttatte Orera Tomodachi Darou?
TitleUnicode:顔も本名も知らなくったって俺ら友達だろう?
Artist:Various Artists
ArtistUnicode:Various Artists
Creator:Noch Einen
Version:Yes
Source:ちゃんげろソニック2022
Tags:We're friends even though we don't know each other's faces or real names, right? chang gero sonic sonikku 2022 japanese pop jpop gero ask あらき araki +α あるふぁきゅん. alfakyun. __ (アンダーバー) underbar 弟の姉 otouto no ane Kradness ぐるたみん glutamine くろくも kurokumo コゲ犬 kogeinu that 詩人 shijin しゅーず shoose 新社会人 sinsyakaijin 蛇足 dasoku 超学生 chogakusei 灯油 touyu nero のど飴 nodoame yurica 花たん hanatan valshe ぽこた pokota 湯毛 yuge らむだーじゃん rumdarjun luz 蓮 ren
BeatmapID:3932941
BeatmapSetID:1907238

[Difficulty]
HPDrainRate:8.5
CircleSize:7
OverallDifficulty:8.3
ApproachRate:5
SliderMultiplier:1.4
SliderTickRate:1

[Events]
//Background and Video events
0,0,"cgs2022.jpg",0,0
//Break Periods
//Storyboard Layer 0 (Background)
//Storyboard Layer 1 (Fail)
//Storyboard Layer 2 (Pass)
//Storyboard Layer 3 (Foreground)
//Storyboard Layer 4 (Overlay)
//Storyboard Sound Samples
Sample,163951,0,"tak.wav",70
Sample,166694,0,"tak.wav",70

[TimingPoints]
2835,342.857142857143,4,2,1,60,1,0
2835,-100,4,2,1,60,0,1
3006,-100,4,2,1,60,0,0
13806,-100,4,2,1,60,0,1
21863,-100,4,2,1,60,0,0
68663,-117.647058823529,4,2,1,60,0,0
75863,-125,4,2,1,60,0,0
77235,-117.647058823529,4,2,1,60,0,0
77577,-111.111111111111,4,2,1,60,0,0
77920,-285.714285714287,4,2,1,60,0,0
78092,-74.0740740740741,4,2,1,60,0,0
78263,-100,4,2,1,60,0,0
111177,-125,4,2,1,60,0,0
113920,-117.647058823529,4,2,1,60,0,0
116663,-111.111111111111,4,2,1,60,0,0
119406,-105.263157894737,4,2,1,60,0,0
122149,-100,4,2,1,60,0,0
124549,-333.333333333333,4,2,1,60,0,0
124720,-76.9230769230769,4,2,1,60,0,0
124892,-100,4,2,1,60,0,1
135520,-100,4,2,1,60,0,0
135863,-100,4,2,1,60,0,1
136206,-100,4,2,1,60,0,0
146835,-100,4,2,1,60,0,1
155063,-100,4,2,1,60,0,0
167406,-117.647058823529,4,2,1,60,0,0
193463,-125,4,2,1,60,0,0
194835,-100,4,2,1,60,0,0
215406,-125,4,2,1,60,0,0
216092,-111.111111111111,4,2,1,60,0,0
216435,-105.263157894737,4,2,1,60,0,0
216777,-100,4,2,1,60,0,0
233235,-100,4,2,1,60,0,1
243863,-100,4,2,1,60,0,0
244206,-100,4,2,1,60,0,1
244549,-100,4,2,1,60,0,0
255177,-100,4,2,1,60,0,1
266149,-100,4,2,1,60,0,0
274206,-100,4,2,1,60,0,1
274549,-100,4,2,1,60,0,0
275235,-100,4,2,1,60,0,1
275577,-100,4,2,1,60,0,0
276263,-100,4,2,1,60,0,1
276606,-100,4,2,1,60,0,0
277463,-100,4,2,1,60,0,1
279863,-100,4,2,1,60,0,0

[HitObjects]
36,192,434,128,0,2834:0:0:0:0:
109,192,2834,128,2,3006:0:0:0:0:
329,192,2834,1,0,0:0:0:0:
402,192,2834,1,0,0:0:0:0:
475,192,2834,128,0,4034:0:0:0:0:
182,192,3006,128,0,3177:0:0:0:0:
256,192,3177,128,0,3349:0:0:0:0:
329,192,3349,128,0,3692:0:0:0:0:
402,192,3692,128,0,4034:0:0:0:0:
36,192,4034,1,2,0:0:0:0:
182,192,4034,1,0,0:0:0:0:
36,192,4206,128,2,5577:0:0:0:0:
182,192,4206,128,4,4377:0:0:0:0:
402,192,4206,1,0,0:0:0:0:
475,192,4206,1,0,0:0:0:0:
329,192,4377,128,0,4549:0:0:0:0:
475,192,4549,128,0,4892:0:0:0:0:
256,192,4720,128,0,4892:0:0:0:0:
182,192,5063,128,0,5406:0:0:0:0:
402,192,5063,128,0,5235:0:0:0:0:
329,192,5406,1,2,0:0:0:0:
402,192,5406,1,4,0:0:0:0:
475,192,5406,1,0,0:0:0:0:
109,192,5577,128,2,5749:0:0:0:0:
329,192,5577,1,4,0:0:0:0:
402,192,5577,1,0,0:0:0:0:
475,192,5577,128,0,6949:0:0:0:0:
256,192,5749,128,0,5920:0:0:0:0:
402,192,5920,128,0,6092:0:0:0:0:
36,192,6092,1,2,0:0:0:0:
182,192,6092,128,0,6606:0:0:0:0:
36,192,6435,128,0,6606:0:0:0:0:
329,192,6606,128,0,6777:0:0:0:0:
36,192,6777,1,2,0:0:0:0:
109,192,6777,1,0,0:0:0:0:
182,192,6777,1,4,0:0:0:0:
36,192,6949,128,2,7977:0:0:0:0:
109,192,6949,1,4,0:0:0:0:
182,192,6949,1,0,0:0:0:0:
402,192,6949,1,0,0:0:0:0:
329,192,7120,128,0,7292:0:0:0:0:
256,192,7292,128,0,7463:0:0:0:0:
182,192,7463,128,4,7977:0:0:0:0:
402,192,7463,1,2,0:0:0:0:
475,192,7463,1,0,0:0:0:0:
329,192,7977,1,0,0:0:0:70:tak.wav
475,192,7977,1,0,0:0:0:0:
329,192,8149,1,0,0:0:0:70:tak.wav
256,192,8235,1,0,0:0:0:70:tak.wav
36,192,8320,1,2,0:0:0:0:
109,192,8320,1,8,0:0:0:0:
182,192,8320,1,0,0:0:0:0:
475,192,8320,128,0,8492:0:0:0:0:
329,192,8492,1,0,0:0:0:0:
109,192,8663,1,2,0:0:0:0:
182,192,8663,1,8,0:0:0:0:
329,192,8663,128,0,8835:0:0:0:0:
402,192,8835,128,0,9006:0:0:0:0:
36,192,9006,1,2,0:0:0:0:
109,192,9006,1,8,0:0:0:0:
256,192,9006,128,0,9177:0:0:0:0:
329,192,9177,128,0,9349:0:0:0:0:
36,192,9349,1,8,0:0:0:0:
109,192,9349,1,2,0:0:0:0:
36,192,9692,1,2,0:0:0:0:
109,192,9692,128,8,9863:0:0:0:0:
329,192,9692,1,4,0:0:0:0:
402,192,9692,1,0,0:0:0:0:
256,192,9863,128,0,10035:0:0:0:0:
36,192,10035,128,2,10206:0:0:0:0:
329,192,10035,1,8,0:0:0:0:
402,192,10035,1,0,0:0:0:0:
182,192,10206,128,0,10377:0:0:0:0:
36,192,10377,128,8,10549:0:0:0:0:
402,192,10377,1,2,0:0:0:0:
475,192,10377,1,0,0:0:0:0:
109,192,10549,128,0,10720:0:0:0:0:
402,192,10720,1,2,0:0:0:0:
475,192,10720,1,8,0:0:0:0:
182,192,10892,128,0,11063:0:0:0:0:
36,192,11063,1,2,0:0:0:0:
109,192,11063,1,8,0:0:0:0:
329,192,11063,1,4,0:0:0:0:
475,192,11063,1,0,0:0:0:0:
256,192,11235,128,0,12092:0:0:0:0:
36,192,11406,1,2,0:0:0:0:
475,192,11406,1,8,0:0:0:0:
109,192,11749,1,8,0:0:0:0:
402,192,11749,1,2,0:0:0:0:
109,192,12092,1,2,0:0:0:0:
402,192,12092,1,8,0:0:0:0:
182,192,12435,128,0,12863:0:0:0:0:
329,192,12435,128,0,12777:0:0:0:0:
182,192,13292,1,2,0:0:0:0:
329,192,13292,1,0,0:0:0:0:
36,192,13463,1,8,0:0:0:0:
182,192,13463,1,0,0:0:0:0:
475,192,13463,128,0,13720:0:0:0:0:
402,192,13549,128,0,13720:0:0:0:0:
329,192,13635,128,0,13720:0:0:0:0:
182,192,13806,1,2,0:0:0:0:
329,192,13806,1,4,0:0:0:0:
402,192,13806,1,0,0:0:0:0:
475,192,13806,1,0,0:0:0:0:
36,192,13977,1,2,0:0:0:0:
182,192,13977,1,0,0:0:0:0:
36,192,14149,128,8,14663:0:0:0:0:
256,192,14149,1,0,0:0:0:0:
475,192,14149,128,0,14320:0:0:0:0:
329,192,14492,1,8,0:0:0:0:
475,192,14492,128,0,15006:0:0:0:0:
182,192,14663,1,0,0:0:0:0:
36,192,14835,128,8,16206:0:0:0:0:
329,192,14835,1,0,0:0:0:0:
256,192,15006,1,2,0:0:0:0:
182,192,15177,1,8,0:0:0:0:
475,192,15177,128,0,16206:0:0:0:0:
182,192,15520,1,8,0:0:0:0:
329,192,15520,1,0,0:0:0:0:
402,192,15692,128,0,16206:0:0:0:0:
182,192,15863,1,8,0:0:0:0:
256,192,16035,1,2,0:0:0:0:
109,192,16206,1,8,0:0:0:0:
329,192,16206,128,0,16892:0:0:0:0:
256,192,16377,1,2,0:0:0:0:
36,192,16549,1,8,0:0:0:0:
182,192,16549,1,0,0:0:0:0:
182,192,16892,1,8,0:0:0:0:
402,192,16892,1,0,0:0:0:0:
475,192,16892,128,0,17406:0:0:0:0:
36,192,17235,128,8,17749:0:0:0:0:
109,192,17235,1,0,0:0:0:0:
256,192,17406,1,2,0:0:0:0:
402,192,17577,1,8,0:0:0:0:
475,192,17577,128,0,18949:0:0:0:0:
256,192,17749,1,2,0:0:0:0:
36,192,17920,128,8,18949:0:0:0:0:
109,192,17920,1,0,0:0:0:0:
256,192,18263,1,8,0:0:0:0:
402,192,18263,1,0,0:0:0:0:
109,192,18435,128,0,18949:0:0:0:0:
256,192,18606,1,8,0:0:0:0:
402,192,18777,128,2,18949:0:0:0:0:
182,192,18949,1,8,0:0:0:0:
256,192,18949,1,0,0:0:0:0:
329,192,18949,1,0,0:0:0:0:
402,192,19120,128,2,20492:0:0:0:0:
36,192,19292,1,2,0:0:0:0:
109,192,19292,1,4,0:0:0:0:
256,192,19292,1,0,0:0:0:0:
256,192,19463,1,2,0:0:0:0:
36,192,19635,128,8,20149:0:0:0:0:
109,192,19635,1,0,0:0:0:0:
329,192,19977,1,8,0:0:0:0:
475,192,19977,128,0,20492:0:0:0:0:
36,192,20320,128,8,21692:0:0:0:0:
109,192,20320,1,0,0:0:0:0:
256,192,20492,1,2,0:0:0:0:
402,192,20663,1,8,0:0:0:0:
475,192,20663,128,0,21177:0:0:0:0:
182,192,21006,1,8,0:0:0:0:
329,192,21006,1,0,0:0:0:0:
402,192,21349,1,8,0:0:0:0:
475,192,21349,128,0,23063:0:0:0:0:
329,192,21520,1,2,0:0:0:0:
109,192,21692,1,8,0:0:0:0:
256,192,21692,1,0,0:0:0:0:
36,192,21863,128,2,23063:0:0:0:0:
182,192,22035,1,2,0:0:0:0:
329,192,22035,1,4,0:0:0:0:
402,192,22035,1,0,0:0:0:0:
182,192,22206,1,0,0:0:0:0:
182,192,22377,1,0,0:0:0:0:
256,192,22549,1,0,0:0:0:0:
256,192,22720,1,0,0:0:0:0:
256,192,22892,1,0,0:0:0:0:
329,192,23063,1,0,0:0:0:0:
329,192,23235,1,0,0:0:0:0:
329,192,23406,1,0,0:0:0:0:
402,192,23577,1,0,0:0:0:0:
402,192,23749,1,0,0:0:0:0:
402,192,23920,1,0,0:0:0:0:
329,192,24092,1,0,0:0:0:0:
475,192,24092,1,0,0:0:0:0:
109,192,24177,1,0,0:0:0:0:
256,192,24263,1,0,0:0:0:0:
475,192,24263,1,0,0:0:0:0:
36,192,24349,1,0,0:0:0:0:
182,192,24435,1,0,0:0:0:0:
475,192,24435,1,0,0:0:0:0:
402,192,24520,1,0,0:0:0:0:
109,192,24606,1,0,0:0:0:0:
329,192,24606,1,0,0:0:0:0:
182,192,24692,1,0,0:0:0:0:
36,192,24777,1,4,0:0:0:0:
256,192,24777,1,0,0:0:0:0:
402,192,24777,1,0,0:0:0:0:
475,192,24777,1,0,0:0:0:0:
36,192,24949,1,0,0:0:0:0:
36,192,25120,1,8,0:0:0:0:
329,192,25120,1,0,0:0:0:0:
475,192,25120,1,0,0:0:0:0:
182,192,25292,1,0,0:0:0:0:
182,192,25463,1,0,0:0:0:0:
182,192,25635,1,0,0:0:0:0:
36,192,25806,1,8,0:0:0:0:
182,192,25806,1,0,0:0:0:0:
475,192,25806,1,0,0:0:0:0:
329,192,25977,1,0,0:0:0:0:
329,192,26149,1,0,0:0:0:0:
329,192,26320,1,0,0:0:0:0:
36,192,26492,1,8,0:0:0:0:
329,192,26492,1,0,0:0:0:0:
475,192,26492,1,0,0:0:0:0:
109,192,26663,1,0,0:0:0:0:
109,192,26835,1,0,0:0:0:0:
109,192,27006,1,0,0:0:0:0:
109,192,27177,1,8,0:0:0:0:
182,192,27177,1,0,0:0:0:0:
329,192,27177,1,0,0:0:0:0:
329,192,27349,1,0,0:0:0:0:
402,192,27520,1,0,0:0:0:0:
402,192,27692,1,0,0:0:0:0:
36,192,27863,1,8,0:0:0:0:
256,192,27863,1,0,0:0:0:0:
402,192,27863,1,0,0:0:0:0:
182,192,28035,1,0,0:0:0:0:
182,192,28206,1,0,0:0:0:0:
182,192,28377,1,0,0:0:0:0:
182,192,28549,1,8,0:0:0:0:
329,192,28549,1,0,0:0:0:0:
475,192,28549,1,0,0:0:0:0:
182,192,28720,1,0,0:0:0:0:
109,192,28892,1,0,0:0:0:0:
109,192,29063,1,0,0:0:0:0:
109,192,29235,1,8,0:0:0:0:
329,192,29235,1,0,0:0:0:0:
475,192,29235,1,0,0:0:0:0:
109,192,29406,1,0,0:0:0:0:
109,192,29577,1,0,0:0:0:0:
109,192,29749,1,0,0:0:0:0:
109,192,29920,1,8,0:0:0:0:
256,192,29920,1,0,0:0:0:0:
475,192,29920,1,0,0:0:0:0:
109,192,30092,1,0,0:0:0:0:
109,192,30263,1,4,0:0:0:0:
329,192,30263,1,0,0:0:0:0:
402,192,30263,1,0,0:0:0:0:
475,192,30263,1,0,0:0:0:0:
329,192,30435,1,0,0:0:0:0:
36,192,30606,1,8,0:0:0:0:
182,192,30606,1,0,0:0:0:0:
329,192,30606,1,0,0:0:0:0:
402,192,30777,1,0,0:0:0:0:
402,192,30949,1,0,0:0:0:0:
402,192,31120,1,0,0:0:0:0:
182,192,31292,1,8,0:0:0:0:
256,192,31292,1,0,0:0:0:0:
402,192,31292,1,0,0:0:0:0:
36,192,31463,1,0,0:0:0:0:
36,192,31635,1,0,0:0:0:0:
36,192,31806,1,0,0:0:0:0:
36,192,31977,1,8,0:0:0:0:
182,192,31977,1,0,0:0:0:0:
329,192,31977,1,0,0:0:0:0:
475,192,32149,1,0,0:0:0:0:
475,192,32320,1,0,0:0:0:0:
475,192,32492,1,0,0:0:0:0:
109,192,32663,1,8,0:0:0:0:
256,192,32663,1,0,0:0:0:0:
475,192,32663,1,0,0:0:0:0:
475,192,32835,1,0,0:0:0:0:
182,192,33006,1,0,0:0:0:0:
182,192,33177,1,0,0:0:0:0:
36,192,33349,1,8,0:0:0:0:
182,192,33349,1,0,0:0:0:0:
475,192,33349,1,0,0:0:0:0:
329,192,33520,1,0,0:0:0:0:
329,192,33692,1,0,0:0:0:0:
329,192,33863,1,0,0:0:0:0:
36,192,34035,1,8,0:0:0:0:
182,192,34035,1,0,0:0:0:0:
329,192,34035,1,0,0:0:0:0:
402,192,34206,1,0,0:0:0:0:
402,192,34377,1,0,0:0:0:0:
402,192,34549,1,0,0:0:0:0:
36,192,34720,1,8,0:0:0:0:
182,192,34720,1,0,0:0:0:0:
402,192,34720,1,0,0:0:0:0:
402,192,34892,1,0,0:0:0:0:
402,192,35063,1,0,0:0:0:0:
182,192,35149,1,0,0:0:0:0:
402,192,35235,1,0,0:0:0:0:
256,192,35320,1,0,0:0:0:0:
36,192,35406,1,8,0:0:0:0:
109,192,35406,1,0,0:0:0:0:
402,192,35406,1,0,0:0:0:0:
329,192,35492,1,0,0:0:0:0:
256,192,35577,1,0,0:0:0:0:
182,192,35663,1,0,0:0:0:0:
36,192,35749,1,2,0:0:0:0:
109,192,35749,1,4,0:0:0:0:
402,192,35749,1,0,0:0:0:0:
475,192,35749,1,0,0:0:0:0:
36,192,35920,1,2,0:0:0:0:
109,192,35920,1,0,0:0:0:0:
182,192,36092,1,0,0:0:0:70:tak.wav
256,192,36092,1,0,0:0:0:0:
475,192,36092,1,0,0:0:0:0:
402,192,36263,1,0,0:0:0:0:
182,192,36435,1,0,0:0:0:0:
109,192,36606,1,2,0:0:0:0:
329,192,36606,1,0,0:0:0:0:
36,192,36777,1,0,0:0:0:70:tak.wav
256,192,36777,1,0,0:0:0:0:
475,192,36777,1,0,0:0:0:0:
109,192,36949,128,0,37120:0:0:0:0:
182,192,37120,1,2,0:0:0:0:
256,192,37120,128,0,37292:0:0:0:0:
329,192,37292,1,2,0:0:0:0:
402,192,37292,128,0,37977:0:0:0:0:
36,192,37463,1,0,0:0:0:70:tak.wav
109,192,37463,1,0,0:0:0:0:
182,192,37463,128,0,37635:0:0:0:0:
256,192,37635,128,0,37806:0:0:0:0:
329,192,37806,128,0,37977:0:0:0:0:
109,192,37977,1,0,0:0:0:0:
182,192,37977,1,0,0:0:0:0:
256,192,38149,1,0,0:0:0:70:tak.wav
402,192,38149,128,0,38320:0:0:0:0:
475,192,38149,128,0,38320:0:0:0:0:
109,192,38320,1,0,0:0:0:0:
36,192,38492,1,2,0:0:0:0:
329,192,38492,1,0,0:0:0:0:
36,192,38663,1,2,0:0:0:0:
329,192,38663,1,0,0:0:0:0:
182,192,38835,1,0,0:0:0:70:tak.wav
402,192,38835,1,0,0:0:0:0:
475,192,38835,1,0,0:0:0:0:
109,192,39006,1,0,0:0:0:0:
256,192,39177,1,0,0:0:0:0:
329,192,39349,1,2,0:0:0:0:
402,192,39349,1,0,0:0:0:0:
36,192,39520,1,0,0:0:0:70:tak.wav
109,192,39520,1,0,0:0:0:0:
475,192,39520,1,0,0:0:0:0:
182,192,39692,1,0,0:0:0:0:
256,192,39777,1,0,0:0:0:70:tak.wav
402,192,39777,1,0,0:0:0:0:
36,192,39863,128,0,40035:0:0:0:0:
475,192,39863,128,0,40720:0:0:0:0:
109,192,40035,128,2,40206:0:0:0:0:
182,192,40206,128,0,40377:0:0:0:70:tak.wav
402,192,40206,1,0,0:0:0:0:
256,192,40377,1,0,0:0:0:0:
36,192,40463,1,0,0:0:0:70:tak.wav
329,192,40463,1,0,0:0:0:0:
402,192,40549,128,0,40720:0:0:0:0:
109,192,40720,1,2,0:0:0:0:
182,192,40720,1,0,0:0:0:0:
36,192,40892,1,0,0:0:0:70:tak.wav
329,192,40892,128,0,41063:0:0:0:0:
475,192,40892,128,0,41063:0:0:0:0:
256,192,41063,1,0,0:0:0:0:
182,192,41149,1,0,0:0:0:70:tak.wav
36,192,41235,1,2,0:0:0:0:
109,192,41235,1,4,0:0:0:0:
329,192,41235,1,0,0:0:0:0:
475,192,41235,1,0,0:0:0:0:
36,192,41406,1,2,0:0:0:0:
109,192,41406,1,0,0:0:0:0:
182,192,41577,1,0,0:0:0:70:tak.wav
402,192,41577,1,0,0:0:0:0:
475,192,41577,1,0,0:0:0:0:
256,192,41749,1,0,0:0:0:0:
329,192,41920,1,0,0:0:0:0:
109,192,42092,1,2,0:0:0:0:
182,192,42092,1,0,0:0:0:0:
36,192,42263,1,0,0:0:0:70:tak.wav
402,192,42263,1,0,0:0:0:0:
475,192,42263,1,0,0:0:0:0:
256,192,42435,128,0,42606:0:0:0:0:
109,192,42606,1,2,0:0:0:0:
329,192,42606,1,0,0:0:0:0:
109,192,42777,1,2,0:0:0:0:
329,192,42777,1,0,0:0:0:0:
182,192,42949,1,0,0:0:0:70:tak.wav
402,192,42949,1,0,0:0:0:0:
475,192,42949,1,0,0:0:0:0:
36,192,43120,128,0,43292:0:0:0:0:
329,192,43292,1,0,0:0:0:0:
109,192,43463,1,2,0:0:0:0:
256,192,43463,128,0,43635:0:0:0:0:
36,192,43635,1,0,0:0:0:70:tak.wav
402,192,43635,128,0,43977:0:0:0:0:
475,192,43635,1,0,0:0:0:0:
256,192,43806,128,0,43977:0:0:0:0:
109,192,43977,1,2,0:0:0:0:
182,192,43977,1,0,0:0:0:0:
109,192,44149,1,2,0:0:0:0:
182,192,44149,1,0,0:0:0:0:
256,192,44235,1,0,0:0:0:0:
329,192,44320,1,0,0:0:0:70:tak.wav
402,192,44320,1,0,0:0:0:0:
475,192,44320,1,0,0:0:0:0:
329,192,44492,1,0,0:0:0:0:
182,192,44577,1,0,0:0:0:0:
36,192,44663,1,0,0:0:0:0:
109,192,44749,1,0,0:0:0:70:tak.wav
182,192,44835,1,2,0:0:0:0:
329,192,44835,1,0,0:0:0:0:
256,192,45006,1,0,0:0:0:70:tak.wav
402,192,45006,1,0,0:0:0:0:
475,192,45006,1,0,0:0:0:0:
36,192,45177,1,0,0:0:0:0:
182,192,45263,1,0,0:0:0:70:tak.wav
329,192,45263,1,0,0:0:0:0:
475,192,45349,128,0,45520:0:0:0:0:
256,192,45520,1,2,0:0:0:0:
402,192,45520,1,0,0:0:0:0:
36,192,45692,1,0,0:0:0:70:tak.wav
182,192,45692,128,0,45777:0:0:0:0:
475,192,45692,1,0,0:0:0:0:
182,192,45863,128,0,45949:0:0:0:0:
36,192,45949,1,0,0:0:0:70:tak.wav
256,192,45949,128,0,46035:0:0:0:0:
329,192,46035,128,0,46120:0:0:0:0:
329,192,46206,128,2,46292:0:0:0:0:
475,192,46206,1,0,0:0:0:0:
256,192,46292,128,0,46377:0:0:0:0:
36,192,46377,1,0,0:0:0:70:tak.wav
109,192,46377,1,0,0:0:0:0:
182,192,46377,128,0,46463:0:0:0:0:
329,192,46463,128,0,46549:0:0:0:0:
256,192,46549,128,0,46635:0:0:0:0:
402,192,46635,128,0,46720:0:0:0:0:
36,192,46720,128,2,47235:0:0:0:0:
109,192,46720,1,4,0:0:0:0:
329,192,46720,1,0,0:0:0:0:
475,192,46720,1,0,0:0:0:0:
256,192,46892,1,0,0:0:0:0:
402,192,47063,1,0,0:0:0:0:
109,192,47235,1,2,0:0:0:0:
329,192,47235,1,0,0:0:0:0:
36,192,47406,1,0,0:0:0:70:tak.wav
256,192,47406,1,0,0:0:0:0:
475,192,47406,128,0,47749:0:0:0:0:
329,192,47577,128,0,47749:0:0:0:0:
182,192,47749,1,0,0:0:0:0:
329,192,47920,128,2,48092:0:0:0:0:
475,192,47920,128,0,48092:0:0:0:0:
109,192,48092,1,0,0:0:0:0:
256,192,48263,128,2,48435:0:0:0:0:
402,192,48263,128,0,48435:0:0:0:0:
36,192,48435,1,0,0:0:0:0:
182,192,48606,128,2,48777:0:0:0:0:
329,192,48606,1,0,0:0:0:0:
36,192,48777,1,0,0:0:0:70:tak.wav
329,192,48777,128,0,48949:0:0:0:0:
475,192,48777,1,0,0:0:0:0:
182,192,48949,128,2,49120:0:0:0:0:
402,192,48949,1,0,0:0:0:0:
329,192,49035,1,2,0:0:0:0:
36,192,49120,1,4,0:0:0:0:
109,192,49120,1,0,0:0:0:70:tak.wav
256,192,49120,128,0,49292:0:0:0:0:
475,192,49120,1,0,0:0:0:0:
402,192,49292,128,0,49463:0:0:0:0:
36,192,49463,1,0,0:0:0:0:
256,192,49463,128,0,49635:0:0:0:0:
329,192,49635,1,0,0:0:0:0:
402,192,49720,1,0,0:0:0:0:
36,192,49806,1,4,0:0:0:0:
109,192,49806,1,0,0:0:0:70:tak.wav
182,192,49806,128,0,49977:0:0:0:0:
475,192,49806,128,0,50149:0:0:0:0:
36,192,50149,128,2,50492:0:0:0:0:
329,192,50149,1,0,0:0:0:0:
182,192,50320,128,2,50492:0:0:0:0:
329,192,50320,1,0,0:0:0:0:
256,192,50492,1,0,0:0:0:70:tak.wav
402,192,50492,1,0,0:0:0:0:
475,192,50492,1,0,0:0:0:0:
36,192,50663,128,2,50835:0:0:0:0:
182,192,50663,128,0,50835:0:0:0:0:
256,192,50835,1,0,0:0:0:0:
329,192,51006,128,2,51177:0:0:0:0:
475,192,51006,128,0,51177:0:0:0:0:
36,192,51177,1,0,0:0:0:70:tak.wav
109,192,51177,1,0,0:0:0:0:
256,192,51177,1,0,0:0:0:0:
475,192,51349,128,0,51520:0:0:0:0:
329,192,51520,128,0,51692:0:0:0:0:
36,192,51692,1,2,0:0:0:0:
475,192,51692,128,0,52035:0:0:0:0:
109,192,51863,1,0,0:0:0:70:tak.wav
329,192,51863,1,0,0:0:0:0:
402,192,51863,128,0,52035:0:0:0:0:
182,192,52035,1,0,0:0:0:0:
36,192,52206,128,2,52720:0:0:0:0:
329,192,52206,1,4,0:0:0:0:
402,192,52206,1,0,0:0:0:0:
475,192,52206,1,0,0:0:0:0:
256,192,52377,1,0,0:0:0:0:
182,192,52549,128,0,52720:0:0:0:70:tak.wav
402,192,52549,1,0,0:0:0:0:
475,192,52549,1,0,0:0:0:0:
329,192,52720,1,0,0:0:0:0:
109,192,52892,128,2,53235:0:0:0:0:
402,192,52892,1,0,0:0:0:0:
256,192,53063,1,2,0:0:0:0:
402,192,53063,128,0,53235:0:0:0:0:
36,192,53235,1,0,0:0:0:70:tak.wav
182,192,53235,1,0,0:0:0:0:
475,192,53235,1,0,0:0:0:0:
256,192,53406,128,2,53577:0:0:0:0:
402,192,53406,128,0,53577:0:0:0:0:
109,192,53577,1,0,0:0:0:0:
182,192,53749,128,2,53920:0:0:0:0:
329,192,53749,128,0,53920:0:0:0:0:
36,192,53920,1,0,0:0:0:70:tak.wav
256,192,53920,1,0,0:0:0:0:
475,192,53920,1,0,0:0:0:0:
182,192,54092,128,0,54435:0:0:0:0:
36,192,54263,128,2,54435:0:0:0:0:
329,192,54263,1,0,0:0:0:0:
402,192,54263,1,0,0:0:0:0:
475,192,54263,1,0,0:0:0:0:
329,192,54435,1,0,0:0:0:70:tak.wav
256,192,54520,1,0,0:0:0:70:tak.wav
36,192,54606,1,0,0:0:0:70:tak.wav
182,192,54606,1,0,0:0:0:0:
402,192,54692,1,0,0:0:0:70:tak.wav
475,192,54692,1,0,0:0:0:0:
36,192,54777,1,0,0:0:0:70:tak.wav
182,192,54777,1,0,0:0:0:0:
256,192,54863,1,0,0:0:0:70:tak.wav
109,192,54949,1,2,0:0:0:0:
329,192,54949,1,4,0:0:0:0:
402,192,54949,128,0,55292:0:0:0:0:
475,192,54949,128,0,55292:0:0:0:0:
182,192,55292,1,0,0:0:0:0:
256,192,55463,1,2,0:0:0:0:
329,192,55463,1,0,0:0:0:0:
36,192,55635,1,0,0:0:0:70:tak.wav
109,192,55635,1,0,0:0:0:0:
256,192,55635,1,0,0:0:0:0:
402,192,55806,128,2,55977:0:0:0:0:
475,192,55806,128,0,55977:0:0:0:0:
329,192,55977,1,0,0:0:0:0:
36,192,56149,128,2,56492:0:0:0:0:
182,192,56149,128,4,56492:0:0:0:0:
256,192,56149,1,0,0:0:0:0:
475,192,56149,1,0,0:0:0:0:
402,192,56320,1,0,0:0:0:0:
109,192,56492,1,2,0:0:0:0:
329,192,56492,128,0,56835:0:0:0:0:
182,192,56663,1,0,0:0:0:0:
36,192,56835,1,2,0:0:0:0:
475,192,56835,128,0,57006:0:0:0:0:
109,192,57006,1,0,0:0:0:70:tak.wav
402,192,57006,128,0,57177:0:0:0:0:
182,192,57006,1,0,0:0:0:0:
329,192,57177,128,0,57349:0:0:0:0:
36,192,57349,1,0,0:0:0:0:
475,192,57349,128,0,57520:0:0:0:0:
109,192,57435,1,0,0:0:0:0:
182,192,57520,1,0,0:0:0:0:
329,192,57520,128,0,57692:0:0:0:0:
36,192,57692,1,8,0:0:0:0:
109,192,57692,128,2,57863:0:0:0:0:
402,192,57692,1,4,0:0:0:0:
475,192,57692,1,0,0:0:0:0:
256,192,57863,128,0,58035:0:0:0:0:
36,192,58035,1,8,0:0:0:0:
109,192,58035,1,2,0:0:0:0:
475,192,58035,128,0,58206:0:0:0:0:
182,192,58206,128,0,58377:0:0:0:0:
36,192,58377,1,8,0:0:0:0:
109,192,58377,1,2,0:0:0:0:
329,192,58377,128,0,58549:0:0:0:0:
475,192,58549,128,0,58720:0:0:0:0:
36,192,58720,1,2,0:0:0:0:
109,192,58720,1,8,0:0:0:0:
256,192,58720,128,0,58892:0:0:0:0:
329,192,58892,128,0,59063:0:0:0:0:
36,192,59063,1,2,0:0:0:0:
109,192,59063,1,8,0:0:0:0:
402,192,59063,128,0,59235:0:0:0:0:
475,192,59235,128,0,59406:0:0:0:0:
36,192,59406,1,8,0:0:0:0:
109,192,59406,1,2,0:0:0:0:
329,192,59406,128,0,59577:0:0:0:0:
475,192,59577,128,0,59663:0:0:0:0:
329,192,59663,128,0,59749:0:0:0:0:
36,192,59749,1,2,0:0:0:0:
109,192,59749,1,8,0:0:0:0:
475,192,59749,128,0,60092:0:0:0:0:
256,192,59920,128,0,60092:0:0:0:0:
36,192,60092,1,8,0:0:0:0:
109,192,60092,1,2,0:0:0:0:
402,192,60092,128,0,60263:0:0:0:0:
182,192,60263,128,0,60435:0:0:0:0:
36,192,60435,1,2,0:0:0:0:
256,192,60435,128,8,60606:0:0:0:0:
329,192,60435,1,4,0:0:0:0:
475,192,60435,1,0,0:0:0:0:
182,192,60606,128,0,60777:0:0:0:0:
36,192,60777,128,2,60949:0:0:0:0:
329,192,60777,1,8,0:0:0:0:
475,192,60777,1,0,0:0:0:0:
256,192,60949,128,0,61120:0:0:0:0:
109,192,61120,128,8,61292:0:0:0:0:
329,192,61120,1,2,0:0:0:0:
475,192,61120,1,0,0:0:0:0:
36,192,61292,128,0,61463:0:0:0:0:
256,192,61463,128,2,61635:0:0:0:0:
329,192,61463,1,8,0:0:0:0:
475,192,61463,1,0,0:0:0:0:
182,192,61635,128,0,61806:0:0:0:0:
109,192,61806,128,8,61977:0:0:0:0:
329,192,61806,1,2,0:0:0:0:
475,192,61806,1,0,0:0:0:0:
36,192,61977,128,0,62149:0:0:0:0:
329,192,62149,128,2,62492:0:0:0:0:
402,192,62149,1,8,0:0:0:0:
475,192,62149,1,0,0:0:0:0:
256,192,62263,128,0,62492:0:0:0:0:
182,192,62377,128,0,62492:0:0:0:0:
36,192,62492,128,2,63006:0:0:0:0:
402,192,62492,1,8,0:0:0:0:
475,192,62492,1,0,0:0:0:0:
329,192,62663,1,0,0:0:0:0:
256,192,62749,1,0,0:0:0:0:
182,192,62835,128,2,63006:0:0:0:0:
402,192,62835,1,8,0:0:0:0:
475,192,62835,1,0,0:0:0:0:
329,192,63006,128,0,63177:0:0:0:0:
36,192,63177,1,2,0:0:0:0:
182,192,63177,1,8,0:0:0:0:
402,192,63177,128,4,63349:0:0:0:0:
475,192,63177,1,0,0:0:0:0:
256,192,63349,128,0,63520:0:0:0:0:
36,192,63520,128,2,63692:0:0:0:0:
402,192,63520,1,8,0:0:0:0:
475,192,63520,1,0,0:0:0:0:
329,192,63692,128,0,63863:0:0:0:0:
182,192,63863,128,8,64035:0:0:0:0:
402,192,63863,1,2,0:0:0:0:
475,192,63863,1,0,0:0:0:0:
36,192,64035,128,0,64206:0:0:0:0:
256,192,64206,128,2,64377:0:0:0:0:
402,192,64206,1,8,0:0:0:0:
475,192,64206,1,0,0:0:0:0:
182,192,64377,128,0,64549:0:0:0:0:
109,192,64549,128,8,64720:0:0:0:0:
402,192,64549,1,2,0:0:0:0:
475,192,64549,1,0,0:0:0:0:
36,192,64720,128,0,64892:0:0:0:0:
182,192,64892,128,2,65063:0:0:0:0:
402,192,64892,1,8,0:0:0:0:
475,192,64892,1,0,0:0:0:0:
36,192,65063,128,0,65149:0:0:0:0:
182,192,65149,128,0,65235:0:0:0:0:
36,192,65235,128,2,65577:0:0:0:0:
402,192,65235,1,8,0:0:0:0:
475,192,65235,1,0,0:0:0:0:
256,192,65406,128,0,65577:0:0:0:0:
109,192,65577,1,2,0:0:0:0:
182,192,65577,1,8,0:0:0:0:
475,192,65577,128,0,65835:0:0:0:0:
402,192,65663,128,0,65835:0:0:0:0:
329,192,65749,128,0,65835:0:0:0:0:
36,192,65920,1,2,0:0:0:0:
109,192,65920,1,8,0:0:0:0:
329,192,65920,128,4,66092:0:0:0:0:
475,192,65920,1,0,0:0:0:0:
256,192,66092,128,0,66263:0:0:0:0:
36,192,66263,1,8,0:0:0:0:
109,192,66263,1,2,0:0:0:0:
475,192,66263,128,0,66435:0:0:0:0:
256,192,66435,128,0,66606:0:0:0:0:
36,192,66606,1,2,0:0:0:0:
109,192,66606,1,8,0:0:0:0:
402,192,66606,128,0,66777:0:0:0:0:
475,192,66777,128,0,66949:0:0:0:0:
36,192,66949,1,8,0:0:0:0:
109,192,66949,1,2,0:0:0:0:
256,192,66949,128,0,67120:0:0:0:0:
329,192,67120,128,0,67292:0:0:0:0:
36,192,67292,1,2,0:0:0:0:
109,192,67292,1,8,0:0:0:0:
402,192,67292,128,0,67463:0:0:0:0:
475,192,67463,128,0,67635:0:0:0:0:
36,192,67635,1,8,0:0:0:0:
109,192,67635,1,2,0:0:0:0:
182,192,67635,128,0,67977:0:0:0:0:
256,192,67749,128,0,67977:0:0:0:0:
329,192,67863,128,0,67977:0:0:0:0:
36,192,67977,1,2,0:0:0:0:
402,192,67977,1,8,0:0:0:0:
475,192,67977,128,0,68663:0:0:0:0:
109,192,68149,1,0,0:0:0:0:
182,192,68235,1,0,0:0:0:0:
36,192,68320,1,2,0:0:0:0:
256,192,68320,1,8,0:0:0:0:
329,192,68320,128,0,68492:0:0:0:0:
402,192,68492,128,0,68663:0:0:0:0:
36,192,68663,1,0,0:0:0:0:
182,192,68663,128,0,69006:0:0:0:0:
402,192,69006,1,0,0:0:0:0:
475,192,69006,1,0,0:0:0:0:
402,192,69349,1,0,0:0:0:0:
475,192,69349,1,0,0:0:0:0:
329,192,69520,1,0,0:0:0:0:
109,192,69692,128,0,70035:0:0:0:0:
256,192,69692,1,0,0:0:0:0:
402,192,70035,1,0,0:0:0:0:
475,192,70035,1,0,0:0:0:0:
256,192,70206,1,0,0:0:0:0:
36,192,70377,1,0,0:0:0:0:
109,192,70377,1,0,0:0:0:0:
256,192,70720,1,0,0:0:0:0:
402,192,70720,128,0,71063:0:0:0:0:
36,192,71063,1,0,0:0:0:0:
182,192,71063,1,0,0:0:0:0:
329,192,71235,1,0,0:0:0:0:
36,192,71406,1,0,0:0:0:0:
256,192,71406,1,0,0:0:0:0:
475,192,71596,1,0,0:0:0:0:
182,192,71749,128,0,72092:0:0:0:0:
329,192,71749,1,0,0:0:0:0:
402,192,72092,1,0,0:0:0:0:
475,192,72092,1,0,0:0:0:0:
402,192,72435,1,0,0:0:0:0:
475,192,72435,1,0,0:0:0:0:
256,192,72606,1,0,0:0:0:0:
36,192,72777,1,0,0:0:0:0:
109,192,72777,128,0,73120:0:0:0:0:
256,192,73120,1,0,0:0:0:0:
402,192,73120,1,0,0:0:0:0:
109,192,73292,1,0,0:0:0:0:
256,192,73463,1,0,0:0:0:0:
402,192,73463,1,0,0:0:0:0:
475,192,73635,1,0,0:0:0:0:
36,192,73806,128,0,74149:0:0:0:0:
182,192,73806,1,0,0:0:0:0:
329,192,74149,1,0,0:0:0:0:
475,192,74149,1,0,0:0:0:0:
182,192,74492,1,0,0:0:0:0:
329,192,74492,1,0,0:0:0:0:
109,192,74835,128,0,75177:0:0:0:0:
402,192,74835,1,0,0:0:0:0:
36,192,75177,1,0,0:0:0:0:
182,192,75177,1,0,0:0:0:0:
329,192,75520,1,0,0:0:0:0:
475,192,75520,1,0,0:0:0:0:
256,192,75692,1,0,0:0:0:0:
182,192,75863,1,0,0:0:0:0:
475,192,75863,128,0,77920:0:0:0:0:
109,192,75885,1,0,0:0:0:0:
36,192,75906,1,0,0:0:0:0:
109,192,76892,1,0,0:0:0:0:
109,192,77235,1,0,0:0:0:0:
402,192,77235,128,0,77920:0:0:0:0:
109,192,77577,1,0,0:0:0:0:
109,192,77920,1,0,0:0:0:0:
256,192,77920,128,0,78263:0:0:0:0:
36,192,78263,1,2,0:0:0:0:
109,192,78263,128,4,78606:0:0:0:0:
402,192,78263,1,0,0:0:0:0:
475,192,78263,1,0,0:0:0:0:
402,192,78435,1,2,0:0:0:0:
182,192,78606,1,0,0:0:0:70:tak.wav
256,192,78606,1,0,0:0:0:0:
329,192,78606,128,0,78949:0:0:0:0:
109,192,78777,1,0,0:0:0:0:
36,192,78949,128,0,79120:0:0:0:0:
256,192,79120,128,2,79292:0:0:0:0:
402,192,79120,1,0,0:0:0:0:
36,192,79292,1,0,0:0:0:70:tak.wav
182,192,79292,1,0,0:0:0:0:
475,192,79292,1,0,0:0:0:0:
182,192,79463,128,0,79806:0:0:0:0:
329,192,79635,1,2,0:0:0:0:
36,192,79806,1,2,0:0:0:0:
329,192,79806,128,0,79977:0:0:0:0:
109,192,79977,1,0,0:0:0:70:tak.wav
256,192,79977,1,0,0:0:0:0:
402,192,79977,128,0,80149:0:0:0:0:
475,192,80149,128,0,80663:0:0:0:0:
182,192,80320,1,0,0:0:0:0:
36,192,80492,1,2,0:0:0:0:
109,192,80663,1,0,0:0:0:70:tak.wav
329,192,80663,1,0,0:0:0:0:
402,192,80663,128,0,80835:0:0:0:0:
256,192,80835,128,0,81006:0:0:0:0:
182,192,81006,1,2,0:0:0:0:
475,192,81006,128,0,81177:0:0:0:0:
36,192,81177,1,2,0:0:0:0:
329,192,81177,128,0,81349:0:0:0:0:
109,192,81349,128,0,81520:0:0:0:70:tak.wav
402,192,81349,1,0,0:0:0:0:
475,192,81349,1,0,0:0:0:0:
256,192,81520,128,0,81692:0:0:0:0:
36,192,81692,128,0,81863:0:0:0:0:
475,192,81777,1,0,0:0:0:70:tak.wav
182,192,81863,1,2,0:0:0:0:
329,192,81863,128,0,82035:0:0:0:0:
36,192,82035,1,0,0:0:0:70:tak.wav
109,192,82035,1,0,0:0:0:0:
402,192,82035,128,0,82206:0:0:0:0:
475,192,82206,128,0,82549:0:0:0:0:
36,192,82292,1,0,0:0:0:70:tak.wav
182,192,82292,1,0,0:0:0:0:
329,192,82377,1,0,0:0:0:0:
109,192,82549,1,2,0:0:0:0:
256,192,82549,128,0,82720:0:0:0:0:
36,192,82720,1,0,0:0:0:70:tak.wav
402,192,82720,1,0,0:0:0:0:
475,192,82720,1,0,0:0:0:0:
402,192,82892,128,0,83235:0:0:0:0:
36,192,82977,1,0,0:0:0:70:tak.wav
182,192,82977,1,0,0:0:0:0:
329,192,83063,128,0,83235:0:0:0:0:
109,192,83235,1,2,0:0:0:0:
182,192,83235,1,0,0:0:0:0:
36,192,83406,1,0,0:0:0:70:tak.wav
329,192,83406,1,0,0:0:0:0:
402,192,83406,1,0,0:0:0:0:
256,192,83577,1,0,0:0:0:0:
182,192,83663,1,0,0:0:0:70:tak.wav
475,192,83663,1,0,0:0:0:0:
36,192,83749,1,2,0:0:0:0:
109,192,83749,1,4,0:0:0:0:
329,192,83749,1,0,0:0:0:0:
402,192,83749,1,0,0:0:0:0:
329,192,83920,1,2,0:0:0:0:
402,192,83920,128,0,84092:0:0:0:0:
36,192,84092,1,0,0:0:0:70:tak.wav
256,192,84092,1,0,0:0:0:0:
475,192,84092,1,0,0:0:0:0:
109,192,84177,1,0,0:0:0:0:
182,192,84263,1,0,0:0:0:0:
329,192,84349,1,0,0:0:0:0:
475,192,84435,1,0,0:0:0:0:
182,192,84606,1,2,0:0:0:0:
475,192,84606,128,0,84777:0:0:0:0:
36,192,84777,1,0,0:0:0:70:tak.wav
256,192,84777,1,0,0:0:0:0:
329,192,84777,128,0,84949:0:0:0:0:
109,192,84949,1,0,0:0:0:0:
109,192,85120,128,2,85292:0:0:0:0:
402,192,85120,1,0,0:0:0:0:
256,192,85292,128,2,85463:0:0:0:0:
329,192,85292,1,0,0:0:0:0:
36,192,85463,1,0,0:0:0:70:tak.wav
109,192,85463,1,0,0:0:0:0:
475,192,85463,1,0,0:0:0:0:
329,192,85635,128,0,85977:0:0:0:0:
182,192,85806,1,0,0:0:0:0:
402,192,85977,1,2,0:0:0:0:
475,192,85977,128,0,86149:0:0:0:0:
36,192,86149,1,0,0:0:0:70:tak.wav
182,192,86149,128,0,86320:0:0:0:0:
329,192,86149,1,0,0:0:0:0:
256,192,86320,1,0,0:0:0:0:
109,192,86492,128,2,86663:0:0:0:0:
402,192,86492,1,0,0:0:0:0:
329,192,86663,128,2,86835:0:0:0:0:
402,192,86663,1,0,0:0:0:0:
109,192,86835,128,0,87006:0:0:0:70:tak.wav
182,192,86835,1,0,0:0:0:0:
475,192,86835,1,0,0:0:0:0:
256,192,87006,1,0,0:0:0:0:
36,192,87177,128,0,87349:0:0:0:0:
475,192,87263,1,0,0:0:0:70:tak.wav
182,192,87349,1,2,0:0:0:0:
329,192,87349,1,0,0:0:0:0:
182,192,87520,128,0,87692:0:0:0:70:tak.wav
402,192,87520,1,0,0:0:0:0:
475,192,87520,1,0,0:0:0:0:
109,192,87692,128,0,87863:0:0:0:0:
256,192,87777,1,0,0:0:0:70:tak.wav
402,192,87777,1,0,0:0:0:0:
36,192,87863,1,0,0:0:0:0:
182,192,88035,1,2,0:0:0:0:
329,192,88035,1,0,0:0:0:0:
36,192,88206,1,4,0:0:0:0:
109,192,88206,1,0,0:0:0:70:tak.wav
256,192,88206,128,0,88377:0:0:0:0:
475,192,88206,1,0,0:0:0:0:
402,192,88377,128,0,88549:0:0:0:0:
36,192,88463,1,0,0:0:0:70:tak.wav
109,192,88463,1,0,0:0:0:0:
182,192,88549,1,2,0:0:0:0:
329,192,88549,128,0,88892:0:0:0:0:
182,192,88720,1,2,0:0:0:0:
36,192,88892,1,0,0:0:0:70:tak.wav
256,192,88892,1,0,0:0:0:0:
475,192,88892,1,0,0:0:0:0:
109,192,88977,1,0,0:0:0:70:tak.wav
329,192,88977,1,0,0:0:0:0:
182,192,89063,1,0,0:0:0:70:tak.wav
402,192,89063,1,0,0:0:0:0:
256,192,89149,1,0,0:0:0:70:tak.wav
36,192,89235,1,2,0:0:0:0:
109,192,89235,1,4,0:0:0:0:
329,192,89235,1,0,0:0:0:0:
475,192,89235,128,0,89406:0:0:0:0:
36,192,89406,1,2,0:0:0:0:
109,192,89406,1,0,0:0:0:0:
256,192,89577,1,0,0:0:0:70:tak.wav
402,192,89577,128,0,89749:0:0:0:0:
475,192,89577,1,0,0:0:0:0:
36,192,89749,1,0,0:0:0:0:
182,192,89835,1,0,0:0:0:0:
329,192,89920,128,0,90435:0:0:0:0:
475,192,90092,1,2,0:0:0:0:
36,192,90263,1,0,0:0:0:70:tak.wav
109,192,90263,1,0,0:0:0:0:
182,192,90263,128,0,90435:0:0:0:0:
475,192,90435,128,0,90606:0:0:0:0:
182,192,90606,1,2,0:0:0:0:
402,192,90606,1,0,0:0:0:0:
256,192,90777,128,2,90949:0:0:0:0:
402,192,90777,1,0,0:0:0:0:
36,192,90949,1,0,0:0:0:70:tak.wav
109,192,90949,1,0,0:0:0:0:
475,192,90949,1,0,0:0:0:0:
402,192,91120,128,0,91635:0:0:0:0:
256,192,91292,1,0,0:0:0:0:
109,192,91463,128,2,91977:0:0:0:0:
182,192,91463,1,0,0:0:0:0:
329,192,91635,128,0,91806:0:0:0:70:tak.wav
475,192,91635,1,0,0:0:0:0:
182,192,91806,128,0,91977:0:0:0:0:
329,192,91977,1,2,0:0:0:0:
402,192,91977,1,0,0:0:0:0:
36,192,92149,1,2,0:0:0:0:
329,192,92149,1,0,0:0:0:0:
256,192,92235,1,0,0:0:0:0:
182,192,92320,1,0,0:0:0:70:tak.wav
402,192,92320,1,0,0:0:0:0:
475,192,92320,1,0,0:0:0:0:
256,192,92492,1,0,0:0:0:0:
329,192,92663,128,0,92835:0:0:0:0:
36,192,92835,1,2,0:0:0:0:
182,192,92835,1,0,0:0:0:0:
329,192,93006,1,0,0:0:0:70:tak.wav
402,192,93006,1,0,0:0:0:0:
475,192,93006,1,0,0:0:0:0:
109,192,93177,128,0,93520:0:0:0:0:
329,192,93263,1,0,0:0:0:70:tak.wav
475,192,93263,1,0,0:0:0:0:
256,192,93349,1,0,0:0:0:0:
36,192,93520,128,2,93692:0:0:0:0:
329,192,93520,1,0,0:0:0:0:
182,192,93692,128,0,93863:0:0:0:70:tak.wav
402,192,93692,1,0,0:0:0:0:
475,192,93692,1,0,0:0:0:0:
329,192,93863,128,0,94035:0:0:0:0:
36,192,93949,1,0,0:0:0:70:tak.wav
182,192,93949,1,0,0:0:0:0:
475,192,94035,128,0,94549:0:0:0:0:
109,192,94206,1,2,0:0:0:0:
256,192,94206,1,0,0:0:0:0:
36,192,94377,1,0,0:0:0:70:tak.wav
329,192,94377,1,0,0:0:0:0:
402,192,94377,128,0,94549:0:0:0:0:
256,192,94549,1,0,0:0:0:0:
182,192,94635,1,0,0:0:0:70:tak.wav
329,192,94635,1,0,0:0:0:0:
36,192,94720,1,2,0:0:0:0:
109,192,94720,128,4,95063:0:0:0:0:
402,192,94720,1,0,0:0:0:0:
475,192,94720,1,0,0:0:0:0:
402,192,94892,1,2,0:0:0:0:
182,192,95063,1,0,0:0:0:70:tak.wav
256,192,95063,1,0,0:0:0:0:
329,192,95063,1,0,0:0:0:0:
329,192,95235,128,0,95406:0:0:0:0:
475,192,95406,128,0,95577:0:0:0:0:
109,192,95577,1,2,0:0:0:0:
256,192,95577,128,0,95749:0:0:0:0:
36,192,95749,1,0,0:0:0:70:tak.wav
402,192,95749,1,0,0:0:0:0:
475,192,95749,1,0,0:0:0:0:
329,192,95920,128,0,96092:0:0:0:0:
182,192,96092,1,2,0:0:0:0:
256,192,96092,1,0,0:0:0:0:
182,192,96263,128,2,96435:0:0:0:0:
256,192,96263,1,0,0:0:0:0:
36,192,96435,1,0,0:0:0:70:tak.wav
109,192,96435,1,0,0:0:0:0:
475,192,96435,1,0,0:0:0:0:
402,192,96606,128,0,96777:0:0:0:0:
256,192,96777,1,0,0:0:0:0:
36,192,96949,1,2,0:0:0:0:
402,192,96949,128,0,97120:0:0:0:0:
109,192,97120,1,0,0:0:0:70:tak.wav
256,192,97120,1,0,0:0:0:0:
475,192,97120,128,0,97292:0:0:0:0:
329,192,97292,128,0,97463:0:0:0:0:
36,192,97463,128,2,97635:0:0:0:0:
402,192,97463,1,0,0:0:0:0:
182,192,97635,128,2,97806:0:0:0:0:
402,192,97635,1,0,0:0:0:0:
36,192,97806,1,0,0:0:0:70:tak.wav
256,192,97806,128,0,97977:0:0:0:0:
329,192,97806,1,0,0:0:0:0:
109,192,97977,128,0,98149:0:0:0:0:
182,192,98149,128,0,98320:0:0:0:0:
329,192,98320,1,2,0:0:0:0:
402,192,98320,128,0,98492:0:0:0:0:
36,192,98492,1,0,0:0:0:70:tak.wav
256,192,98492,128,0,98663:0:0:0:0:
475,192,98492,1,0,0:0:0:0:
109,192,98663,1,2,0:0:0:0:
182,192,98663,1,4,0:0:0:0:
402,192,98663,1,0,0:0:0:0:
475,192,98663,1,0,0:0:0:0:
256,192,98835,128,0,99006:0:0:0:0:
182,192,99006,1,2,0:0:0:0:
402,192,99006,128,0,99177:0:0:0:0:
36,192,99177,1,0,0:0:0:70:tak.wav
109,192,99177,128,0,99349:0:0:0:0:
329,192,99177,1,0,0:0:0:0:
402,192,99349,128,0,99520:0:0:0:0:
36,192,99520,1,2,0:0:0:0:
182,192,99520,1,4,0:0:0:0:
256,192,99520,1,0,0:0:0:0:
475,192,99520,128,0,99863:0:0:0:0:
36,192,99692,1,0,0:0:0:0:
109,192,99777,1,0,0:0:0:0:
182,192,99863,1,0,0:0:0:0:
475,192,100035,1,0,0:0:0:0:
402,192,100120,1,0,0:0:0:0:
36,192,100206,1,2,0:0:0:0:
109,192,100206,1,4,0:0:0:0:
182,192,100206,1,0,0:0:0:0:
329,192,100206,1,0,0:0:0:0:
402,192,100377,1,0,0:0:0:70:tak.wav
475,192,100377,1,0,0:0:0:0:
109,192,100549,1,2,0:0:0:0:
256,192,100549,1,0,0:0:0:0:
329,192,100720,1,0,0:0:0:70:tak.wav
402,192,100720,1,0,0:0:0:0:
36,192,100892,1,2,0:0:0:0:
182,192,100892,1,0,0:0:0:0:
402,192,100977,1,2,0:0:0:0:
475,192,100977,1,0,0:0:0:0:
109,192,101063,1,0,0:0:0:70:tak.wav
256,192,101063,1,0,0:0:0:0:
182,192,101235,1,2,0:0:0:0:
329,192,101235,1,0,0:0:0:0:
256,192,101406,1,0,0:0:0:70:tak.wav
402,192,101406,1,0,0:0:0:0:
329,192,101577,1,2,0:0:0:0:
475,192,101577,1,0,0:0:0:0:
36,192,101749,1,0,0:0:0:70:tak.wav
109,192,101749,1,0,0:0:0:0:
256,192,101920,1,2,0:0:0:0:
402,192,101920,1,0,0:0:0:0:
109,192,102092,1,0,0:0:0:70:tak.wav
182,192,102092,1,0,0:0:0:0:
329,192,102263,1,2,0:0:0:0:
475,192,102263,1,0,0:0:0:0:
36,192,102349,1,2,0:0:0:0:
109,192,102349,1,0,0:0:0:0:
256,192,102435,1,0,0:0:0:70:tak.wav
402,192,102435,1,0,0:0:0:0:
182,192,102606,1,2,0:0:0:0:
329,192,102606,1,0,0:0:0:0:
256,192,102777,1,0,0:0:0:70:tak.wav
402,192,102777,1,0,0:0:0:0:
36,192,102949,1,2,0:0:0:0:
182,192,102949,1,0,0:0:0:0:
402,192,103120,1,0,0:0:0:70:tak.wav
475,192,103120,1,0,0:0:0:0:
182,192,103292,1,2,0:0:0:0:
329,192,103292,1,0,0:0:0:0:
36,192,103463,1,0,0:0:0:70:tak.wav
109,192,103463,1,0,0:0:0:0:
329,192,103635,1,2,0:0:0:0:
475,192,103635,1,0,0:0:0:0:
36,192,103720,1,2,0:0:0:0:
109,192,103720,1,0,0:0:0:0:
256,192,103806,1,0,0:0:0:70:tak.wav
402,192,103806,1,0,0:0:0:0:
182,192,103977,1,2,0:0:0:0:
329,192,103977,1,0,0:0:0:0:
109,192,104149,1,0,0:0:0:70:tak.wav
256,192,104149,1,0,0:0:0:0:
36,192,104320,1,2,0:0:0:0:
182,192,104320,1,0,0:0:0:0:
402,192,104492,1,0,0:0:0:70:tak.wav
475,192,104492,1,0,0:0:0:0:
109,192,104663,1,2,0:0:0:0:
256,192,104663,1,0,0:0:0:0:
329,192,104835,1,0,0:0:0:70:tak.wav
402,192,104835,1,0,0:0:0:0:
36,192,105006,1,2,0:0:0:0:
182,192,105006,1,0,0:0:0:0:
402,192,105092,1,2,0:0:0:0:
475,192,105092,1,0,0:0:0:0:
109,192,105177,1,0,0:0:0:70:tak.wav
256,192,105177,1,0,0:0:0:0:
182,192,105349,1,2,0:0:0:0:
329,192,105349,1,0,0:0:0:0:
109,192,105520,1,0,0:0:0:70:tak.wav
256,192,105520,1,0,0:0:0:0:
36,192,105692,1,2,0:0:0:0:
329,192,105692,1,4,0:0:0:0:
402,192,105692,1,0,0:0:0:0:
475,192,105692,1,0,0:0:0:0:
36,192,105863,1,0,0:0:0:70:tak.wav
182,192,105863,1,0,0:0:0:0:
182,192,106035,1,2,0:0:0:0:
329,192,106035,1,0,0:0:0:0:
256,192,106206,1,0,0:0:0:70:tak.wav
402,192,106206,1,0,0:0:0:0:
329,192,106377,1,2,0:0:0:0:
475,192,106377,1,0,0:0:0:0:
36,192,106463,1,2,0:0:0:0:
109,192,106463,1,0,0:0:0:0:
256,192,106549,1,0,0:0:0:70:tak.wav
402,192,106549,1,0,0:0:0:0:
182,192,106720,1,2,0:0:0:0:
329,192,106720,1,0,0:0:0:0:
109,192,106892,1,0,0:0:0:70:tak.wav
256,192,106892,1,0,0:0:0:0:
36,192,107063,1,2,0:0:0:0:
182,192,107063,1,0,0:0:0:0:
329,192,107235,1,0,0:0:0:70:tak.wav
475,192,107235,1,0,0:0:0:0:
36,192,107406,1,2,0:0:0:0:
329,192,107406,1,0,0:0:0:0:
36,192,107577,1,0,0:0:0:70:tak.wav
182,192,107577,1,0,0:0:0:0:
256,192,107749,1,2,0:0:0:0:
475,192,107749,1,0,0:0:0:0:
182,192,107835,1,2,0:0:0:0:
402,192,107835,1,0,0:0:0:0:
109,192,107920,1,0,0:0:0:70:tak.wav
329,192,107920,1,0,0:0:0:0:
36,192,108092,1,2,0:0:0:0:
256,192,108092,1,0,0:0:0:0:
402,192,108263,1,0,0:0:0:70:tak.wav
475,192,108263,1,0,0:0:0:0:
109,192,108435,1,2,0:0:0:0:
256,192,108435,1,0,0:0:0:0:
402,192,108606,1,0,0:0:0:70:tak.wav
475,192,108606,1,0,0:0:0:0:
36,192,108777,1,2,0:0:0:0:
182,192,108777,1,0,0:0:0:0:
109,192,108949,1,0,0:0:0:70:tak.wav
256,192,108949,1,0,0:0:0:0:
182,192,109120,1,2,0:0:0:0:
329,192,109120,1,0,0:0:0:0:
36,192,109206,1,2,0:0:0:0:
109,192,109206,1,0,0:0:0:0:
256,192,109292,1,0,0:0:0:70:tak.wav
402,192,109292,1,0,0:0:0:0:
182,192,109463,1,2,0:0:0:0:
329,192,109463,1,0,0:0:0:0:
256,192,109635,1,0,0:0:0:70:tak.wav
402,192,109635,1,0,0:0:0:0:
36,192,109806,1,2,0:0:0:0:
109,192,109806,1,4,0:0:0:0:
329,192,109806,1,0,0:0:0:0:
475,192,109806,1,0,0:0:0:0:
182,192,109892,1,2,0:0:0:0:
256,192,109892,1,0,0:0:0:0:
36,192,109977,1,0,0:0:0:70:tak.wav
475,192,109977,1,0,0:0:0:0:
109,192,110149,1,0,0:0:0:70:tak.wav
402,192,110149,1,0,0:0:0:0:
109,192,110320,1,0,0:0:0:70:tak.wav
402,192,110320,1,0,0:0:0:0:
182,192,110406,1,0,0:0:0:70:tak.wav
329,192,110406,1,0,0:0:0:0:
36,192,110492,1,4,0:0:0:0:
256,192,110492,1,0,0:0:0:70:tak.wav
475,192,110492,1,0,0:0:0:0:
109,192,110577,1,0,0:0:0:70:tak.wav
182,192,110663,1,0,0:0:0:70:tak.wav
402,192,110663,1,0,0:0:0:0:
256,192,110749,1,0,0:0:0:70:tak.wav
109,192,110835,1,0,0:0:0:70:tak.wav
329,192,110835,1,0,0:0:0:0:
182,192,110920,1,0,0:0:0:70:tak.wav
402,192,110920,1,0,0:0:0:0:
36,192,111006,1,0,0:0:0:70:tak.wav
256,192,111006,1,0,0:0:0:0:
109,192,111092,1,0,0:0:0:70:tak.wav
329,192,111092,1,0,0:0:0:0:
36,192,112463,1,0,0:0:0:0:
182,192,112549,1,2,0:0:0:0:
402,192,112549,1,0,0:0:0:0:
36,192,113235,1,2,0:0:0:0:
109,192,113235,1,0,0:0:0:0:
109,192,113577,1,0,0:0:0:0:
182,192,113920,1,2,0:0:0:0:
329,192,113920,1,4,0:0:0:0:
402,192,113920,1,0,0:0:0:0:
475,192,113920,1,0,0:0:0:0:
329,192,114263,1,0,0:0:0:70:tak.wav
329,192,114377,1,0,0:0:0:70:tak.wav
329,192,114492,1,0,0:0:0:70:tak.wav
36,192,114606,1,0,0:0:0:70:tak.wav
109,192,114606,1,0,0:0:0:0:
402,192,114606,1,0,0:0:0:0:
182,192,114949,1,0,0:0:0:70:tak.wav
182,192,115063,1,0,0:0:0:70:tak.wav
182,192,115177,1,0,0:0:0:70:tak.wav
36,192,115292,1,0,0:0:0:70:tak.wav
402,192,115292,1,0,0:0:0:0:
475,192,115292,1,0,0:0:0:0:
329,192,115635,1,0,0:0:0:70:tak.wav
329,192,115749,1,0,0:0:0:70:tak.wav
329,192,115863,1,0,0:0:0:70:tak.wav
36,192,115977,1,0,0:0:0:70:tak.wav
109,192,115977,1,0,0:0:0:0:
475,192,115977,1,0,0:0:0:0:
182,192,116320,1,0,0:0:0:70:tak.wav
182,192,116435,1,0,0:0:0:70:tak.wav
182,192,116549,1,0,0:0:0:70:tak.wav
109,192,116663,1,0,0:0:0:70:tak.wav
402,192,116663,1,0,0:0:0:0:
475,192,116663,1,0,0:0:0:0:
329,192,117006,1,0,0:0:0:70:tak.wav
329,192,117120,1,0,0:0:0:70:tak.wav
329,192,117235,1,0,0:0:0:70:tak.wav
36,192,117349,1,0,0:0:0:70:tak.wav
109,192,117349,1,0,0:0:0:0:
402,192,117349,1,0,0:0:0:0:
182,192,117692,1,0,0:0:0:70:tak.wav
182,192,117806,1,0,0:0:0:70:tak.wav
182,192,117920,1,0,0:0:0:70:tak.wav
36,192,118035,1,0,0:0:0:70:tak.wav
402,192,118035,1,0,0:0:0:0:
475,192,118035,1,0,0:0:0:0:
329,192,118377,1,0,0:0:0:70:tak.wav
329,192,118492,1,0,0:0:0:70:tak.wav
329,192,118606,1,0,0:0:0:70:tak.wav
36,192,118720,1,0,0:0:0:70:tak.wav
109,192,118720,1,0,0:0:0:0:
475,192,118720,1,0,0:0:0:0:
182,192,119063,1,0,0:0:0:70:tak.wav
182,192,119177,1,0,0:0:0:70:tak.wav
182,192,119292,1,0,0:0:0:70:tak.wav
36,192,119406,1,2,0:0:0:0:
109,192,119406,1,4,0:0:0:0:
402,192,119406,1,0,0:0:0:70:tak.wav
475,192,119406,1,0,0:0:0:0:
256,192,119577,1,0,0:0:0:0:
36,192,119749,1,2,0:0:0:0:
109,192,119749,1,4,0:0:0:0:
402,192,119749,1,0,0:0:0:70:tak.wav
475,192,119749,1,0,0:0:0:0:
109,192,119920,1,2,0:0:0:0:
182,192,119920,128,4,121463:0:0:0:0:
329,192,119920,128,0,121463:0:0:0:70:tak.wav
402,192,119920,1,0,0:0:0:0:
36,192,122149,128,2,122835:0:0:0:0:
109,192,122149,1,4,0:0:0:0:
256,192,122149,1,0,0:0:0:0:
329,192,122149,1,0,0:0:0:0:
109,192,122835,128,2,123520:0:0:0:0:
182,192,122835,1,4,0:0:0:0:
329,192,122835,1,0,0:0:0:0:
402,192,122835,1,0,0:0:0:0:
182,192,123520,128,2,124206:0:0:0:0:
256,192,123520,1,4,0:0:0:0:
402,192,123520,1,0,0:0:0:0:
475,192,123520,1,0,0:0:0:0:
402,192,123863,1,2,0:0:0:0:
36,192,124206,1,0,0:0:0:70:tak.wav
256,192,124206,128,0,124892:0:0:0:0:
475,192,124206,1,0,0:0:0:0:
36,192,124377,1,0,0:0:0:70:tak.wav
475,192,124377,1,0,0:0:0:0:
109,192,124463,1,0,0:0:0:70:tak.wav
402,192,124463,1,0,0:0:0:0:
182,192,124549,1,0,0:0:0:70:tak.wav
329,192,124549,1,0,0:0:0:0:
36,192,124892,1,2,0:0:0:0:
109,192,124892,1,4,0:0:0:0:
402,192,124892,128,0,125235:0:0:0:0:
475,192,124892,128,0,125235:0:0:0:0:
109,192,125235,1,0,0:0:0:70:tak.wav
182,192,125235,1,0,0:0:0:0:
256,192,125235,1,0,0:0:0:0:
329,192,125406,128,0,125577:0:0:0:0:
475,192,125406,128,0,125577:0:0:0:0:
36,192,125577,1,2,0:0:0:0:
109,192,125577,1,0,0:0:0:0:
256,192,125749,1,0,0:0:0:0:
402,192,125777,1,0,0:0:0:0:
36,192,125920,1,0,0:0:0:70:tak.wav
182,192,125920,1,0,0:0:0:0:
475,192,125920,1,0,0:0:0:0:
329,192,126092,1,0,0:0:0:0:
36,192,126263,128,2,126606:0:0:0:0:
182,192,126263,1,0,0:0:0:0:
329,192,126263,128,0,126606:0:0:0:0:
256,192,126435,1,0,0:0:0:0:
109,192,126606,1,0,0:0:0:70:tak.wav
402,192,126606,1,0,0:0:0:0:
475,192,126606,1,0,0:0:0:0:
182,192,126777,128,0,126949:0:0:0:0:
329,192,126777,128,0,126949:0:0:0:0:
36,192,126949,1,2,0:0:0:0:
256,192,126949,1,0,0:0:0:0:
475,192,126949,1,0,0:0:0:0:
109,192,127120,1,0,0:0:0:0:
182,192,127292,1,0,0:0:0:70:tak.wav
402,192,127292,1,0,0:0:0:0:
475,192,127292,1,0,0:0:0:0:
329,192,127463,1,0,0:0:0:0:
36,192,127635,1,2,0:0:0:0:
109,192,127635,128,0,127806:0:0:0:0:
256,192,127635,1,0,0:0:0:0:
402,192,127806,128,0,127977:0:0:0:0:
109,192,127977,1,0,0:0:0:70:tak.wav
182,192,127977,128,0,128149:0:0:0:0:
329,192,127977,1,0,0:0:0:0:
36,192,128149,128,0,128320:0:0:0:0:
475,192,128149,128,0,128320:0:0:0:0:
256,192,128320,1,2,0:0:0:0:
402,192,128320,1,0,0:0:0:0:
36,192,128492,1,0,0:0:0:0:
109,192,128663,1,0,0:0:0:70:tak.wav
402,192,128663,1,0,0:0:0:0:
475,192,128663,1,0,0:0:0:0:
329,192,128835,1,0,0:0:0:0:
36,192,129006,1,2,0:0:0:0:
182,192,129006,128,0,129177:0:0:0:0:
475,192,129006,1,0,0:0:0:0:
256,192,129177,128,0,129349:0:0:0:0:
36,192,129349,1,0,0:0:0:70:tak.wav
109,192,129349,1,0,0:0:0:0:
329,192,129349,128,0,129520:0:0:0:0:
402,192,129520,128,0,129863:0:0:0:0:
475,192,129520,128,0,129863:0:0:0:0:
182,192,129692,1,2,0:0:0:0:
256,192,129692,1,0,0:0:0:0:
109,192,129863,1,0,0:0:0:0:
36,192,130035,1,0,0:0:0:70:tak.wav
329,192,130035,1,0,0:0:0:0:
475,192,130035,1,0,0:0:0:0:
256,192,130206,1,0,0:0:0:0:
109,192,130377,128,2,130549:0:0:0:0:
182,192,130377,1,4,0:0:0:0:
402,192,130377,1,0,0:0:0:0:
475,192,130377,1,0,0:0:0:0:
256,192,130549,128,0,130720:0:0:0:0:
36,192,130720,1,0,0:0:0:70:tak.wav
109,192,130720,1,0,0:0:0:0:
329,192,130720,128,0,130892:0:0:0:0:
182,192,130892,128,0,131063:0:0:0:0:
475,192,130892,128,0,131063:0:0:0:0:
36,192,131063,1,2,0:0:0:0:
256,192,131063,1,0,0:0:0:0:
402,192,131235,1,0,0:0:0:0:
36,192,131406,1,0,0:0:0:70:tak.wav
256,192,131406,1,0,0:0:0:0:
402,192,131406,1,0,0:0:0:0:
182,192,131577,1,0,0:0:0:0:
109,192,131749,1,2,0:0:0:0:
402,192,131749,128,0,132092:0:0:0:0:
475,192,131749,128,0,132092:0:0:0:0:
256,192,131920,1,0,0:0:0:0:
36,192,132092,1,0,0:0:0:70:tak.wav
109,192,132092,1,0,0:0:0:0:
182,192,132092,1,0,0:0:0:0:
329,192,132263,128,0,132435:0:0:0:0:
402,192,132263,128,0,132435:0:0:0:0:
36,192,132435,1,2,0:0:0:0:
182,192,132435,1,0,0:0:0:0:
475,192,132435,1,0,0:0:0:0:
256,192,132606,128,0,132777:0:0:0:0:
109,192,132777,128,0,132949:0:0:0:70:tak.wav
329,192,132777,1,0,0:0:0:0:
475,192,132777,1,0,0:0:0:0:
182,192,132949,1,0,0:0:0:0:
256,192,133035,1,0,0:0:0:0:
36,192,133120,128,2,133463:0:0:0:0:
329,192,133120,1,0,0:0:0:0:
475,192,133120,128,0,133463:0:0:0:0:
182,192,133292,1,0,0:0:0:0:
109,192,133463,1,0,0:0:0:70:tak.wav
329,192,133463,1,0,0:0:0:0:
402,192,133463,1,0,0:0:0:0:
36,192,133635,128,0,133806:0:0:0:0:
256,192,133635,128,0,133806:0:0:0:0:
182,192,133806,1,2,0:0:0:0:
402,192,133806,1,0,0:0:0:0:
475,192,133977,128,0,134149:0:0:0:0:
36,192,134149,1,0,0:0:0:70:tak.wav
182,192,134149,1,0,0:0:0:0:
402,192,134149,128,0,134320:0:0:0:0:
329,192,134320,128,0,134492:0:0:0:0:
36,192,134492,1,2,0:0:0:0:
109,192,134492,1,4,0:0:0:0:
402,192,134492,1,0,0:0:0:0:
475,192,134492,1,0,0:0:0:0:
182,192,134663,128,0,134835:0:0:0:0:
36,192,134835,1,0,0:0:0:70:tak.wav
256,192,134835,1,0,0:0:0:0:
329,192,134835,128,0,135006:0:0:0:0:
402,192,135006,128,0,135177:0:0:0:0:
475,192,135006,128,0,135177:0:0:0:0:
36,192,135177,1,2,0:0:0:0:
109,192,135177,1,0,0:0:0:0:
182,192,135263,1,2,0:0:0:0:
329,192,135263,1,0,0:0:0:0:
402,192,135349,1,2,0:0:0:0:
475,192,135349,1,0,0:0:0:0:
36,192,135520,1,4,0:0:0:0:
109,192,135520,1,0,0:0:0:70:tak.wav
256,192,135520,1,0,0:0:0:0:
475,192,135520,1,0,0:0:0:0:
182,192,135692,1,0,0:0:0:70:tak.wav
329,192,135692,1,0,0:0:0:0:
256,192,135777,1,0,0:0:0:70:tak.wav
36,192,135863,1,2,0:0:0:0:
109,192,135863,128,0,136035:0:0:0:0:
402,192,135863,1,0,0:0:0:0:
475,192,135863,128,0,137063:0:0:0:0:
182,192,136035,128,0,136206:0:0:0:0:
256,192,136206,128,0,136377:0:0:0:0:
329,192,136377,128,0,136720:0:0:0:0:
402,192,136720,128,0,137063:0:0:0:0:
36,192,137063,1,2,0:0:0:0:
182,192,137063,1,0,0:0:0:0:
36,192,137235,128,2,138435:0:0:0:0:
182,192,137235,128,4,137406:0:0:0:0:
402,192,137235,1,0,0:0:0:0:
475,192,137235,1,0,0:0:0:0:
329,192,137406,128,0,137577:0:0:0:0:
475,192,137577,128,0,137920:0:0:0:0:
256,192,137749,128,0,137920:0:0:0:0:
182,192,138092,128,0,138435:0:0:0:0:
402,192,138092,128,0,138263:0:0:0:0:
109,192,138435,1,2,0:0:0:0:
256,192,138435,1,4,0:0:0:0:
402,192,138435,1,0,0:0:0:0:
109,192,138606,128,2,138777:0:0:0:0:
256,192,138606,1,4,0:0:0:0:
402,192,138606,1,0,0:0:0:0:
475,192,138606,128,0,139806:0:0:0:0:
36,192,138777,128,0,138949:0:0:0:0:
402,192,138949,128,0,139120:0:0:0:0:
256,192,139120,1,2,0:0:0:0:
36,192,139120,128,0,139635:0:0:0:0:
109,192,139463,128,0,139635:0:0:0:0:
402,192,139635,128,0,139806:0:0:0:0:
256,192,139806,128,2,139977:0:0:0:0:
109,192,139806,1,4,0:0:0:0:
36,192,139806,1,0,0:0:0:0:
36,192,139977,128,2,141006:0:0:0:0:
109,192,139977,1,4,0:0:0:0:
402,192,139977,1,0,0:0:0:0:
475,192,139977,1,0,0:0:0:0:
329,192,140149,128,0,140320:0:0:0:0:
256,192,140320,128,0,140492:0:0:0:0:
182,192,140492,128,4,141006:0:0:0:0:
475,192,140492,1,2,0:0:0:0:
402,192,140492,1,0,0:0:0:0:
329,192,141006,1,0,0:0:0:70:tak.wav
475,192,141006,1,0,0:0:0:0:
329,192,141177,1,0,0:0:0:70:tak.wav
256,192,141263,1,0,0:0:0:70:tak.wav
36,192,141349,1,2,0:0:0:0:
109,192,141349,1,4,0:0:0:0:
182,192,141349,1,0,0:0:0:0:
475,192,141349,128,0,141520:0:0:0:0:
329,192,141520,1,0,0:0:0:0:
182,192,141606,1,0,0:0:0:0:
36,192,141692,1,2,0:0:0:0:
329,192,141692,128,8,141863:0:0:0:0:
475,192,141692,1,0,0:0:0:0:
109,192,141863,1,2,0:0:0:0:
256,192,141863,1,0,0:0:0:0:
402,192,141863,128,0,142035:0:0:0:0:
256,192,142035,128,0,142377:0:0:0:0:
36,192,142206,128,2,142549:0:0:0:0:
109,192,142206,128,4,142549:0:0:0:0:
402,192,142206,128,0,142377:0:0:0:0:
475,192,142206,128,0,142377:0:0:0:0:
36,192,142720,1,2,0:0:0:0:
109,192,142720,1,4,0:0:0:0:
402,192,142720,128,0,142892:0:0:0:0:
475,192,142720,1,0,0:0:0:0:
329,192,142892,1,0,0:0:0:70:tak.wav
182,192,142977,1,0,0:0:0:70:tak.wav
36,192,143063,1,2,0:0:0:0:
475,192,143063,1,8,0:0:0:0:
109,192,143235,1,2,0:0:0:0:
329,192,143235,1,0,0:0:0:0:
475,192,143235,128,0,143406:0:0:0:0:
256,192,143406,128,0,143749:0:0:0:0:
36,192,143577,128,2,143749:0:0:0:0:
109,192,143577,128,4,143749:0:0:0:0:
402,192,143577,128,0,144092:0:0:0:0:
475,192,143577,128,0,144092:0:0:0:0:
36,192,143920,128,2,144949:0:0:0:0:
109,192,143920,128,4,144092:0:0:0:0:
182,192,143920,128,0,144092:0:0:0:0:
329,192,143920,128,0,144092:0:0:0:0:
109,192,144263,128,2,144949:0:0:0:0:
329,192,144263,1,0,0:0:0:0:
329,192,144435,1,2,0:0:0:0:
402,192,144606,1,2,0:0:0:0:
402,192,144777,1,2,0:0:0:0:
182,192,144949,1,0,0:0:0:70:tak.wav
475,192,144949,1,0,0:0:0:0:
182,192,145120,1,0,0:0:0:70:tak.wav
475,192,145120,1,0,0:0:0:0:
182,192,145292,1,0,0:0:0:70:tak.wav
475,192,145292,1,0,0:0:0:0:
182,192,145463,128,2,145720:0:0:0:0:
329,192,145463,128,0,145806:0:0:0:70:tak.wav
475,192,145463,128,0,145892:0:0:0:0:
109,192,146320,1,0,0:0:0:70:tak.wav
402,192,146320,1,0,0:0:0:0:
36,192,146406,1,0,0:0:0:70:tak.wav
329,192,146406,1,0,0:0:0:0:
256,192,146492,1,0,0:0:0:0:
182,192,146577,1,0,0:0:0:0:
256,192,146663,1,0,0:0:0:0:
329,192,146749,1,0,0:0:0:0:
109,192,146835,1,2,0:0:0:0:
182,192,146835,1,4,0:0:0:0:
402,192,146835,1,0,0:0:0:0:
475,192,146835,1,0,0:0:0:0:
109,192,147006,1,2,0:0:0:0:
182,192,147006,1,0,0:0:0:0:
36,192,147177,128,8,147692:0:0:0:0:
329,192,147177,1,0,0:0:0:0:
475,192,147177,128,0,148035:0:0:0:0:
256,192,147349,1,2,0:0:0:0:
109,192,147520,128,8,147692:0:0:0:0:
182,192,147520,1,0,0:0:0:0:
36,192,147863,128,8,148035:0:0:0:0:
109,192,147863,128,0,148035:0:0:0:0:
256,192,148035,1,2,0:0:0:0:
329,192,148035,1,0,0:0:0:0:
36,192,148206,1,8,0:0:0:0:
182,192,148206,1,0,0:0:0:0:
402,192,148206,128,0,148549:0:0:0:0:
475,192,148206,128,0,149235:0:0:0:0:
109,192,148549,1,8,0:0:0:0:
256,192,148549,1,0,0:0:0:0:
36,192,148720,128,0,149235:0:0:0:0:
182,192,148892,1,8,0:0:0:0:
329,192,148892,1,0,0:0:0:0:
256,192,149063,1,2,0:0:0:0:
109,192,149235,1,8,0:0:0:0:
402,192,149235,1,0,0:0:0:0:
256,192,149406,1,2,0:0:0:0:
329,192,149406,1,0,0:0:0:0:
36,192,149577,1,8,0:0:0:0:
182,192,149577,1,0,0:0:0:0:
475,192,149577,1,0,0:0:0:0:
36,192,149920,128,8,150777:0:0:0:0:
256,192,149920,1,0,0:0:0:0:
475,192,149920,128,0,150435:0:0:0:0:
329,192,150263,1,8,0:0:0:0:
402,192,150263,128,0,150435:0:0:0:0:
256,192,150435,1,2,0:0:0:0:
109,192,150606,128,8,150777:0:0:0:0:
402,192,150606,1,0,0:0:0:0:
475,192,150606,1,0,0:0:0:0:
182,192,150777,1,2,0:0:0:0:
256,192,150777,1,0,0:0:0:0:
36,192,150949,128,8,151977:0:0:0:0:
109,192,150949,128,0,151292:0:0:0:0:
402,192,150949,1,0,0:0:0:0:
475,192,150949,1,0,0:0:0:0:
182,192,151292,1,8,0:0:0:0:
329,192,151292,1,0,0:0:0:0:
475,192,151463,128,0,151977:0:0:0:0:
109,192,151635,1,8,0:0:0:0:
256,192,151635,1,0,0:0:0:0:
402,192,151806,128,2,151977:0:0:0:0:
109,192,151977,1,8,0:0:0:0:
182,192,151977,1,0,0:0:0:0:
329,192,151977,1,0,0:0:0:0:
402,192,152149,1,2,0:0:0:0:
475,192,152149,128,0,153177:0:0:0:0:
36,192,152320,1,4,0:0:0:0:
109,192,152320,1,2,0:0:0:0:
256,192,152320,1,0,0:0:0:0:
256,192,152492,1,2,0:0:0:0:
36,192,152663,128,8,153520:0:0:0:0:
109,192,152663,1,0,0:0:0:0:
182,192,153006,1,8,0:0:0:0:
402,192,153006,128,0,153177:0:0:0:0:
109,192,153349,128,8,153520:0:0:0:0:
402,192,153349,1,0,0:0:0:0:
475,192,153349,1,0,0:0:0:0:
182,192,153520,1,2,0:0:0:0:
256,192,153520,1,0,0:0:0:0:
36,192,153692,128,8,154549:0:0:0:0:
109,192,153692,128,0,154035:0:0:0:0:
329,192,153692,1,0,0:0:0:0:
475,192,153692,1,0,0:0:0:0:
182,192,154035,1,8,0:0:0:0:
402,192,154035,1,0,0:0:0:0:
182,192,154377,128,8,154549:0:0:0:0:
402,192,154377,128,0,154892:0:0:0:0:
475,192,154377,1,0,0:0:0:0:
256,192,154549,1,2,0:0:0:0:
36,192,154720,1,8,0:0:0:0:
182,192,154720,1,0,0:0:0:0:
256,192,154892,1,2,0:0:0:0:
475,192,154892,128,0,156092:0:0:0:0:
36,192,155063,1,2,0:0:0:0:
109,192,155063,1,4,0:0:0:0:
329,192,155063,1,0,0:0:0:0:
182,192,155235,1,0,0:0:0:0:
256,192,155406,1,0,0:0:0:0:
329,192,155492,1,0,0:0:0:0:
402,192,155577,1,0,0:0:0:0:
36,192,155835,128,0,156006:0:0:0:0:
109,192,155920,128,0,156092:0:0:0:0:
182,192,156006,128,0,156177:0:0:0:0:
256,192,156092,128,0,156263:0:0:0:0:
329,192,156177,128,0,156349:0:0:0:0:
402,192,156263,128,0,156435:0:0:0:0:
475,192,156349,128,0,156520:0:0:0:0:
256,192,156435,1,4,0:0:0:0:
182,192,156435,128,0,157292:0:0:0:0:
36,192,156435,128,0,156777:0:0:0:0:
109,192,156435,1,0,0:0:0:0:
329,192,156606,128,0,157120:0:0:0:0:
402,192,156949,128,2,157120:0:0:0:0:
36,192,157120,128,0,157292:0:0:0:70:tak.wav
109,192,157120,128,0,157292:0:0:0:0:
475,192,157120,128,0,157977:0:0:0:0:
256,192,157292,128,0,157806:0:0:0:0:
402,192,157463,128,0,157977:0:0:0:0:
36,192,157635,128,4,157977:0:0:0:0:
182,192,157635,128,2,157806:0:0:0:0:
329,192,157806,128,0,157977:0:0:0:0:
109,192,157977,1,0,0:0:0:0:
182,192,158149,128,2,158492:0:0:0:0:
475,192,158149,128,0,158835:0:0:0:0:
329,192,158320,128,0,158663:0:0:0:0:
36,192,158492,128,4,158835:0:0:0:0:
256,192,158492,128,0,158663:0:0:0:70:tak.wav
109,192,158663,128,0,158835:0:0:0:0:
402,192,158835,1,0,0:0:0:0:
36,192,159006,1,0,0:0:0:0:
36,192,159177,128,2,159520:0:0:0:0:
256,192,159177,1,4,0:0:0:0:
402,192,159177,1,0,0:0:0:0:
475,192,159177,128,0,160035:0:0:0:0:
182,192,159349,128,0,159692:0:0:0:0:
36,192,159692,128,2,160377:0:0:0:0:
256,192,159692,1,0,0:0:0:0:
109,192,159863,128,4,160377:0:0:0:0:
329,192,159863,128,0,160377:0:0:0:70:tak.wav
402,192,159863,128,0,160035:0:0:0:0:
182,192,160035,128,0,160377:0:0:0:0:
475,192,160206,128,0,160720:0:0:0:0:
402,192,160377,128,2,160720:0:0:0:0:
109,192,160549,1,0,0:0:0:0:
256,192,160720,1,0,0:0:0:0:
402,192,160892,128,2,161235:0:0:0:0:
475,192,160892,128,0,161749:0:0:0:0:
109,192,161235,128,0,161749:0:0:0:70:tak.wav
182,192,161235,128,0,161406:0:0:0:0:
329,192,161406,128,0,161577:0:0:0:0:
256,192,161577,128,0,161749:0:0:0:0:
36,192,161749,1,0,0:0:0:0:
36,192,161920,128,2,162263:0:0:0:0:
256,192,161920,1,4,0:0:0:0:
402,192,161920,128,0,162606:0:0:0:0:
475,192,161920,1,0,0:0:0:0:
182,192,162092,128,0,162435:0:0:0:0:
109,192,162263,128,0,162435:0:0:0:0:
329,192,162435,128,2,162606:0:0:0:0:
36,192,162606,128,4,163463:0:0:0:0:
109,192,162606,128,0,163463:0:0:0:70:tak.wav
475,192,162606,128,0,162949:0:0:0:0:
402,192,162777,128,0,163292:0:0:0:0:
475,192,163120,128,6,163292:0:0:0:0:
256,192,163292,1,0,0:0:0:0:
402,192,163463,1,0,0:0:0:0:
36,192,163635,128,2,164149:0:0:0:0:
329,192,163635,128,0,164320:0:0:0:0:
475,192,163806,128,0,164492:0:0:0:0:
109,192,163977,128,4,164149:0:0:0:0:
182,192,163977,128,0,164149:0:0:0:0:
256,192,164149,128,0,164320:0:0:0:0:
402,192,164320,128,0,164492:0:0:0:0:
109,192,164492,1,0,0:0:0:0:
36,192,164663,1,2,0:0:0:0:
109,192,164663,1,4,0:0:0:0:
329,192,164663,128,0,165006:0:0:0:0:
475,192,164663,128,0,165177:0:0:0:0:
182,192,164835,128,0,165349:0:0:0:0:
329,192,165177,128,2,165349:0:0:0:0:
36,192,165349,1,4,0:0:0:0:
109,192,165349,128,0,165692:0:0:0:70:tak.wav
402,192,165349,1,0,0:0:0:0:
475,192,165349,128,0,166035:0:0:0:0:
256,192,165520,128,0,165863:0:0:0:0:
36,192,165863,128,2,166206:0:0:0:0:
402,192,165863,128,0,166035:0:0:0:0:
109,192,166035,128,0,166206:0:0:0:0:
329,192,166206,1,0,0:0:0:0:
475,192,166377,128,2,166892:0:0:0:0:
329,192,166377,128,0,166720:0:0:0:0:
36,192,166549,128,0,167063:0:0:0:0:
256,192,166720,128,4,167406:0:0:0:0:
402,192,166720,128,0,166892:0:0:0:0:
109,192,166892,128,0,167063:0:0:0:0:
109,192,167235,128,0,167406:0:0:0:0:
329,192,167406,1,2,0:0:0:0:
182,192,167406,1,0,0:0:0:0:
402,192,167749,1,0,0:0:0:0:
36,192,168092,1,8,0:0:0:0:
256,192,168092,1,0,0:0:0:0:
475,192,168092,1,0,0:0:0:0:
109,192,168435,1,0,0:0:0:0:
182,192,168777,1,2,0:0:0:0:
329,192,168777,1,0,0:0:0:0:
36,192,169120,1,0,0:0:0:0:
256,192,169463,1,8,0:0:0:0:
402,192,169463,1,0,0:0:0:0:
475,192,169463,1,0,0:0:0:0:
36,192,169806,1,0,0:0:0:0:
475,192,169849,1,0,0:0:0:0:
402,192,169892,1,0,0:0:0:0:
329,192,169935,1,0,0:0:0:0:
256,192,169977,1,0,0:0:0:0:
182,192,170020,1,0,0:0:0:0:
109,192,170063,1,0,0:0:0:0:
36,192,170106,1,0,0:0:0:0:
402,192,170149,1,2,0:0:0:0:
475,192,170149,1,0,0:0:0:0:
182,192,170492,1,0,0:0:0:0:
36,192,170835,1,8,0:0:0:0:
256,192,170835,1,0,0:0:0:0:
475,192,170835,1,0,0:0:0:0:
329,192,171177,1,0,0:0:0:0:
109,192,171520,1,2,0:0:0:0:
182,192,171520,1,0,0:0:0:0:
402,192,171863,1,0,0:0:0:0:
36,192,172206,1,8,0:0:0:0:
256,192,172206,1,0,0:0:0:0:
475,192,172206,1,0,0:0:0:0:
109,192,172549,1,0,0:0:0:0:
182,192,172592,1,0,0:0:0:0:
329,192,172635,1,0,0:0:0:0:
402,192,172677,1,0,0:0:0:0:
36,192,172720,1,0,0:0:0:0:
109,192,172763,1,0,0:0:0:0:
256,192,172806,1,0,0:0:0:0:
329,192,172849,1,0,0:0:0:0:
402,192,172892,1,2,0:0:0:0:
475,192,172892,1,0,0:0:0:0:
109,192,173235,1,0,0:0:0:0:
36,192,173577,1,8,0:0:0:0:
329,192,173577,1,0,0:0:0:0:
475,192,173577,1,0,0:0:0:0:
256,192,173920,1,0,0:0:0:0:
402,192,174263,1,2,0:0:0:0:
475,192,174263,1,0,0:0:0:0:
182,192,174606,1,0,0:0:0:0:
36,192,174949,1,8,0:0:0:0:
256,192,174949,1,0,0:0:0:0:
475,192,174949,1,0,0:0:0:0:
329,192,175292,1,0,0:0:0:0:
36,192,175335,1,0,0:0:0:0:
402,192,175377,1,0,0:0:0:0:
109,192,175420,1,0,0:0:0:0:
475,192,175463,1,0,0:0:0:0:
182,192,175506,1,0,0:0:0:0:
256,192,175549,1,0,0:0:0:0:
329,192,175592,1,0,0:0:0:0:
36,192,175635,1,2,0:0:0:0:
402,192,175635,1,0,0:0:0:0:
182,192,175977,1,0,0:0:0:0:
109,192,176320,1,8,0:0:0:0:
329,192,176320,1,0,0:0:0:0:
475,192,176320,1,0,0:0:0:0:
256,192,176663,1,0,0:0:0:0:
182,192,177006,1,2,0:0:0:0:
402,192,177006,1,0,0:0:0:0:
329,192,177349,1,0,0:0:0:0:
36,192,177692,1,8,0:0:0:0:
256,192,177692,1,0,0:0:0:0:
475,192,177692,1,0,0:0:0:0:
256,192,178035,1,0,0:0:0:0:
182,192,178077,1,0,0:0:0:0:
109,192,178120,1,0,0:0:0:0:
36,192,178163,1,0,0:0:0:0:
475,192,178206,1,0,0:0:0:0:
402,192,178249,1,0,0:0:0:0:
329,192,178292,1,0,0:0:0:0:
256,192,178335,1,0,0:0:0:0:
36,192,178377,1,2,0:0:0:0:
109,192,178377,1,0,0:0:0:0:
182,192,178720,1,0,0:0:0:0:
36,192,179063,1,8,0:0:0:0:
256,192,179063,1,0,0:0:0:0:
475,192,179063,1,0,0:0:0:0:
329,192,179406,1,0,0:0:0:0:
109,192,179749,1,2,0:0:0:0:
402,192,179749,1,0,0:0:0:0:
475,192,180092,1,0,0:0:0:0:
36,192,180435,1,8,0:0:0:0:
109,192,180435,1,0,0:0:0:0:
256,192,180435,1,0,0:0:0:0:
475,192,180777,1,0,0:0:0:0:
36,192,180820,1,0,0:0:0:0:
109,192,180863,1,0,0:0:0:0:
182,192,180906,1,0,0:0:0:0:
256,192,180949,1,0,0:0:0:0:
329,192,180992,1,0,0:0:0:0:
402,192,181035,1,0,0:0:0:0:
475,192,181077,1,0,0:0:0:0:
36,192,181120,1,2,0:0:0:0:
109,192,181120,1,0,0:0:0:0:
329,192,181463,1,0,0:0:0:0:
36,192,181806,1,8,0:0:0:0:
256,192,181806,1,0,0:0:0:0:
475,192,181806,1,0,0:0:0:0:
182,192,182149,1,0,0:0:0:0:
329,192,182492,1,2,0:0:0:0:
402,192,182492,1,0,0:0:0:0:
109,192,182835,1,0,0:0:0:0:
36,192,183177,1,8,0:0:0:0:
256,192,183177,1,0,0:0:0:0:
475,192,183177,1,0,0:0:0:0:
402,192,183520,1,0,0:0:0:0:
329,192,183563,1,0,0:0:0:0:
182,192,183606,1,0,0:0:0:0:
109,192,183649,1,0,0:0:0:0:
475,192,183692,1,0,0:0:0:0:
402,192,183735,1,0,0:0:0:0:
256,192,183777,1,0,0:0:0:0:
182,192,183820,1,0,0:0:0:0:
36,192,183863,1,2,0:0:0:0:
109,192,183863,1,0,0:0:0:0:
402,192,184206,1,0,0:0:0:0:
36,192,184549,1,8,0:0:0:0:
182,192,184549,1,0,0:0:0:0:
475,192,184549,1,0,0:0:0:0:
256,192,184892,1,0,0:0:0:0:
36,192,185235,1,2,0:0:0:0:
109,192,185235,1,0,0:0:0:0:
329,192,185577,1,0,0:0:0:0:
36,192,185920,1,8,0:0:0:0:
256,192,185920,1,0,0:0:0:0:
475,192,185920,1,0,0:0:0:0:
182,192,186263,1,0,0:0:0:0:
475,192,186306,1,0,0:0:0:0:
109,192,186349,1,0,0:0:0:0:
402,192,186392,1,0,0:0:0:0:
36,192,186435,1,0,0:0:0:0:
329,192,186477,1,0,0:0:0:0:
256,192,186520,1,0,0:0:0:0:
182,192,186563,1,0,0:0:0:0:
109,192,186606,1,2,0:0:0:0:
475,192,186606,1,0,0:0:0:0:
329,192,186949,1,0,0:0:0:0:
36,192,187292,1,8,0:0:0:0:
182,192,187292,1,0,0:0:0:0:
402,192,187292,1,0,0:0:0:0:
256,192,187635,1,0,0:0:0:0:
109,192,187977,1,2,0:0:0:0:
329,192,187977,1,0,0:0:0:0:
182,192,188320,1,0,0:0:0:0:
36,192,188663,1,8,0:0:0:0:
256,192,188663,1,0,0:0:0:0:
475,192,188663,1,0,0:0:0:0:
256,192,189006,1,0,0:0:0:0:
329,192,189049,1,0,0:0:0:0:
402,192,189092,1,0,0:0:0:0:
475,192,189135,1,0,0:0:0:0:
36,192,189177,1,0,0:0:0:0:
109,192,189220,1,0,0:0:0:0:
182,192,189263,1,0,0:0:0:0:
256,192,189306,1,0,0:0:0:0:
402,192,189349,1,2,0:0:0:0:
475,192,189349,1,0,0:0:0:0:
329,192,189692,1,0,0:0:0:0:
36,192,190035,1,8,0:0:0:0:
256,192,190035,1,0,0:0:0:0:
475,192,190035,1,0,0:0:0:0:
182,192,190377,1,0,0:0:0:0:
36,192,190720,1,2,0:0:0:0:
329,192,190720,1,0,0:0:0:0:
256,192,191063,1,0,0:0:0:0:
109,192,191406,1,8,0:0:0:0:
182,192,191406,1,0,0:0:0:0:
475,192,191406,1,0,0:0:0:0:
36,192,191749,1,0,0:0:0:0:
329,192,191792,1,0,0:0:0:0:
109,192,191835,1,0,0:0:0:0:
402,192,191877,1,0,0:0:0:0:
182,192,191920,1,0,0:0:0:0:
256,192,191963,1,0,0:0:0:0:
329,192,192006,1,0,0:0:0:0:
402,192,192049,1,0,0:0:0:0:
36,192,192092,1,2,0:0:0:0:
475,192,192092,1,0,0:0:0:0:
182,192,192435,1,0,0:0:0:0:
36,192,192777,1,8,0:0:0:0:
256,192,192777,1,0,0:0:0:0:
475,192,192777,1,0,0:0:0:0:
329,192,192949,1,0,0:0:0:0:
109,192,193120,128,0,193463:0:0:0:0:
256,192,193463,1,2,0:0:0:0:
402,192,193463,128,0,194835:0:0:0:0:
109,192,194149,128,0,194835:0:0:0:0:
36,192,194835,1,4,0:0:0:0:
256,192,194835,1,0,0:0:0:0:
475,192,194835,1,0,0:0:0:0:
109,192,195006,1,0,0:0:0:0:
329,192,195006,1,0,0:0:0:0:
182,192,195177,1,0,0:0:0:0:
329,192,195246,1,0,0:0:0:0:
475,192,195315,1,0,0:0:0:0:
256,192,195435,1,0,0:0:0:0:
36,192,195520,1,0,0:0:0:0:
109,192,195520,1,0,0:0:0:0:
182,192,195657,1,0,0:0:0:0:
475,192,195657,1,0,0:0:0:0:
329,192,195863,1,0,0:0:0:0:
475,192,195863,1,0,0:0:0:0:
256,192,196035,1,0,0:0:0:0:
402,192,196035,1,0,0:0:0:0:
182,192,196206,1,0,0:0:0:0:
329,192,196206,1,0,0:0:0:0:
182,192,196377,1,0,0:0:0:0:
329,192,196377,1,0,0:0:0:0:
109,192,196549,1,0,0:0:0:0:
256,192,196549,1,0,0:0:0:0:
36,192,196720,1,0,0:0:0:0:
475,192,196720,128,0,197235:0:0:0:0:
182,192,196892,1,0,0:0:0:0:
329,192,196892,128,0,197406:0:0:0:0:
109,192,197063,1,0,0:0:0:0:
36,192,197235,128,0,197406:0:0:0:0:
402,192,197235,128,0,197406:0:0:0:0:
36,192,197577,1,4,0:0:0:0:
329,192,197577,1,0,0:0:0:0:
402,192,197577,1,0,0:0:0:0:
36,192,197749,1,0,0:0:0:0:
329,192,197749,1,0,0:0:0:0:
182,192,197920,1,0,0:0:0:0:
475,192,197920,1,0,0:0:0:0:
109,192,198092,1,0,0:0:0:0:
402,192,198092,1,0,0:0:0:0:
36,192,198263,1,0,0:0:0:0:
329,192,198263,1,0,0:0:0:0:
36,192,198435,1,0,0:0:0:0:
329,192,198435,1,0,0:0:0:0:
182,192,198606,1,0,0:0:0:0:
402,192,198606,1,0,0:0:0:0:
36,192,198777,1,0,0:0:0:0:
475,192,198777,1,0,0:0:0:0:
402,192,198949,1,0,0:0:0:0:
329,192,199035,1,0,0:0:0:0:
109,192,199120,1,0,0:0:0:0:
256,192,199120,1,0,0:0:0:0:
36,192,199292,128,0,199806:0:0:0:0:
182,192,199292,1,0,0:0:0:0:
329,192,199463,1,0,0:0:0:0:
182,192,199635,128,0,200149:0:0:0:0:
475,192,199635,1,0,0:0:0:0:
109,192,199806,128,0,200149:0:0:0:0:
402,192,199806,1,0,0:0:0:0:
36,192,199977,128,0,200149:0:0:0:0:
329,192,199977,1,0,0:0:0:0:
36,192,200320,1,4,0:0:0:0:
109,192,200320,1,0,0:0:0:0:
182,192,200320,1,0,0:0:0:0:
475,192,200457,1,0,0:0:0:0:
182,192,200526,1,0,0:0:0:0:
329,192,200642,1,0,0:0:0:0:
475,192,200642,1,0,0:0:0:0:
109,192,200813,1,0,0:0:0:0:
182,192,200813,1,0,0:0:0:0:
256,192,201006,1,0,0:0:0:0:
402,192,201006,1,0,0:0:0:0:
109,192,201177,1,0,0:0:0:0:
256,192,201177,1,0,0:0:0:0:
256,192,201349,1,0,0:0:0:0:
402,192,201349,1,0,0:0:0:0:
182,192,201520,1,0,0:0:0:0:
329,192,201520,1,0,0:0:0:0:
109,192,201692,1,0,0:0:0:0:
402,192,201692,128,0,202206:0:0:0:0:
36,192,201863,1,0,0:0:0:0:
475,192,201863,128,0,202206:0:0:0:0:
182,192,202035,1,0,0:0:0:0:
109,192,202206,1,0,0:0:0:0:
329,192,202206,1,0,0:0:0:0:
109,192,202377,128,0,202892:0:0:0:0:
329,192,202377,128,0,202720:0:0:0:0:
475,192,202549,1,0,0:0:0:0:
256,192,202720,128,0,202892:0:0:0:0:
402,192,202720,128,0,203235:0:0:0:0:
109,192,203063,128,0,203577:0:0:0:0:
256,192,203063,128,0,203235:0:0:0:0:
475,192,203235,1,0,0:0:0:0:
256,192,203406,128,0,203577:0:0:0:0:
402,192,203406,1,0,0:0:0:0:
36,192,203577,128,0,203920:0:0:0:0:
475,192,203577,128,0,203920:0:0:0:0:
256,192,203749,1,0,0:0:0:0:
109,192,203920,128,0,204092:0:0:0:0:
329,192,203920,128,0,204092:0:0:0:0:
182,192,204092,128,0,204263:0:0:0:0:
402,192,204092,128,0,204263:0:0:0:0:
256,192,204263,128,0,204777:0:0:0:0:
475,192,204263,128,0,204606:0:0:0:0:
109,192,204435,1,0,0:0:0:0:
36,192,204606,128,0,204777:0:0:0:0:
402,192,204777,128,0,205463:0:0:0:0:
475,192,204777,1,0,0:0:0:0:
182,192,204949,1,0,0:0:0:0:
256,192,204949,128,0,205463:0:0:0:0:
109,192,205120,1,0,0:0:0:0:
36,192,205292,1,0,0:0:0:0:
109,192,205377,1,0,0:0:0:0:
182,192,205463,1,0,0:0:0:0:
329,192,205635,1,0,0:0:0:0:
402,192,205720,1,0,0:0:0:0:
36,192,205806,1,4,0:0:0:0:
109,192,205806,1,2,0:0:0:0:
256,192,205806,1,0,0:0:0:0:
475,192,205806,1,0,0:0:0:0:
109,192,205977,128,0,206149:0:0:0:0:
402,192,206149,1,2,0:0:0:0:
475,192,206149,1,0,0:0:0:0:
402,192,206320,128,0,206492:0:0:0:0:
36,192,206492,1,2,0:0:0:0:
182,192,206492,128,0,206663:0:0:0:0:
475,192,206663,128,0,206835:0:0:0:0:
109,192,206835,1,2,0:0:0:0:
402,192,206835,128,0,207006:0:0:0:0:
475,192,207006,128,0,208035:0:0:0:0:
36,192,207177,1,2,0:0:0:0:
182,192,207177,128,0,207349:0:0:0:0:
329,192,207349,128,0,207520:0:0:0:0:
109,192,207520,1,2,0:0:0:0:
256,192,207520,128,0,207692:0:0:0:0:
402,192,207692,128,0,208035:0:0:0:0:
182,192,207863,1,2,0:0:0:0:
256,192,207863,128,0,208035:0:0:0:0:
36,192,208035,128,0,208206:0:0:0:0:
109,192,208206,128,2,208377:0:0:0:0:
256,192,208206,1,0,0:0:0:0:
36,192,208377,128,0,211120:0:0:0:0:
182,192,208549,128,2,208720:0:0:0:0:
329,192,208549,1,0,0:0:0:0:
475,192,208720,128,0,208892:0:0:0:0:
256,192,208892,128,2,209063:0:0:0:0:
402,192,208892,1,0,0:0:0:0:
182,192,209063,128,0,209577:0:0:0:0:
329,192,209235,1,2,0:0:0:0:
475,192,209406,128,0,209577:0:0:0:0:
256,192,209577,1,2,0:0:0:0:
329,192,209577,128,0,209749:0:0:0:0:
475,192,209749,128,0,211292:0:0:0:0:
109,192,209920,128,2,210092:0:0:0:0:
329,192,209920,1,0,0:0:0:0:
256,192,210092,128,0,210263:0:0:0:0:
109,192,210263,128,2,210435:0:0:0:0:
402,192,210263,1,0,0:0:0:0:
182,192,210435,128,0,210606:0:0:0:0:
256,192,210606,1,2,0:0:0:0:
329,192,210606,128,0,210777:0:0:0:0:
182,192,210777,1,0,0:0:0:0:
329,192,210863,1,0,0:0:0:0:
182,192,210949,1,2,0:0:0:0:
109,192,210949,128,0,211120:0:0:0:0:
402,192,211120,128,0,211292:0:0:0:0:
36,192,211292,1,2,0:0:0:0:
329,192,211292,1,4,0:0:0:0:
182,192,211292,1,0,0:0:0:0:
109,192,211292,1,0,0:0:0:0:
256,192,211377,1,0,0:0:0:0:
329,192,211463,1,0,0:0:0:0:
36,192,211635,1,0,0:0:0:70:tak.wav
182,192,211635,1,0,0:0:0:0:
36,192,211806,1,0,0:0:0:0:
182,192,211806,1,0,0:0:0:0:
256,192,211977,1,0,0:0:0:70:tak.wav
402,192,211977,1,0,0:0:0:0:
475,192,212149,1,0,0:0:0:0:
402,192,212235,1,0,0:0:0:0:
182,192,212320,1,0,0:0:0:70:tak.wav
329,192,212320,1,0,0:0:0:0:
36,192,212492,1,2,0:0:0:0:
182,192,212492,1,0,0:0:0:0:
402,192,212663,128,0,213006:0:0:0:70:tak.wav
475,192,212663,1,0,0:0:0:0:
256,192,212835,128,0,213006:0:0:0:0:
36,192,213006,128,0,213349:0:0:0:70:tak.wav
182,192,213006,1,0,0:0:0:0:
402,192,213177,1,0,0:0:0:0:
475,192,213177,1,0,0:0:0:0:
402,192,213349,128,0,213520:0:0:0:70:tak.wav
475,192,213349,128,0,213520:0:0:0:0:
182,192,213520,1,0,0:0:0:70:tak.wav
329,192,213520,1,0,0:0:0:0:
109,192,213606,1,0,0:0:0:70:tak.wav
36,192,213692,128,0,214035:0:0:0:70:tak.wav
256,192,213692,1,0,0:0:0:0:
182,192,213863,128,2,214035:0:0:0:0:
329,192,213863,128,4,214377:0:0:0:0:
402,192,213863,1,0,0:0:0:0:
475,192,213863,1,0,0:0:0:0:
182,192,214206,128,2,214549:0:0:0:0:
36,192,214377,128,0,214720:0:0:0:70:tak.wav
402,192,214377,128,0,214549:0:0:0:0:
256,192,214549,128,0,214720:0:0:0:0:
109,192,214720,128,0,214892:0:0:0:70:tak.wav
475,192,214720,128,0,215235:0:0:0:0:
182,192,214892,128,2,215406:0:0:0:0:
329,192,215063,128,0,215235:0:0:0:70:tak.wav
36,192,215235,128,2,215406:0:0:0:0:
182,192,216777,1,2,0:0:0:0:
329,192,216777,1,4,0:0:0:0:
402,192,216777,1,0,0:0:0:0:
475,192,216777,128,0,217806:0:0:0:0:
109,192,217120,1,0,0:0:0:0:
256,192,217292,1,2,0:0:0:0:
36,192,217463,1,0,0:0:0:70:tak.wav
182,192,217463,1,0,0:0:0:0:
402,192,217463,128,0,217806:0:0:0:0:
109,192,217806,1,0,0:0:0:0:
182,192,217977,1,2,0:0:0:0:
329,192,217977,128,0,218320:0:0:0:0:
402,192,217977,128,0,218320:0:0:0:0:
475,192,218320,1,0,0:0:0:0:
256,192,218492,1,2,0:0:0:0:
329,192,218492,1,0,0:0:0:0:
475,192,218663,128,0,219177:0:0:0:0:
36,192,218835,128,0,219349:0:0:0:70:tak.wav
182,192,218835,128,0,219349:0:0:0:0:
402,192,219006,128,0,219177:0:0:0:0:
256,192,219177,128,0,219349:0:0:0:0:
475,192,219349,128,0,219520:0:0:0:0:
36,192,219520,128,2,220035:0:0:0:0:
109,192,219520,128,0,220035:0:0:0:0:
329,192,219520,1,0,0:0:0:0:
402,192,219863,1,0,0:0:0:0:
182,192,220035,1,2,0:0:0:0:
329,192,220035,1,0,0:0:0:0:
36,192,220206,128,0,220720:0:0:0:70:tak.wav
109,192,220206,128,0,220549:0:0:0:0:
475,192,220206,1,0,0:0:0:0:
402,192,220377,1,0,0:0:0:0:
182,192,220549,1,2,0:0:0:0:
109,192,220720,1,2,0:0:0:0:
182,192,220720,1,4,0:0:0:0:
475,192,220720,1,0,0:0:0:0:
402,192,220806,1,0,0:0:0:0:
256,192,220870,1,0,0:0:0:0:
475,192,220935,1,0,0:0:0:0:
329,192,220999,1,0,0:0:0:0:
36,192,221063,1,0,0:0:0:70:tak.wav
182,192,221063,1,0,0:0:0:0:
109,192,221235,1,0,0:0:0:70:tak.wav
256,192,221235,1,0,0:0:0:0:
402,192,221235,1,0,0:0:0:0:
182,192,221406,128,2,221577:0:0:0:0:
329,192,221406,128,0,221577:0:0:0:0:
475,192,221406,1,0,0:0:0:0:
109,192,221749,128,0,221920:0:0:0:0:
329,192,221920,128,0,222092:0:0:0:0:
109,192,222092,128,0,222263:0:0:0:0:
182,192,222263,1,2,0:0:0:0:
329,192,222263,128,4,222949:0:0:0:0:
402,192,222263,1,0,0:0:0:0:
475,192,222263,1,0,0:0:0:0:
109,192,222606,128,0,222949:0:0:0:0:
402,192,222777,128,2,222949:0:0:0:0:
475,192,222777,128,4,222949:0:0:0:0:
182,192,223120,1,0,0:0:0:0:
329,192,223142,1,0,0:0:0:0:
109,192,223292,1,0,0:0:0:0:
256,192,223463,1,0,0:0:0:0:
109,192,223635,128,2,224320:0:0:0:0:
256,192,223635,1,4,0:0:0:0:
402,192,223635,128,0,223977:0:0:0:0:
475,192,223635,128,0,223977:0:0:0:0:
182,192,223977,128,0,224320:0:0:0:0:
402,192,224149,128,2,224320:0:0:0:0:
475,192,224149,128,4,224320:0:0:0:0:
36,192,224492,128,0,224663:0:0:0:0:
475,192,224663,128,0,224835:0:0:0:0:
256,192,224835,128,0,225006:0:0:0:0:
36,192,225006,128,2,225520:0:0:0:0:
402,192,225006,1,4,0:0:0:0:
475,192,225006,128,0,225692:0:0:0:0:
109,192,225177,128,0,225520:0:0:0:0:
182,192,225349,128,0,225520:0:0:0:0:
329,192,225520,128,2,225692:0:0:0:0:
402,192,225520,128,4,225692:0:0:0:0:
109,192,225863,128,0,226206:0:0:0:0:
182,192,226035,128,0,226206:0:0:0:0:
402,192,226206,1,0,0:0:0:0:
475,192,226377,128,2,226720:0:0:0:0:
109,192,226377,1,4,0:0:0:0:
256,192,226377,128,0,227063:0:0:0:0:
329,192,226377,128,0,227063:0:0:0:0:
36,192,226549,1,0,0:0:0:0:
36,192,226720,128,0,227063:0:0:0:0:
402,192,226892,128,2,227063:0:0:0:0:
475,192,226892,128,4,227063:0:0:0:0:
36,192,227235,1,0,0:0:0:0:
256,192,227235,1,0,0:0:0:0:
109,192,227320,1,0,0:0:0:0:
182,192,227406,1,0,0:0:0:0:
329,192,227406,1,0,0:0:0:0:
402,192,227492,1,0,0:0:0:0:
256,192,227577,1,0,0:0:0:0:
475,192,227577,1,0,0:0:0:0:
36,192,227749,1,2,0:0:0:0:
182,192,227749,1,0,0:0:0:0:
182,192,227920,1,0,0:0:0:0:
475,192,227920,128,0,228263:0:0:0:0:
182,192,228092,1,2,0:0:0:0:
329,192,228092,128,0,228435:0:0:0:0:
182,192,228263,1,0,0:0:0:0:
402,192,228263,128,0,228435:0:0:0:0:
182,192,228435,1,2,0:0:0:0:
182,192,228606,1,0,0:0:0:0:
475,192,228606,1,0,0:0:0:0:
182,192,228777,1,2,0:0:0:0:
475,192,228777,128,0,228949:0:0:0:0:
182,192,228949,1,0,0:0:0:0:
329,192,228949,128,0,229120:0:0:0:0:
109,192,229120,1,2,0:0:0:0:
402,192,229120,128,0,229463:0:0:0:0:
109,192,229292,1,0,0:0:0:0:
475,192,229292,128,0,229463:0:0:0:0:
109,192,229463,1,2,0:0:0:0:
329,192,229463,128,0,229806:0:0:0:0:
109,192,229635,1,0,0:0:0:0:
402,192,229635,128,0,229806:0:0:0:0:
109,192,229806,1,2,0:0:0:0:
109,192,229977,1,0,0:0:0:0:
329,192,229977,128,0,230149:0:0:0:0:
109,192,230149,1,2,0:0:0:0:
475,192,230149,128,0,230320:0:0:0:0:
109,192,230320,1,0,0:0:0:0:
182,192,230406,1,0,0:0:0:0:
36,192,230492,128,2,230835:0:0:0:0:
256,192,230492,1,4,0:0:0:0:
402,192,230492,1,0,0:0:0:0:
475,192,230492,1,0,0:0:0:0:
475,192,230663,1,0,0:0:0:0:
182,192,230835,128,2,231177:0:0:0:0:
475,192,230835,1,0,0:0:0:0:
36,192,231006,128,0,231349:0:0:0:0:
475,192,231006,1,0,0:0:0:0:
109,192,231177,128,2,231349:0:0:0:0:
475,192,231177,1,0,0:0:0:0:
256,192,231349,128,0,231520:0:0:0:0:
475,192,231349,1,0,0:0:0:0:
36,192,231520,1,2,0:0:0:0:
109,192,231520,128,0,231692:0:0:0:0:
475,192,231520,1,0,0:0:0:0:
182,192,231692,128,0,232206:0:0:0:0:
475,192,231692,1,0,0:0:0:0:
36,192,231863,1,2,0:0:0:0:
256,192,231863,128,4,232206:0:0:0:0:
475,192,231863,1,0,0:0:0:0:
329,192,232035,128,0,232720:0:0:0:0:
402,192,232206,128,0,232720:0:0:0:0:
475,192,232377,128,0,232720:0:0:0:0:
36,192,232720,1,0,0:0:0:70:tak.wav
109,192,232720,1,0,0:0:0:0:
402,192,232806,1,0,0:0:0:70:tak.wav
475,192,232806,1,0,0:0:0:0:
109,192,232892,1,0,0:0:0:70:tak.wav
182,192,232892,1,0,0:0:0:0:
402,192,232977,1,0,0:0:0:70:tak.wav
475,192,232977,1,0,0:0:0:0:
182,192,233063,1,0,0:0:0:70:tak.wav
256,192,233063,1,0,0:0:0:0:
402,192,233149,1,0,0:0:0:70:tak.wav
475,192,233149,1,0,0:0:0:0:
36,192,233235,1,2,0:0:0:0:
109,192,233235,1,4,0:0:0:0:
256,192,233235,1,0,0:0:0:0:
329,192,233235,1,0,0:0:0:0:
36,192,233406,128,0,233749:0:0:0:0:
329,192,233406,1,0,0:0:0:0:
182,192,233577,128,0,233749:0:0:0:70:tak.wav
402,192,233577,128,0,233920:0:0:0:0:
475,192,233749,128,0,233920:0:0:0:0:
36,192,233920,1,2,0:0:0:0:
182,192,233920,1,0,0:0:0:0:
402,192,234092,1,0,0:0:0:0:
475,192,234092,1,0,0:0:0:0:
402,192,234263,128,0,234435:0:0:0:70:tak.wav
475,192,234263,1,0,0:0:0:0:
36,192,234435,128,0,234777:0:0:0:0:
182,192,234435,1,0,0:0:0:0:
256,192,234606,128,2,234777:0:0:0:0:
402,192,234606,1,0,0:0:0:0:
475,192,234606,128,0,234949:0:0:0:0:
109,192,234777,1,0,0:0:0:0:
36,192,234949,1,0,0:0:0:70:tak.wav
256,192,234949,128,0,235120:0:0:0:0:
475,192,235120,128,0,235463:0:0:0:0:
36,192,235120,1,0,0:0:0:0:
182,192,235292,1,2,0:0:0:0:
109,192,235292,1,0,0:0:0:0:
329,192,235292,1,0,0:0:0:0:
256,192,235463,1,0,0:0:0:0:
402,192,235463,128,0,235635:0:0:0:0:
109,192,235635,1,0,0:0:0:70:tak.wav
36,192,235635,1,0,0:0:0:0:
256,192,235806,1,0,0:0:0:0:
475,192,235806,128,0,235977:0:0:0:0:
36,192,235977,1,2,0:0:0:0:
182,192,235977,1,0,0:0:0:0:
402,192,235977,128,0,236149:0:0:0:0:
329,192,236149,128,0,236492:0:0:0:0:
475,192,236149,1,0,0:0:0:0:
36,192,236320,1,0,0:0:0:70:tak.wav
182,192,236320,128,0,236663:0:0:0:0:
256,192,236492,128,0,236663:0:0:0:0:
475,192,236492,128,0,236663:0:0:0:0:
109,192,236663,1,2,0:0:0:0:
402,192,236663,1,0,0:0:0:0:
36,192,236835,128,0,237177:0:0:0:0:
329,192,236835,128,0,237006:0:0:0:0:
256,192,237006,1,0,0:0:0:70:tak.wav
402,192,237006,1,0,0:0:0:0:
182,192,237177,1,0,0:0:0:0:
475,192,237177,1,0,0:0:0:0:
36,192,237349,128,2,237520:0:0:0:0:
182,192,237349,128,0,237692:0:0:0:0:
475,192,237349,1,0,0:0:0:0:
402,192,237520,128,0,237863:0:0:0:0:
36,192,237692,1,0,0:0:0:70:tak.wav
256,192,237692,128,0,237863:0:0:0:0:
182,192,237863,128,0,238035:0:0:0:0:
475,192,237863,128,0,238035:0:0:0:0:
36,192,238035,1,2,0:0:0:0:
109,192,238035,1,0,0:0:0:0:
329,192,238035,1,0,0:0:0:0:
256,192,238206,1,0,0:0:0:0:
402,192,238206,128,0,238377:0:0:0:0:
182,192,238377,1,0,0:0:0:70:tak.wav
475,192,238377,128,0,238549:0:0:0:0:
36,192,238549,1,0,0:0:0:0:
402,192,238549,128,0,238892:0:0:0:0:
36,192,238720,128,2,239063:0:0:0:0:
256,192,238720,1,0,0:0:0:0:
475,192,238720,128,0,238892:0:0:0:0:
329,192,238892,128,0,239235:0:0:0:0:
109,192,239063,1,0,0:0:0:70:tak.wav
182,192,239063,128,0,239406:0:0:0:0:
402,192,239235,128,0,239406:0:0:0:0:
475,192,239235,128,0,239406:0:0:0:0:
36,192,239406,1,2,0:0:0:0:
329,192,239406,1,0,0:0:0:0:
256,192,239577,128,0,239749:0:0:0:0:
475,192,239577,1,0,0:0:0:0:
182,192,239749,128,0,239920:0:0:0:70:tak.wav
402,192,239749,1,0,0:0:0:0:
109,192,239920,128,0,240092:0:0:0:0:
329,192,239920,1,0,0:0:0:0:
36,192,240092,128,2,240777:0:0:0:0:
256,192,240092,1,0,0:0:0:0:
402,192,240092,1,0,0:0:0:0:
256,192,240263,128,0,240606:0:0:0:0:
402,192,240263,1,0,0:0:0:0:
329,192,240435,128,0,240606:0:0:0:70:tak.wav
475,192,240435,1,0,0:0:0:0:
109,192,240606,128,0,240777:0:0:0:0:
182,192,240606,1,0,0:0:0:0:
256,192,240777,1,2,0:0:0:0:
402,192,240777,1,0,0:0:0:0:
475,192,240777,1,0,0:0:0:0:
182,192,240949,128,0,241120:0:0:0:0:
329,192,240949,128,0,241120:0:0:0:0:
36,192,241120,1,0,0:0:0:70:tak.wav
475,192,241120,1,0,0:0:0:0:
109,192,241292,1,0,0:0:0:0:
256,192,241292,128,0,241806:0:0:0:0:
36,192,241463,1,2,0:0:0:0:
402,192,241463,128,0,241635:0:0:0:0:
475,192,241463,128,0,242149:0:0:0:0:
182,192,241635,128,0,241806:0:0:0:0:
36,192,241806,128,0,242149:0:0:0:70:tak.wav
329,192,241806,1,0,0:0:0:0:
109,192,241977,128,0,242149:0:0:0:0:
329,192,241977,128,0,242149:0:0:0:0:
256,192,242149,1,2,0:0:0:0:
402,192,242149,1,0,0:0:0:0:
182,192,242320,1,0,0:0:0:0:
329,192,242320,128,0,242663:0:0:0:0:
36,192,242492,1,0,0:0:0:70:tak.wav
182,192,242492,128,0,242663:0:0:0:0:
402,192,242663,1,0,0:0:0:0:
475,192,242663,128,0,243177:0:0:0:0:
36,192,242835,128,2,243177:0:0:0:0:
182,192,242835,128,0,243006:0:0:0:0:
256,192,242835,1,0,0:0:0:0:
402,192,243006,128,0,243177:0:0:0:0:
182,192,243177,1,0,0:0:0:70:tak.wav
256,192,243177,128,0,243520:0:0:0:0:
402,192,243349,128,0,243520:0:0:0:0:
475,192,243349,128,0,243520:0:0:0:0:
36,192,243520,1,2,0:0:0:0:
329,192,243520,1,0,0:0:0:0:
36,192,243692,1,0,0:0:0:0:
109,192,243777,1,0,0:0:0:0:
182,192,243863,1,0,0:0:0:70:tak.wav
329,192,243863,1,0,0:0:0:0:
182,192,244035,1,0,0:0:0:0:
329,192,244035,1,0,0:0:0:0:
402,192,244120,1,0,0:0:0:0:
36,192,244206,1,2,0:0:0:0:
109,192,244206,1,4,0:0:0:0:
256,192,244206,128,0,244549:0:0:0:0:
475,192,244206,128,0,245406:0:0:0:0:
329,192,244377,128,0,244720:0:0:0:0:
402,192,244549,128,0,244892:0:0:0:0:
36,192,244720,128,0,245235:0:0:0:0:
182,192,244720,128,0,244892:0:0:0:0:
256,192,245063,128,0,245406:0:0:0:0:
109,192,245085,128,0,245235:0:0:0:0:
182,192,245406,1,2,0:0:0:0:
402,192,245406,1,0,0:0:0:0:
36,192,245577,128,2,246777:0:0:0:0:
182,192,245577,128,4,245920:0:0:0:0:
402,192,245577,1,0,0:0:0:0:
475,192,245577,1,0,0:0:0:0:
256,192,245749,128,0,246092:0:0:0:0:
329,192,245920,128,0,246263:0:0:0:0:
402,192,246092,128,0,246263:0:0:0:0:
475,192,246092,128,0,246606:0:0:0:0:
402,192,246435,128,0,246606:0:0:0:0:
329,192,246435,128,0,246777:0:0:0:0:
182,192,246777,1,2,0:0:0:0:
475,192,246777,1,4,0:0:0:0:
402,192,246777,1,0,0:0:0:0:
36,192,246949,1,2,0:0:0:0:
182,192,246949,128,4,247292:0:0:0:0:
402,192,246949,1,0,0:0:0:0:
475,192,246949,128,0,248149:0:0:0:0:
256,192,247120,128,0,247463:0:0:0:0:
329,192,247292,128,0,247635:0:0:0:0:
36,192,247463,128,2,247977:0:0:0:0:
109,192,247463,128,0,247635:0:0:0:0:
109,192,247806,128,0,247977:0:0:0:0:
256,192,247977,128,0,248149:0:0:0:0:
36,192,248149,1,2,0:0:0:0:
109,192,248149,1,4,0:0:0:0:
402,192,248149,128,0,248320:0:0:0:0:
36,192,248320,128,2,249349:0:0:0:0:
109,192,248320,1,4,0:0:0:0:
256,192,248320,1,0,0:0:0:0:
475,192,248320,1,0,0:0:0:0:
402,192,248492,128,0,249006:0:0:0:0:
329,192,248663,128,0,249177:0:0:0:0:
109,192,248835,128,4,249349:0:0:0:0:
256,192,248835,128,2,249349:0:0:0:0:
475,192,249006,1,0,0:0:0:0:
402,192,249177,1,0,0:0:0:0:
182,192,249349,1,0,0:0:0:70:tak.wav
329,192,249349,1,0,0:0:0:0:
475,192,249349,1,0,0:0:0:0:
256,192,249520,1,0,0:0:0:0:
182,192,249606,1,0,0:0:0:70:tak.wav
36,192,249692,1,2,0:0:0:0:
109,192,249692,1,8,0:0:0:0:
402,192,249692,1,0,0:0:0:0:
475,192,249692,128,0,249863:0:0:0:0:
36,192,249863,128,0,250035:0:0:0:0:
329,192,249863,1,0,0:0:0:0:
329,192,250035,128,2,250206:0:0:0:0:
475,192,250035,1,8,0:0:0:0:
36,192,250206,1,2,0:0:0:0:
109,192,250206,1,4,0:0:0:0:
256,192,250206,128,0,250377:0:0:0:0:
182,192,250377,128,0,250549:0:0:0:0:
402,192,250377,1,0,0:0:0:0:
36,192,250549,1,2,0:0:0:0:
109,192,250549,1,4,0:0:0:0:
402,192,250549,128,0,250892:0:0:0:0:
475,192,250549,128,0,250892:0:0:0:0:
182,192,250720,1,8,0:0:0:0:
256,192,250720,1,0,0:0:0:0:
182,192,250892,1,0,0:0:0:70:tak.wav
256,192,250977,1,0,0:0:0:70:tak.wav
36,192,251063,128,2,251406:0:0:0:0:
329,192,251063,1,4,0:0:0:0:
402,192,251063,1,0,0:0:0:0:
475,192,251063,1,0,0:0:0:0:
109,192,251235,128,0,251406:0:0:0:0:
329,192,251235,1,0,0:0:0:0:
256,192,251320,1,0,0:0:0:70:tak.wav
182,192,251406,1,8,0:0:0:0:
402,192,251406,128,0,251749:0:0:0:0:
182,192,251577,1,2,0:0:0:0:
475,192,251577,128,0,251749:0:0:0:0:
109,192,251749,128,0,252092:0:0:0:0:
256,192,251749,1,0,0:0:0:0:
402,192,251920,128,2,252092:0:0:0:0:
475,192,251920,128,0,252435:0:0:0:0:
36,192,252263,128,2,252777:0:0:0:0:
182,192,252263,1,4,0:0:0:0:
256,192,252263,1,0,0:0:0:0:
329,192,252263,128,0,252435:0:0:0:0:
109,192,252606,128,8,252777:0:0:0:0:
256,192,252606,128,0,253463:0:0:0:0:
329,192,252606,1,0,0:0:0:0:
402,192,252692,1,8,0:0:0:0:
475,192,252777,1,2,0:0:0:0:
36,192,252949,1,0,0:0:0:0:
402,192,252949,1,0,0:0:0:0:
109,192,253035,1,8,0:0:0:0:
182,192,253120,1,2,0:0:0:0:
329,192,253120,1,0,0:0:0:0:
475,192,253292,1,8,0:0:0:0:
329,192,253377,1,8,0:0:0:0:
36,192,253463,1,2,0:0:0:0:
182,192,253463,1,0,0:0:0:0:
402,192,253549,1,8,0:0:0:0:
475,192,253549,1,0,0:0:0:0:
109,192,253635,1,8,0:0:0:0:
256,192,253635,1,0,0:0:0:0:
402,192,253720,1,8,0:0:0:0:
475,192,253720,1,0,0:0:0:0:
36,192,253806,128,2,254235:0:0:0:0:
182,192,253806,128,4,254149:0:0:0:0:
329,192,253806,128,0,254063:0:0:0:0:
36,192,254663,1,0,0:0:0:0:
182,192,254685,1,0,0:0:0:0:
256,192,254835,128,8,255006:0:0:0:0:
475,192,254835,128,0,255177:0:0:0:0:
36,192,255177,1,2,0:0:0:0:
109,192,255177,1,4,0:0:0:0:
256,192,255177,1,0,0:0:0:0:
402,192,255177,1,0,0:0:0:0:
256,192,255349,1,0,0:0:0:0:
36,192,255520,128,8,256035:0:0:0:0:
182,192,255520,1,0,0:0:0:0:
475,192,255520,128,0,256377:0:0:0:0:
109,192,255863,128,2,256035:0:0:0:0:
402,192,256035,1,0,0:0:0:0:
256,192,256120,1,0,0:0:0:0:
36,192,256206,128,8,256720:0:0:0:0:
109,192,256206,128,0,256377:0:0:0:0:
182,192,256377,1,0,0:0:0:0:
256,192,256463,1,0,0:0:0:0:
329,192,256549,128,2,257577:0:0:0:0:
475,192,256549,128,0,256720:0:0:0:0:
402,192,256549,128,0,256720:0:0:0:0:
182,192,256720,1,0,0:0:0:0:
36,192,256892,1,8,0:0:0:0:
402,192,256892,1,0,0:0:0:0:
475,192,256892,1,0,0:0:0:0:
182,192,257063,128,0,257920:0:0:0:0:
36,192,257235,1,2,0:0:0:0:
109,192,257235,1,0,0:0:0:0:
256,192,257235,1,0,0:0:0:0:
402,192,257406,128,0,257577:0:0:0:0:
475,192,257577,1,8,0:0:0:0:
36,192,257577,1,0,0:0:0:0:
109,192,257749,128,0,257920:0:0:0:0:
329,192,257920,1,2,0:0:0:0:
402,192,257920,1,0,0:0:0:0:
475,192,257920,1,0,0:0:0:0:
256,192,257920,1,0,0:0:0:0:
182,192,258092,128,0,258263:0:0:0:0:
36,192,258263,128,8,259120:0:0:0:0:
329,192,258263,1,0,0:0:0:0:
475,192,258263,128,0,258777:0:0:0:0:
109,192,258435,128,0,259120:0:0:0:0:
402,192,258606,128,2,258777:0:0:0:0:
256,192,258777,1,0,0:0:0:0:
329,192,258863,1,0,0:0:0:0:
402,192,258949,128,8,259120:0:0:0:0:
475,192,258949,1,0,0:0:0:0:
256,192,259120,1,0,0:0:0:0:
182,192,259206,1,0,0:0:0:0:
36,192,259292,1,2,0:0:0:0:
109,192,259292,1,0,0:0:0:0:
402,192,259292,128,0,259635:0:0:0:0:
475,192,259292,128,0,260320:0:0:0:0:
182,192,259463,1,0,0:0:0:0:
109,192,259635,1,8,0:0:0:0:
329,192,259635,1,0,0:0:0:0:
36,192,259806,128,0,260320:0:0:0:0:
182,192,259977,1,2,0:0:0:0:
329,192,259977,1,0,0:0:0:0:
402,192,259977,1,0,0:0:0:0:
256,192,260149,128,0,260320:0:0:0:0:
109,192,260320,1,8,0:0:0:0:
329,192,260320,1,0,0:0:0:0:
256,192,260492,128,8,265463:0:0:0:0:
475,192,260492,1,0,0:0:0:0:
402,192,260577,1,8,0:0:0:0:
182,192,260577,1,0,0:0:0:0:
329,192,260663,1,0,0:0:0:0:
109,192,260663,1,0,0:0:0:0:
36,192,260663,1,0,0:0:0:0:
182,192,260835,1,0,0:0:0:0:
36,192,261006,128,8,261863:0:0:0:0:
475,192,261006,128,0,261177:0:0:0:0:
329,192,261177,1,0,0:0:0:0:
475,192,261349,128,2,261863:0:0:0:0:
182,192,261520,1,0,0:0:0:0:
329,192,261606,1,0,0:0:0:0:
109,192,261692,128,8,261863:0:0:0:0:
402,192,261692,128,0,261863:0:0:0:0:
329,192,261863,1,0,0:0:0:0:
182,192,261949,1,0,0:0:0:0:
36,192,262035,128,2,262892:0:0:0:0:
109,192,262035,128,0,262377:0:0:0:0:
475,192,262035,1,0,0:0:0:0:
402,192,262035,1,0,0:0:0:0:
329,192,262206,1,0,0:0:0:0:
182,192,262377,1,0,0:0:0:0:
475,192,262377,1,8,0:0:0:0:
402,192,262549,1,0,0:0:0:0:
109,192,262720,128,2,262892:0:0:0:0:
182,192,262720,128,0,262892:0:0:0:0:
475,192,262720,128,0,264435:0:0:0:0:
329,192,262892,1,0,0:0:0:0:
402,192,263063,1,8,0:0:0:0:
109,192,263063,1,0,0:0:0:0:
36,192,263235,128,0,264435:0:0:0:0:
182,192,263406,1,2,0:0:0:0:
329,192,263406,1,0,0:0:0:0:
402,192,263577,1,0,0:0:0:0:
182,192,263749,1,8,0:0:0:0:
109,192,263749,1,0,0:0:0:0:
329,192,263920,1,0,0:0:0:0:
109,192,264092,1,2,0:0:0:0:
402,192,264092,1,0,0:0:0:0:
182,192,264263,1,0,0:0:0:0:
329,192,264435,1,8,0:0:0:0:
402,192,264435,1,0,0:0:0:0:
182,192,264606,1,0,0:0:0:0:
36,192,264777,1,2,0:0:0:0:
109,192,264777,1,0,0:0:0:0:
475,192,264777,1,0,0:0:0:0:
402,192,264949,1,0,0:0:0:0:
109,192,265120,1,8,0:0:0:0:
329,192,265120,1,0,0:0:0:0:
182,192,265292,1,0,0:0:0:0:
36,192,265463,1,2,0:0:0:0:
329,192,265463,1,0,0:0:0:0:
109,192,265463,1,0,0:0:0:0:
475,192,265561,1,0,0:0:0:0:
329,192,265659,1,0,0:0:0:0:
475,192,265757,1,0,0:0:0:0:
36,192,265806,1,8,0:0:0:0:
182,192,265806,1,0,0:0:0:0:
329,192,265855,1,0,0:0:0:0:
475,192,265953,1,0,0:0:0:0:
329,192,266051,1,0,0:0:0:0:
36,192,266149,1,2,0:0:0:0:
109,192,266149,1,4,0:0:0:0:
182,192,266149,1,0,0:0:0:0:
475,192,266149,1,0,0:0:0:0:
256,192,266320,1,2,0:0:0:0:
329,192,266320,1,0,0:0:0:0:
36,192,266492,128,8,267006:0:0:0:0:
402,192,266492,1,0,0:0:0:0:
475,192,266492,128,0,267349:0:0:0:0:
182,192,266663,1,0,0:0:0:0:
109,192,266835,128,8,267006:0:0:0:0:
329,192,266835,1,0,0:0:0:0:
256,192,267006,1,2,0:0:0:0:
36,192,267177,128,8,267349:0:0:0:0:
109,192,267177,128,0,267349:0:0:0:0:
329,192,267349,1,0,0:0:0:0:
256,192,267349,1,0,0:0:0:0:
36,192,267520,1,8,0:0:0:0:
109,192,267520,1,0,0:0:0:0:
402,192,267520,128,0,267863:0:0:0:0:
475,192,267520,128,0,268206:0:0:0:0:
182,192,267692,1,0,0:0:0:0:
109,192,267863,1,8,0:0:0:0:
329,192,267863,1,0,0:0:0:0:
36,192,268035,128,2,268720:0:0:0:0:
256,192,268035,128,0,268206:0:0:0:0:
182,192,268206,128,8,268549:0:0:0:0:
402,192,268206,1,0,0:0:0:0:
329,192,268377,1,2,0:0:0:0:
256,192,268549,1,8,0:0:0:0:
475,192,268549,1,0,0:0:0:0:
182,192,268720,1,2,0:0:0:0:
402,192,268720,1,0,0:0:0:0:
36,192,268892,1,8,0:0:0:0:
109,192,268892,1,0,0:0:0:0:
329,192,268892,1,0,0:0:0:0:
182,192,269063,1,0,0:0:0:0:
36,192,269235,128,8,270092:0:0:0:0:
256,192,269235,1,0,0:0:0:0:
475,192,269235,128,0,269749:0:0:0:0:
329,192,269406,1,2,0:0:0:0:
182,192,269577,1,8,0:0:0:0:
402,192,269577,128,0,269749:0:0:0:0:
256,192,269749,1,2,0:0:0:0:
109,192,269920,128,8,270092:0:0:0:0:
329,192,269920,1,0,0:0:0:0:
475,192,269920,1,0,0:0:0:0:
182,192,270092,1,2,0:0:0:0:
256,192,270092,1,0,0:0:0:0:
36,192,270263,128,8,271120:0:0:0:0:
109,192,270263,128,0,270606:0:0:0:0:
402,192,270263,1,0,0:0:0:0:
475,192,270263,1,0,0:0:0:0:
329,192,270435,1,0,0:0:0:0:
182,192,270606,1,8,0:0:0:0:
402,192,270606,1,0,0:0:0:0:
475,192,270777,128,2,271292:0:0:0:0:
109,192,270949,128,8,271120:0:0:0:0:
256,192,270949,1,0,0:0:0:0:
329,192,271120,128,2,271463:0:0:0:0:
36,192,271292,1,8,0:0:0:0:
109,192,271292,1,0,0:0:0:0:
475,192,271463,1,0,0:0:0:0:
36,192,271635,1,2,0:0:0:0:
109,192,271635,1,4,0:0:0:0:
256,192,271635,1,0,0:0:0:0:
402,192,271806,1,0,0:0:0:0:
36,192,271977,128,8,272835:0:0:0:0:
109,192,271977,1,0,0:0:0:0:
182,192,271977,128,0,272492:0:0:0:0:
329,192,272320,128,8,272492:0:0:0:0:
475,192,272320,128,0,273006:0:0:0:0:
256,192,272492,1,2,0:0:0:0:
182,192,272663,128,8,272835:0:0:0:0:
329,192,272663,1,0,0:0:0:0:
256,192,272835,1,2,0:0:0:0:
36,192,273006,128,8,273863:0:0:0:0:
182,192,273006,128,0,273349:0:0:0:0:
402,192,273006,1,0,0:0:0:0:
109,192,273006,1,0,0:0:0:0:
329,192,273177,1,0,0:0:0:0:
402,192,273349,1,8,0:0:0:0:
475,192,273349,1,0,0:0:0:0:
182,192,273520,1,0,0:0:0:0:
256,192,273692,128,8,273863:0:0:0:0:
402,192,273692,128,4,274035:0:0:0:0:
475,192,273692,1,0,0:0:0:0:
182,192,273863,1,0,0:0:0:0:
36,192,274035,1,8,0:0:0:0:
256,192,274035,1,0,0:0:0:0:
109,192,274206,1,2,0:0:0:0:
329,192,274206,1,4,0:0:0:0:
402,192,274206,1,0,0:0:0:0:
475,192,274206,128,0,275577:0:0:0:0:
109,192,274549,1,2,0:0:0:0:
182,192,274635,1,2,0:0:0:0:
36,192,274720,128,4,275577:0:0:0:0:
256,192,274720,1,0,0:0:0:70:tak.wav
329,192,274720,1,0,0:0:0:0:
256,192,275063,1,2,0:0:0:0:
182,192,275149,1,2,0:0:0:0:
109,192,275235,128,4,275577:0:0:0:0:
402,192,275235,1,0,0:0:0:70:tak.wav
182,192,275577,1,2,0:0:0:0:
256,192,275663,1,2,0:0:0:0:
36,192,275749,1,4,0:0:0:0:
109,192,275749,1,0,0:0:0:70:tak.wav
329,192,275749,128,0,276606:0:0:0:0:
475,192,275749,1,0,0:0:0:0:
36,192,276092,1,2,0:0:0:0:
109,192,276177,1,2,0:0:0:0:
182,192,276263,1,4,0:0:0:0:
402,192,276263,128,0,276863:0:0:0:70:tak.wav
475,192,276263,128,0,277035:0:0:0:0:
182,192,276606,1,0,0:0:0:0:
36,192,276692,1,0,0:0:0:0:
329,192,276777,128,0,276863:0:0:0:0:
109,192,276863,1,0,0:0:0:0:
402,192,276949,128,0,277035:0:0:0:0:
182,192,277035,1,0,0:0:0:0:
109,192,277463,128,2,280000:0:0:0:0:
256,192,277463,128,4,279932:0:0:0:0:
402,192,277463,128,0,279863:0:0:0:0:
