osu file format v14

[General]
AudioFilename: audio.mp3
AudioLeadIn: 0
PreviewTime: 387499
Countdown: 0
SampleSet: Soft
StackLeniency: 0.5
Mode: 0
LetterboxInBreaks: 0
EpilepsyWarning: 1
WidescreenStoryboard: 1

[Editor]
DistanceSpacing: 0.7
BeatDivisor: 6
GridSize: 4
TimelineZoom: 2.999998

[Metadata]
Title:Kagerou Compilation
TitleUnicode:Kagerou Compilation
Artist:Various Artists
ArtistUnicode:Various Artists
Creator:Nevo
Version:Kagerou
Source:
Tags:アウターサイエンス Outer Science 天月 Amatsuki サマータイムレコード Summertime Record チルドレンレコード Children Record メイリア MARiA from GARNiDELiA 人造エネミー 初音ミク Hatsune Miku Artificial Jinzou Enemy メカクシコードやさぐれ子猫 Koneko Yasagure 夕景イエスタデイYuukei Yesterday ft. LiSA 空想フォレスト じん ヨシダタクミ(phatmans after school)Souzou Kuusou Forest Fantasy Imagination Takumi Yoshida 想像フォレスト オツキミリサイタル あやぽんず* ayaponzu* Otsukimi Recital ヘッドフォンアクター じん headphone actor Mekakushi Code 夜咄ディセイブ Yobanashi Deceive & スタイムメモリー じん 松山晃太(BYEE the ROUND)Lost Time Memory Matsuyama Kouta アヤノの幸福理論 じん 奥井亜紀 Ayano no Koufuku Riron Ayano's Theory of Happiness Aki Okui コノハの世界事情 じん ナノウ konoha state of the world no Sekai Jijou Nanou カゲロウデイズ じん 田口囁一(感傷ベクトル) Shoichi Taguchi (Sentimental Vector) (Kansyo-Vector) days 如月アテンション Kisaragi Attention Luna Haruna IA VT colorful vocaloid utaite project cover noffy foxygrandpa jin Shizen no Teki-P Blindfold mekakucity actors marathon メカクシティアクターズ Heat Haze カゲロウプロジェクト kagecomp kagepro
BeatmapID:1642267
BeatmapSetID:744238

[Difficulty]
HPDrainRate:6
CircleSize:4
OverallDifficulty:9
ApproachRate:9.3
SliderMultiplier:1.8
SliderTickRate:1

[Events]
//Background and Video events
0,0,"BG.jpg",0,0
//Break Periods
2,32555,39611
2,65337,72634
2,124013,129102
2,156143,166776
2,228589,235255
2,271130,284445
2,313999,327640
2,347560,353000
2,377293,383529
2,411461,425456
2,487606,503739
2,527569,533869
2,569972,578710
2,603002,612804
//Storyboard Layer 0 (Background)
//Storyboard Layer 1 (Fail)
//Storyboard Layer 2 (Pass)
//Storyboard Layer 3 (Foreground)
//Storyboard Sound Samples

[TimingPoints]
2356,327.868852459016,4,2,1,70,1,0
40165,324.324324324324,4,2,1,70,1,0
40165,-200,4,2,1,70,0,0
40408,-200,4,2,1,5,0,0
40489,-100,4,2,1,70,0,0
60921,-133.333333333333,4,2,1,70,0,0
69438,312.5,4,2,1,70,1,0
74438,-100,4,2,2,70,0,0
84438,-83.3333333333333,4,2,2,70,0,1
93813,-100,4,2,2,70,0,0
127429,297.029702970297,4,2,1,70,1,0
130547,-100,4,2,2,70,0,0
131141,-100,4,2,2,30,0,0
131216,-100,4,2,2,32,0,0
131290,-100,4,2,2,34,0,0
131364,-100,4,2,2,36,0,0
131438,-100,4,2,2,38,0,0
131513,-100,4,2,2,40,0,0
131587,-100,4,2,2,42,0,0
131661,-100,4,2,2,44,0,0
131735,-100,4,2,2,46,0,0
131810,-100,4,2,2,48,0,0
131884,-100,4,2,2,50,0,0
131958,-100,4,2,2,54,0,0
132032,-100,4,2,2,58,0,0
132107,-100,4,2,2,62,0,0
132181,-100,4,2,2,70,0,0
145844,-111.111111111111,4,2,2,70,0,0
155349,-142.857142857143,4,2,1,70,0,0
163448,352.941176470588,4,2,1,70,1,0
167330,-71.4285714285714,4,2,1,70,0,0
167683,-83.3333333333333,4,2,3,70,0,0
189389,-83.3333333333333,4,2,3,50,0,0
189565,-83.3333333333333,4,2,3,70,0,0
190095,-83.3333333333333,4,2,2,70,0,0
190271,-83.3333333333333,4,2,4,70,0,0
201389,-83.3333333333333,4,2,4,40,0,0
201565,-83.3333333333333,4,2,4,70,0,0
212506,-83.3333333333333,4,2,2,70,0,0
221330,-133.333333333333,4,2,2,70,0,0
221595,-133.333333333333,4,2,1,5,0,0
221683,-125,4,2,2,70,0,0
228379,-133.333333333333,4,2,2,70,0,0
228389,-133.333333333333,4,2,1,5,0,0
235809,292.682926829268,4,2,1,70,1,0
235809,-83.3333333333333,4,2,1,70,0,0
235955,-83.3333333333333,4,2,3,70,0,0
242687,-100,4,2,3,70,0,0
245174,-83.3333333333333,4,2,3,70,0,0
252199,-71.4285714285714,4,2,3,70,0,1
259223,-83.3333333333333,4,2,3,70,0,0
261565,-71.4285714285714,4,2,3,70,0,1
267418,-83.3333333333333,4,2,2,70,0,0
267711,-83.3333333333333,4,2,2,45,0,0
267857,-83.3333333333333,4,2,2,50,0,0
268003,-83.3333333333333,4,2,2,55,0,0
268150,-83.3333333333333,4,2,2,60,0,0
268296,-83.3333333333333,4,2,2,65,0,0
268442,-83.3333333333333,4,2,2,70,0,0
268589,-83.3333333333333,4,2,2,75,0,0
284999,300,4,2,1,70,1,0
284999,-125,4,2,1,70,0,0
292199,-100,4,2,2,70,0,0
294149,-100,4,2,2,50,0,0
294299,-100,4,2,2,70,0,0
294599,-166.666666666667,4,2,2,70,0,0
294899,-100,4,2,2,70,0,0
328194,297.029702970297,4,2,3,70,1,0
328499,297.029702970297,4,2,3,70,1,0
338003,-90.9090909090909,4,2,3,70,0,0
346766,-90.9090909090909,4,2,3,40,0,0
346840,-90.9090909090909,4,2,3,55,0,0
346914,-90.9090909090909,4,2,3,70,0,0
350324,230.769230769231,4,2,2,70,1,0
350324,-142.857142857143,4,2,2,70,0,0
355708,-142.857142857143,4,2,2,30,0,0
355785,-142.857142857143,4,2,2,50,0,0
355862,-142.857142857143,4,2,2,70,0,0
356862,-142.857142857143,4,2,2,30,0,0
356939,-142.857142857143,4,2,2,50,0,0
357016,-142.857142857143,4,2,2,70,0,0
361400,-100,4,2,2,70,0,0
368785,-100,4,2,3,70,0,0
369016,-100,4,2,2,70,0,0
376631,-133.333333333333,4,2,2,70,0,0
381707,297.029702970297,4,2,1,70,1,0
384083,-100,4,2,3,70,0,0
386013,-100,4,2,2,70,0,0
387573,-100,4,2,2,5,0,0
387647,-83.3333333333333,4,2,3,70,0,0
395221,-76.9230769230769,4,2,3,70,0,0
395667,-71.4285714285714,4,2,3,70,0,0
396112,-66.6666666666667,4,2,3,70,0,0
396558,-83.3333333333333,4,2,3,70,0,0
423220,697.674418604651,4,2,1,40,1,0
426010,-100,4,2,4,15,0,0
427406,-100,4,2,4,30,0,0
428801,-100,4,2,4,45,0,0
430196,-100,4,2,4,60,0,0
441708,-100,4,2,2,60,0,0
442754,-71.4285714285714,4,2,4,70,0,0
465080,-62.5,4,2,4,70,0,0
475545,-71.4285714285714,4,2,4,70,0,0
499985,307.692307692308,4,2,1,70,1,0
504293,-100,4,2,3,70,0,0
504908,-166.666666666667,4,2,2,70,0,0
505985,-83.3333333333333,4,2,2,70,0,0
514754,-83.3333333333333,4,2,2,40,0,0
515062,-71.4285714285714,4,2,2,70,0,0
530703,465.116279069767,4,2,1,70,1,0
534423,-100,4,2,2,70,0,0
536284,-100,4,2,4,70,0,0
536749,-83.3333333333333,4,2,4,70,0,0
550470,-83.3333333333333,4,2,2,70,0,0
551168,-83.3333333333333,4,2,4,70,0,0
574495,307.692307692308,4,2,1,70,1,0
579264,-133.333333333333,4,2,1,70,0,0
579495,-133.333333333333,4,2,1,5,0,0
579571,-133.333333333333,4,2,1,70,0,0
580648,-100,4,2,1,70,0,0
606872,324.324324324324,4,2,1,70,1,0
613358,-100,4,2,2,70,0,0
615304,-100,4,2,3,70,0,0
625378,324.324324324324,4,2,3,70,1,0
625561,324.324324324324,4,2,2,70,1,0
625804,-100,4,2,3,70,0,0
626169,324.324324324324,4,2,3,70,1,0
626331,324.324324324324,4,2,3,70,1,0
635574,-100,4,2,3,40,0,0
635736,-100,4,2,3,70,0,0
638979,-100,4,2,4,70,0,0
656331,-100,4,2,4,30,0,0
656412,-100,4,2,4,50,0,0
656493,-100,4,2,4,70,0,0
656655,-100,4,2,4,30,0,0
656736,-100,4,2,4,50,0,0
656817,-100,4,2,4,70,0,0
657303,-100,4,2,3,70,0,0
657443,324.324324324324,4,2,5,45,1,0
657443,-133.333333333333,4,2,5,45,0,0
659895,324.324324324324,4,2,5,45,1,0
659895,-133.333333333333,4,2,5,45,0,0
663768,324.324324324324,4,2,5,45,1,0
663768,-133.333333333333,4,2,5,45,0,0
664082,324.324324324324,4,2,5,45,1,0
664235,324.324324324324,4,2,5,45,1,0
664599,324.324324324324,4,2,5,45,1,0
665085,-133.333333333333,4,2,5,45,0,0
665430,324.324324324324,4,2,5,45,1,0
666435,324.324324324324,4,2,5,45,1,0
671462,-158.730158730159,4,2,5,5,0,0

[Colours]
Combo1 : 236,157,253
Combo2 : 0,128,192
Combo3 : 174,174,174
Combo4 : 0,168,84
Combo5 : 255,128,0
Combo6 : 242,0,0
Combo7 : 255,255,255
Combo8 : 221,177,2

[HitObjects]
136,125,2355,6,0,P|180:117|221:132,1,90,2|2,3:2|3:2,0:0:0:0:
261,204,2683,2,0,P|217:212|176:197,1,90,10|2,0:0|0:0,0:0:0:0:
301,135,3011,1,2,3:2:0:0:
341,206,3175,1,2,0:0:0:0:
222,133,3339,1,10,0:0:0:0:
215,268,3503,6,0,P|257:284|301:276,1,90,2|2,0:0|3:2,0:0:0:0:
176,197,3831,1,2,0:0:0:0:
135,270,3995,1,10,0:0:0:0:
88,109,4159,2,0,L|95:199,1,90,2|2,0:0|3:2,0:0:0:0:
208,358,4487,1,2,0:0:0:0:
208,358,4569,1,0,3:0:0:0:
208,358,4651,2,0,L|215:268,1,90,10|2,0:0|0:0,0:0:0:0:
184,103,4978,102,0,B|218:142|218:142|319:133,1,135,2|0,3:2|0:0,0:0:0:0:
344,53,5306,2,0,L|248:63,1,90,10|2,0:0|0:0,0:0:0:0:
377,127,5634,2,0,L|466:117,1,90,2|2,3:2|0:0,0:0:0:0:
365,207,5962,1,10,0:0:0:0:
344,53,6126,6,0,L|532:31,1,180,2|2,0:0|0:0,0:0:0:0:
431,252,6618,1,10,0:0:0:0:
384,134,6782,1,2,0:0:0:0:
383,133,6864,1,0,0:0:0:0:
383,133,6946,1,2,3:2:0:0:
509,211,7110,1,2,0:0:0:0:
509,211,7192,1,0,0:0:0:0:
509,211,7274,1,10,0:0:0:0:
448,85,7437,1,2,0:0:0:0:
355,211,7601,102,0,L|261:202,1,90,2|2,3:2|0:0,0:0:0:0:
187,362,7929,2,0,L|276:353,1,90,10|2,0:0|0:0,0:0:0:0:
187,215,8257,1,2,3:2:0:0:
154,288,8421,1,2,0:0:0:0:
265,202,8585,1,10,0:0:0:0:
104,132,8749,6,0,L|108:222,1,90,2|2,0:0|3:2,0:0:0:0:
176,63,9077,1,2,0:0:0:0:
184,143,9241,1,10,0:0:0:0:
261,22,9405,2,0,L|257:111,1,90,2|2,0:0|3:2,0:0:0:0:
111,110,9733,1,2,0:0:0:0:
176,63,9897,1,10,0:0:0:0:
282,246,10060,102,0,B|206:244|206:244|175:224|175:224|82:221,1,180,2|2,0:0|0:0,0:0:0:0:
88,360,10552,1,10,0:0:0:0:
153,307,10716,1,2,0:0:0:0:
153,307,10798,1,0,0:0:0:0:
153,307,10880,1,2,3:2:0:0:
16,227,11044,1,2,0:0:0:0:
29,307,11208,1,10,0:0:0:0:
196,223,11372,6,0,L|107:221,1,90,2|2,0:0|3:2,0:0:0:0:
265,180,11700,1,2,0:0:0:0:
265,180,11782,1,0,0:0:0:0:
265,180,11864,1,10,0:0:0:0:
267,262,12028,1,2,0:0:0:0:
185,145,12192,1,2,3:2:0:0:
336,221,12355,1,2,0:0:0:0:
196,223,12519,1,10,0:0:0:0:
334,141,12683,1,2,0:0:0:0:
273,351,12847,102,0,L|267:262,1,90,6|2,3:2|0:0,0:0:0:0:
412,252,13175,2,0,L|406:341,1,90,10|2,0:0|0:0,0:0:0:0:
336,221,13503,1,2,3:2:0:0:
401,173,13667,1,2,0:0:0:0:
349,301,13831,1,10,0:0:0:0:
479,207,13995,6,0,P|444:178|400:172,1,90,2|2,0:0|3:2,0:0:0:0:
273,275,14323,1,2,0:0:0:0:
412,252,14487,1,10,0:0:0:0:
268,106,14651,2,0,L|262:195,1,90,2|2,0:0|3:2,0:0:0:0:
344,76,14979,1,2,0:0:0:0:
207,52,15142,1,10,0:0:0:0:
185,47,15223,1,0,0:0:0:0:
164,44,15305,1,0,0:0:0:0:
142,43,15387,1,0,0:0:0:0:
121,45,15470,102,0,L|143:171,1,90,6|2,3:2|0:0,0:0:0:0:
246,284,15798,2,0,L|268:158,1,90,10|2,0:0|0:0,0:0:0:0:
87,198,16126,2,0,P|140:213|198:188,1,90,2|2,3:2|0:0,0:0:0:0:
266,116,16454,1,10,0:0:0:0:
167,310,16618,6,0,L|130:100,1,180,2|2,0:0|0:0,0:0:0:0:
336,221,17110,2,0,L|320:309,1,90,10|2,0:0|0:0,0:0:0:0:
320,309,17356,1,0,0:0:0:0:
320,309,17438,1,2,3:2:0:0:
262,185,17602,1,2,0:0:0:0:
262,185,17684,1,0,0:0:0:0:
262,185,17766,1,10,0:0:0:0:
415,203,17929,1,2,0:0:0:0:
264,264,18093,102,0,L|143:258,1,90,6|2,3:2|0:0,0:0:0:0:
27,186,18421,2,0,P|83:197|123:249,1,90,10|2,0:0|0:0,0:0:0:0:
83,336,18749,1,2,3:2:0:0:
43,266,18913,1,2,0:0:0:0:
163,338,19077,1,10,0:0:0:0:
129,176,19241,6,0,L|124:266,1,90,2|2,0:0|3:2,0:0:0:0:
242,343,19569,1,2,0:0:0:0:
254,203,19733,1,10,0:0:0:0:
378,283,19896,2,0,L|288:278,1,90,2|2,0:0|3:2,0:0:0:0:
420,211,20225,1,2,0:0:0:0:
457,285,20388,1,10,0:0:0:0:
341,196,20552,102,0,P|386:136|483:158,1,180,6|2,0:0|0:0,0:0:0:0:
378,283,21044,1,10,0:0:0:0:
265,196,21208,1,2,0:0:0:0:
265,196,21290,1,0,0:0:0:0:
265,196,21372,1,2,3:2:0:0:
420,211,21536,1,2,0:0:0:0:
296,109,21700,1,10,0:0:0:0:
288,278,21864,6,0,L|196:269,1,90,2|2,0:0|3:2,0:0:0:0:
100,157,22192,1,2,0:0:0:0:
100,157,22274,1,0,0:0:0:0:
100,157,22355,2,0,L|189:148,1,90,10|2,0:0|0:0,0:0:0:0:
48,84,22683,1,2,3:2:0:0:
46,220,22847,1,2,0:0:0:0:
46,220,22929,1,0,0:0:0:0:
46,220,23011,1,10,0:0:0:0:
132,84,23175,1,2,0:0:0:0:
224,241,23339,102,0,L|135:234,1,90,6|2,3:2|0:0,0:0:0:0:
259,169,23667,2,0,L|349:162,1,90,10|2,0:0|0:0,0:0:0:0:
213,103,23995,1,2,3:2:0:0:
180,173,24159,1,2,0:0:0:0:
294,97,24323,1,10,0:0:0:0:
265,258,24487,6,0,L|258:168,1,90,2|2,0:0|3:2,0:0:0:0:
415,248,24815,1,2,0:0:0:0:
342,279,24979,1,10,0:0:0:0:
421,158,25142,2,0,L|414:248,1,90,2|2,0:0|3:2,0:0:0:0:
354,360,25470,1,2,0:0:0:0:
332,365,25551,1,0,0:0:0:0:
311,368,25633,1,10,0:0:0:0:
289,369,25715,1,0,0:0:0:0:
268,367,25798,2,0,L|253:283,1,45,2|0,0:0|0:0,0:0:0:0:
185,261,25962,102,0,L|177:378,1,90,6|2,3:2|0:0,0:0:0:0:
265,246,26290,2,0,L|257:128,1,90,10|2,0:0|0:0,0:0:0:0:
259,156,26536,1,0,0:0:0:0:
259,156,26618,1,2,3:2:0:0:
185,261,26782,1,2,0:0:0:0:
336,285,26946,1,10,0:0:0:0:
175,81,27110,6,0,L|184:260,1,180,6|2,0:0|0:0,0:0:0:0:
413,258,27602,2,0,P|385:217|341:203,1,90,10|2,0:0|0:0,0:0:0:0:
348,203,27848,1,2,0:0:0:0:
348,203,27930,1,2,0:0:0:0:
405,344,28094,1,10,0:0:0:0:
405,344,28176,1,10,0:0:0:0:
405,344,28258,1,10,0:0:0:0:
454,186,28421,1,2,0:0:0:0:
246,293,28585,102,0,L|362:282,1,90,6|2,3:2|0:0,0:0:0:0:
221,367,28913,2,0,L|131:359,1,90,10|2,0:0|0:0,0:0:0:0:
201,228,29241,1,2,3:2:0:0:
246,293,29405,1,2,0:0:0:0:
122,237,29569,1,10,0:0:0:0:
281,222,29733,6,0,L|397:211,1,90,4|8,0:0|0:0,0:0:0:0:
370,213,29978,1,8,0:0:0:0:
370,213,30060,1,8,0:0:0:0:
235,151,30224,1,8,0:0:0:0:
235,151,30306,1,8,0:0:0:0:
235,151,30389,2,0,L|136:146,1,90,8|0,0:0|3:0,0:0:0:0:
90,70,30717,1,8,0:0:0:0:
95,214,30880,101,0,3:0:0:0:
95,214,30962,1,0,3:0:0:0:
95,214,31044,2,0,P|135:181|139:116,1,90,4|0,0:0|3:0,0:0:0:0:
10,202,31372,1,0,3:0:0:0:
122,290,31536,1,10,0:0:0:0:
67,143,31700,1,8,0:0:0:0:
67,143,31782,1,8,0:0:0:0:
67,143,31864,1,8,0:0:0:0:
42,279,32028,5,0,3:0:0:0:
165,75,32192,1,0,3:0:0:0:
177,346,32355,1,4,0:0:0:0:
91,99,40165,6,0,L|97:176,1,67.5,2|0,0:0|0:0,0:0:0:0:
132,234,40489,6,0,L|125:144,1,90,12|0,3:2|0:0,0:0:0:0:
246,37,40813,1,2,3:2:0:0:
216,126,40975,1,2,3:2:0:0:
152,58,41137,1,10,3:2:0:0:
308,111,41300,38,0,L|401:103,1,90,0|2,0:0|3:2,0:0:0:0:
274,200,41624,1,2,3:2:0:0:
216,126,41786,1,10,3:2:0:0:
367,187,41948,1,0,0:0:0:0:
232,285,42110,2,0,P|199:255|181:215,1,90,2|2,3:2|3:2,0:0:0:0:
144,64,42435,1,10,3:2:0:0:
216,126,42597,1,0,0:0:0:0:
322,37,42759,38,0,L|233:33,1,90,2|0,3:2|0:0,0:0:0:0:
144,64,43083,1,10,3:2:0:0:
201,209,43246,2,0,P|220:150|203:104,1,90,0|2,0:0|3:2,0:0:0:0:
48,179,43570,2,0,P|74:215|115:233,1,90,2|10,3:2|3:2,0:0:0:0:
144,64,43894,1,0,0:0:0:0:
62,94,44056,1,2,3:2:0:0:
215,125,44219,1,2,3:2:0:0:
161,324,44381,6,0,B|126:282|126:282|132:153,1,180,10|2,3:2|3:2,0:0:0:0:
336,205,44867,1,2,3:2:0:0:
336,205,45029,2,0,L|330:318,1,90,10|0,3:2|0:0,0:0:0:0:
213,101,45354,6,0,L|219:214,1,90,2|0,3:2|0:0,0:0:0:0:
406,135,45678,2,0,P|362:110|302:114,1,90,10|0,3:2|0:0,0:0:0:0:
266,264,46002,1,2,3:2:0:0:
336,205,46164,1,2,3:2:0:0:
197,200,46327,1,10,3:2:0:0:
274,47,46489,38,0,L|268:137,1,90,0|2,3:0|0:2,0:0:0:0:
108,79,46813,1,2,3:2:0:0:
183,27,46975,1,10,3:2:0:0:
107,175,47137,1,0,0:0:0:0:
24,32,47300,1,2,3:2:0:0:
192,122,47462,1,2,3:2:0:0:
25,127,47624,1,10,3:2:0:0:
100,264,47786,38,0,L|106:174,1,90,0|2,0:0|3:2,0:0:0:0:
182,311,48110,1,0,0:0:0:0:
21,318,48273,1,10,3:2:0:0:
179,216,48435,2,0,P|223:226|265:266,1,90,0|2,0:0|3:2,0:0:0:0:
347,383,48759,1,2,3:2:0:0:
182,311,48921,1,10,3:2:0:0:
348,199,49083,6,0,L|344:289,1,90,0|2,3:0|0:2,0:0:0:0:
179,216,49408,1,2,3:2:0:0:
179,216,49489,1,0,0:0:0:0:
179,216,49570,2,0,L|174:126,1,90,10|0,3:2|0:0,0:0:0:0:
163,1,49894,1,8,0:0:0:0:
87,169,50056,1,2,0:0:0:0:
70,34,50219,1,8,0:0:0:0:
174,126,50381,1,2,0:0:0:0:
252,6,50543,6,0,L|163:1,1,90,6|0,3:2|0:0,0:0:0:0:
267,142,50867,2,0,L|357:137,1,90,10|0,3:2|0:0,0:0:0:0:
199,207,51192,2,0,P|172:159|179:109,1,90,2|2,3:2|3:2,0:0:0:0:
70,34,51516,37,10,3:2:0:0:
70,34,51678,2,0,P|94:71|94:115,1,90,0|2,3:0|0:2,0:0:0:0:
29,199,52002,1,2,3:2:0:0:
125,262,52164,1,10,3:2:0:0:
0,293,52327,1,0,0:0:0:0:
168,348,52489,2,0,P|214:296|217:252,1,90,2|2,3:2|3:2,0:0:0:0:
229,182,52813,1,10,3:2:0:0:
125,262,52975,1,0,0:0:0:0:
156,122,53137,37,2,3:2:0:0:
217,277,53300,1,0,0:0:0:0:
81,177,53462,1,10,3:2:0:0:
245,88,53624,2,0,P|293:101|327:145,1,90,0|2,0:0|3:2,0:0:0:0:
443,260,53948,1,2,3:2:0:0:
322,224,54110,1,10,3:2:0:0:
401,175,54273,1,0,0:0:0:0:
363,311,54435,1,2,3:2:0:0:
319,129,54597,1,2,3:2:0:0:
155,281,54759,6,0,B|215:269|215:269|270:231|270:231|327:223,1,180,10|2,3:2|3:2,0:0:0:0:
273,343,55246,1,2,3:2:0:0:
161,161,55408,2,0,P|153:106|169:59,1,90,10|0,3:2|0:0,0:0:0:0:
380,74,55732,6,0,P|388:129|372:176,1,90,2|0,3:2|0:0,0:0:0:0:
267,231,56056,2,0,L|267:112,1,90,10|0,3:2|0:0,0:0:0:0:
361,252,56381,1,2,3:2:0:0:
179,252,56543,1,2,3:2:0:0:
270,109,56705,1,10,3:2:0:0:
317,337,56867,38,0,L|406:334,1,90,0|2,3:0|3:2,0:0:0:0:
428,183,57192,1,2,3:2:0:0:
361,252,57354,1,10,3:2:0:0:
512,225,57516,1,0,0:0:0:0:
336,160,57678,2,0,L|247:156,1,90,2|2,3:2|3:2,0:0:0:0:
104,144,58002,37,10,3:2:0:0:
222,324,58164,2,0,L|269:248,1,90,0|2,0:0|3:2,0:0:0:0:
361,74,58489,1,2,3:2:0:0:
361,252,58651,1,10,3:2:0:0:
156,160,58813,2,0,L|245:156,1,90,0|2,0:0|3:2,0:0:0:0:
438,140,59137,1,2,3:2:0:0:
304,21,59300,1,10,3:2:0:0:
361,252,59462,6,0,B|368:183|368:183|355:137|355:137|362:72,1,180,4|8,0:0|3:2,0:0:0:0:
448,286,59948,2,0,P|416:330|380:344,1,90,12|8,0:0|0:0,0:0:0:0:
289,311,60192,1,8,0:0:0:0:
289,311,60273,2,0,P|266:261|272:223,1,90,8|8,0:0|0:2,0:0:0:0:
347,160,60516,1,8,0:2:0:0:
347,160,60597,2,0,P|401:165|431:189,1,90,8|0,0:0|3:0,0:0:0:0:
384,343,60921,5,0,0:0:0:0:
211,364,61083,2,0,L|113:358,1,67.5000025749208,0|0,0:0|0:0,0:0:0:0:
122,205,61408,1,0,0:0:0:0:
7,287,61570,2,0,L|105:281,1,67.5000025749208,0|0,0:0|0:0,0:0:0:0:
179,285,61813,1,0,0:0:0:0:
179,285,61894,2,0,L|219:287,3,33.7500012874604,0|0|0|0,3:0|3:0|3:0|3:0,0:0:0:0:
122,205,62219,37,4,0:0:0:0:
256,192,62300,12,0,65137,0:0:0:0:
256,192,73188,12,0,74281,0:0:0:0:
337,125,74438,22,0,L|329:252,1,90,4|0,0:0|0:0,0:0:0:0:
175,118,74750,1,10,3:2:0:0:
258,78,74906,1,0,0:0:0:0:
252,259,75063,1,10,3:2:0:0:
170,212,75219,1,0,0:0:0:0:
181,24,75375,1,10,3:2:0:0:
253,170,75531,1,0,0:0:0:0:
105,62,75688,53,10,3:2:0:0:
258,78,75844,1,0,0:0:0:0:
91,156,76000,1,10,3:2:0:0:
253,170,76156,1,0,0:0:0:0:
253,170,76234,1,0,0:0:0:0:
253,170,76313,2,0,P|319:143|388:163,1,135,10|0,3:2|0:0,0:0:0:0:
428,215,76625,2,0,L|419:304,1,90,10|0,3:2|0:0,0:0:0:0:
245,79,76938,6,0,L|253:178,1,90,10|0,3:2|0:0,0:0:0:0:
272,353,77250,1,10,3:2:0:0:
341,180,77406,1,0,0:0:0:0:
165,221,77563,2,0,P|201:257|264:268,1,90,10|0,3:2|0:0,0:0:0:0:
341,180,77875,1,10,3:2:0:0:
252,168,78031,1,0,0:0:0:0:
358,273,78188,37,10,3:2:0:0:
377,93,78344,1,0,0:0:0:0:
252,168,78500,1,10,3:2:0:0:
432,201,78656,1,0,0:0:0:0:
285,82,78813,2,0,L|180:81,1,90,10|0,3:2|0:0,0:0:0:0:
153,294,79125,2,0,B|173:203|173:203|163:162,1,135,10|0,3:2|0:0,0:0:0:0:
71,115,79438,54,0,L|95:208,1,90,10|0,3:2|0:0,0:0:0:0:
246,235,79750,1,10,3:2:0:0:
195,81,79906,1,0,0:0:0:0:
93,202,80063,1,10,3:2:0:0:
112,34,80219,1,0,0:0:0:0:
267,143,80375,1,10,3:2:0:0:
71,115,80531,1,0,0:0:0:0:
282,51,80688,6,0,P|344:89|357:162,1,135,10|0,3:2|0:0,0:0:0:0:
338,222,81000,1,10,3:2:0:0:
471,77,81156,1,0,0:0:0:0:
267,143,81313,1,10,3:2:0:0:
437,185,81469,1,0,0:0:0:0:
282,51,81625,1,10,3:2:0:0:
295,304,81781,1,0,0:0:0:0:
134,144,81938,38,0,B|192:138|192:138|218:149|218:149|288:140,1,135,10|0,3:2|0:0,0:0:0:0:
337,108,82250,1,10,3:2:0:0:
176,223,82406,1,0,0:0:0:0:
282,51,82563,1,10,3:2:0:0:
428,178,82719,1,0,0:0:0:0:
359,26,82875,1,10,3:2:0:0:
327,219,83031,1,0,0:0:0:0:
440,44,83188,54,0,L|428:186,1,135,10|0,3:2|0:0,0:0:0:0:
408,255,83500,2,0,P|371:230|315:220,1,90,10|8,3:2|0:0,0:0:0:0:
251,239,83734,1,8,0:0:0:0:
229,251,83812,1,8,3:2:0:0:
206,258,83890,1,2,0:3:0:0:
181,260,83968,1,2,0:3:0:0:
157,255,84046,1,8,0:3:0:0:
134,245,84125,53,8,0:3:0:0:
167,215,84203,1,4,0:3:0:0:
183,173,84281,1,4,0:3:0:0:
176,129,84359,1,4,0:3:0:0:
150,93,84438,70,0,L|39:87,1,107.999996704102,4|0,0:0|0:0,0:0:0:0:
251,239,84750,2,0,L|358:233,1,107.999996704102,10|0,3:2|0:0,0:0:0:0:
122,354,85063,1,10,3:2:0:0:
183,173,85219,1,0,0:0:0:0:
294,341,85375,1,10,3:2:0:0:
272,150,85531,1,0,0:0:0:0:
209,332,85688,37,10,3:2:0:0:
358,233,85844,1,0,0:0:0:0:
197,89,86000,1,10,3:2:0:0:
209,332,86156,1,0,0:0:0:0:
429,180,86313,2,0,P|448:230|432:281,1,107.999996704102,10|0,3:2|0:0,0:0:0:0:
183,173,86625,1,10,3:2:0:0:
393,103,86781,1,0,0:0:0:0:
294,341,86938,54,0,L|283:206,1,107.999996704102,10|0,3:2|0:0,0:0:0:0:
266,46,87250,1,10,3:2:0:0:
108,229,87406,1,0,0:0:0:0:
371,192,87563,2,0,P|324:147|235:154,1,107.999996704102,10|0,3:2|0:0,0:0:0:0:
101,342,87875,2,0,L|240:328,1,107.999996704102,10|0,3:2|0:0,0:0:0:0:
430,315,88188,5,10,3:2:0:0:
183,173,88344,1,0,0:0:0:0:
294,341,88500,1,10,3:2:0:0:
361,107,88656,1,0,0:0:0:0:
111,238,88813,2,0,B|157:270|157:270|348:245,1,215.999993408203,10|10,3:2|3:2,0:0:0:0:
388,194,89281,1,0,0:0:0:0:
172,65,89438,38,0,L|183:173,1,107.999996704102,14|0,3:2|0:0,0:0:0:0:
275,32,89750,1,10,3:2:0:0:
67,51,89906,1,0,0:0:0:0:
321,130,90063,1,10,3:2:0:0:
41,157,90219,1,0,0:0:0:0:
198,310,90375,1,10,3:2:0:0:
172,65,90531,1,0,0:0:0:0:
305,320,90688,54,0,L|166:306,1,107.999996704102,14|0,3:2|0:0,0:0:0:0:
242,21,91000,1,10,3:2:0:0:
375,223,91156,1,0,0:0:0:0:
208,149,91313,1,10,3:2:0:0:
460,116,91469,1,0,0:0:0:0:
262,253,91625,1,10,3:2:0:0:
374,25,91781,1,0,0:0:0:0:
461,325,91938,6,0,L|470:211,1,107.999996704102,14|0,3:2|0:0,0:0:0:0:
253,145,92250,2,0,L|262:259,1,107.999996704102,10|0,3:2|0:0,0:0:0:0:
460,116,92563,2,0,L|469:2,1,107.999996704102,10|0,3:2|0:0,0:0:0:0:
270,56,92875,1,10,3:2:0:0:
359,184,93031,1,0,0:0:0:0:
374,25,93188,37,2,0:3:0:0:
196,200,93344,1,4,0:3:0:0:
460,116,93500,1,2,0:3:0:0:
211,123,93656,1,4,0:3:0:0:
349,310,93813,2,0,P|373:257|348:170,1,135,2|0,0:3|0:0,0:0:0:0:
300,128,94125,2,0,L|206:122,1,90,10|0,0:0|0:0,0:0:0:0:
358,32,94438,54,0,L|452:26,1,90,4|0,0:0|0:0,0:0:0:0:
512,170,94750,1,10,0:0:0:0:
411,121,94906,1,8,0:0:0:0:
487,95,95063,1,2,3:2:0:0:
437,197,95219,1,0,0:0:0:0:
424,41,95375,1,10,0:0:0:0:
512,170,95531,1,0,0:0:0:0:
321,127,95688,6,0,L|413:120,1,90,2|0,3:2|0:0,0:0:0:0:
306,207,96000,2,0,L|216:200,1,90,10|8,0:0|0:0,0:0:0:0:
257,48,96313,2,0,L|349:41,1,90,2|0,3:2|0:0,0:0:0:0:
244,126,96625,2,0,L|154:119,1,90,10|0,0:0|0:0,0:0:0:0:
3,265,96938,38,0,P|63:201|152:242,1,180,6|10,3:2|0:0,0:0:0:0:
81,278,97406,1,8,0:0:0:0:
156,149,97563,1,2,3:2:0:0:
141,226,97719,1,0,0:0:0:0:
96,97,97875,1,10,0:0:0:0:
80,174,98031,1,0,0:0:0:0:
171,72,98188,54,0,P|210:91|232:130,1,90,2|0,3:2|0:0,0:0:0:0:
231,256,98500,2,0,P|250:217|289:195,1,90,10|8,0:0|0:0,0:0:0:0:
412,196,98813,2,0,P|373:177|351:138,1,90,2|0,3:2|0:0,0:0:0:0:
360,9,99125,2,0,P|341:48|302:70,1,90,10|0,0:0|0:0,0:0:0:0:
156,149,99438,6,0,B|163:212|163:212|145:263|145:263|153:336,1,180,6|10,3:2|0:0,0:0:0:0:
225,271,99906,1,8,0:0:0:0:
83,203,100063,1,2,3:2:0:0:
156,149,100219,1,0,0:0:0:0:
6,174,100375,1,10,0:0:0:0:
79,120,100531,1,0,0:0:0:0:
90,292,100688,38,0,L|81:191,1,90,2|0,3:2|0:0,0:0:0:0:
225,271,101000,2,0,L|216:372,1,90,10|8,0:0|0:0,0:0:0:0:
156,149,101313,2,0,L|147:48,1,90,2|0,3:2|0:0,0:0:0:0:
271,106,101625,2,0,L|262:207,1,90,10|0,0:0|0:0,0:0:0:0:
394,41,101938,54,0,B|354:74|354:74|344:217,1,180,6|10,3:2|0:0,0:0:0:0:
393,265,102406,1,8,0:0:0:0:
424,191,102563,1,2,3:2:0:0:
314,276,102719,1,0,0:0:0:0:
472,256,102875,1,10,0:0:0:0:
345,201,103031,1,0,0:0:0:0:
441,330,103188,5,10,0:0:0:0:
507,180,103344,1,8,3:0:0:0:
507,180,103422,1,8,3:0:0:0:
507,180,103500,1,8,3:0:0:0:
314,276,103656,2,0,L|207:270,1,90,8|8,0:0|3:0,0:0:0:0:
224,270,103891,1,8,3:0:0:0:
224,270,103969,1,8,3:0:0:0:
345,201,104125,1,8,0:0:0:0:
187,80,104438,38,0,B|124:72|124:72|80:93|80:93|-3:80,1,180,6|10,3:2|0:0,0:0:0:0:
131,242,104906,1,8,0:0:0:0:
131,242,105063,2,0,P|146:185|135:147,1,90,2|0,3:2|0:0,0:0:0:0:
36,335,105375,2,0,B|82:316|82:316|141:329,1,90,10|0,0:0|0:0,0:0:0:0:
314,276,105688,54,0,B|268:295|268:295|209:282,1,90,2|0,3:2|0:0,0:0:0:0:
337,173,106000,1,10,0:0:0:0:
384,239,106156,1,8,0:0:0:0:
264,208,106313,2,0,P|258:164|273:122,1,90,2|0,3:2|0:0,0:0:0:0:
367,98,106625,1,10,0:0:0:0:
337,173,106781,1,0,0:0:0:0:
200,86,106938,6,0,B|172:131|172:131|196:280,1,180,2|10,3:2|0:0,0:0:0:0:
370,328,107406,1,8,0:0:0:0:
370,328,107563,2,0,L|385:228,1,90,2|0,3:2|0:0,0:0:0:0:
268,295,107875,2,0,L|283:395,1,90,10|0,0:0|0:0,0:0:0:0:
52,287,108188,38,0,P|132:317|191:256,1,180,2|10,3:2|0:0,0:0:0:0:
127,161,108656,1,8,0:0:0:0:
114,240,108813,1,2,3:2:0:0:
183,106,108969,1,0,0:0:0:0:
281,260,109125,2,0,L|192:255,1,90,10|0,0:0|0:0,0:0:0:0:
263,112,109438,54,0,L|351:107,1,90,2|0,3:2|0:0,0:0:0:0:
229,40,109750,1,10,0:0:0:0:
183,106,109906,1,8,0:0:0:0:
259,201,110063,2,0,L|262:111,1,90,2|0,3:2|0:0,0:0:0:0:
148,226,110375,2,0,B|179:201|179:201|183:88,1,135,10|0,0:0|0:0,0:0:0:0:
146,35,110688,6,0,P|97:20|54:30,1,90,2|0,3:2|0:0,0:0:0:0:
85,179,111000,1,10,0:0:0:0:
95,99,111156,1,8,0:0:0:0:
6,187,111313,2,0,L|14:276,1,90,2|0,3:2|0:0,0:0:0:0:
142,309,111625,2,0,L|150:219,1,90,10|0,0:0|0:0,0:0:0:0:
205,351,111938,38,0,P|142:387|67:324,1,180,2|10,3:2|0:0,0:0:0:0:
228,229,112406,1,8,0:0:0:0:
294,346,112563,2,0,L|204:351,1,90,2|0,3:2|0:0,0:0:0:0:
319,253,112875,2,0,L|408:258,1,90,10|0,0:0|0:0,0:0:0:0:
249,61,113188,54,0,B|214:104|214:104|230:258,1,180,2|10,3:2|0:0,0:0:0:0:
299,175,113656,1,8,0:0:0:0:
169,285,113813,2,0,P|205:304|280:291,1,90,2|0,3:2|0:0,0:0:0:0:
382,202,114125,2,0,P|347:179|271:186,1,90,10|0,0:0|0:0,0:0:0:0:
430,335,114438,6,0,B|437:268|437:268|459:236|459:236|466:162,1,180,6|10,3:2|0:0,0:0:0:0:
372,111,114906,1,8,0:0:0:0:
372,111,115063,2,0,L|385:236,1,90,2|0,3:2|0:0,0:0:0:0:
475,73,115375,2,0,L|462:198,1,90,10|0,0:0|0:0,0:0:0:0:
295,72,115688,38,0,P|333:34|396:31,1,90,2|0,3:2|0:0,0:0:0:0:
309,150,116000,1,10,0:0:0:0:
234,126,116156,1,8,0:0:0:0:
245,294,116313,2,0,L|250:205,1,90,2|0,3:2|0:0,0:0:0:0:
159,96,116625,1,10,0:0:0:0:
171,175,116781,1,0,0:0:0:0:
222,47,116938,54,0,P|172:17|81:89,1,180,2|10,3:2|0:0,0:0:0:0:
79,266,117406,1,8,0:0:0:0:
79,266,117563,2,0,L|184:258,1,90,2|0,3:2|0:0,0:0:0:0:
260,176,117875,2,0,L|162:174,1,90,10|0,0:0|0:0,0:0:0:0:
295,63,118188,6,0,B|358:55|358:55|402:76|402:76|485:63,1,180,2|10,3:2|0:0,0:0:0:0:
351,225,118656,1,8,0:0:0:0:
351,225,118813,2,0,P|336:168|347:130,1,90,2|0,3:2|0:0,0:0:0:0:
446,318,119125,2,0,B|400:299|400:299|341:312,1,90,10|0,0:0|0:0,0:0:0:0:
168,259,119438,38,0,B|214:278|214:278|273:265,1,90,2|0,3:2|0:0,0:0:0:0:
145,156,119750,1,10,0:0:0:0:
98,222,119906,1,8,0:0:0:0:
218,191,120063,2,0,P|224:147|209:105,1,90,2|0,3:2|0:0,0:0:0:0:
115,81,120375,1,10,0:0:0:0:
145,156,120531,1,0,0:0:0:0:
282,69,120688,54,0,B|310:114|310:114|286:263,1,180,2|10,3:2|0:0,0:0:0:0:
112,311,121156,1,8,0:0:0:0:
112,311,121313,2,0,L|97:211,1,90,2|0,3:2|0:0,0:0:0:0:
214,278,121625,2,0,L|199:378,1,90,10|0,0:0|0:0,0:0:0:0:
430,270,121938,6,0,P|350:300|291:239,1,180,2|10,3:2|0:0,0:0:0:0:
355,144,122406,1,8,0:0:0:0:
368,223,122563,1,2,3:2:0:0:
299,89,122719,1,0,0:0:0:0:
201,243,122875,2,0,L|290:238,1,90,10|0,0:0|0:0,0:0:0:0:
134,158,123188,37,0,3:0:0:0:
307,337,123500,1,0,3:0:0:0:
299,89,123813,1,12,0:0:0:0:
113,86,129656,5,8,3:0:0:0:
397,154,129953,1,8,3:0:0:0:
153,301,130250,21,0,3:0:0:0:
216,148,130399,1,8,0:3:0:0:
306,287,130547,1,2,0:3:0:0:
306,287,130622,1,4,0:3:0:0:
306,287,130696,1,8,0:3:0:0:
142,200,130844,38,0,P|127:128|186:62,1,135,8|0,0:0|0:0,0:0:0:0:
218,30,131141,1,8,0:0:0:0:
247,15,131215,1,8,0:0:0:0:
280,13,131289,1,8,0:0:0:0:
312,23,131363,1,8,0:0:0:0:
338,43,131438,37,8,0:0:0:0:
379,59,131512,1,8,0:0:0:0:
423,53,131587,2,0,L|487:46,3,45,8|8|8|8,0:0|0:0|0:0|0:0,0:0:0:0:
511,116,131884,21,8,0:0:0:0:
505,160,131958,1,8,0:0:0:0:
499,204,132032,1,8,0:0:0:0:
492,248,132106,1,8,0:0:0:0:
486,293,132181,38,0,L|474:419,1,90,6|0,3:2|0:0,0:0:0:0:
252,252,132478,2,0,L|243:162,1,90,10|0,3:2|0:0,0:0:0:0:
389,289,132775,1,2,3:2:0:0:
307,327,132924,1,0,3:2:0:0:
363,200,133072,1,10,3:2:0:0:
478,292,133221,38,0,L|388:288,1,90,0|2,3:2|0:2,0:0:0:0:
411,122,133518,2,0,L|500:118,1,90,0|10,3:2|3:2,0:0:0:0:
340,62,133815,1,8,0:0:0:0:
340,62,133889,1,8,0:0:0:0:
340,62,133963,1,2,3:2:0:0:
363,200,134112,1,0,3:0:0:0:
256,97,134260,1,10,3:2:0:0:
411,122,134409,1,0,3:0:0:0:
272,187,134557,22,0,L|183:183,1,90,2|0,3:2|0:0,0:0:0:0:
79,136,134854,1,10,3:2:0:0:
49,226,135003,1,0,0:0:0:0:
170,119,135151,1,2,3:2:0:0:
23,63,135300,1,0,3:2:0:0:
139,206,135448,1,10,3:2:0:0:
207,35,135597,38,0,P|158:27|112:49,1,90,0|2,3:2|0:2,0:0:0:0:
254,164,135894,1,0,3:2:0:0:
254,164,136042,2,0,L|361:157,1,90,10|8,3:2|0:0,0:0:0:0:
343,158,136265,1,8,0:0:0:0:
343,158,136339,1,2,3:2:0:0:
226,257,136488,1,0,3:0:0:0:
285,74,136636,1,10,3:2:0:0:
397,253,136785,1,0,3:0:0:0:
423,106,136933,38,0,L|433:16,1,90,6|0,3:2|0:0,0:0:0:0:
285,74,137230,1,10,3:2:0:0:
343,158,137379,1,0,0:0:0:0:
226,257,137528,2,0,L|215:167,1,90,2|0,3:2|3:2,0:0:0:0:
397,253,137825,1,10,3:2:0:0:
409,85,137973,22,0,P|369:63|325:61,1,90,0|2,3:2|0:2,0:0:0:0:
142,233,138270,2,0,P|181:254|225:256,1,90,0|10,3:2|3:2,0:0:0:0:
343,158,138567,1,8,0:0:0:0:
343,158,138641,1,8,0:0:0:0:
343,158,138716,2,0,L|402:164,2,45,2|0|0,3:2|0:0|3:0,0:0:0:0:
205,166,139013,1,10,3:2:0:0:
306,353,139161,38,0,L|313:223,1,90,4|0,3:2|0:0,0:0:0:0:
332,39,139458,1,0,3:0:0:0:
205,166,139607,1,10,3:2:0:0:
236,40,139755,1,2,3:0:0:0:
343,158,139904,1,2,3:2:0:0:
174,93,140052,1,8,3:0:0:0:
391,95,140201,1,8,3:2:0:0:
170,238,140349,37,12,3:2:0:0:
279,111,140498,1,8,3:2:0:0:
241,274,140646,1,0,3:2:0:0:
205,166,140795,1,8,3:2:0:0:
285,211,140943,21,8,0:0:0:0:
285,211,141018,1,8,0:0:0:0:
285,211,141092,1,8,3:0:0:0:
170,238,141240,1,8,3:0:0:0:
174,93,141389,1,4,3:0:0:0:
205,166,141537,1,4,3:2:0:0:
84,100,141686,38,0,L|209:89,1,90,6|0,3:2|0:0,0:0:0:0:
295,79,141983,1,10,3:2:0:0:
227,35,142131,1,0,0:0:0:0:
205,166,142280,1,2,3:2:0:0:
148,21,142429,1,0,3:2:0:0:
297,1,142577,1,10,3:2:0:0:
360,124,142726,38,0,P|326:151|282:157,1,90,0|2,3:2|0:2,0:0:0:0:
366,44,143023,2,0,P|406:59|433:95,1,90,0|10,3:2|3:2,0:0:0:0:
419,252,143320,1,8,0:0:0:0:
419,252,143394,1,8,0:0:0:0:
419,252,143468,1,2,3:2:0:0:
360,124,143617,1,0,3:0:0:0:
461,184,143765,1,10,3:2:0:0:
281,156,143914,1,0,3:2:0:0:
336,304,144062,22,0,L|342:198,1,90,6|0,3:2|0:0,0:0:0:0:
351,45,144359,1,10,3:2:0:0:
439,102,144508,1,0,0:0:0:0:
212,121,144656,1,2,3:2:0:0:
276,70,144805,1,0,3:2:0:0:
341,214,144953,1,10,3:2:0:0:
135,232,145102,38,0,L|45:226,1,90,4|2,3:2|3:2,0:0:0:0:
210,288,145399,1,8,3:0:0:0:
212,121,145547,1,2,3:0:0:0:
135,232,145696,1,4,3:0:0:0:
295,255,145844,2,0,P|314:216|305:152,1,80.9999975280763,4|4,3:0|3:0,0:0:0:0:
212,121,146141,2,0,L|218:219,1,80.9999975280763,8|0,3:2|0:0,0:0:0:0:
319,98,146438,38,0,L|313:196,1,80.9999975280763,4|2,3:2|0:0,0:0:0:0:
208,45,146735,1,10,0:0:0:0:
342,22,146884,1,0,3:0:0:0:
342,22,146958,1,0,3:0:0:0:
342,22,147032,2,0,P|377:43|401:99,1,80.9999975280763,2|4,0:0|3:0,0:0:0:0:
235,278,147329,1,2,0:0:0:0:
216,126,147478,22,0,B|244:160|244:160|234:294,1,161.999995056153,8|0,0:0|3:0,0:0:0:0:
163,188,147924,1,10,0:0:0:0:
316,213,148072,1,0,0:0:0:0:
316,213,148221,2,0,L|421:207,1,80.9999975280763,2|0,3:2|3:0,0:0:0:0:
296,121,148518,2,0,L|215:125,1,80.9999975280763,10|0,3:2|3:0,0:0:0:0:
332,50,148815,37,4,3:2:0:0:
396,208,148963,2,0,L|476:203,1,80.9999975280763,2|10,0:0|0:0,0:0:0:0:
466,55,149260,2,0,L|430:128,1,80.9999975280763,0|2,3:0|0:0,0:0:0:0:
316,213,149557,2,0,L|279:140,1,80.9999975280763,4|2,3:0|0:0,0:0:0:0:
396,208,149854,38,0,P|378:261|355:282,1,80.9999975280763,8|0,0:0|0:0,0:0:0:0:
240,232,150151,1,0,0:0:0:0:
316,213,150300,1,10,0:0:0:0:
221,309,150448,1,0,0:0:0:0:
165,255,150597,1,2,3:2:0:0:
262,157,150745,1,0,0:0:0:0:
240,232,150894,1,10,3:2:0:0:
204,104,151042,1,0,0:0:0:0:
84,261,151191,22,0,L|164:254,1,80.9999975280763,4|2,3:2|0:0,0:0:0:0:
316,213,151488,1,10,0:0:0:0:
265,350,151636,2,0,L|184:343,1,80.9999975280763,0|2,3:0|0:0,0:0:0:0:
318,293,151933,2,0,L|398:286,1,80.9999975280763,4|2,3:0|0:0,0:0:0:0:
262,157,152230,38,0,P|187:182|128:118,1,161.999995056153,8|0,0:0|0:0,0:0:0:0:
214,26,152676,1,10,0:0:0:0:
204,104,152825,1,0,0:0:0:0:
141,56,152973,1,10,0:0:0:0:
276,75,153122,1,0,3:0:0:0:
190,183,153270,1,4,3:0:0:0:
214,26,153419,1,12,0:0:0:0:
372,107,155349,21,2,0:0:0:0:
372,107,155424,1,2,0:0:0:0:
372,107,155498,2,0,L|355:264,1,157.499995193482,2|0,0:0|0:0,0:0:0:0:
343,342,155943,21,4,0:0:0:0:
218,181,167330,38,0,P|261:229|252:152,1,188.999994232178,0|0,3:0|0:0,0:0:0:0:
159,125,167683,22,0,P|135:186|151:240,1,107.999996704102,4|0,3:2|3:2,0:0:0:0:
367,227,168036,2,0,P|373:174|351:125,1,107.999996704102,10|0,3:2|0:0,0:0:0:0:
185,310,168389,2,0,L|55:301,1,107.999996704102,2|0,3:2|3:2,0:0:0:0:
218,181,168742,1,10,3:2:0:0:
246,259,168918,1,0,0:0:0:0:
138,181,169095,5,2,3:2:0:0:
298,198,169271,1,0,3:2:0:0:
185,310,169448,1,10,3:2:0:0:
218,181,169624,2,0,L|208:73,1,107.999996704102,0|2,0:0|3:2,0:0:0:0:
325,273,169977,1,0,3:2:0:0:
246,259,170153,1,10,3:2:0:0:
350,135,170330,1,0,0:0:0:0:
432,282,170506,70,0,L|324:272,1,107.999996704102,2|0,3:2|3:2,0:0:0:0:
154,356,170859,2,0,L|261:346,1,107.999996704102,10|0,3:2|0:0,0:0:0:0:
315,187,171212,2,0,P|268:210|245:258,1,107.999996704102,2|0,3:2|3:2,0:0:0:0:
417,310,171565,2,0,P|421:257|392:214,1,107.999996704102,10|0,3:2|0:0,0:0:0:0:
180,163,171918,22,0,L|72:153,1,107.999996704102,2|0,3:2|3:2,0:0:0:0:
236,63,172271,2,0,L|343:53,1,107.999996704102,10|0,3:2|0:0,0:0:0:0:
359,205,172624,1,2,3:2:0:0:
283,144,172800,1,0,3:2:0:0:
449,170,172977,1,10,3:2:0:0:
345,303,173153,1,0,0:0:0:0:
373,107,173330,6,0,P|467:75|540:134,1,161.999995056153,4|0,3:2|0:0,0:0:0:0:
492,205,173683,2,0,P|433:233|448:169,1,161.999995056153,10|0,3:2|0:0,0:0:0:0:
455,206,174036,70,0,B|428:193|394:198|409:214|378:226|316:195,1,107.999996704102,2|0,3:2|3:2,0:0:0:0:
246,93,174389,1,10,3:2:0:0:
200,260,174565,2,0,P|252:176|349:208,1,215.999993408203,0|0,0:0|3:2,0:0:0:0:
344,336,175095,2,0,B|300:317|300:317|284:260,1,107.999996704102,10|0,3:2|0:0,0:0:0:0:
415,156,175448,2,0,B|459:175|459:175|475:232,1,107.999996704102,2|0,3:2|3:2,0:0:0:0:
349,208,175800,2,0,L|281:122,1,107.999996704102,10|0,3:2|0:0,0:0:0:0:
194,20,176153,21,2,3:2:0:0:
194,20,176506,2,0,L|167:165,1,107.999996704102,10|0,3:2|0:0,0:0:0:0:
249,302,176859,2,0,L|222:157,1,107.999996704102,2|0,3:2|3:2,0:0:0:0:
97,140,177212,1,10,3:2:0:0:
148,215,177389,1,0,0:0:0:0:
306,165,177565,6,0,P|262:120|151:173,1,161.999995056153,2|0,3:2|0:0,0:0:0:0:
229,195,177918,70,0,P|281:137|358:150,1,161.999995056153,10|0,3:2|0:0,0:0:0:0:
309,215,178271,22,0,P|249:164|175:186,1,161.999995056153,2|0,3:2|0:0,0:0:0:0:
232,244,178624,5,10,3:2:0:0:
367,42,178977,70,0,L|356:168,1,107.999996704102,4|0,3:2|3:2,0:0:0:0:
165,79,179330,2,0,L|176:205,1,107.999996704102,10|0,3:2|0:0,0:0:0:0:
320,293,179683,2,0,P|259:244|208:249,1,107.999996704102,2|0,3:2|3:2,0:0:0:0:
85,295,180036,1,10,3:2:0:0:
240,323,180212,1,0,0:0:0:0:
78,213,180389,21,2,3:2:0:0:
96,375,180565,1,0,3:2:0:0:
232,242,180742,1,10,3:2:0:0:
85,295,180918,2,0,P|14:262|-3:202,1,107.999996704102,0|2,0:0|3:2,0:0:0:0:
121,125,181271,1,0,3:2:0:0:
78,213,181448,1,10,3:2:0:0:
30,88,181624,1,0,0:0:0:0:
175,211,181800,6,0,L|280:185,1,107.999996704102,2|0,3:2|3:2,0:0:0:0:
324,17,182153,2,0,P|268:52|252:106,1,107.999996704102,10|0,3:2|0:0,0:0:0:0:
373,211,182506,2,0,P|370:146|331:105,1,107.999996704102,2|0,3:2|3:2,0:0:0:0:
304,277,182859,2,0,P|362:308|417:295,1,107.999996704102,10|0,3:2|0:0,0:0:0:0:
284,183,183212,69,2,3:2:0:0:
211,247,183389,1,0,3:2:0:0:
200,46,183565,2,0,L|191:153,1,107.999996704102,10|0,3:2|0:0,0:0:0:0:
170,336,183918,1,2,3:2:0:0:
118,217,184095,1,0,3:2:0:0:
277,345,184271,2,0,L|170:336,1,107.999996704102,10|0,3:2|0:0,0:0:0:0:
304,65,184624,21,4,3:2:0:0:
377,129,184801,1,0,3:2:0:0:
294,266,184977,2,0,L|285:159,1,107.999996704102,10|0,3:2|0:0,0:0:0:0:
438,52,185330,2,0,B|475:101|475:101|458:293,1,215.999993408203,2|10,3:2|3:2,0:0:0:0:
284,174,185859,6,0,P|324:138|377:129,1,107.999996704102,0|2,0:0|3:2,0:0:0:0:
383,323,186212,1,0,3:2:0:0:
383,323,186389,2,0,L|275:314,1,107.999996704102,10|0,3:2|0:0,0:0:0:0:
142,238,186742,1,2,3:2:0:0:
239,224,186918,1,0,3:2:0:0:
150,345,187095,2,0,L|141:237,1,107.999996704102,10|0,3:2|0:0,0:0:0:0:
247,116,187448,70,0,L|238:224,1,107.999996704102,2|0,3:2|3:2,0:0:0:0:
46,129,187800,2,0,L|55:237,1,107.999996704102,10|0,3:2|0:0,0:0:0:0:
189,39,188153,1,2,3:2:0:0:
93,44,188330,1,0,3:2:0:0:
247,116,188506,2,0,P|283:65|281:10,1,107.999996704102,10|0,3:2|0:0,0:0:0:0:
345,228,188859,22,0,L|212:222,1,107.999996704102,10|0,0:0|0:0,0:0:0:0:
406,155,189212,1,12,0:0:0:0:
416,306,189389,1,8,0:0:0:0:
416,306,189477,1,8,0:0:0:0:
416,306,189565,1,8,0:0:0:0:
345,228,189742,1,8,0:0:0:0:
502,264,189918,1,8,0:0:0:0:
481,97,190095,5,8,0:3:0:0:
481,97,190183,1,8,0:3:0:0:
481,97,190271,2,0,P|449:67|375:64,1,107.999996704102,4|0,3:2|3:2,0:0:0:0:
236,261,190624,2,0,L|355:250,1,107.999996704102,10|0,3:2|0:0,0:0:0:0:
512,224,190977,1,2,3:2:0:0:
405,179,191153,1,0,3:2:0:0:
485,375,191330,69,10,3:2:0:0:
485,375,191506,2,0,P|426:320|286:366,1,215.999993408203,0|0,0:0|3:2,0:0:0:0:
92,286,192036,1,10,3:2:0:0:
92,286,192212,2,0,P|94:339|122:384,1,107.999996704102,0|2,0:0|3:2,0:0:0:0:
301,344,192565,2,0,P|298:291|270:245,1,107.999996704102,0|10,3:2|3:2,0:0:0:0:
155,125,192918,22,0,L|176:230,1,107.999996704102,0|2,0:0|3:2,0:0:0:0:
437,184,193271,1,0,3:2:0:0:
437,184,193447,2,0,P|339:228|263:160,1,215.999993408203,10|2,3:2|3:2,0:0:0:0:
331,39,193977,1,0,3:2:0:0:
355,132,194153,1,10,3:2:0:0:
223,45,194330,6,0,L|340:38,1,107.999996704102,0|2,0:0|3:2,0:0:0:0:
462,138,194683,1,0,3:2:0:0:
462,138,194859,2,0,L|345:131,1,107.999996704102,10|0,3:2|0:0,0:0:0:0:
217,191,195212,1,2,3:2:0:0:
309,218,195389,1,0,3:2:0:0:
210,83,195565,2,0,L|217:200,1,107.999996704102,12|0,3:2|3:2,0:0:0:0:
244,332,195918,70,0,P|301:279|408:323,1,161.999995056153,6|0,3:2|0:0,0:0:0:0:
452,323,196271,2,0,L|459:197,1,107.999996704102,10|0,3:2|0:0,0:0:0:0:
451,60,196624,1,2,3:2:0:0:
394,141,196800,1,0,3:2:0:0:
512,137,196977,1,10,3:2:0:0:
352,52,197153,22,0,L|244:43,1,107.999996704102,0|2,0:0|3:2,0:0:0:0:
97,50,197506,1,0,3:2:0:0:
174,110,197683,1,10,3:2:0:0:
92,254,197859,2,0,L|84:147,1,107.999996704102,0|2,0:0|3:2,0:0:0:0:
263,228,198212,1,0,3:2:0:0:
185,282,198389,1,10,3:2:0:0:
271,120,198565,6,0,L|263:227,1,107.999996704102,0|2,0:0|3:2,0:0:0:0:
206,47,198918,1,0,3:2:0:0:
206,47,199095,2,0,P|259:24|335:49,1,107.999996704102,10|0,3:2|0:0,0:0:0:0:
335,199,199447,2,0,P|288:164|272:86,1,107.999996704102,2|0,3:2|3:2,0:0:0:0:
403,12,199800,2,0,P|396:69|336:122,1,107.999996704102,10|0,3:2|0:0,0:0:0:0:
189,164,200153,69,2,3:2:0:0:
307,31,200330,1,0,3:2:0:0:
141,79,200506,1,10,3:2:0:0:
366,107,200683,1,0,0:0:0:0:
219,255,200859,1,10,3:2:0:0:
239,82,201036,1,0,3:2:0:0:
362,214,201212,2,0,L|366:99,1,107.999996704102,10|4,3:2|0:2,0:0:0:0:
431,282,201565,22,0,P|377:311|292:280,1,107.999996704102,4|0,3:2|0:0,0:0:0:0:
179,154,201918,1,10,3:2:0:0:
362,214,202095,1,0,0:0:0:0:
151,252,202271,2,0,P|152:190|222:132,1,107.999996704102,2|0,3:2|3:2,0:0:0:0:
304,325,202624,5,10,3:2:0:0:
304,325,202800,2,0,B|225:318|225:318|170:342|170:342|63:334,1,215.999993408203,0|0,0:0|3:2,0:0:0:0:
122,159,203330,1,10,3:2:0:0:
151,252,203506,1,0,0:0:0:0:
40,159,203683,1,2,3:2:0:0:
0,248,203859,1,0,3:2:0:0:
80,69,204036,1,10,3:2:0:0:
228,215,204212,69,0,0:0:0:0:
228,215,204389,2,0,L|356:208,1,107.999996704102,2|0,3:2|3:2,0:0:0:0:
255,32,204742,2,0,L|127:25,1,107.999996704102,10|0,3:2|0:0,0:0:0:0:
302,118,205095,1,2,3:2:0:0:
352,35,205271,1,0,3:2:0:0:
484,212,205447,1,10,3:2:0:0:
484,212,205624,22,0,L|376:206,1,107.999996704102,0|2,0:0|3:2,0:0:0:0:
271,203,205977,1,0,3:2:0:0:
410,285,206153,1,10,3:2:0:0:
314,286,206330,1,0,0:0:0:0:
457,202,206506,1,2,3:2:0:0:
507,286,206683,1,0,3:2:0:0:
362,203,206859,2,0,B|357:145|357:145|377:103|377:103|372:45,1,161.999995056153,12|0,3:2|0:0,0:0:0:0:
298,15,207212,6,0,L|175:19,1,107.999996704102,4|0,3:2|0:0,0:0:0:0:
55,123,207565,2,0,L|178:127,1,107.999996704102,10|0,3:2|0:0,0:0:0:0:
362,142,207918,1,2,3:2:0:0:
257,214,208095,1,0,3:2:0:0:
408,227,208271,1,10,3:2:0:0:
263,115,208447,70,0,B|176:108|176:108|141:131|141:131|35:121,1,215.999993408203,0|0,0:0|3:2,0:0:0:0:
116,32,208977,1,10,3:2:0:0:
198,208,209153,2,0,P|179:260|112:290,1,107.999996704102,0|2,0:0|3:2,0:0:0:0:
149,124,209506,1,0,3:2:0:0:
292,174,209683,1,10,3:2:0:0:
292,174,209771,1,0,0:0:0:0:
292,174,209859,1,0,0:0:0:0:
210,315,210036,22,0,L|198:208,1,107.999996704102,6|0,3:2|3:2,0:0:0:0:
366,329,210389,2,0,L|378:222,1,107.999996704102,10|0,3:2|0:0,0:0:0:0:
134,341,210742,2,0,L|122:234,1,107.999996704102,2|0,3:2|3:2,0:0:0:0:
446,367,211095,2,0,L|458:260,1,107.999996704102,10|0,3:2|0:0,0:0:0:0:
479,67,211447,5,12,3:2:0:0:
152,136,211800,1,10,3:2:0:0:
258,198,211977,1,0,3:0:0:0:
258,198,212065,1,0,3:0:0:0:
258,198,212153,1,8,0:0:0:0:
207,45,212330,1,8,0:0:0:0:
121,233,212506,1,4,0:3:0:0:
89,40,212683,1,4,0:3:0:0:
293,106,212859,69,2,0:1:0:0:
121,233,215683,21,2,0:1:0:0:
207,45,218506,5,2,0:1:0:0:
164,315,221330,70,0,P|114:313|79:262,1,101.250003862381,2|0,0:1|0:0,0:0:0:0:
82,276,221683,2,0,L|88:204,2,72,2|0|0,0:1|0:0|0:0,0:0:0:0:
256,192,222124,12,0,228389,0:0:0:0:
319,302,235809,6,0,L|445:292,1,107.999996704102,4|0,3:2|0:2,0:0:0:0:
282,141,236101,1,0,3:2:0:0:
263,230,236248,1,10,3:2:0:0:
368,117,236394,1,0,0:0:0:0:
350,206,236540,1,2,3:2:0:0:
216,78,236687,1,0,0:0:0:0:
388,10,236833,2,0,L|368:115,1,107.999996704102,10|0,3:2|0:0,0:0:0:0:
326,294,237126,53,2,3:2:0:0:
282,141,237272,1,0,0:0:0:0:
237,320,237418,1,10,3:2:0:0:
350,206,237565,1,0,0:0:0:0:
304,384,237711,1,2,3:2:0:0:
263,230,237857,1,0,0:0:0:0:
263,230,238150,102,0,P|196:239|151:289,1,107.999996704102,4|0,3:2|3:2,0:0:0:0:
97,384,238443,1,0,3:2:0:0:
237,320,238589,1,10,3:2:0:0:
75,301,238735,1,0,0:0:0:0:
189,161,238882,1,2,3:2:0:0:
166,263,239028,1,0,3:2:0:0:
107,107,239174,1,10,3:2:0:0:
263,230,239321,1,0,0:0:0:0:
203,54,239467,2,0,L|189:161,1,107.999996704102,2|0,3:2|0:0,0:0:0:0:
75,301,239760,1,10,3:2:0:0:
75,301,239906,2,0,L|60:193,1,107.999996704102,0|2,0:0|3:2,0:0:0:0:
263,230,240199,2,0,L|248:337,1,107.999996704102,0|10,0:0|3:2,0:0:0:0:
189,161,240491,22,0,P|240:132|299:136,1,107.999996704102,4|0,3:2|3:2,0:0:0:0:
512,290,240784,1,0,3:2:0:0:
263,230,240930,1,10,3:2:0:0:
504,190,241077,1,0,0:0:0:0:
320,323,241223,1,2,3:2:0:0:
366,131,241369,1,0,3:2:0:0:
512,290,241516,1,10,3:2:0:0:
512,51,241662,101,0,0:0:0:0:
389,243,241809,1,2,3:2:0:0:
418,31,241955,1,0,0:0:0:0:
366,131,242101,2,0,L|499:118,1,107.999996704102,10|0,3:2|0:0,0:0:0:0:
274,69,242394,2,0,L|141:56,1,107.999996704102,2|0,3:2|0:0,0:0:0:0:
337,2,242687,1,10,3:2:0:0:
250,222,242833,102,0,P|223:139|273:68,1,180,4|0,3:2|0:0,0:0:0:0:
344,242,243272,1,8,3:2:0:0:
485,168,243418,2,0,B|443:194|381:179|411:153|349:134|288:161,1,180,4|0,3:2|0:0,0:0:0:0:
149,193,243857,1,8,3:2:0:0:
134,14,244004,38,0,L|152:229,1,180,4|0,3:2|0:0,0:0:0:0:
168,347,244443,1,10,3:2:0:0:
292,266,244589,2,0,P|233:241|182:253,1,90,0|2,3:0|0:0,0:0:0:0:
47,303,244882,1,8,0:0:0:0:
273,354,245028,1,8,0:0:0:0:
202,136,245174,22,0,L|210:260,1,107.999996704102,4|0,0:0|3:2,0:0:0:0:
391,136,245467,1,0,3:2:0:0:
250,53,245613,1,10,3:2:0:0:
399,269,245760,1,0,0:0:0:0:
374,47,245906,1,2,3:2:0:0:
299,228,246052,1,0,0:0:0:0:
460,76,246198,1,10,3:2:0:0:
253,143,246344,1,0,0:0:0:0:
512,203,246491,53,2,3:2:0:0:
327,110,246638,1,0,0:0:0:0:
399,269,246784,1,10,3:2:0:0:
374,47,246930,1,0,0:0:0:0:
244,308,247077,1,2,3:2:0:0:
215,46,247223,1,0,0:0:0:0:
215,46,247516,102,0,P|204:101|226:153,1,107.999996704102,4|0,3:2|0:0,0:0:0:0:
445,242,247809,1,0,0:0:0:0:
294,91,247955,1,10,3:2:0:0:
325,337,248101,1,0,0:0:0:0:
421,131,248248,1,2,3:2:0:0:
189,205,248394,1,0,3:2:0:0:
373,275,248540,1,10,3:2:0:0:
215,117,248687,1,0,0:0:0:0:
220,374,248833,37,2,3:2:0:0:
292,193,248979,1,0,0:0:0:0:
98,354,249126,1,10,3:2:0:0:
304,300,249272,2,0,L|290:180,1,107.999996704102,0|2,0:0|3:2,0:0:0:0:
108,97,249565,2,0,L|95:204,1,107.999996704102,0|10,0:0|0:0,0:0:0:0:
189,55,249857,21,4,3:2:0:0:
13,136,250004,2,0,L|0:243,1,107.999996704102,0|0,0:0|3:2,0:0:0:0:
188,341,250296,2,0,L|175:234,1,107.999996704102,10|0,3:2|0:0,0:0:0:0:
11,328,250589,1,2,3:2:0:0:
98,354,250735,1,0,3:2:0:0:
0,243,250882,1,8,3:2:0:0:
159,286,251028,54,0,L|296:270,1,107.999996704102,0|10,3:2|3:2,0:0:0:0:
446,255,251321,1,0,0:0:0:0:
364,372,251467,2,0,L|356:264,1,107.999996704102,10|0,3:2|0:0,0:0:0:0:
345,138,251760,1,8,0:0:0:0:
446,255,251906,1,0,0:0:0:0:
422,47,252052,1,8,3:2:0:0:
356,264,252199,102,0,L|345:126,1,125.999996154785,4|0,0:0|3:2,0:0:0:0:
161,14,252491,1,0,3:2:0:0:
240,216,252638,1,10,3:2:0:0:
255,8,252784,1,0,0:0:0:0:
119,187,252930,1,10,3:2:0:0:
341,54,253077,1,0,0:0:0:0:
89,88,253223,1,10,3:2:0:0:
345,138,253369,1,0,0:0:0:0:
140,288,253516,37,10,3:2:0:0:
230,107,253662,1,0,0:0:0:0:
225,361,253808,1,10,3:2:0:0:
123,184,253954,1,0,0:0:0:0:
361,336,254101,1,10,3:2:0:0:
99,369,254248,1,0,0:0:0:0:
99,369,254540,22,0,L|224:361,1,125.999996154785,4|10,3:2|3:2,0:0:0:0:
460,274,254833,1,0,0:0:0:0:
238,204,254979,1,10,3:2:0:0:
361,336,255126,1,0,0:0:0:0:
328,96,255272,1,10,3:2:0:0:
254,306,255418,1,0,0:0:0:0:
427,194,255565,1,10,3:2:0:0:
240,108,255711,1,0,0:0:0:0:
460,274,255857,53,10,3:2:0:0:
407,57,256004,1,0,0:0:0:0:
238,204,256150,1,10,3:2:0:0:
460,172,256296,2,0,L|335:166,1,125.999996154785,0|10,0:0|3:2,0:0:0:0:
134,47,256589,1,0,0:0:0:0:
134,47,256882,102,0,P|109:117|149:192,1,125.999996154785,4|10,3:2|3:2,0:0:0:0:
224,332,257174,1,0,0:0:0:0:
200,111,257321,1,10,3:2:0:0:
300,276,257467,1,0,0:0:0:0:
275,57,257613,1,10,3:2:0:0:
211,218,257760,1,0,0:0:0:0:
191,1,257906,1,10,3:2:0:0:
290,163,258052,1,0,0:0:0:0:
122,113,258199,38,0,L|-8:108,1,125.999996154785,10|0,3:2|0:0,0:0:0:0:
98,336,258491,2,0,L|228:331,1,125.999996154785,10|0,3:2|0:0,0:0:0:0:
31,186,258784,2,0,P|6:246|24:308,1,125.999996154785,10|0,3:2|0:0,0:0:0:0:
223,331,259077,1,10,3:2:0:0:
162,59,259223,22,0,B|120:117|120:117|152:286,1,215.999993408203,4|0,0:0|0:0,0:0:0:0:
329,142,259662,1,10,3:2:0:0:
329,142,259808,2,0,L|173:129,1,107.999996704102,0|10,3:2|3:2,0:0:0:0:
407,93,260101,53,0,0:0:0:0:
407,93,260247,2,0,P|422:149|376:216,1,107.999996704102,10|0,3:2|0:0,0:0:0:0:
234,281,260540,2,0,P|270:242|323:234,1,107.999996704102,10|0,3:2|0:0,0:0:0:0:
485,337,260833,2,0,P|429:321|393:248,1,107.999996704102,10|0,3:2|0:0,0:0:0:0:
324,137,261126,1,10,3:2:0:0:
474,248,261272,1,8,0:0:0:0:
308,320,261418,1,10,0:0:0:0:
436,102,261565,102,0,P|374:101|324:137,1,125.999996154785,4|0,0:0|3:2,0:0:0:0:
182,244,261857,1,0,0:0:0:0:
403,193,262004,1,10,3:2:0:0:
168,145,262150,1,0,0:0:0:0:
323,234,262296,1,10,3:2:0:0:
241,63,262443,1,0,0:0:0:0:
248,301,262589,1,10,3:2:0:0:
340,136,262735,1,0,0:0:0:0:
182,244,262882,37,10,3:2:0:0:
323,53,263028,1,0,0:0:0:0:
131,150,263174,2,0,L|289:144,1,125.999996154785,10|0,3:2|0:0,0:0:0:0:
472,142,263467,1,10,3:2:0:0:
249,30,263613,1,0,0:0:0:0:
249,30,263906,22,0,P|275:95|250:152,1,125.999996154785,4|10,3:2|3:2,0:0:0:0:
102,322,264199,1,0,0:0:0:0:
130,149,264345,1,10,3:2:0:0:
284,368,264491,1,0,0:0:0:0:
308,183,264638,1,10,3:2:0:0:
196,320,264784,1,0,0:0:0:0:
434,326,264930,1,10,3:2:0:0:
223,119,265076,1,0,0:0:0:0:
325,295,265222,53,10,3:2:0:0:
245,40,265369,1,0,0:0:0:0:
111,245,265516,1,10,3:2:0:0:
111,245,265662,2,0,L|236:237,1,125.999996154785,0|10,0:0|3:2,0:0:0:0:
348,126,265955,2,0,L|221:118,1,125.999996154785,0|10,0:0|3:2,0:0:0:0:
412,275,266248,1,0,3:2:0:0:
466,109,266394,102,0,B|428:52|428:52|244:39,1,251.999992309571,14|10,3:2|3:2,0:0:0:0:
112,34,266833,1,0,0:0:0:0:
246,195,266979,1,10,3:2:0:0:
54,182,267126,1,0,0:0:0:0:
244,39,267272,1,10,3:2:0:0:
140,249,267418,38,0,L|129:141,1,107.999996704102,4|0,3:2|0:0,0:0:0:0:
358,156,267711,1,8,0:0:0:0:
272,301,267857,1,8,0:0:0:0:
263,110,268004,1,8,0:0:0:0:
362,280,268150,1,8,0:0:0:0:
338,38,268296,1,8,0:0:0:0:
198,238,268443,21,8,0:0:0:0:
493,160,268589,1,12,0:0:0:0:
256,192,268662,12,4,270930,0:0:0:0:
114,158,284999,69,0,3:0:0:0:
119,175,286199,1,0,3:0:0:0:
124,192,287399,1,0,3:0:0:0:
129,209,288599,1,0,3:0:0:0:
134,226,289799,1,0,3:0:0:0:
139,243,290999,1,0,3:0:0:0:
144,260,292199,85,8,0:0:0:0:
114,158,292349,1,8,0:0:0:0:
291,281,292649,69,8,0:0:0:0:
321,179,292799,1,8,0:0:0:0:
134,283,293099,85,8,0:0:0:0:
94,147,293249,1,8,0:0:0:0:
311,307,293549,69,0,3:0:0:0:
351,171,293699,1,12,0:0:0:0:
275,221,293849,1,0,3:0:0:0:
388,256,293999,1,8,0:0:0:0:
429,125,294149,1,8,0:0:0:0:
412,102,294224,1,8,0:0:0:0:
390,86,294299,1,8,0:0:0:0:
363,78,294374,1,8,0:0:0:0:
336,78,294449,1,8,0:0:0:0:
310,87,294524,1,8,0:0:0:0:
288,104,294599,70,0,L|204:101,1,80.9999975280763,0|0,0:0|0:0,0:0:0:0:
129,97,294899,86,0,L|141:224,1,90,12|0,0:0|0:0,0:0:0:0:
154,319,295199,1,2,3:2:0:0:
225,182,295349,2,0,L|213:309,1,90,0|10,3:0|0:0,0:0:0:0:
80,301,295649,2,0,P|118:248|161:240,1,90,0|2,3:0|3:2,0:0:0:0:
154,319,295949,1,0,0:0:0:0:
51,203,296099,2,0,L|42:113,1,90,10|0,0:0|0:0,0:0:0:0:
213,156,296399,2,0,L|124:148,1,90,2|0,3:2|0:0,0:0:0:0:
244,83,296699,1,10,0:0:0:0:
299,154,296849,1,8,0:0:0:0:
299,154,296924,1,8,0:0:0:0:
299,154,296999,70,0,L|388:145,1,90,2|0,3:2|0:0,0:0:0:0:
436,273,297299,2,0,P|387:257|357:216,1,90,10|0,0:0|0:0,0:0:0:0:
388,61,297599,2,0,P|437:77|467:118,1,90,2|0,3:2|0:0,0:0:0:0:
307,75,297899,1,10,3:2:0:0:
337,1,298049,1,0,3:0:0:0:
388,145,298199,70,0,L|381:241,1,90,2|0,3:2|0:0,0:0:0:0:
288,321,298499,2,0,L|281:231,1,90,10|0,0:0|0:0,0:0:0:0:
271,99,298799,1,8,0:0:0:0:
196,170,298949,1,8,0:0:0:0:
196,170,299024,1,8,0:0:0:0:
196,170,299099,1,8,0:0:0:0:
360,170,299249,1,8,0:0:0:0:
360,170,299324,1,8,0:0:0:0:
360,170,299399,86,0,L|366:259,1,90,4|0,3:2|0:0,0:0:0:0:
431,137,299699,1,10,0:0:0:0:
368,89,299849,1,0,0:0:0:0:
422,216,299999,1,2,3:2:0:0:
441,60,300149,1,0,0:0:0:0:
360,170,300299,1,10,0:0:0:0:
303,38,300449,70,0,P|287:79|296:128,1,90,0|2,0:0|3:2,0:0:0:0:
368,89,300749,1,0,0:0:0:0:
223,146,300899,1,10,0:0:0:0:
279,283,301049,2,0,P|294:241|284:198,1,90,4|0,0:0|0:0,0:0:0:0:
162,84,301349,1,0,3:0:0:0:
200,237,301499,1,8,3:2:0:0:
248,53,301649,1,0,3:0:0:0:
312,151,301799,70,0,L|222:145,1,90,4|0,0:0|0:0,0:0:0:0:
86,104,302099,1,10,0:0:0:0:
200,237,302249,1,0,0:0:0:0:
162,84,302399,2,0,L|157:174,1,90,2|0,3:2|0:0,0:0:0:0:
108,27,302699,2,0,P|147:6|201:13,1,90,10|0,0:0|0:0,0:0:0:0:
87,103,302999,85,4,3:2:0:0:
237,68,303149,1,0,3:0:0:0:
184,159,303299,1,10,3:0:0:0:
162,84,303449,1,0,3:0:0:0:
305,108,303599,1,2,3:2:0:0:
87,103,303749,1,8,0:0:0:0:
309,29,303899,1,8,0:0:0:0:
230,325,304199,70,0,B|222:255|222:255|190:221|190:221|182:146,1,180,4|10,3:2|0:0,0:0:0:0:
242,106,304649,1,0,0:0:0:0:
353,187,304799,2,0,L|264:183,1,90,2|0,3:2|3:0,0:0:0:0:
140,329,305099,1,10,0:0:0:0:
140,329,305249,70,0,L|229:324,1,90,0|2,0:0|3:2,0:0:0:0:
344,312,305549,1,0,0:0:0:0:
282,264,305699,1,10,0:0:0:0:
292,371,305849,1,8,0:0:0:0:
224,209,305999,1,2,3:2:0:0:
229,323,306149,1,0,0:0:0:0:
302,189,306299,2,0,P|275:149|231:131,1,90,10|0,0:0|0:0,0:0:0:0:
237,9,306599,86,0,P|264:49|308:67,1,90,2|0,3:2|0:0,0:0:0:0:
448,128,306899,2,0,L|340:121,1,90,10|0,0:0|0:0,0:0:0:0:
212,194,307199,2,0,L|320:187,1,90,2|0,3:2|0:0,0:0:0:0:
159,136,307499,2,0,P|134:184|160:250,1,90,10|0,0:0|0:0,0:0:0:0:
376,216,307799,70,0,P|378:171|354:133,1,90,2|0,3:2|0:0,0:0:0:0:
208,66,308099,2,0,P|245:90|290:88,1,90,10|0,0:0|0:0,0:0:0:0:
415,62,308399,1,2,3:2:0:0:
263,10,308549,1,0,0:0:0:0:
447,137,308699,1,10,0:0:0:0:
343,33,308849,1,0,0:0:0:0:
300,187,308999,70,0,L|280:285,1,90,2|0,3:2|0:0,0:0:0:0:
466,310,309299,2,0,L|446:212,1,90,10|0,0:0|0:0,0:0:0:0:
415,62,309599,1,2,3:2:0:0:
447,137,309749,1,0,0:0:0:0:
474,7,309899,1,10,0:0:0:0:
340,143,310049,86,0,L|250:131,1,90,4|0,3:2|0:0,0:0:0:0:
88,104,310349,1,0,3:0:0:0:
233,203,310499,1,8,0:0:0:0:
190,72,310649,2,0,P|168:111|176:167,1,90,4|0,3:2|0:0,0:0:0:0:
287,264,310949,1,0,0:0:0:0:
144,323,311099,2,0,L|159:235,1,90,8|8,0:0|0:0,0:0:0:0:
233,203,311324,1,8,0:0:0:0:
233,203,311399,70,0,P|275:184|348:203,1,90,4|0,3:2|0:0,0:0:0:0:
442,297,311699,1,10,0:0:0:0:
287,264,311849,1,0,0:0:0:0:
388,157,311999,1,2,3:2:0:0:
355,322,312149,1,0,3:0:0:0:
469,222,312299,2,0,L|479:107,1,90,10|0,0:0|0:0,0:0:0:0:
266,39,312599,70,0,L|276:154,1,90,10|0,0:0|0:0,0:0:0:0:
186,243,312899,1,10,0:0:0:0:
178,124,313049,1,0,3:0:0:0:
178,124,313124,1,0,3:0:0:0:
178,124,313199,1,10,0:0:0:0:
287,264,313349,1,8,0:0:0:0:
338,108,313499,1,8,0:0:0:0:
251,193,313649,1,8,0:0:0:0:
456,156,313799,85,4,3:2:0:0:
205,197,328194,53,0,3:0:0:0:
205,197,328499,54,0,L|197:318,1,90,4|0,3:2|3:2,0:0:0:0:
53,178,328796,2,0,L|61:299,1,90,10|0,3:2|3:2,0:0:0:0:
132,169,329093,1,2,3:2:0:0:
86,105,329241,1,0,3:2:0:0:
197,120,329390,1,10,3:2:0:0:
53,178,329538,70,0,P|18:149|7:98,1,90,0|2,3:2|3:2,0:0:0:0:
132,169,329835,1,0,3:2:0:0:
29,254,329984,1,10,3:2:0:0:
206,199,330132,2,0,L|295:192,1,90,0|2,3:2|3:2,0:0:0:0:
132,169,330429,1,0,3:2:0:0:
216,305,330578,1,10,3:2:0:0:
195,119,330726,1,4,3:2:0:0:
353,244,330875,38,0,P|376:200|354:134,1,90,0|0,0:0|3:2,0:0:0:0:
132,169,331172,2,0,P|128:213|150:251,1,90,10|0,3:2|3:2,0:0:0:0:
273,240,331469,1,2,3:2:0:0:
205,197,331617,1,0,3:2:0:0:
267,320,331766,1,10,3:2:0:0:
275,161,331914,54,0,L|282:71,1,90,0|2,3:2|3:2,0:0:0:0:
449,141,332211,2,0,L|456:230,1,90,0|10,3:2|3:2,0:0:0:0:
197,286,332508,2,0,L|204:196,1,90,0|2,3:2|3:2,0:0:0:0:
371,266,332805,2,0,L|378:355,1,90,0|10,3:2|3:2,0:0:0:0:
456,230,333102,6,0,P|383:174|290:229,1,180,4|0,3:2|3:2,0:0:0:0:
300,328,333548,1,10,3:2:0:0:
371,266,333697,1,0,3:2:0:0:
238,261,333845,1,2,3:2:0:0:
307,201,333994,1,0,3:2:0:0:
300,328,334142,1,10,3:2:0:0:
222,170,334291,38,0,P|297:109|390:160,1,180,4|0,3:2|3:2,0:0:0:0:
371,266,334736,1,10,3:2:0:0:
307,201,334885,1,0,3:2:0:0:
436,198,335033,1,2,3:2:0:0:
369,132,335182,1,0,3:2:0:0:
371,266,335330,1,10,3:2:0:0:
458,109,335479,54,0,P|390:42|292:83,1,180,4|0,3:2|3:2,0:0:0:0:
221,216,335924,2,0,P|272:217|321:186,1,90,10|0,3:2|3:2,0:0:0:0:
197,73,336221,2,0,P|173:110|169:155,1,90,2|0,3:2|3:2,0:0:0:0:
332,124,336518,2,0,P|311:84|275:58,1,90,10|0,3:2|3:2,0:0:0:0:
65,129,336815,5,10,3:2:0:0:
250,143,336964,1,0,3:0:0:0:
100,329,337112,37,8,3:2:0:0:
88,301,337186,1,0,3:2:0:0:
85,271,337261,1,0,3:2:0:0:
90,242,337335,1,0,3:2:0:0:
102,216,337409,53,8,3:2:0:0:
138,189,337483,1,0,3:2:0:0:
159,149,337557,1,0,3:2:0:0:
161,105,337631,1,0,3:2:0:0:
145,63,337706,5,8,3:2:0:0:
114,23,337780,1,0,3:2:0:0:
64,27,337854,1,0,3:2:0:0:
39,71,337928,1,0,3:2:0:0:
62,115,338003,38,0,L|188:101,1,99.0000030212403,4|0,3:2|3:2,0:0:0:0:
278,279,338300,2,0,L|179:268,1,99.0000030212403,10|0,3:2|3:2,0:0:0:0:
298,119,338598,2,0,P|328:167|321:223,1,99.0000030212403,2|0,3:2|3:2,0:0:0:0:
205,103,338895,1,10,3:2:0:0:
355,47,339044,1,0,0:0:0:0:
239,188,339192,53,2,3:2:0:0:
256,33,339340,1,0,3:2:0:0:
389,133,339489,1,10,3:2:0:0:
205,103,339637,1,0,3:2:0:0:
329,204,339786,1,2,3:2:0:0:
355,47,339934,2,0,L|250:32,1,99.0000030212403,0|10,3:2|3:2,0:0:0:0:
419,219,340231,6,0,P|462:189|478:126,1,99.0000030212403,4|0,3:2|0:0,0:0:0:0:
329,204,340528,1,0,3:2:0:0:
416,318,340677,2,0,L|420:194,1,99.0000030212403,10|0,3:2|0:0,0:0:0:0:
271,276,340974,2,0,L|275:400,1,99.0000030212403,2|0,3:2|0:0,0:0:0:0:
329,204,341271,1,10,3:2:0:0:
239,188,341419,1,0,3:2:0:0:
362,292,341568,37,2,3:2:0:0:
298,119,341716,1,0,3:2:0:0:
271,276,341865,1,10,3:2:0:0:
388,135,342013,1,0,3:2:0:0:
239,188,342162,1,2,3:2:0:0:
262,32,342310,2,0,P|311:28|356:49,1,99.0000030212403,0|10,3:2|3:2,0:0:0:0:
202,104,342607,54,0,B|133:95|133:95|80:113|80:113|5:101,1,198.000006042481,4|0,3:2|3:2,0:0:0:0:
100,258,343053,2,0,P|133:222|141:174,1,99.0000030212403,10|0,3:2|3:2,0:0:0:0:
73,34,343350,1,2,3:2:0:0:
50,182,343499,1,0,3:0:0:0:
8,101,343647,1,10,3:2:0:0:
141,173,343796,6,0,L|265:161,1,99.0000030212403,0|2,3:0|3:2,0:0:0:0:
296,343,344093,2,0,L|172:331,1,99.0000030212403,0|10,3:0|3:2,0:0:0:0:
273,80,344390,2,0,P|311:109|328:155,1,99.0000030212403,0|2,3:0|3:2,0:0:0:0:
105,256,344687,2,0,P|66:226|49:181,1,99.0000030212403,0|10,3:0|3:2,0:0:0:0:
149,74,344984,38,0,L|140:184,1,99.0000030212403,4|2,3:2|3:2,0:0:0:0:
345,271,345281,2,0,L|336:172,1,99.0000030212403,0|10,3:0|3:2,0:0:0:0:
105,256,345578,2,0,L|113:354,1,99.0000030212403,0|10,3:0|3:2,0:0:0:0:
249,150,345875,2,0,L|257:51,1,99.0000030212403,0|10,3:0|3:2,0:0:0:0:
461,201,346172,54,0,P|397:153|322:188,1,148.50000453186,4|0,3:2|0:0,0:0:0:0:
281,245,346469,1,0,3:0:0:0:
303,50,346617,1,10,3:2:0:0:
393,244,346766,1,8,3:2:0:0:
393,244,346840,1,8,3:2:0:0:
393,244,346914,1,8,3:2:0:0:
403,41,347063,1,0,3:0:0:0:
249,150,347211,1,0,3:0:0:0:
511,128,347360,5,10,3:2:0:0:
57,180,353554,118,0,L|63:256,1,62.9999980773926,4|0,0:0|0:0,0:0:0:0:
136,134,353785,1,8,0:0:0:0:
136,134,353900,2,0,L|147:283,1,125.999996154785,4|0,0:0|0:0,0:0:0:0:
156,336,354218,1,0,3:0:0:0:
288,263,354449,69,8,0:0:0:0:
288,263,354554,2,0,L|350:270,1,62.9999980773926,2|0,0:0|0:0,0:0:0:0:
410,331,354785,85,8,0:0:0:0:
420,335,354900,1,8,0:0:0:0:
430,339,355016,1,8,0:0:0:0:
440,343,355131,1,8,0:0:0:0:
476,268,355246,2,0,L|482:195,1,62.9999980773926,2|0,3:2|0:0,0:0:0:0:
458,253,355477,2,0,L|463:191,1,62.9999980773926,2|0,3:2|0:0,0:0:0:0:
386,32,355707,69,8,0:0:0:0:
376,36,355784,1,8,0:0:0:0:
366,40,355862,2,0,L|369:92,1,41.9999987182618,8|8,0:0|0:0,0:0:0:0:
368,163,356054,1,0,0:0:0:0:
295,197,356170,70,0,L|233:202,1,62.9999980773926,2|0,3:2|0:0,0:0:0:0:
247,220,356400,2,0,L|310:215,1,62.9999980773926,2|0,3:2|0:0,0:0:0:0:
325,233,356631,2,0,L|252:239,1,62.9999980773926,2|0,3:2|0:0,0:0:0:0:
216,303,356861,85,8,3:2:0:0:
220,313,356938,1,8,3:2:0:0:
224,323,357016,2,0,L|276:318,1,41.9999987182618,8|8,3:2|0:0,0:0:0:0:
161,362,357208,70,0,P|92:340|26:369,1,125.999996154785,4|8,0:0|0:0,0:0:0:0:
43,344,357593,2,0,P|103:328|161:350,1,125.999996154785,4|8,0:0|0:0,0:0:0:0:
162,339,357939,2,0,L|172:259,1,62.9999980773926,2|0,3:2|0:0,0:0:0:0:
141,171,358170,70,0,L|131:91,1,62.9999980773926,4|4,3:0|3:0,0:0:0:0:
191,61,358343,1,8,3:0:0:0:
191,61,358400,2,0,L|240:80,2,31.4999990386963,8|8|8,0:0|0:0|0:0,0:0:0:0:
272,128,358631,85,0,3:0:0:0:
272,128,358747,2,0,B|269:230,1,94.499997116089,0|0,3:0|3:0,0:0:0:0:
228,298,359093,69,0,3:0:0:0:
141,171,359208,2,0,B|148:282,1,94.499997116089,0|0,3:0|3:0,0:0:0:0:
163,384,359554,69,4,0:0:0:0:
223,354,360477,1,0,0:0:0:0:
183,173,360823,85,0,3:0:0:0:
183,173,360881,1,0,3:0:0:0:
183,173,360938,2,0,P|157:244|229:220,1,188.999994232178,4|0,3:0|0:0,0:0:0:0:
206,90,361400,70,0,L|85:95,1,90,4|0,3:2|0:0,0:0:0:0:
93,176,361631,2,0,L|182:172,1,90,10|0,3:2|0:0,0:0:0:0:
215,251,361861,2,0,L|126:255,1,90,2|0,3:2|0:0,0:0:0:0:
275,315,362092,1,10,3:2:0:0:
275,315,362208,2,0,P|299:265|285:198,1,90,0|2,0:0|3:2,0:0:0:0:
391,184,362438,1,0,0:0:0:0:
391,184,362554,2,0,P|338:165|301:108,1,90,10|0,3:2|0:0,0:0:0:0:
388,9,362784,70,0,P|398:52|389:96,1,90,2|0,3:2|0:0,0:0:0:0:
239,100,363015,2,0,P|281:63|349:60,1,90,10|0,3:2|0:0,0:0:0:0:
391,184,363246,2,0,L|382:308,1,90,2|0,3:2|0:0,0:0:0:0:
304,321,363477,2,0,L|295:197,1,90,10|0,3:2|0:0,0:0:0:0:
134,264,363707,85,2,3:2:0:0:
134,264,363823,2,0,L|258:255,1,90,0|10,0:0|3:2,0:0:0:0:
320,152,364054,2,0,P|268:153|244:284,1,180,0|0,0:0|3:2,0:0:0:0:
391,184,364400,2,0,P|395:136|376:99,1,90,10|0,3:2|0:0,0:0:0:0:
298,72,364630,1,2,3:2:0:0:
298,72,364746,2,0,L|185:64,1,90,0|10,0:0|3:2,0:0:0:0:
17,189,364977,69,0,0:0:0:0:
17,189,365093,2,0,P|60:194|98:172,1,90,4|0,3:2|0:0,0:0:0:0:
70,41,365324,2,0,P|43:76|44:121,1,90,10|0,3:2|0:0,0:0:0:0:
98,172,365554,1,2,3:2:0:0:
169,199,365669,1,0,0:0:0:0:
230,153,365784,1,10,0:0:0:0:
219,75,365900,70,0,L|309:80,1,90,0|2,0:0|3:2,0:0:0:0:
396,185,366131,1,0,0:0:0:0:
396,185,366247,2,0,L|306:155,1,90,10|0,3:2|0:0,0:0:0:0:
390,39,366477,2,0,L|476:68,1,90,2|0,3:2|0:0,0:0:0:0:
436,265,366708,2,0,L|395:184,1,90,10|0,3:2|0:0,0:0:0:0:
283,32,366939,86,0,B|235:30|235:30|183:59,1,90,2|0,3:2|0:0,0:0:0:0:
214,201,367170,2,0,B|262:203|262:203|314:174,1,90,10|0,3:2|0:0,0:0:0:0:
124,92,367400,1,2,3:2:0:0:
124,92,367516,1,2,3:2:0:0:
52,240,367631,2,0,B|103:259|103:259|213:200,1,180,10|10,3:2|3:2,0:0:0:0:
89,16,367977,69,0,3:2:0:0:
35,74,368093,1,10,3:2:0:0:
54,152,368208,1,0,3:2:0:0:
131,169,368324,2,0,L|220:163,1,90,12|0,3:2|3:2,0:0:0:0:
283,236,368554,2,0,L|194:242,1,90,12|0,3:2|3:2,0:0:0:0:
278,91,368785,70,0,L|367:85,1,90,4|0,3:2|0:0,0:0:0:0:
442,224,369016,2,0,P|423:178|426:134,1,90,10|0,3:2|0:0,0:0:0:0:
385,0,369247,2,0,P|385:44|367:85,1,90,2|0,3:2|0:0,0:0:0:0:
220,175,369477,85,10,3:2:0:0:
220,175,369593,2,0,L|107:167,1,90,0|2,0:0|3:2,0:0:0:0:
207,36,369824,1,0,0:0:0:0:
207,36,369939,2,0,L|320:28,1,90,10|0,3:2|0:0,0:0:0:0:
461,123,370170,69,2,3:2:0:0:
391,152,370284,1,0,0:0:0:0:
323,115,370400,2,0,L|292:17,1,90,10|0,3:2|0:0,0:0:0:0:
423,291,370631,70,0,L|450:206,1,90,2|0,3:2|0:0,0:0:0:0:
323,359,370862,2,0,L|296:274,1,90,10|0,3:2|0:0,0:0:0:0:
169,123,371093,1,2,3:2:0:0:
169,123,371208,2,0,L|142:208,1,90,0|10,0:0|3:2,0:0:0:0:
227,347,371439,86,0,L|200:262,1,90,0|2,0:0|3:2,0:0:0:0:
61,227,371670,1,0,0:0:0:0:
61,227,371785,2,0,P|78:264|125:291,1,90,10|0,3:2|0:0,0:0:0:0:
284,229,372016,1,2,3:2:0:0:
284,229,372131,2,0,L|376:236,1,90,0|10,0:0|3:2,0:0:0:0:
412,365,372362,1,0,0:0:0:0:
412,365,372477,70,0,L|320:358,1,90,4|0,3:2|0:0,0:0:0:0:
417,166,372708,2,0,P|456:219|450:273,1,90,10|0,3:2|0:0,0:0:0:0:
339,169,372939,1,2,3:2:0:0:
339,169,373054,2,0,P|365:108|415:86,1,90,0|10,0:0|3:2,0:0:0:0:
502,26,373285,70,0,L|412:19,1,90,0|6,0:0|3:2,0:0:0:0:
293,102,373516,1,0,0:0:0:0:
293,102,373631,2,0,L|382:95,1,90,10|0,3:2|0:0,0:0:0:0:
258,20,373862,1,2,3:2:0:0:
206,92,373977,1,0,0:0:0:0:
238,174,374093,1,10,3:2:0:0:
325,185,374209,86,0,L|308:304,1,90,0|6,0:0|3:2,0:0:0:0:
295,349,374438,1,0,0:0:0:0:
226,381,374554,1,10,3:2:0:0:
163,338,374669,1,0,0:0:0:0:
168,262,374784,69,6,3:2:0:0:
243,217,374900,1,0,0:0:0:0:
247,127,375016,1,0,0:0:0:0:
171,84,375131,1,0,0:0:0:0:
168,171,375247,69,6,3:2:0:0:
256,192,375304,12,0,376054,0:0:0:0:
168,262,376170,38,0,L|183:332,7,45,2|2|2|2|2|2|2|2,3:0|3:0|3:0|3:0|3:0|3:0|3:0|3:0,0:0:0:0:
98,211,376631,2,0,L|111:149,7,33.7500012874604,8|8|8|8|8|8|8|8,3:0|3:0|3:0|3:0|3:0|3:0|3:0|3:0,0:0:0:0:
126,103,377093,1,4,3:2:0:0:
144,113,384083,117,8,0:0:0:0:
192,280,384231,1,2,3:2:0:0:
368,113,384528,37,8,0:0:0:0:
320,280,384676,1,2,3:2:0:0:
121,97,384974,53,8,0:0:0:0:
179,297,385122,1,2,3:2:0:0:
390,97,385419,5,8,0:0:0:0:
332,297,385567,1,2,3:2:0:0:
94,78,385865,37,8,0:0:0:0:
163,318,386013,1,2,3:0:0:0:
163,318,386088,1,2,3:0:0:0:
163,318,386162,1,8,3:0:0:0:
417,78,386310,53,8,0:0:0:0:
417,78,387350,6,0,P|400:26|357:69,1,135,0|0,3:0|0:0,0:0:0:0:
373,142,387647,38,0,P|385:204|331:275,1,107.999996704102,4|0,3:2|0:0,0:0:0:0:
185,200,387944,2,0,L|293:189,1,107.999996704102,10|0,3:2|0:0,0:0:0:0:
456,270,388241,1,2,3:2:0:0:
292,281,388390,1,0,0:0:0:0:
373,142,388538,1,10,3:2:0:0:
352,351,388687,54,0,P|280:373|221:334,1,107.999996704102,0|2,0:0|3:2,0:0:0:0:
173,169,388984,1,0,0:0:0:0:
79,305,389132,1,10,3:2:0:0:
292,281,389281,1,0,0:0:0:0:
169,153,389429,1,2,3:2:0:0:
194,365,389578,2,0,L|201:234,1,107.999996704102,0|10,0:0|3:2,0:0:0:0:
74,96,389875,5,0,0:0:0:0:
74,96,390023,2,0,L|81:227,1,107.999996704102,2|0,3:2|0:0,0:0:0:0:
292,281,390320,2,0,L|297:173,1,107.999996704102,10|0,3:2|0:0,0:0:0:0:
307,20,390617,1,2,3:2:0:0:
197,157,390766,2,0,P|244:180|301:170,1,107.999996704102,0|10,0:0|3:2,0:0:0:0:
414,28,391063,38,0,L|282:18,1,107.999996704102,0|2,0:0|3:2,0:0:0:0:
378,214,391360,2,0,L|510:204,1,107.999996704102,0|10,0:0|3:2,0:0:0:0:
297,172,391657,2,0,P|292:244|341:297,1,107.999996704102,0|2,0:0|3:2,0:0:0:0:
486,345,391954,2,0,P|445:310|393:305,1,107.999996704102,0|10,0:0|3:2,0:0:0:0:
214,340,392251,1,0,0:0:0:0:
378,214,392400,54,0,L|387:104,1,107.999996704102,6|0,3:2|0:0,0:0:0:0:
188,49,392697,2,0,L|197:159,1,107.999996704102,10|0,3:2|0:0,0:0:0:0:
214,340,392994,1,2,3:2:0:0:
297,172,393142,1,0,0:0:0:0:
331,332,393291,1,10,3:2:0:0:
168,254,393439,6,0,L|41:252,1,107.999996704102,0|2,0:0|3:2,0:0:0:0:
196,156,393736,1,0,0:0:0:0:
263,260,393885,1,10,3:2:0:0:
254,93,394033,2,0,P|179:73|128:99,1,107.999996704102,0|2,0:0|3:2,0:0:0:0:
11,198,394330,1,0,0:0:0:0:
196,156,394479,1,10,3:2:0:0:
61,91,394627,1,0,3:2:0:0:
120,288,394776,38,0,P|198:304|263:258,1,161.999995056153,12|0,3:2|0:0,0:0:0:0:
297,188,395073,1,0,3:0:0:0:
120,288,395221,54,0,P|213:307|291:252,1,175.499991966248,12|0,3:2|0:0,0:0:0:0:
311,196,395518,1,0,3:0:0:0:
120,288,395667,6,0,P|232:311|325:244,1,188.999994232178,12|0,3:2|0:0,0:0:0:0:
324,207,395964,1,0,3:0:0:0:
120,288,396112,38,0,P|254:315|356:250,1,202.500007724762,12|0,3:2|0:0,0:0:0:0:
337,218,396409,1,8,3:2:0:0:
204,28,396558,1,8,0:0:0:0:
190,52,396632,1,8,0:0:0:0:
184,80,396706,1,8,0:0:0:0:
186,108,396780,1,8,0:0:0:0:
197,134,396855,53,8,3:2:0:0:
227,108,396929,1,8,3:2:0:0:
265,95,397003,1,8,3:2:0:0:
305,96,397077,1,8,3:2:0:0:
342,110,397152,6,0,L|333:258,1,107.999996704102,4|0,3:2|0:0,0:0:0:0:
120,288,397449,2,0,L|111:139,1,107.999996704102,10|0,3:2|0:0,0:0:0:0:
287,296,397746,1,2,3:2:0:0:
202,332,397895,1,0,0:0:0:0:
296,204,398043,1,10,3:2:0:0:
394,302,398192,38,0,L|273:295,1,107.999996704102,0|2,0:0|3:2,0:0:0:0:
209,174,398489,1,0,0:0:0:0:
296,204,398637,1,10,3:2:0:0:
155,250,398786,1,0,0:0:0:0:
316,113,398934,1,2,3:2:0:0:
286,295,399083,1,0,0:0:0:0:
209,174,399231,1,10,3:2:0:0:
384,227,399380,53,0,0:0:0:0:
384,227,399454,1,0,0:0:0:0:
384,227,399528,2,0,L|373:358,1,107.999996704102,2|0,3:2|0:0,0:0:0:0:
209,174,399825,2,0,L|220:305,1,107.999996704102,10|0,3:2|0:0,0:0:0:0:
281,115,400122,1,2,3:2:0:0:
121,145,400271,1,0,0:0:0:0:
295,207,400419,1,10,3:2:0:0:
111,252,400568,6,0,L|122:121,1,107.999996704102,0|2,0:0|3:2,0:0:0:0:
271,7,400865,2,0,L|282:138,1,107.999996704102,0|10,0:0|3:2,0:0:0:0:
45,94,401162,2,0,P|104:56|164:65,1,107.999996704102,0|2,0:0|3:2,0:0:0:0:
294,207,401459,1,0,0:0:0:0:
120,144,401607,1,10,3:2:0:0:
280,114,401756,37,0,0:0:0:0:
280,114,401830,1,0,0:0:0:0:
280,114,401905,2,0,L|411:103,1,107.999996704102,6|0,3:2|0:0,0:0:0:0:
325,290,402202,2,0,L|194:279,1,107.999996704102,10|0,3:2|0:0,0:0:0:0:
379,215,402499,1,2,3:2:0:0:
416,301,402647,1,0,0:0:0:0:
287,206,402796,1,10,3:2:0:0:
469,227,402944,54,0,P|460:174|424:135,1,107.999996704102,0|2,0:0|3:2,0:0:0:0:
230,127,403241,2,0,P|281:145|333:134,1,107.999996704102,0|10,0:0|3:2,0:0:0:0:
463,22,403538,1,0,0:0:0:0:
285,54,403687,1,2,3:2:0:0:
379,215,403835,1,0,0:0:0:0:
424,135,403984,1,10,3:2:0:0:
262,168,404132,1,0,3:2:0:0:
371,376,404281,6,0,L|378:212,1,161.999995056153,12|0,3:2|0:0,0:0:0:0:
424,135,404578,1,0,3:0:0:0:
269,6,404726,38,0,L|261:169,1,161.999995056153,12|0,3:2|0:0,0:0:0:0:
216,247,405023,1,0,3:0:0:0:
371,376,405172,54,0,L|378:212,1,161.999995056153,12|0,3:2|0:0,0:0:0:0:
424,135,405469,1,0,3:0:0:0:
216,247,405617,6,0,P|169:272|117:265,1,107.999996704102,12|0,3:2|0:0,0:0:0:0:
88,72,405914,1,0,3:2:0:0:
267,118,406063,1,10,3:2:0:0:
154,178,406211,1,0,3:0:0:0:
191,16,406360,1,10,3:2:0:0:
242,208,406508,1,0,3:0:0:0:
390,33,406657,38,0,L|283:26,1,107.999996704102,4|0,3:2|0:0,0:0:0:0:
438,178,406954,2,0,L|331:186,1,107.999996704102,10|0,3:2|0:0,0:0:0:0:
138,205,407251,1,2,3:2:0:0:
250,131,407400,1,0,0:0:0:0:
207,312,407548,1,10,3:2:0:0:
158,113,407697,54,0,P|196:58|255:38,1,107.999996704102,0|2,0:0|3:2,0:0:0:0:
438,178,407994,1,0,3:0:0:0:
250,131,408142,1,10,3:2:0:0:
374,50,408291,1,8,3:2:0:0:
374,50,408365,1,8,3:2:0:0:
374,50,408439,1,8,3:2:0:0:
414,265,408588,1,0,3:0:0:0:
458,90,408736,1,0,3:0:0:0:
350,196,408885,1,0,3:0:0:0:
491,214,409033,6,0,P|424:173|350:197,1,161.999995056153,12|0,3:2|0:0,0:0:0:0:
285,273,409330,1,0,3:0:0:0:
287,117,409479,38,0,B|265:172|265:172|294:319,1,161.999995056153,12|0,3:2|0:0,0:0:0:0:
366,316,409776,1,0,3:0:0:0:
193,273,409924,54,0,L|160:105,1,161.999995056153,12|0,3:2|0:0,0:0:0:0:
144,25,410221,1,0,3:0:0:0:
60,165,410370,5,12,3:2:0:0:
287,117,410518,1,0,3:0:0:0:
63,71,410667,1,0,3:0:0:0:
234,43,410815,37,8,3:2:0:0:
108,242,410964,1,0,3:0:0:0:
144,25,411112,1,8,3:2:0:0:
292,279,411261,1,4,0:0:0:0:
154,221,426010,118,0,P|137:263|209:227,1,180,0|0,3:0|0:0,0:0:0:0:
136,41,427057,1,0,0:0:0:0:
136,41,427406,2,0,L|154:226,1,180,0|0,3:0|0:0,0:0:0:0:
374,161,428452,1,0,0:0:0:0:
374,161,428801,2,0,P|303:186|228:109,1,180,0|0,3:0|0:0,0:0:0:0:
461,120,429847,1,0,0:0:0:0:
461,120,430196,2,0,L|457:216,1,90,0|0,3:0|0:0,0:0:0:0:
386,340,430894,2,0,L|382:244,1,90,8|0,3:2|0:0,0:0:0:0:
230,122,431592,70,0,P|180:108|120:129,2,90,0|0|8,3:0|0:0|0:0,0:0:0:0:
217,283,432638,1,0,0:0:0:0:
217,283,432987,2,0,P|189:248|180:205,1,90,0|0,3:0|0:0,0:0:0:0:
324,133,433685,2,0,P|308:175|275:205,1,90,8|0,3:2|0:0,0:0:0:0:
89,190,434382,69,0,3:0:0:0:
230,122,434731,1,0,0:0:0:0:
217,283,435080,2,0,L|214:364,2,45,8|0|0,0:0|0:0|0:0,0:0:0:0:
84,100,435778,2,0,L|89:196,1,90,0|0,3:0|0:0,0:0:0:0:
173,59,436475,2,0,P|142:22|90:6,1,90,8|0,0:0|0:0,0:0:0:0:
167,158,437173,85,0,3:0:0:0:
331,176,437522,1,0,3:0:0:0:
259,21,437871,2,0,L|256:119,1,90,8|0,3:2|3:0,0:0:0:0:
259,295,438568,69,0,3:0:0:0:
89,308,438917,1,0,3:0:0:0:
167,158,439266,2,0,L|170:256,1,90,8|0,0:0|0:0,0:0:0:0:
375,242,439964,69,0,3:0:0:0:
301,209,440138,1,8,0:0:0:0:
259,295,440313,2,0,L|323:289,1,45,0|0,3:0|0:0,0:0:0:0:
366,161,440661,2,0,P|316:129|270:134,1,90,8|0,0:0|3:2,0:0:0:0:
169,247,441359,1,8,0:0:0:0:
169,247,441708,86,0,L|163:307,1,45,2|0,0:3|0:3,0:0:0:0:
10,252,442057,2,0,L|6:208,1,45,2|2,0:3|0:3,0:0:0:0:
74,331,442406,1,8,0:3:0:0:
245,208,442754,70,0,P|284:190|330:192,1,62.9999980773926,4|0,0:0|0:0,0:0:0:0:
346,309,443103,2,0,P|326:285|300:269,1,62.9999980773926,0|0,3:0|0:0,0:0:0:0:
140,228,443452,1,10,0:0:0:0:
140,228,443801,70,0,P|146:259|166:284,1,62.9999980773926,0|0,3:0|0:0,0:0:0:0:
243,161,444150,2,0,P|213:151|183:157,1,62.9999980773926,2|0,3:2|0:0,0:0:0:0:
247,286,444499,2,0,P|270:264|282:235,1,62.9999980773926,0|0,3:0|0:0,0:0:0:0:
261,84,444847,1,10,0:0:0:0:
261,84,445196,2,0,L|336:79,1,62.9999980773926,0|0,3:0|0:0,0:0:0:0:
419,207,445545,86,0,P|365:161|297:178,1,125.999996154785,2|0,3:2|3:0,0:0:0:0:
164,291,446243,2,0,P|125:296|91:282,1,62.9999980773926,10|0,0:0|0:0,0:0:0:0:
51,134,446592,2,0,P|108:160|137:215,1,125.999996154785,0|2,3:0|3:2,0:0:0:0:
340,305,447289,70,0,L|346:242,1,62.9999980773926,0|0,3:0|0:0,0:0:0:0:
352,112,447638,1,10,0:0:0:0:
400,177,447813,1,0,0:0:0:0:
272,213,447987,2,0,L|278:150,1,62.9999980773926,0|0,3:0|0:0,0:0:0:0:
459,119,448336,2,0,B|480:161|480:161|467:259,1,125.999996154785,2|0,3:2|3:0,0:0:0:0:
122,162,449033,38,0,P|149:142|202:142,1,62.9999980773926,10|0,0:0|0:0,0:0:0:0:
235,238,449382,2,0,P|208:221|178:217,1,62.9999980773926,0|0,3:0|0:0,0:0:0:0:
132,338,449731,2,0,P|159:323|179:299,1,62.9999980773926,2|0,3:2|0:0,0:0:0:0:
95,192,450080,2,0,P|93:223|105:252,1,62.9999980773926,0|0,3:0|0:0,0:0:0:0:
235,238,450429,1,10,0:0:0:0:
323,325,450778,70,0,L|235:319,1,62.9999980773926,0|0,3:0|0:0,0:0:0:0:
363,255,451126,2,0,L|430:252,1,62.9999980773926,2|0,3:2|0:0,0:0:0:0:
323,185,451475,2,0,L|256:182,1,62.9999980773926,0|0,3:0|0:0,0:0:0:0:
363,115,451824,1,10,0:0:0:0:
119,112,452173,70,0,L|129:187,1,62.9999980773926,0|0,3:0|0:0,0:0:0:0:
261,160,452522,2,0,L|203:136,1,62.9999980773926,2|0,3:2|0:0,0:0:0:0:
148,259,452871,2,0,L|197:220,1,62.9999980773926,0|0,3:0|0:0,0:0:0:0:
342,222,453220,1,10,0:0:0:0:
269,260,453394,1,8,0:0:0:0:
261,103,453568,1,0,3:0:0:0:
341,138,453743,1,0,0:0:0:0:
197,220,453917,86,0,L|112:214,1,62.9999980773926,2|0,3:2|0:0,0:0:0:0:
143,81,454266,2,0,L|171:138,1,62.9999980773926,0|0,3:0|0:0,0:0:0:0:
341,138,454615,2,0,L|368:81,1,62.9999980773926,10|0,0:0|0:0,0:0:0:0:
377,215,454964,2,0,L|315:220,1,62.9999980773926,0|0,3:0|0:0,0:0:0:0:
246,344,455313,2,0,L|308:339,1,62.9999980773926,2|0,3:2|0:0,0:0:0:0:
176,219,455661,2,0,L|114:215,1,62.9999980773926,0|0,3:0|0:0,0:0:0:0:
261,103,456010,1,10,0:0:0:0:
261,103,456359,70,0,P|311:109|334:139,1,62.9999980773926,0|0,3:0|0:0,0:0:0:0:
396,265,456708,1,2,3:2:0:0:
396,265,457057,70,0,P|383:294|341:335,1,62.9999980773926,0|0,3:0|0:0,0:0:0:0:
251,255,457406,2,0,P|282:250|313:255,1,62.9999980773926,10|0,0:0|0:0,0:0:0:0:
215,329,457754,2,0,L|71:324,1,125.999996154785,0|2,3:0|3:2,0:0:0:0:
198,106,458452,2,0,L|280:101,1,62.9999980773926,0|0,3:0|0:0,0:0:0:0:
160,32,458801,1,10,0:0:0:0:
118,104,458975,1,0,0:0:0:0:
223,29,459150,2,0,L|141:34,1,62.9999980773926,0|0,3:0|0:0,0:0:0:0:
31,191,459499,86,0,L|186:181,1,125.999996154785,2|0,3:2|3:0,0:0:0:0:
337,310,460196,2,0,P|304:302|275:274,1,62.9999980773926,10|0,0:0|0:0,0:0:0:0:
148,307,460545,2,0,P|177:297|199:275,1,62.9999980773926,0|0,3:0|0:0,0:0:0:0:
239,92,460894,70,0,B|264:121|264:121|247:225,1,125.999996154785,2|0,3:2|3:0,0:0:0:0:
143,84,461592,2,0,P|104:79|70:93,1,62.9999980773926,10|0,0:0|0:0,0:0:0:0:
84,214,461941,2,0,P|104:191|113:161,1,62.9999980773926,0|0,3:0|0:0,0:0:0:0:
0,97,462289,1,2,3:2:0:0:
254,302,462638,70,0,L|329:295,1,62.9999980773926,0|0,3:0|0:0,0:0:0:0:
378,224,462987,2,0,L|303:217,1,62.9999980773926,10|0,0:0|0:0,0:0:0:0:
254,146,463336,2,0,L|329:139,1,62.9999980773926,0|8,3:0|0:0,0:0:0:0:
378,68,463685,2,0,L|303:61,1,62.9999980773926,2|0,3:2|0:0,0:0:0:0:
404,145,464033,85,8,3:2:0:0:
458,83,464208,1,8,3:2:0:0:
431,222,464382,1,8,0:0:0:0:
484,161,464557,1,0,0:0:0:0:
458,299,464731,1,0,3:0:0:0:
316,140,465080,70,0,P|276:127|231:134,1,72,6|0,3:2|0:0,0:0:0:0:
211,248,465429,2,0,P|235:222|268:207,1,72,0|0,3:0|0:0,0:0:0:0:
375,284,465778,1,10,0:0:0:0:
121,221,466126,70,0,L|128:293,1,72,0|0,3:0|0:0,0:0:0:0:
218,176,466475,2,0,L|210:247,1,72,2|0,3:2|0:0,0:0:0:0:
291,107,466824,2,0,L|298:178,1,72,0|0,3:0|0:0,0:0:0:0:
378,37,467173,1,10,0:0:0:0:
331,260,467522,86,0,P|296:266|259:256,1,72,0|0,3:0|0:0,0:0:0:0:
337,127,467871,2,0,P|360:154|370:189,1,72,2|0,3:2|0:0,0:0:0:0:
220,188,468220,2,0,P|232:154|259:127,1,72,0|0,3:0|0:0,0:0:0:0:
411,86,468568,2,0,L|498:76,1,72,10|0,0:0|0:0,0:0:0:0:
474,274,468917,2,0,L|330:259,1,144,0|2,3:0|3:2,0:0:0:0:
287,118,469615,70,0,P|313:152|318:200,1,72,0|0,3:0|0:0,0:0:0:0:
167,171,469964,2,0,P|179:138|205:113,1,72,10|0,0:0|0:0,0:0:0:0:
275,249,470313,2,0,P|232:254|188:234,1,72,0|0,3:0|0:0,0:0:0:0:
319,179,470661,2,0,P|359:246|319:320,1,144,2|0,3:2|3:0,0:0:0:0:
133,277,471359,70,0,P|181:269|215:232,1,72,10|0,0:0|0:0,0:0:0:0:
338,303,471708,2,0,P|303:293|276:270,1,72,0|0,3:0|0:0,0:0:0:0:
333,151,472057,2,0,L|344:221,1,72,2|0,3:2|0:0,0:0:0:0:
139,191,472406,2,0,L|181:131,1,72,0|0,3:0|0:0,0:0:0:0:
263,66,472754,1,10,0:0:0:0:
263,66,473103,86,0,L|357:54,1,72,0|0,3:0|0:0,0:0:0:0:
475,169,473452,2,0,L|313:148,1,144,2|0,3:2|3:0,0:0:0:0:
124,66,474150,70,0,P|109:98|112:137,1,72,10|0,0:0|0:0,0:0:0:0:
31,150,474499,2,0,P|44:184|73:209,1,72,0|0,3:0|0:0,0:0:0:0:
25,276,474847,2,0,P|57:291|96:288,1,72,2|0,3:2|0:0,0:0:0:0:
109,369,475196,2,0,P|142:356|167:327,1,72,0|0,3:0|0:0,0:0:0:0:
111,133,475545,1,10,0:0:0:0:
111,133,475894,2,0,L|188:129,1,62.9999980773926,0|0,3:0|0:0,0:0:0:0:
273,209,476243,70,0,L|196:205,1,62.9999980773926,6|0,3:2|0:0,0:0:0:0:
210,53,476592,2,0,L|273:57,1,62.9999980773926,0|0,3:0|0:0,0:0:0:0:
386,137,476940,1,10,0:0:0:0:
386,137,477289,86,0,P|403:206|388:266,1,125.999996154785,0|2,3:0|3:2,0:0:0:0:
120,258,477987,2,0,P|109:197|125:137,1,125.999996154785,0|10,3:0|0:0,0:0:0:0:
391,258,478685,2,0,L|458:261,1,62.9999980773926,0|0,3:0|0:0,0:0:0:0:
338,195,479034,70,0,L|271:198,1,62.9999980773926,2|0,3:2|0:0,0:0:0:0:
199,316,479383,2,0,P|217:290|225:260,1,62.9999980773926,0|0,3:0|0:0,0:0:0:0:
106,207,479732,2,0,P|120:234|145:255,1,62.9999980773926,10|0,0:0|0:0,0:0:0:0:
225,77,480080,2,0,B|194:96|194:96|183:184,1,125.999996154785,0|2,3:0|3:2,0:0:0:0:
312,372,480778,70,0,P|329:347|335:316,1,62.9999980773926,0|0,3:0|0:0,0:0:0:0:
415,314,481126,2,0,P|409:284|391:258,1,62.9999980773926,10|0,0:0|0:0,0:0:0:0:
446,200,481475,2,0,P|420:183|389:177,1,62.9999980773926,0|8,3:0|3:2,0:0:0:0:
272,322,481824,86,0,L|349:313,1,62.9999980773926,2|0,3:2|0:0,0:0:0:0:
286,199,482173,1,8,0:0:0:0:
227,254,482347,1,8,0:0:0:0:
268,121,482522,1,0,3:0:0:0:
209,176,482696,1,8,0:0:0:0:
250,41,482871,1,0,3:0:0:0:
191,96,483045,1,8,0:0:0:0:
344,154,483220,70,0,P|350:124|345:93,1,62.9999980773926,2|0,0:0|0:0,0:0:0:0:
227,254,483568,2,0,P|286:224|354:258,1,125.999996154785,0|2,3:0|0:0,0:0:0:0:
212,339,484266,2,0,L|124:337,1,62.9999980773926,0|0,3:0|3:0,0:0:0:0:
90,283,484615,69,4,0:0:0:0:
256,192,484702,12,0,487406,0:0:0:0:
278,357,504293,101,8,0:2:0:0:
260,332,504369,1,0,0:2:0:0:
251,304,504446,1,0,0:2:0:0:
253,274,504523,1,0,0:2:0:0:
265,247,504600,1,8,0:2:0:0:
287,225,504677,1,0,0:2:0:0:
314,213,504755,1,0,0:2:0:0:
337,175,504831,1,0,0:2:0:0:
338,130,504908,1,2,0:2:0:0:
338,130,505369,5,2,0:1:0:0:
365,125,505446,1,2,0:1:0:0:
391,129,505524,21,2,3:2:0:0:
378,97,505601,1,0,0:0:0:0:
355,70,505677,1,8,0:0:0:0:
324,53,505754,1,8,0:0:0:0:
290,47,505831,1,8,0:0:0:0:
255,52,505908,1,8,0:0:0:0:
224,69,505985,6,0,P|143:93|89:37,1,161.999995056153,4|0,0:0|0:0,0:0:0:0:
164,16,506293,69,0,3:0:0:0:
164,16,506370,1,0,3:0:0:0:
164,16,506447,2,0,B|148:128|148:128|103:166,1,161.999995056153,8|0,0:0|0:0,0:0:0:0:
65,224,506755,22,0,P|123:180|221:211,1,161.999995056153,8|0,0:0|0:0,0:0:0:0:
302,293,507062,6,0,B|246:274|246:274|200:286|200:286|148:270,1,161.999995056153,8|0,0:0|0:0,0:0:0:0:
10,362,507370,70,0,L|143:344,1,107.999996704102,4|0,3:2|0:0,0:0:0:0:
205,196,507678,1,10,0:0:0:0:
65,224,507832,1,0,0:0:0:0:
65,224,507908,1,0,0:0:0:0:
65,224,507985,1,2,3:2:0:0:
209,88,508139,2,0,L|203:218,1,107.999996704102,0|10,0:0|3:2,0:0:0:0:
389,254,508447,22,0,P|345:213|281:211,1,107.999996704102,4|0,0:0|0:0,0:0:0:0:
373,354,508755,2,0,L|448:347,1,53.9999983520508,2|0,0:0|0:0,0:0:0:0:
498,320,508908,2,0,L|328:335,1,161.999995056153,10|0,3:2|0:0,0:0:0:0:
226,334,509216,6,0,L|166:329,1,53.9999983520508,2|2,3:0|3:0,0:0:0:0:
145,256,509370,2,0,L|91:260,1,53.9999983520508,2|2,3:0|3:0,0:0:0:0:
24,307,509524,2,0,B|12:273|12:273|22:180,1,107.999996704102,8|4,3:0|3:0,0:0:0:0:
62,121,509755,1,4,3:0:0:0:
62,121,509832,2,0,P|131:80|224:121,1,161.999995056153,4|0,0:0|0:0,0:0:0:0:
142,172,510139,1,10,0:0:0:0:
286,56,510293,2,0,L|277:203,1,107.999996704102,0|2,0:0|3:2,0:0:0:0:
266,339,510601,69,2,3:2:0:0:
416,187,510755,1,8,0:0:0:0:
142,172,510908,1,4,0:0:0:0:
142,172,511216,21,2,3:2:0:0:
286,56,511370,1,8,0:0:0:0:
266,339,511524,1,6,3:2:0:0:
266,339,511832,5,2,3:2:0:0:
416,187,511985,1,8,0:0:0:0:
286,56,512139,2,0,L|152:50,1,107.999996704102,4|0,0:0|0:0,0:0:0:0:
35,193,512447,1,2,3:2:0:0:
246,157,512601,1,10,3:2:0:0:
86,62,512755,1,0,0:0:0:0:
117,259,512908,1,2,3:2:0:0:
178,51,513062,69,0,0:0:0:0:
211,303,513216,1,10,3:2:0:0:
35,193,513370,22,0,P|110:157|201:189,1,161.999995056153,4|0,0:0|0:0,0:0:0:0:
243,231,513678,1,8,0:0:0:0:
286,56,513832,1,8,0:0:0:0:
350,237,513985,2,0,L|208:229,1,107.999996704102,0|8,3:0|0:0,0:0:0:0:
117,259,514293,5,8,0:0:0:0:
100,261,514370,1,8,0:0:0:0:
81,266,514447,2,0,L|70:213,1,53.9999983520508,8|8,3:2|3:2,0:0:0:0:
183,175,514601,2,0,L|194:122,1,53.9999983520508,8|8,3:2|3:2,0:0:0:0:
11,66,514755,2,0,P|83:94|144:47,1,161.999995056153,4|0,0:0|0:0,0:0:0:0:
232,5,515062,70,0,L|386:8,1,125.999996154785,12|0,3:2|3:0,0:0:0:0:
502,159,515370,1,2,3:2:0:0:
348,87,515524,1,0,0:0:0:0:
512,60,515678,1,10,3:2:0:0:
361,171,515832,22,0,B|303:201|303:201|148:167,1,188.999994232178,4|0,0:0|0:0,0:0:0:0:
41,113,516139,5,0,3:0:0:0:
41,113,516216,1,0,3:0:0:0:
41,113,516293,2,0,P|82:59|192:102,1,188.999994232178,10|0,0:0|0:0,0:0:0:0:
119,129,516601,70,0,P|153:70|267:99,1,188.999994232178,8|0,0:0|0:0,0:0:0:0:
198,135,516908,22,0,P|224:72|341:87,1,188.999994232178,8|0,0:0|0:0,0:0:0:0:
283,257,517216,6,0,L|275:132,1,125.999996154785,4|0,3:2|0:0,0:0:0:0:
417,3,517524,1,10,0:0:0:0:
475,155,517678,2,0,P|402:171|346:140,1,125.999996154785,0|2,3:0|3:2,0:0:0:0:
334,1,517985,1,0,3:0:0:0:
484,47,518139,1,10,0:0:0:0:
466,261,518293,70,0,B|370:256|370:256|318:216|318:216|210:208,1,251.999992309571,4|0,0:0|3:0,0:0:0:0:
148,81,518755,22,0,P|160:39|215:108,1,188.999994232178,10|0,0:0|0:0,0:0:0:0:
162,159,519062,6,0,B|122:213|150:267|167:248|201:301|133:369,1,188.999994232178,8|0,0:0|0:0,0:0:0:0:
88,295,519370,70,0,P|155:232|237:281,1,188.999994232178,8|0,0:0|0:0,0:0:0:0:
275,342,519678,22,0,B|352:333|352:333|383:300|383:300|477:289,1,188.999994232178,4|0,3:2|0:0,0:0:0:0:
318,140,519985,6,0,B|293:182|293:182|312:284,1,125.999996154785,10|0,0:0|0:0,0:0:0:0:
411,121,520293,1,0,3:2:0:0:
253,69,520447,1,2,3:2:0:0:
384,214,520601,1,10,3:2:0:0:
346,50,520755,1,4,0:0:0:0:
346,50,521062,69,0,3:0:0:0:
475,193,521216,1,10,3:2:0:0:
192,188,521370,1,4,3:2:0:0:
192,188,521678,21,0,3:0:0:0:
341,340,521832,1,8,0:0:0:0:
130,328,521985,1,8,0:0:0:0:
130,328,522062,1,8,0:0:0:0:
130,328,522139,2,0,L|-35:322,1,125.999996154785,4|0,3:2|0:0,0:0:0:0:
203,255,522447,1,10,0:0:0:0:
69,113,522601,5,8,0:0:0:0:
69,113,522678,1,8,0:0:0:0:
69,113,522755,2,0,L|73:238,1,125.999996154785,2|0,3:2|3:0,0:0:0:0:
236,103,523062,1,10,0:0:0:0:
150,67,523216,1,0,0:0:0:0:
203,255,523370,70,0,P|259:218|329:228,1,125.999996154785,4|0,0:0|0:0,0:0:0:0:
454,320,523678,1,10,0:0:0:0:
471,115,523832,1,8,0:0:0:0:
471,115,523908,1,8,0:0:0:0:
471,115,523985,2,0,L|460:240,1,125.999996154785,2|0,3:2|3:0,0:0:0:0:
325,347,524293,2,0,L|314:221,1,125.999996154785,10|0,3:2|3:0,0:0:0:0:
289,19,524601,21,4,3:2:0:0:
219,171,524755,1,0,3:0:0:0:
396,143,524908,1,10,3:2:0:0:
205,78,525062,1,8,3:2:0:0:
205,78,525139,1,8,3:2:0:0:
205,78,525216,2,0,P|133:120|124:174,1,125.999996154785,2|0,3:2|3:0,0:0:0:0:
120,285,525524,1,10,3:2:0:0:
219,171,525678,1,0,3:2:0:0:
21,203,525832,5,4,3:2:0:0:
219,279,525985,1,0,3:2:0:0:
114,46,526139,1,10,3:2:0:0:
16,282,526293,1,8,0:0:0:0:
16,282,526370,1,8,0:0:0:0:
16,282,526447,2,0,L|142:269,1,125.999996154785,2|2,3:0|3:0,0:0:0:0:
205,78,526755,69,8,3:0:0:0:
291,316,526908,1,8,3:0:0:0:
291,316,527216,22,0,L|302:242,1,62.9999980773926,4|4,3:0|3:0,0:0:0:0:
334,31,527369,1,12,0:0:0:0:
141,104,534423,21,8,0:0:0:0:
141,104,534540,1,8,0:0:0:0:
322,158,534772,1,8,0:0:0:0:
171,236,535005,1,8,0:0:0:0:
236,71,535237,1,8,0:0:0:0:
236,71,535354,1,8,0:0:0:0:
226,347,535586,6,0,P|218:320|222:289,1,45,2|8,3:0|3:0,0:0:0:0:
145,272,535819,2,0,P|158:247|183:228,1,45,8|8,3:0|3:0,0:0:0:0:
140,161,536051,2,0,P|167:153|198:157,1,45,4|4,3:0|3:0,0:0:0:0:
277,216,536284,21,4,0:0:0:0:
215,83,536516,1,2,0:0:0:0:
145,272,536749,101,8,0:0:0:0:
145,272,536865,2,0,P|172:267|203:251,1,53.9999983520508,0|2,0:0|0:0,0:0:0:0:
362,267,537098,2,0,P|311:257|274:210,1,107.999996704102,0|0,0:0|0:0,0:0:0:0:
358,127,537447,2,0,L|352:181,1,53.9999983520508,2|0,0:0|0:0,0:0:0:0:
220,136,537679,2,0,L|214:82,1,53.9999983520508,8|0,0:0|0:0,0:0:0:0:
82,127,537912,2,0,L|76:181,1,53.9999983520508,2|0,0:0|0:0,0:0:0:0:
60,314,538144,85,0,3:0:0:0:
195,255,538377,1,2,0:0:0:0:
22,184,538609,5,8,0:0:0:0:
22,184,538725,2,0,L|77:180,1,53.9999983520508,0|2,0:0|0:0,0:0:0:0:
195,255,538958,2,0,L|140:251,1,53.9999983520508,0|0,0:0|3:0,0:0:0:0:
260,183,539191,2,0,L|314:180,1,53.9999983520508,0|2,0:0|0:0,0:0:0:0:
185,64,539424,22,0,B|169:104|169:104|176:169,1,107.999996704102,0|0,0:0|0:0,0:0:0:0:
199,254,539772,1,2,0:0:0:0:
267,300,539889,1,0,0:0:0:0:
343,260,540005,102,0,L|396:256,1,53.9999983520508,0|0,3:0|0:0,0:0:0:0:
386,122,540237,2,0,L|363:171,1,53.9999983520508,2|0,0:0|0:0,0:0:0:0:
483,228,540470,2,0,L|452:183,1,53.9999983520508,8|0,0:0|0:0,0:0:0:0:
343,315,540703,85,2,0:0:0:0:
343,315,540819,2,0,P|389:290|441:300,1,107.999996704102,0|0,0:0|0:0,0:0:0:0:
291,384,541168,2,0,P|273:364|262:339,1,53.9999983520508,2|0,0:0|0:0,0:0:0:0:
185,347,541400,2,0,P|186:320|196:294,1,53.9999983520508,8|0,0:0|0:0,0:0:0:0:
136,245,541633,2,0,P|156:226|180:215,1,53.9999983520508,2|0,0:0|0:0,0:0:0:0:
308,154,541865,6,0,L|237:146,1,53.9999983520508,0|0,3:0|0:0,0:0:0:0:
135,99,542098,2,0,L|206:91,1,53.9999983520508,2|0,0:0|0:0,0:0:0:0:
308,44,542330,2,0,L|237:36,1,53.9999983520508,8|0,0:0|0:0,0:0:0:0:
95,24,542563,1,2,0:0:0:0:
95,24,542679,2,0,P|68:48|53:88,1,53.9999983520508,0|0,0:0|3:0,0:0:0:0:
135,206,542912,2,0,L|134:88,1,107.999996704102,0|0,0:0|0:0,0:0:0:0:
64,249,543261,21,12,0:0:0:0:
216,234,543493,2,0,L|217:157,1,53.9999983520508,2|0,0:0|0:0,0:0:0:0:
304,88,543726,102,0,P|284:106|259:117,1,53.9999983520508,0|0,3:0|0:0,0:0:0:0:
133,82,543958,2,0,P|158:90|180:106,1,53.9999983520508,2|0,0:0|0:0,0:0:0:0:
293,199,544191,1,8,0:0:0:0:
293,199,544307,2,0,P|320:191|345:177,1,53.9999983520508,0|2,0:0|0:0,0:0:0:0:
435,118,544540,2,0,L|423:264,1,107.999996704102,0|0,0:0|0:0,0:0:0:0:
496,336,544889,86,0,P|487:304|469:276,1,53.9999983520508,2|0,0:0|0:0,0:0:0:0:
367,284,545121,2,0,P|354:307|347:333,1,53.9999983520508,8|0,0:0|0:0,0:0:0:0:
426,225,545354,2,0,L|433:136,1,53.9999983520508,2|0,0:0|0:0,0:0:0:0:
444,33,545586,5,0,3:0:0:0:
353,141,545819,1,2,0:0:0:0:
217,42,546051,21,8,0:0:0:0:
217,42,546168,2,0,L|290:34,1,53.9999983520508,0|2,0:0|0:0,0:0:0:0:
186,124,546400,2,0,L|113:116,1,53.9999983520508,0|0,0:0|3:0,0:0:0:0:
264,216,546633,2,0,B|278:178|278:178|270:112,1,107.999996704102,0|0,0:0|0:0,0:0:0:0:
352,140,546982,102,0,L|360:194,1,53.9999983520508,8|0,0:0|0:0,0:0:0:0:
375,302,547214,1,2,0:0:0:0:
312,355,547330,1,0,0:0:0:0:
233,326,547447,2,0,B|187:323|187:323|158:332|158:332|102:329,1,107.999996704102,0|2,3:0|0:0,0:0:0:0:
296,274,547912,86,0,L|303:220,1,53.9999983520508,8|0,0:0|0:0,0:0:0:0:
319,113,548144,1,2,0:0:0:0:
256,60,548260,1,0,0:0:0:0:
177,89,548377,2,0,B|131:92|131:92|102:83|102:83|46:86,1,107.999996704102,0|2,3:0|0:0,0:0:0:0:
101,191,548842,6,0,P|133:170|168:164,1,53.9999983520508,8|0,0:0|0:0,0:0:0:0:
271,191,549075,2,0,P|246:181|225:165,1,53.9999983520508,2|0,0:0|0:0,0:0:0:0:
177,89,549307,21,0,3:0:0:0:
101,44,549423,1,0,0:0:0:0:
19,223,549656,101,0,0:0:0:0:
101,191,549772,1,8,0:0:0:0:
183,229,549889,1,0,3:0:0:0:
16,312,550121,85,0,3:0:0:0:
97,345,550237,2,0,L|178:338,1,53.9999983520508,8|0,0:0|0:0,0:0:0:0:
236,232,550470,2,0,L|183:229,1,53.9999983520508,2|2,3:0|3:0,0:0:0:0:
297,336,550703,2,0,L|350:332,1,53.9999983520508,8|8,3:0|3:0,0:0:0:0:
451,241,550935,2,0,L|398:238,1,53.9999983520508,4|4,3:0|3:0,0:0:0:0:
236,232,551168,5,4,0:0:0:0:
411,159,551400,1,2,0:0:0:0:
304,31,551633,21,8,0:0:0:0:
245,93,551749,2,0,L|248:146,1,53.9999983520508,0|2,0:0|0:0,0:0:0:0:
256,330,551982,2,0,P|204:303|134:326,1,107.999996704102,0|0,0:0|0:0,0:0:0:0:
33,372,552331,2,0,L|29:319,1,53.9999983520508,2|0,0:0|0:0,0:0:0:0:
102,205,552563,2,0,L|98:258,1,53.9999983520508,8|0,0:0|0:0,0:0:0:0:
24,170,552796,2,0,L|20:117,1,53.9999983520508,2|0,0:0|0:0,0:0:0:0:
114,15,553028,101,0,3:0:0:0:
203,111,553261,1,2,0:0:0:0:
320,8,553493,85,8,0:0:0:0:
320,8,553609,2,0,L|324:63,1,53.9999983520508,0|2,0:0|0:0,0:0:0:0:
413,189,553842,2,0,L|406:82,1,107.999996704102,0|0,0:0|0:0,0:0:0:0:
360,257,554191,1,2,0:0:0:0:
360,257,554307,2,0,P|418:275|482:245,1,107.999996704102,0|0,0:0|0:0,0:0:0:0:
329,179,554656,1,2,0:0:0:0:
274,246,554772,1,0,0:0:0:0:
192,222,554889,6,0,L|115:214,1,53.9999983520508,0|0,3:0|0:0,0:0:0:0:
49,300,555121,2,0,L|103:295,1,53.9999983520508,2|0,0:0|0:0,0:0:0:0:
76,111,555354,2,0,B|56:136|56:136|61:212,1,107.999996704102,8|2,0:0|0:0,0:0:0:0:
219,141,555703,21,0,0:0:0:0:
219,141,555819,2,0,L|214:88,1,53.9999983520508,0|0,3:0|0:0,0:0:0:0:
81,57,556051,2,0,L|76:111,1,53.9999983520508,2|0,0:0|0:0,0:0:0:0:
293,93,556284,2,0,L|287:39,1,53.9999983520508,8|0,0:0|0:0,0:0:0:0:
137,174,556516,2,0,L|131:227,1,53.9999983520508,2|0,0:0|0:0,0:0:0:0:
132,338,556749,102,0,B|159:366|159:366|256:358,1,107.999996704102,0|2,3:0|0:0,0:0:0:0:
294,276,557098,2,0,L|176:289,1,107.999996704102,0|0,0:0|0:0,0:0:0:0:
273,201,557447,2,0,B|341:195|341:195|368:223,1,107.999996704102,2|0,0:0|3:0,0:0:0:0:
424,290,557796,1,0,0:0:0:0:
494,241,557912,1,2,0:0:0:0:
485,155,558028,1,0,0:0:0:0:
410,114,558144,2,0,L|329:111,1,53.9999983520508,8|0,0:0|0:0,0:0:0:0:
271,108,558377,1,2,0:0:0:0:
184,107,558493,1,0,0:0:0:0:
226,33,558609,85,0,3:0:0:0:
227,183,558842,1,2,0:0:0:0:
311,30,559075,5,8,0:0:0:0:
311,30,559191,2,0,L|364:31,1,53.9999983520508,0|2,0:0|0:0,0:0:0:0:
503,147,559423,2,0,P|450:110|373:142,1,107.999996704102,0|0,0:0|0:0,0:0:0:0:
254,252,559772,2,0,P|272:232|283:207,1,53.9999983520508,2|0,0:0|0:0,0:0:0:0:
360,215,560004,2,0,P|359:188|349:162,1,53.9999983520508,8|0,0:0|0:0,0:0:0:0:
409,113,560237,2,0,P|389:94|365:83,1,53.9999983520508,2|0,0:0|0:0,0:0:0:0:
110,71,560470,22,0,L|115:124,1,53.9999983520508,0|0,3:0|0:0,0:0:0:0:
200,188,560703,2,0,L|194:135,1,53.9999983520508,2|0,0:0|0:0,0:0:0:0:
129,220,560935,1,8,0:0:0:0:
129,220,561051,2,0,L|134:273,1,53.9999983520508,0|2,0:0|0:0,0:0:0:0:
219,342,561284,102,0,L|213:288,1,53.9999983520508,0|0,0:0|3:0,0:0:0:0:
51,252,561516,2,0,L|62:359,1,107.999996704102,0|0,0:0|0:0,0:0:0:0:
270,228,561865,2,0,P|231:210|169:218,1,53.9999983520508,8|0,0:0|0:0,0:0:0:0:
159,293,562098,2,0,L|229:286,1,53.9999983520508,2|0,0:0|0:0,0:0:0:0:
264,128,562330,86,0,L|156:141,1,107.999996704102,0|2,3:0|0:0,0:0:0:0:
328,76,562796,2,0,P|343:103|336:160,1,53.9999983520508,8|0,0:0|0:0,0:0:0:0:
326,252,563028,2,0,P|313:229|309:203,1,53.9999983520508,2|0,0:0|0:0,0:0:0:0:
500,208,563261,6,0,L|392:195,1,107.999996704102,0|2,3:0|0:0,0:0:0:0:
210,134,563726,2,0,L|277:126,1,53.9999983520508,8|0,0:0|0:0,0:0:0:0:
188,218,563958,2,0,L|121:210,1,53.9999983520508,2|0,0:0|0:0,0:0:0:0:
99,92,564191,21,0,3:0:0:0:
99,92,564307,2,0,P|124:117|137:160,1,53.9999983520508,0|0,0:0|0:0,0:0:0:0:
73,291,564540,101,0,0:0:0:0:
0,246,564656,1,8,0:0:0:0:
0,159,564772,2,0,L|67:151,1,53.9999983520508,0|0,3:0|0:0,0:0:0:0:
254,272,565005,1,0,3:0:0:0:
254,272,565121,86,0,L|307:265,1,53.9999983520508,8|0,0:0|0:0,0:0:0:0:
475,328,565354,1,2,3:0:0:0:
472,240,565470,1,2,3:0:0:0:
390,337,565586,2,0,L|336:343,1,53.9999983520508,8|8,3:0|3:0,0:0:0:0:
200,265,565819,2,0,L|253:271,1,53.9999983520508,0|0,3:0|3:0,0:0:0:0:
138,326,566051,6,0,P|116:272|128:217,1,107.999996704102,4|2,0:0|0:0,0:0:0:0:
284,141,566516,2,0,L|280:204,1,53.9999983520508,8|0,0:0|0:0,0:0:0:0:
124,224,566749,2,0,L|120:161,1,53.9999983520508,2|0,0:0|0:0,0:0:0:0:
203,78,566982,2,0,L|199:141,1,53.9999983520508,2|0,0:0|3:0,0:0:0:0:
187,282,567214,21,8,0:0:0:0:
106,308,567331,1,8,0:0:0:0:
70,228,567447,2,0,L|145:222,1,53.9999983520508,2|0,3:0|0:0,0:0:0:0:
240,286,567679,2,0,L|165:280,1,53.9999983520508,2|0,3:0|0:0,0:0:0:0:
303,227,567912,101,8,0:0:0:0:
303,227,568028,1,8,0:0:0:0:
275,368,568261,1,8,0:0:0:0:
218,202,568493,1,8,0:0:0:0:
388,260,568726,1,8,0:0:0:0:
388,260,568842,1,8,0:0:0:0:
371,86,569191,85,0,3:0:0:0:
371,86,569307,2,0,P|344:32|318:102,1,161.999995056153,0|0,3:0|0:0,0:0:0:0:
337,68,569772,5,4,0:0:0:0:
47,105,579264,38,0,L|55:206,1,101.250003862381,0|0,0:0|0:0,0:0:0:0:
65,284,579571,1,2,0:0:0:0:
153,157,579725,37,2,0:0:0:0:
178,321,579879,1,2,0:0:0:0:
228,135,580033,37,2,0:0:0:0:
178,321,580187,1,2,0:0:0:0:
76,174,580341,21,2,0:0:0:0:
178,321,580495,1,2,0:0:0:0:
228,135,580648,38,0,L|318:126,1,90,4|0,3:2|0:0,0:0:0:0:
478,113,580956,1,10,3:2:0:0:
291,54,581110,1,0,0:0:0:0:
399,143,581264,2,0,P|394:99|370:62,1,90,2|0,3:2|3:2,0:0:0:0:
228,135,581571,1,10,3:2:0:0:
311,233,581725,70,0,B|322:132|322:132|300:173,1,135,0|0,0:0|0:0,0:0:0:0:
228,213,582033,2,0,P|185:227|141:219,1,90,0|10,3:2|3:2,0:0:0:0:
167,18,582341,2,0,B|186:50|186:50|179:148,1,135,0|0,0:0|0:0,0:0:0:0:
141,219,582648,1,0,3:2:0:0:
311,233,582802,2,0,L|402:225,1,90,10|0,3:2|0:0,0:0:0:0:
246,180,583110,86,0,L|156:189,1,90,2|0,3:2|0:0,0:0:0:0:
0,209,583418,1,10,3:2:0:0:
132,111,583571,1,0,0:0:0:0:
109,253,583726,2,0,P|82:212|82:158,1,90,2|0,3:2|3:2,0:0:0:0:
251,45,584033,2,0,L|245:192,1,135,10|0,3:2|0:0,0:0:0:0:
242,269,584341,70,0,L|247:141,1,90,2|0,3:2|3:2,0:0:0:0:
171,139,584571,1,0,0:0:0:0:
171,139,584648,1,10,3:2:0:0:
398,325,584802,2,0,L|403:190,1,135,0|0,0:0|0:0,0:0:0:0:
404,113,585110,1,0,3:2:0:0:
300,164,585264,1,10,3:2:0:0:
403,190,585418,1,0,0:0:0:0:
212,71,585571,69,2,3:2:0:0:
247,224,585725,1,0,0:0:0:0:
144,146,585879,1,10,3:2:0:0:
296,74,586033,2,0,L|300:164,1,90,0|2,0:0|3:2,0:0:0:0:
302,344,586341,1,0,3:2:0:0:
247,224,586495,1,10,3:2:0:0:
437,292,586648,1,0,0:0:0:0:
382,172,586802,85,2,3:2:0:0:
232,306,586956,1,0,3:2:0:0:
384,353,587110,1,10,3:2:0:0:
250,134,587264,2,0,L|246:223,1,90,0|2,0:0|3:2,0:0:0:0:
376,81,587571,1,0,3:2:0:0:
297,70,587725,1,10,3:2:0:0:
328,143,587879,1,0,0:0:0:0:
348,8,588033,70,0,P|276:-6|228:34,1,135,2|0,3:2|0:0,0:0:0:0:
197,101,588341,1,10,3:2:0:0:
297,70,588495,1,0,0:0:0:0:
152,21,588648,1,2,3:2:0:0:
165,174,588802,1,0,3:2:0:0:
230,29,588956,1,10,3:2:0:0:
269,233,589110,2,0,L|263:144,1,90,0|2,0:0|3:2,0:0:0:0:
304,308,589418,69,0,3:2:0:0:
135,249,589571,1,10,3:2:0:0:
350,244,589725,85,0,0:0:0:0:
98,320,589878,1,2,3:2:0:0:
382,316,590033,69,0,3:2:0:0:
58,250,590187,2,0,L|1:245,1,45,10|0,3:2|0:0,0:0:0:0:
176,315,590341,2,0,L|233:310,1,45,0|0,0:0|0:0,0:0:0:0:
60,118,590495,70,0,B|46:155|46:155|58:250,1,135,6|0,3:2|0:0,0:0:0:0:
132,87,590802,2,0,P|82:41|38:43,1,90,10|0,3:2|0:0,0:0:0:0:
123,168,591110,1,2,3:2:0:0:
275,110,591264,2,0,P|231:109|196:136,1,90,2|10,3:2|3:2,0:0:0:0:
229,270,591571,86,0,L|260:186,1,90,0|2,0:0|3:2,0:0:0:0:
364,316,591879,2,0,L|275:331,1,90,0|10,3:2|3:2,0:0:0:0:
338,174,592187,2,0,L|413:264,1,90,0|2,0:0|3:2,0:0:0:0:
452,301,592495,1,0,3:2:0:0:
466,173,592648,2,0,B|475:261|475:261|451:300,1,135,10|0,3:2|0:0,0:0:0:0:
406,367,592956,70,0,P|359:345|305:355,1,90,2|0,3:2|0:0,0:0:0:0:
194,330,593264,2,0,P|243:313|274:268,1,90,10|0,3:2|0:0,0:0:0:0:
331,151,593571,1,2,3:2:0:0:
188,248,593725,1,0,3:2:0:0:
277,96,593879,1,10,3:2:0:0:
277,96,594033,2,0,P|366:76|407:112,1,135,0|0,0:0|0:2,0:0:0:0:
407,178,594341,70,0,L|399:268,1,90,0|10,3:2|3:2,0:0:0:0:
161,384,594648,2,0,L|152:294,1,90,0|2,0:0|3:2,0:0:0:0:
139,169,594956,1,0,3:2:0:0:
224,257,595110,1,10,3:2:0:0:
61,260,595264,1,0,0:0:0:0:
140,87,595418,85,2,3:2:0:0:
143,250,595571,1,0,0:0:0:0:
63,179,595725,1,10,3:2:0:0:
220,178,595879,2,0,L|321:172,1,90,0|2,0:0|3:2,0:0:0:0:
176,327,596187,1,0,3:2:0:0:
139,169,596341,1,10,3:2:0:0:
61,260,596495,1,0,0:0:0:0:
90,104,596648,69,2,3:2:0:0:
143,250,596802,1,0,3:2:0:0:
63,179,596956,1,10,3:2:0:0:
222,88,597110,2,0,L|219:198,1,90,0|2,0:0|3:2,0:0:0:0:
213,296,597418,1,0,3:2:0:0:
301,178,597571,1,10,3:2:0:0:
139,169,597725,1,0,0:0:0:0:
304,273,597879,69,2,3:2:0:0:
369,126,598033,1,0,3:2:0:0:
219,177,598187,1,8,3:2:0:0:
392,245,598341,85,2,3:2:0:0:
244,83,598495,1,0,3:2:0:0:
213,296,598648,1,8,3:2:0:0:
156,56,598802,69,2,3:2:0:0:
304,273,598956,1,0,3:2:0:0:
68,125,599110,69,10,3:2:0:0:
300,151,599264,1,0,3:2:0:0:
118,311,599418,1,8,3:2:0:0:
211,115,599571,85,8,3:2:0:0:
272,348,599725,1,0,3:2:0:0:
49,272,599879,1,8,3:2:0:0:
304,273,600033,69,2,3:2:0:0:
40,361,600187,1,8,3:2:0:0:
32,129,600341,69,4,3:2:0:0:
118,311,600495,1,0,3:2:0:0:
211,115,600648,1,8,3:2:0:0:
27,234,600802,85,2,3:2:0:0:
250,211,600956,1,0,3:2:0:0:
114,47,601110,1,8,3:2:0:0:
118,311,601264,69,2,3:2:0:0:
298,129,601418,1,0,3:2:0:0:
302,374,601571,1,2,3:2:0:0:
100,153,601725,70,0,L|189:147,1,90,2|0,0:1|0:0,0:0:0:0:
339,216,602033,2,0,L|249:210,1,90,2|0,0:1|0:0,0:0:0:0:
281,50,602341,1,2,0:1:0:0:
409,170,602495,2,0,B|421:211|421:211|405:301,1,135,2|0,0:1|0:0,0:0:0:0:
385,379,602802,85,4,3:2:0:0:
197,281,613358,38,0,L|103:273,1,90,4|0,0:0|0:0,0:0:0:0:
253,202,613682,1,10,0:0:0:0:
291,289,613844,1,0,0:0:0:0:
308,126,614007,2,0,L|402:118,1,90,2|0,3:2|0:0,0:0:0:0:
253,202,614331,1,8,0:0:0:0:
216,113,614493,1,0,0:0:0:0:
345,215,614655,5,10,3:2:0:0:
328,256,614736,1,8,3:2:0:0:
294,285,614817,1,8,3:2:0:0:
251,295,614898,1,8,3:2:0:0:
208,284,614979,1,2,3:0:0:0:
170,261,615061,1,2,3:0:0:0:
126,258,615142,1,8,3:0:0:0:
85,277,615223,1,4,3:0:0:0:
56,313,615304,6,0,L|64:364,1,45,10|0,0:0|0:0,0:0:0:0:
253,202,615466,1,10,0:0:0:0:
46,44,615790,5,0,0:0:0:0:
46,44,615872,1,0,0:0:0:0:
46,44,615953,2,0,L|168:31,1,90,4|0,3:2|0:0,0:0:0:0:
253,202,616277,2,0,L|131:189,1,90,10|0,3:2|0:0,0:0:0:0:
229,35,616601,1,2,3:2:0:0:
282,112,616763,1,0,3:2:0:0:
135,34,616926,1,10,3:2:0:0:
325,28,617088,70,0,P|366:69|376:127,1,90,0|2,0:0|3:2,0:0:0:0:
268,197,617412,2,0,P|285:155|281:111,1,90,0|10,0:0|3:2,0:0:0:0:
138,280,617736,2,0,B|215:271|215:271|244:285|244:285|313:277,1,180,0|0,0:0|3:2,0:0:0:0:
268,197,618223,1,10,3:2:0:0:
199,362,618385,5,10,3:2:0:0:
199,362,618466,1,10,3:2:0:0:
199,362,618547,2,0,L|83:357,1,90,2|0,3:2|0:0,0:0:0:0:
96,200,618872,2,0,L|149:302,1,90,10|0,3:2|0:0,0:0:0:0:
133,113,619196,1,2,3:2:0:0:
40,122,619358,1,0,3:2:0:0:
189,189,619520,1,10,3:2:0:0:
180,31,619682,6,0,P|115:20|66:41,1,90,0|2,0:0|3:2,0:0:0:0:
239,108,620007,1,0,0:0:0:0:
275,19,620169,1,10,3:2:0:0:
133,113,620331,2,0,B|122:167|122:167|156:301,1,180,0|0,3:2|3:2,0:0:0:0:
387,295,620817,2,0,P|327:267|263:284,1,135,10|0,3:2|0:0,0:0:0:0:
211,344,621142,6,0,P|156:369|98:353,1,90,4|0,3:2|0:0,0:0:0:0:
267,194,621466,2,0,L|262:297,1,90,10|0,3:2|0:0,0:0:0:0:
198,154,621790,1,2,3:2:0:0:
268,114,621953,1,0,3:2:0:0:
201,239,622115,1,10,3:2:0:0:
356,200,622277,70,0,L|235:191,1,90,0|2,0:0|3:2,0:0:0:0:
386,127,622601,2,0,L|507:118,1,90,0|10,0:0|3:2,0:0:0:0:
416,298,622926,2,0,B|346:292|346:292|309:316|309:316|223:311,1,180,0|0,0:0|3:2,0:0:0:0:
157,200,623412,1,10,3:2:0:0:
89,358,623574,5,0,0:0:0:0:
89,358,623655,1,0,0:0:0:0:
89,358,623736,2,0,L|80:268,1,90,2|0,3:2|0:0,0:0:0:0:
67,94,624061,1,10,3:2:0:0:
157,200,624223,1,0,0:0:0:0:
28,180,624385,1,2,3:2:0:0:
162,105,624547,1,0,3:2:0:0:
142,293,624709,2,0,P|100:275|72:239,1,90,10|0,3:2|0:0,0:0:0:0:
234,43,625034,6,0,B|255:94|255:94|239:203,1,150,0|8,3:0|0:0,0:0:0:0:
221,225,625378,2,0,L|233:283,1,45,8|0,0:0|0:0,0:0:0:0:
320,190,625561,2,0,L|334:110,1,67.5,8|0,3:0|0:0,0:0:0:0:
424,300,625804,2,0,P|363:264|299:279,1,135,8|0,0:0|0:0,0:0:0:0:
466,215,626169,5,8,0:0:0:0:
466,215,626250,1,8,0:0:0:0:
466,215,626331,2,0,L|450:126,1,90,4|0,3:2|0:0,0:0:0:0:
304,278,626655,2,0,L|319:189,1,90,10|0,3:2|0:0,0:0:0:0:
464,321,626980,1,2,3:2:0:0:
376,338,627142,1,0,3:2:0:0:
483,228,627304,1,10,3:2:0:0:
304,278,627466,70,0,L|188:271,1,90,0|2,0:0|3:2,0:0:0:0:
327,185,627790,2,0,L|443:178,1,90,0|10,0:0|3:2,0:0:0:0:
283,101,628115,2,0,B|210:93|210:93|178:113|178:113|103:106,1,180,0|0,0:0|3:2,0:0:0:0:
195,253,628601,2,0,P|223:219|229:175,1,90,10|0,3:2|0:0,0:0:0:0:
60,196,628926,6,0,L|150:188,1,90,2|0,3:2|0:0,0:0:0:0:
283,101,629250,2,0,L|193:92,1,90,10|0,3:2|0:0,0:0:0:0:
309,177,629574,1,2,3:2:0:0:
362,115,629736,1,0,3:2:0:0:
335,255,629899,1,10,3:2:0:0:
283,101,630061,1,0,0:0:0:0:
385,192,630223,6,0,L|474:183,1,90,2|0,3:2|0:0,0:0:0:0:
353,337,630547,1,10,3:2:0:0:
353,337,630709,2,0,L|263:328,1,90,0|2,0:0|3:2,0:0:0:0:
150,188,631034,1,8,3:2:0:0:
92,351,631196,1,10,3:2:0:0:
63,150,631358,5,8,0:0:0:0:
63,150,631439,1,8,0:0:0:0:
63,150,631520,2,0,P|108:103|159:95,1,90,4|0,3:2|0:0,0:0:0:0:
235,197,631844,2,0,P|193:181|149:187,1,90,10|0,3:2|0:0,0:0:0:0:
292,275,632169,1,2,3:2:0:0:
310,136,632331,1,0,3:2:0:0:
184,277,632493,1,10,3:2:0:0:
220,108,632655,70,0,L|240:235,1,90,0|2,0:0|3:2,0:0:0:0:
378,313,632980,2,0,L|392:224,1,90,0|10,0:0|3:2,0:0:0:0:
295,47,633304,2,0,L|309:135,1,90,0|2,0:0|3:2,0:0:0:0:
479,181,633628,1,0,3:2:0:0:
399,126,633790,1,10,3:2:0:0:
467,275,633953,1,0,0:0:0:0:
284,223,634115,6,0,P|368:208|400:128,1,180,4|10,3:2|3:2,0:0:0:0:
197,97,634601,1,0,0:0:0:0:
197,97,634763,2,0,B|208:166|208:166|193:205|193:205|204:283,1,180,10|10,3:2|3:2,0:0:0:0:
125,161,635250,5,0,0:0:0:0:
125,161,635412,2,0,L|112:55,1,90,4|8,3:2|0:0,0:0:0:0:
169,20,635655,1,8,0:0:0:0:
204,14,635736,1,8,0:0:0:0:
238,23,635817,1,8,0:0:0:0:
265,47,635898,1,8,0:0:0:0:
280,79,635979,1,8,0:0:0:0:
279,115,636061,2,0,L|290:173,1,45,8|0,0:0|0:0,0:0:0:0:
333,249,636223,5,8,0:0:0:0:
348,238,636304,1,8,0:0:0:0:
362,227,636385,2,0,L|372:169,1,45,0|0,3:0|0:0,0:0:0:0:
382,105,636547,69,8,0:0:0:0:
386,86,636628,1,8,0:0:0:0:
390,67,636709,1,12,0:0:0:0:
256,192,636790,12,0,638817,0:0:0:0:
292,81,638980,6,0,P|357:71|415:105,1,135,10|0,3:2|0:0,0:0:0:0:
411,121,639304,6,0,P|349:87|287:98,1,135,2|0,3:2|0:0,0:0:0:0:
284,113,639628,6,0,P|349:103|406:136,1,135,10|0,3:2|0:0,0:0:0:0:
401,151,639953,69,2,3:2:0:0:
327,199,640115,1,0,3:0:0:0:
449,217,640277,1,10,3:2:0:0:
413,71,640439,1,0,0:0:0:0:
284,113,640601,6,0,L|193:108,1,90,2|0,3:2|0:0,0:0:0:0:
327,199,640926,2,0,L|418:194,1,90,10|0,3:2|0:0,0:0:0:0:
265,283,641250,2,0,L|201:279,2,45,8|8|8,0:0|0:0|0:0,0:0:0:0:
439,292,641574,1,8,0:0:0:0:
421,102,641736,5,8,0:0:0:0:
417,83,641817,1,8,0:0:0:0:
413,64,641898,1,4,0:0:0:0:
256,192,641980,12,0,644331,0:0:0:0:
342,123,644493,6,0,L|252:113,1,90,4|0,3:2|0:0,0:0:0:0:
135,281,644817,2,0,L|224:271,1,90,10|0,3:2|0:0,0:0:0:0:
159,114,645141,1,2,3:2:0:0:
106,191,645303,1,0,0:0:0:0:
253,113,645466,2,0,P|229:50|197:29,1,90,10|0,3:2|0:0,0:0:0:0:
211,196,645790,69,4,0:0:0:0:
322,179,645953,1,8,0:0:0:0:
322,179,646034,1,8,0:0:0:0:
322,179,646115,1,8,0:0:0:0:
159,114,646277,5,8,0:0:0:0:
141,106,646358,1,8,0:0:0:0:
123,101,646439,1,0,3:0:0:0:
104,100,646520,1,8,0:0:0:0:
85,101,646601,2,0,L|77:167,1,45,8|0,0:0|0:0,0:0:0:0:
23,201,646763,2,0,L|31:267,1,45,8|0,0:0|3:0,0:0:0:0:
101,302,646926,1,8,0:0:0:0:
101,302,647007,1,0,3:0:0:0:
101,302,647088,5,8,3:0:0:0:
131,335,647169,1,8,3:0:0:0:
173,348,647250,1,8,3:0:0:0:
216,337,647331,1,8,3:0:0:0:
248,305,647412,6,0,P|307:268|382:300,1,135,12|0,0:0|0:0,0:0:0:0:
397,354,647736,1,2,3:2:0:0:
315,186,647898,1,0,0:0:0:0:
317,347,648061,1,10,3:2:0:0:
404,193,648223,1,0,0:0:0:0:
248,305,648385,70,0,L|235:215,1,90,2|0,3:2|0:0,0:0:0:0:
327,96,648709,2,0,L|314:185,1,90,10|0,3:2|0:0,0:0:0:0:
215,78,649034,1,2,3:2:0:0:
376,32,649196,5,2,0:3:0:0:
376,32,649277,1,2,0:3:0:0:
376,32,649358,2,0,P|402:69|405:114,1,90,10|0,3:2|0:0,0:0:0:0:
484,104,649601,5,2,0:3:0:0:
484,104,649682,2,0,P|476:148|447:182,1,90,2|0,3:2|0:0,0:0:0:0:
509,231,649926,5,2,0:3:0:0:
509,231,650007,2,0,P|472:256|427:259,1,90,10|0,3:2|0:0,0:0:0:0:
436,337,650249,69,2,0:3:0:0:
436,337,650331,2,0,P|392:328|358:299,1,90,2|0,3:2|0:0,0:0:0:0:
327,96,650655,1,10,3:2:0:0:
427,259,650817,1,0,0:0:0:0:
206,194,650980,5,2,3:2:0:0:
402,159,651142,1,0,0:0:0:0:
232,102,651304,1,10,3:2:0:0:
299,278,651466,2,0,L|302:189,1,90,4|0,0:0|3:0,0:0:0:0:
132,346,651790,2,0,L|130:257,1,90,4|10,0:0|0:0,0:0:0:0:
107,92,652115,1,0,3:0:0:0:
32,212,652277,5,4,3:2:0:0:
206,194,652439,1,0,0:0:0:0:
104,71,652601,1,10,3:2:0:0:
130,257,652763,1,0,0:0:0:0:
201,101,652926,2,0,P|262:118|296:166,1,90,2|0,3:2|0:0,0:0:0:0:
351,270,653250,1,10,3:2:0:0:
206,194,653412,1,0,0:0:0:0:
267,368,653574,6,0,L|356:365,1,90,2|0,3:2|0:0,0:0:0:0:
496,286,653899,1,10,3:2:0:0:
356,183,654060,1,8,0:0:0:0:
356,183,654142,1,8,0:0:0:0:
356,183,654223,2,0,P|343:228|353:272,1,90,2|0,3:2|0:0,0:0:0:0:
444,141,654547,1,10,3:2:0:0:
368,88,654709,1,0,0:0:0:0:
440,236,654872,69,4,3:2:0:0:
453,45,655034,1,0,0:0:0:0:
282,127,655196,1,10,3:2:0:0:
444,141,655358,1,0,3:2:0:0:
231,47,655520,1,10,3:2:0:0:
310,218,655682,1,0,3:2:0:0:
325,41,655844,1,10,3:2:0:0:
212,269,656007,5,4,0:0:0:0:
136,35,656169,1,0,3:0:0:0:
282,127,656331,1,8,0:0:0:0:
282,127,656412,1,8,0:0:0:0:
282,127,656493,1,8,0:0:0:0:
120,187,656655,1,8,0:0:0:0:
120,187,656736,1,8,0:0:0:0:
120,187,656817,2,0,L|69:203,2,45,8|8|0,0:0|0:0|3:0,0:0:0:0:
232,47,657142,5,0,3:0:0:0:
210,318,657304,1,10,0:0:0:0:
285,202,657443,6,0,L|188:200,1,67.5000025749208,2|0,0:0|0:0,0:0:0:0:
321,128,657767,2,0,L|388:129,1,67.5000025749208,0|0,0:0|0:0,0:0:0:0:
450,187,658092,1,0,0:0:0:0:
468,109,658254,1,0,0:0:0:0:
232,47,658578,70,0,L|135:45,1,67.5000025749208,2|0,0:0|0:0,0:0:0:0:
85,57,658903,1,0,0:0:0:0:
135,120,659065,1,0,0:0:0:0:
165,46,659227,1,0,0:0:0:0:
54,133,659389,1,0,0:0:0:0:
215,111,659551,1,0,0:0:0:0:
332,289,659895,6,0,P|351:242|349:217,1,67.5000025749208,2|0,0:0|0:0,0:0:0:0:
320,151,660219,1,0,0:0:0:0:
271,214,660381,1,0,0:0:0:0:
350,226,660543,1,0,0:0:0:0:
292,76,660705,1,0,0:0:0:0:
193,193,660868,1,0,0:0:0:0:
445,43,661192,5,2,0:0:0:0:
445,43,661273,1,0,0:0:0:0:
445,43,661354,1,0,0:0:0:0:
431,122,661516,1,0,0:0:0:0:
420,201,661678,2,0,L|410:284,1,67.5000025749208,0|0,0:0|0:0,0:0:0:0:
271,214,662003,2,0,L|262:146,1,67.5000025749208,0|0,0:0|0:0,0:0:0:0:
109,31,662489,5,2,0:0:0:0:
124,109,662651,1,0,0:0:0:0:
185,56,662813,1,0,0:0:0:0:
48,82,662976,2,0,P|44:109|63:162,1,67.5000025749208
112,255,663300,1,0,0:0:0:0:
124,109,663462,1,0,0:0:0:0:
361,291,663768,70,0,L|275:289,1,67.5000025749208,2|0,0:0|0:0,0:0:0:0:
405,223,664082,1,0,0:0:0:0:
440,296,664235,1,0,0:0:0:0:
325,219,664397,1,0,0:0:0:0:
488,230,664599,1,0,0:0:0:0:
488,230,664761,1,0,0:0:0:0:
417,145,665085,6,0,L|350:143,1,67.5000025749208,2|0,0:0|0:0,0:0:0:0:
325,219,665430,1,0,0:0:0:0:
244,233,665592,1,0,0:0:0:0:
274,155,665754,1,0,0:0:0:0:
297,297,665916,1,0,0:0:0:0:
193,167,666078,1,0,0:0:0:0:
112,355,666435,5,2,0:1:0:0:
256,192,666516,12,0,671462,0:0:0:0:
