osu file format v14

[General]
AudioFilename: audio.mp3
AudioLeadIn: 0
PreviewTime: 123098
Countdown: 0
SampleSet: Normal
StackLeniency: 0.7
Mode: 0
LetterboxInBreaks: 0
EpilepsyWarning: 1
WidescreenStoryboard: 1

[Editor]
Bookmarks: 12532,60532,77876,109876,123388,145331,150212,197391,207283,235997,239262,276097,292462,375371,382475,471189,476858,538755,548334,630000
DistanceSpacing: 0.1
BeatDivisor: 4
GridSize: 4
TimelineZoom: 1

[Metadata]
Title:KIRBY Mix Compilation 2
TitleUnicode:KIRBY Mix Compilation 2
Artist:Various Artists
ArtistUnicode:Various Artists
Creator:Nitroz
Version:KIRBY Mix
Source:
Tags:Starrodkirby86 Chevron MarioBros777 Futatsu no Mirai Lena Genesis of Aquarion Larto Castle Corridor Teara Kanojo Ga Ichiban Shoujo Nanoka Gens Pacific Rim Imitation Network Suck Fairy Tail Main Theme Beuchi Ievan Polkka Trance Remix Choppastyle Shanghai Alice of Meiji 17 Susumu Hirasawa Megaman EXE Axess OP Rockman Exit Trance Castlevania Aria of Sorrow Touhou Basshunter Hong Meiling P-MODEL totsu gen hen i Michihiro Kuroda chum techno arusha shuna ZUN forestpireo un owen flandre hen gen ji zai sim city Yasuharu Takanashi Virt chiptune retro jake kaufman
BeatmapID:1164568
BeatmapSetID:549969

[Difficulty]
HPDrainRate:5
CircleSize:5
OverallDifficulty:8
ApproachRate:8
SliderMultiplier:2
SliderTickRate:2

[Events]
//Background and Video events
0,0,"bg.png",0,0
//Break Periods
2,60784,77178
2,109946,122690
2,145583,149514
2,197643,206585
2,236249,238564
2,276349,291764
2,327623,335401
2,375623,381777
2,413155,419491
2,471441,476160
2,539007,547615
2,583565,587615
//Storyboard Layer 0 (Background)
//Storyboard Layer 1 (Fail)
//Storyboard Layer 2 (Pass)
//Storyboard Layer 3 (Foreground)
//Storyboard Sound Samples

[TimingPoints]
4584,500,4,1,0,50,1,0
4584,-62.5,4,1,0,50,0,0
28584,-62.5,4,1,0,40,0,0
29584,-62.5,4,2,0,40,0,0
29834,-62.5,4,1,0,40,0,0
31584,-62.5,4,2,0,40,0,0
31834,-62.5,4,1,0,40,0,0
37084,-62.5,4,2,0,40,0,0
37334,-62.5,4,1,0,40,0,0
39084,-62.5,4,2,0,40,0,0
39334,-62.5,4,1,0,40,0,0
45584,-62.5,4,2,0,40,0,0
45834,-62.5,4,1,0,40,0,0
47584,-62.5,4,2,0,40,0,0
47834,-62.5,4,1,0,40,0,0
53084,-62.5,4,2,0,40,0,0
53334,-62.5,4,1,0,40,0,0
55084,-62.5,4,2,0,40,0,0
55334,-62.5,4,1,0,40,0,0
60584,-62.5,4,1,0,50,0,0
76474,363.636363636364,4,1,0,80,1,0
76474,-76.9230769230769,4,1,0,80,0,1
108474,-76.9230769230769,4,1,0,80,0,0
111098,342.857142857143,4,1,0,80,1,0
111098,-83.3333333333333,4,1,0,80,0,0
123440,-83.3333333333333,4,1,0,60,0,1
145383,-83.3333333333333,4,1,0,60,0,0
146770,436.840189297415,4,1,0,80,1,0
146770,-76.9230769230769,4,1,0,80,0,0
150428,-76.9230769230769,4,1,0,35,0,0
150591,-76.9230769230769,4,1,0,20,0,0
150809,-76.9230769230769,4,1,0,60,0,0
151084,-76.9230769230769,4,1,0,43,0,0
151302,-76.9230769230769,4,1,0,32,0,0
151465,-76.9230769230769,4,1,0,49,0,0
151739,-76.9230769230769,4,1,0,36,0,0
151957,-76.9230769230769,4,1,0,49,0,0
153923,-76.9230769230769,4,1,0,49,0,0
154141,-76.9230769230769,4,1,0,34,0,0
154304,-76.9230769230769,4,1,0,59,0,0
154577,-76.9230769230769,4,1,0,60,0,0
154795,-76.9230769230769,4,1,0,44,0,0
154958,-76.9230769230769,4,1,0,53,0,0
155231,-76.9230769230769,4,1,0,34,0,0
155449,-76.9230769230769,4,1,0,21,0,0
155722,-76.9230769230769,4,1,0,51,0,0
169354,-76.9230769230769,4,2,0,49,0,0
171101,-76.9230769230769,4,1,0,49,0,0
207335,428.571428571429,4,1,0,80,1,0
207335,-76.9230769230769,4,1,0,75,0,0
238175,379.746835443038,4,1,0,80,1,0
238175,-250,4,2,0,80,0,0
239314,-83.3333333333333,4,2,0,80,0,0
239693,-83.3333333333333,4,1,0,70,0,0
248428,-83.3333333333333,4,1,0,75,0,0
251086,-83.3333333333333,4,1,0,80,0,0
251845,-83.3333333333333,4,1,0,70,0,0
260580,-83.3333333333333,4,1,0,75,0,0
263238,-83.3333333333333,4,1,0,50,0,0
270073,-83.3333333333333,4,1,0,60,0,0
276149,-83.3333333333333,4,1,0,85,0,0
290333,545.454545454546,4,1,0,80,1,0
290333,-52.6315789473684,4,1,0,80,0,0
308751,-52.6315789473684,4,1,0,100,0,0
330433,-52.6315789473684,4,1,0,100,0,0
370933,-52.6315789473684,4,1,0,30,0,0
375297,-52.6315789473684,4,1,0,100,0,0
380813,428.571428571429,4,1,0,80,1,0
380813,-83.3333333333333,4,1,0,80,0,0
442955,-333.333333333333,4,1,0,80,0,0
444241,-83.3333333333333,4,1,0,80,0,1
457741,-41.666666666667,4,1,0,80,0,1
471241,-41.666666666667,4,1,0,80,0,0
473269,455.131608890237,4,1,0,80,1,0
473269,-71.4285714285714,4,1,0,45,0,0
502591,-71.4285714285714,4,1,0,35,0,0
505549,-71.4285714285714,4,1,0,45,0,0
516961,-71.4285714285714,4,1,0,50,0,1
538807,-71.4285714285714,4,1,0,50,0,0
548365,416.666666666667,3,1,0,80,1,0
548365,-62.5,3,1,0,60,0,0
588365,416.666666666667,4,1,0,80,1,0
588365,-55.5555555555556,4,1,0,80,0,0
630031,416.666666666667,3,1,0,80,1,0

[HitObjects]
80,48,12584,6,4,B|32:48|32:176|80:176,1,159.999995231628
112,112,12959,1,0,0:0:0:0:
144,304,13084,6,0,B|192:304|192:176|144:176,1,159.999995231628,2|0,0:0|0:0,0:0:0:0:
112,240,13459,1,0,0:0:0:0:
64,304,13584,6,0,B|32:368|192:368,2,159.999995231628,8|8|2,0:0|0:0|0:0,0:0:0:0:
192,224,14334,5,4,0:0:0:0:
256,176,14459,1,4,0:0:0:0:
320,128,14584,1,4,0:0:0:0:
384,272,14834,5,0,0:0:0:0:
320,224,14959,1,0,0:0:0:0:
256,176,15084,1,10,0:0:0:0:
256,176,15334,5,0,0:0:0:0:
192,224,15459,1,0,0:0:0:0:
128,272,15584,1,10,0:0:0:0:
192,128,15834,5,2,0:0:0:0:
256,176,15959,1,0,0:0:0:0:
320,224,16084,1,10,0:0:0:0:
256,176,16209,1,0,0:0:0:0:
192,128,16334,1,4,0:0:0:0:
432,48,16584,6,4,B|480:48|480:176|432:176,1,159.999995231628
400,112,16959,1,0,0:0:0:0:
368,304,17084,6,0,B|320:304|320:176|368:176,1,159.999995231628,2|0,0:0|0:0,0:0:0:0:
400,240,17459,1,0,0:0:0:0:
448,304,17584,6,0,B|480:368|320:368,2,159.999995231628,8|8|2,0:0|0:0|0:0,0:0:0:0:
224,160,18334,5,4,0:0:0:0:
160,128,18459,1,4,0:0:0:0:
96,96,18584,1,4,0:0:0:0:
288,160,18834,5,0,0:0:0:0:
352,128,18959,1,0,0:0:0:0:
416,96,19084,1,10,0:0:0:0:
288,224,19334,5,2,0:0:0:0:
352,256,19459,1,0,0:0:0:0:
416,288,19584,1,10,0:0:0:0:
224,224,19834,5,0,0:0:0:0:
160,256,19959,1,0,0:0:0:0:
96,288,20084,1,10,0:0:0:0:
160,320,20209,1,0,0:0:0:0:
224,320,20334,1,0,0:0:0:0:
288,320,20459,1,8,0:0:0:0:
352,320,20584,1,12,0:0:0:0:
448,352,20834,5,4,0:0:0:0:
368,96,21084,1,2,0:0:0:0:
256,352,21334,1,0,0:0:0:0:
144,96,21584,1,2,0:0:0:0:
64,352,21834,1,2,0:0:0:0:
224,240,22084,6,0,B|224:160,1,79.9999976158142,2|0,0:0|0:0,0:0:0:0:
288,160,22334,2,0,B|288:240,1,79.9999976158142,4|0,0:0|0:0,0:0:0:0:
256,304,22584,6,0,B|176:320|112:240,1,159.999995231628,8|0,0:0|0:0,0:0:0:0:
48,208,22959,1,0,0:0:0:0:
144,192,23084,6,0,B|128:112|208:48,1,159.999995231628,8|0,0:0|0:0,0:0:0:0:
240,0,23459,1,0,0:0:0:0:
256,80,23584,6,8,B|336:64|400:144,1,159.999995231628
464,176,23959,1,8,0:0:0:0:
368,192,24084,6,8,B|384:272|304:336,1,159.999995231628
272,400,24459,1,0,0:0:0:0:
256,192,24584,5,4,0:0:0:0:
96,192,24834,5,0,0:0:0:0:
384,320,25084,1,2,0:0:0:0:
256,64,25334,1,0,0:0:0:0:
128,320,25584,1,2,0:0:0:0:
416,192,25834,1,0,0:0:0:0:
288,240,26084,6,0,B|288:160,1,79.9999976158142,2|0,0:0|0:0,0:0:0:0:
224,160,26334,2,0,B|224:240,1,79.9999976158142,4|0,0:0|0:0,0:0:0:0:
256,304,26584,6,0,B|336:320|400:240,1,159.999995231628,8|0,0:0|0:0,0:0:0:0:
464,208,26959,1,0,0:0:0:0:
368,192,27084,6,0,B|384:112|304:48,1,159.999995231628,8|0,0:0|0:0,0:0:0:0:
272,0,27459,1,0,0:0:0:0:
256,80,27584,6,8,B|176:64|112:144,1,159.999995231628
48,176,27959,1,8,0:0:0:0:
144,192,28084,6,8,B|128:272|208:336,1,159.999995231628
240,400,28459,1,0,0:0:0:0:
368,352,28584,5,8,0:0:0:0:
288,192,28834,1,0,0:0:0:0:
368,32,29084,1,0,0:0:0:0:
448,192,29334,1,8,0:0:0:0:
256,32,29584,5,4,0:0:0:0:
336,192,29834,1,0,0:0:0:0:
256,352,30084,1,0,0:0:0:0:
176,192,30334,1,0,0:0:0:0:
144,32,30584,5,8,0:0:0:0:
224,192,30834,1,0,0:0:0:0:
144,352,31084,1,0,0:0:0:0:
64,192,31334,1,8,0:0:0:0:
256,352,31584,5,4,0:0:0:0:
176,192,31834,1,0,0:0:0:0:
256,32,32084,1,0,0:0:0:0:
336,192,32334,1,0,0:0:0:0:
160,320,32584,6,0,B|64:256|64:176|64:176|128:176,1,239.999992847443,4|0,0:0|0:0,0:0:0:0:
160,112,33084,2,0,B|256:112|256:224,2,159.999995231628,0|0|4,0:0|0:0|0:0,0:0:0:0:
48,192,33834,5,0,0:0:0:0:
80,256,33959,1,0,0:0:0:0:
112,320,34084,1,2,0:0:0:0:
352,320,34584,6,0,B|448:256|448:176|448:176|384:176,1,239.999992847443,4|0,0:0|0:0,0:0:0:0:
352,112,35084,2,0,B|256:112|256:224,2,159.999995231628,0|0|4,0:0|0:0|0:0,0:0:0:0:
464,192,35834,5,0,0:0:0:0:
432,256,35959,1,0,0:0:0:0:
400,320,36084,1,2,0:0:0:0:
256,336,36334,5,4,0:0:0:0:
256,336,36459,1,4,0:0:0:0:
192,352,36584,5,4,0:0:0:0:
32,304,36834,1,0,0:0:0:0:
224,240,37084,1,4,0:0:0:0:
64,192,37334,1,0,0:0:0:0:
192,48,37584,6,0,B|320:160,1,159.999995231628,8|0,0:0|0:0,0:0:0:0:
256,192,37959,1,0,0:0:0:0:
199,153,38084,2,0,B|320:48,1,159.999995231628,8|8,0:0|0:0,0:0:0:0:
448,192,38584,5,4,0:0:0:0:
288,240,38834,1,0,0:0:0:0:
480,304,39084,1,4,0:0:0:0:
320,352,39334,1,0,0:0:0:0:
160,304,39584,6,0,B|112:224|112:144,1,159.999995231628,8|0,0:0|0:0,0:0:0:0:
256,128,39959,1,0,0:0:0:0:
399,153,40084,2,8,B|400:224|352:304,1,159.999995231628
256,352,40459,5,0,0:0:0:0:
208,304,40584,5,4,0:0:0:0:
16,304,40834,1,0,0:0:0:0:
16,176,41084,1,0,0:0:0:0:
208,176,41334,1,0,0:0:0:0:
304,304,41584,5,0,0:0:0:0:
496,304,41834,1,0,0:0:0:0:
496,176,42084,1,0,0:0:0:0:
304,176,42334,1,0,0:0:0:0:
71,64,42584,6,0,B|112:-16|208:96,1,159.999995231628,4|0,0:0|0:0,0:0:0:0:
440,64,43084,2,0,B|400:-16|304:96,1,159.999995231628,4|0,0:0|0:0,0:0:0:0:
288,224,43584,5,8,0:0:0:0:
320,288,43709,1,0,0:0:0:0:
288,352,43834,1,0,0:0:0:0:
224,352,43959,1,8,0:0:0:0:
192,288,44084,1,8,0:0:0:0:
224,224,44209,1,0,0:0:0:0:
256,288,44334,1,8,0:0:0:0:
400,352,44584,5,12,0:0:0:0:
448,224,44834,1,0,0:0:0:0:
464,160,44959,1,0,0:0:0:0:
448,96,45084,1,0,0:0:0:0:
304,32,45334,1,8,0:0:0:0:
208,144,45584,6,0,B|208:224|304:272,1,159.999995231628,4|0,0:0|0:0,0:0:0:0:
352,208,45959,1,0,0:0:0:0:
304,144,46084,2,0,B|304:224|208:272,1,159.999995231628,4|0,0:0|0:0,0:0:0:0:
112,352,46584,5,12,0:0:0:0:
64,224,46834,1,0,0:0:0:0:
48,160,46959,1,0,0:0:0:0:
64,96,47084,1,0,0:0:0:0:
208,32,47334,1,8,0:0:0:0:
304,144,47584,6,0,B|304:224|208:272,1,159.999995231628,4|0,0:0|0:0,0:0:0:0:
160,208,47959,1,0,0:0:0:0:
208,144,48084,2,0,B|208:224|304:272,1,159.999995231628
448,304,48584,6,0,B|384:352|192:352,1,239.999992847443,4|0,0:0|0:0,0:0:0:0:
160,320,49084,2,0,B|96:272,1,79.9999976158142,8|0,0:0|0:0,0:0:0:0:
192,256,49334,2,0,B|128:208,1,79.9999976158142,8|0,0:0|0:0,0:0:0:0:
224,192,49584,2,0,B|160:144,1,79.9999976158142,8|0,0:0|0:0,0:0:0:0:
256,128,49834,2,0,B|192:80,1,79.9999976158142
128,48,50084,1,2,0:0:0:0:
64,304,50584,6,0,B|128:352|320:352,1,239.999992847443,4|0,0:0|0:0,0:0:0:0:
352,320,51084,2,0,B|416:272,1,79.9999976158142,8|0,0:0|0:0,0:0:0:0:
320,256,51334,2,0,B|384:208,1,79.9999976158142,8|0,0:0|0:0,0:0:0:0:
288,192,51584,2,0,B|352:144,1,79.9999976158142,8|0,0:0|0:0,0:0:0:0:
256,128,51834,2,0,B|320:80,1,79.9999976158142
384,48,52084,1,2,0:0:0:0:
416,208,52584,6,0,B|400:304|320:352,1,159.999995231628,4|0,0:0|0:0,0:0:0:0:
256,352,52959,1,0,0:0:0:0:
176,341,53084,2,0,B|112:304|96:208,1,159.999995231628,4|0,0:0|0:0,0:0:0:0:
128,144,53459,1,0,0:0:0:0:
176,208,53584,6,0,B|256:224|336:208,1,159.999995231628,4|0,0:0|0:0,0:0:0:0:
384,144,53959,1,0,0:0:0:0:
336,96,54084,2,0,B|256:64|176:96,1,159.999995231628,8|0,0:0|0:0,0:0:0:0:
16,144,54584,6,0,B|16:240|48:304,1,159.999995231628,4|0,0:0|0:0,0:0:0:0:
192,352,55084,2,0,B|192:256|160:192,1,159.999995231628,4|0,0:0|0:0,0:0:0:0:
144,80,55584,5,4,0:0:0:0:
368,80,55834,1,0,0:0:0:0:
256,80,56084,5,4,0:0:0:0:
256,256,56334,1,0,0:0:0:0:
496,144,56584,6,0,B|496:240|464:304,1,159.999995231628
320,352,57084,2,0,B|320:256|352:192,1,159.999995231628,4|0,0:0|0:0,0:0:0:0:
384,32,57584,5,8,0:0:0:0:
384,32,57834,1,0,0:0:0:0:
256,192,58084,5,0,0:0:0:0:
128,32,58334,5,8,0:0:0:0:
128,32,58584,1,8,0:0:0:0:
64,128,58834,5,0,0:0:0:0:
96,192,58959,1,0,0:0:0:0:
64,256,59084,1,8,0:0:0:0:
192,320,59334,5,0,0:0:0:0:
256,288,59459,1,0,0:0:0:0:
320,320,59584,1,8,0:0:0:0:
448,256,59834,5,8,0:0:0:0:
416,192,59959,1,0,0:0:0:0:
448,128,60084,1,8,0:0:0:0:
288,80,60334,5,4,0:0:0:0:
256,144,60459,1,4,0:0:0:0:
224,80,60584,1,4,0:0:0:0:
112,336,77928,6,0,B|48:272|64:208,1,130,2|0,0:0|0:0,0:0:0:0:
160,128,78292,2,2,B|224:192|208:256,1,130
112,336,78655,1,0,0:0:0:0:
48,224,78837,1,2,0:0:0:0:
160,128,79019,1,2,0:0:0:0:
64,48,79201,1,2,0:0:0:0:
256,320,79564,5,8,0:0:0:0:
96,192,79746,6,0,B|160:256|224:192,1,130,4|0,0:0|0:0,0:0:0:0:
416,192,80110,2,0,B|352:256|288:192,1,130,4|0,0:0|0:0,0:0:0:0:
256,80,80474,1,8,0:0:0:0:
256,80,80655,1,8,0:0:0:0:
400,336,80837,6,0,B|464:272|448:208,1,130,2|0,0:0|0:0,0:0:0:0:
352,128,81201,2,2,B|288:192|304:256,1,130
400,336,81564,1,0,0:0:0:0:
464,224,81746,1,2,0:0:0:0:
352,128,81928,1,2,0:0:0:0:
448,48,82110,1,2,0:0:0:0:
320,64,82292,6,0,B|448:128|288:192|400:304,1,260
192,64,83019,2,0,B|64:128|224:192|112:304,1,260
256,192,83564,5,0,0:0:0:0:
112,192,83746,5,0,0:0:0:0:
240,64,84019,2,8,B|160:64,1,65
48,144,84292,2,0,B|48:256|128:256,1,130,0|8,0:0|0:0,0:0:0:0:
240,304,84655,2,0,B|240:192|160:192,1,130,0|2,0:0|0:0,0:0:0:0:
400,192,85201,5,0,0:0:0:0:
272,64,85474,2,8,B|352:64,1,65
464,144,85746,2,0,B|464:256|384:256,1,130,0|8,0:0|0:0,0:0:0:0:
272,304,86110,2,0,B|272:192|352:192,1,130,0|2,0:0|0:0,0:0:0:0:
256,64,86474,1,4,0:0:0:0:
256,192,86655,12,4,88110,0:0:0:0:
256,320,88474,5,0,0:0:0:0:
199,124,88837,6,0,B|224:64,3,65,4|0|0|0,0:0|0:0|0:0|0:0,0:0:0:0:
288,64,89201,2,0,B|320:144,3,65,4|0|4|0,0:0|0:0|0:0|0:0,0:0:0:0:
384,128,89564,6,0,B|384:192|304:272,1,130,2|0,0:0|0:0,0:0:0:0:
400,320,89928,2,2,B|400:256|480:176,1,130
384,128,90292,1,0,0:0:0:0:
400,320,90474,1,8,0:0:0:0:
224,240,90655,1,8,0:0:0:0:
224,240,90837,1,8,0:0:0:0:
176,64,91019,6,0,B|96:64,2,65,8|0|0,0:0|0:0|0:0,0:0:0:0:
336,64,91383,2,0,B|416:64,2,65,8|0|0,0:0|0:0|0:0,0:0:0:0:
160,128,91746,6,0,B|80:128,2,65,4|0|4,0:0|0:0|0:0,0:0:0:0:
352,128,92110,2,0,B|432:128,2,65,4|0|4,0:0|0:0|0:0,0:0:0:0:
128,128,92474,6,0,B|128:192|208:272,1,130,2|0,0:0|0:0,0:0:0:0:
112,320,92837,2,2,B|112:256|32:176,1,130
128,128,93201,1,0,0:0:0:0:
112,320,93383,1,8,0:0:0:0:
288,240,93564,1,8,0:0:0:0:
288,240,93746,1,8,0:0:0:0:
256,192,93928,12,4,95019,0:0:0:0:
144,80,95383,5,8,0:0:0:0:
256,80,95564,1,0,0:0:0:0:
368,80,95746,1,2,0:0:0:0:
424,192,95928,1,0,0:0:0:0:
312,192,96110,1,8,0:0:0:0:
200,192,96292,1,8,0:0:0:0:
88,192,96474,1,2,0:0:0:0:
144,304,96655,1,4,0:0:0:0:
368,304,97019,1,2,0:0:0:0:
256,304,97201,1,2,0:0:0:0:
312,192,97383,6,2,B|400:192|416:112,1,130
256,80,97746,1,2,0:0:0:0:
200,192,97928,2,4,B|112:192|96:112,1,130
256,80,98292,5,8,0:0:0:0:
256,80,98383,1,0,0:0:0:0:
256,80,98474,1,0,0:0:0:0:
368,256,98655,1,8,0:0:0:0:
368,256,98746,1,0,0:0:0:0:
368,256,98837,1,0,0:0:0:0:
144,256,99019,1,8,0:0:0:0:
144,256,99110,1,0,0:0:0:0:
144,256,99201,1,0,0:0:0:0:
256,192,99383,6,4,B|256:288,4,65
128,128,99928,5,8,0:0:0:0:
256,80,100110,1,0,0:0:0:0:
384,128,100292,1,2,0:0:0:0:
432,224,100474,5,0,0:0:0:0:
384,240,100564,1,0,0:0:0:0:
336,272,100655,1,0,0:0:0:0:
288,304,100746,1,0,0:0:0:0:
256,352,100837,1,0,0:0:0:0:
224,304,100928,1,0,0:0:0:0:
176,272,101019,1,0,0:0:0:0:
128,240,101110,1,0,0:0:0:0:
80,224,101201,6,0,B|80:144|176:144,2,130,8|0|2,0:0|0:0|0:0,0:0:0:0:
256,144,101746,2,0,B|256:224|160:224,2,130,2|2|2,0:0|0:0|0:0,0:0:0:0:
256,144,102292,1,0,0:0:0:0:
128,48,102474,6,0,B|64:96|64:192,1,130,8|0,0:0|0:0,0:0:0:0:
128,336,102837,2,0,B|64:288|64:192,1,130,8|0,0:0|0:0,0:0:0:0:
256,272,103201,5,8,0:0:0:0:
400,192,103383,1,4,0:0:0:0:
256,112,103564,1,4,0:0:0:0:
112,192,103746,1,2,0:0:0:0:
432,224,104110,6,0,B|432:144|336:144,2,130,8|0|2,0:0|0:0|0:0,0:0:0:0:
256,144,104655,2,0,B|256:224|352:224,2,130,2|2|2,0:0|0:0|0:0,0:0:0:0:
256,144,105201,1,0,0:0:0:0:
384,48,105383,6,0,B|448:96|448:192,1,130,8|0,0:0|0:0,0:0:0:0:
384,336,105746,2,0,B|448:288|448:192,1,130,8|0,0:0|0:0,0:0:0:0:
256,272,106110,5,8,0:0:0:0:
112,192,106292,1,4,0:0:0:0:
256,112,106474,1,4,0:0:0:0:
400,192,106655,1,2,0:0:0:0:
368,304,107019,5,8,0:0:0:0:
256,304,107201,1,0,0:0:0:0:
144,304,107383,1,2,0:0:0:0:
88,192,107564,1,0,0:0:0:0:
200,192,107746,1,8,0:0:0:0:
312,192,107928,1,8,0:0:0:0:
424,192,108110,1,2,0:0:0:0:
368,80,108292,1,4,0:0:0:0:
144,80,108655,5,2,0:0:0:0:
256,80,108837,1,2,0:0:0:0:
368,80,109019,1,2,0:0:0:0:
368,304,109383,5,2,0:0:0:0:
256,304,109564,1,2,0:0:0:0:
144,304,109746,1,0,0:0:0:0:
256,192,123440,6,0,B|272:112|384:112|384:224,1,180,4|0,0:0|0:0,0:0:0:0:
448,176,123783,2,0,B|448:96|368:96,1,120,8|0,0:0|0:0,0:0:0:0:
256,192,124126,6,0,B|240:272|128:272|128:160,1,180,4|0,0:0|0:0,0:0:0:0:
64,208,124469,2,0,B|64:288|144:288,1,120,8|0,0:0|0:0,0:0:0:0:
256,192,124812,6,0,B|176:176|176:64|288:64,1,180,4|0,0:0|0:0,0:0:0:0:
240,0,125155,2,0,B|160:0|160:80,1,120,8|0,0:0|0:0,0:0:0:0:
256,192,125498,6,0,B|336:208|336:320|224:320,1,180,4|0,0:0|0:0,0:0:0:0:
272,384,125840,2,0,B|352:384|352:304,1,120,8|0,0:0|0:0,0:0:0:0:
448,192,126183,5,8,0:0:0:0:
352,64,126526,1,2,0:0:0:0:
160,64,126869,1,2,0:0:0:0:
64,192,127212,1,2,0:0:0:0:
192,320,127555,5,4,0:0:0:0:
192,320,127640,1,0,0:0:0:0:
192,320,127726,1,0,0:0:0:0:
320,320,127898,5,4,0:0:0:0:
320,320,127983,1,0,0:0:0:0:
320,320,128069,1,0,0:0:0:0:
320,80,128240,6,8,B|320:224,1,120
192,200,128583,2,8,B|192:80,1,120
64,144,128926,6,0,B|32:224|96:256|96:256|64:336|160:352,1,240,4|0,0:0|0:0,0:0:0:0:
256,192,129440,1,0,0:0:0:0:
381,344,129612,2,0,B|448:336|416:256|416:256|480:224|448:144,1,240,4|0,0:0|0:0,0:0:0:0:
256,192,130126,1,0,0:0:0:0:
160,48,130298,5,8,0:0:0:0:
352,160,130469,1,0,0:0:0:0:
352,48,130640,5,0,0:0:0:0:
160,160,130812,1,0,0:0:0:0:
352,336,130983,5,8,0:0:0:0:
160,224,131155,1,0,0:0:0:0:
160,336,131326,5,0,0:0:0:0:
352,224,131498,1,0,0:0:0:0:
144,144,131669,6,0,B|96:192|160:272,1,120,4|0,0:0|0:0,0:0:0:0:
365,253,132012,2,0,B|416:192|368:144,1,120,8|0,0:0|0:0,0:0:0:0:
192,144,132355,6,0,B|144:192|208:272,1,120,4|0,0:0|0:0,0:0:0:0:
317,253,132698,2,0,B|368:192|320:144,1,120,8|0,0:0|0:0,0:0:0:0:
256,192,133040,12,4,134069,0:0:0:0:
256,192,134412,6,0,B|240:112|128:112|128:224,1,180,4|0,0:0|0:0,0:0:0:0:
64,176,134755,2,0,B|64:96|144:96,1,120,8|0,0:0|0:0,0:0:0:0:
256,192,135098,6,0,B|272:272|384:272|384:160,1,180,4|0,0:0|0:0,0:0:0:0:
448,208,135440,2,0,B|448:288|368:288,1,120,8|0,0:0|0:0,0:0:0:0:
256,192,135783,6,0,B|336:176|336:64|224:64,1,180,4|0,0:0|0:0,0:0:0:0:
272,0,136126,2,0,B|352:0|352:80,1,120,8|0,0:0|0:0,0:0:0:0:
256,192,136469,6,0,B|176:208|176:320|288:320,1,180,4|0,0:0|0:0,0:0:0:0:
240,384,136812,2,0,B|160:384|160:304,1,120,8|0,0:0|0:0,0:0:0:0:
64,192,137155,5,8,0:0:0:0:
160,64,137498,1,2,0:0:0:0:
352,64,137840,1,2,0:0:0:0:
448,192,138183,1,2,0:0:0:0:
352,320,138526,5,4,0:0:0:0:
352,320,138612,1,0,0:0:0:0:
352,320,138698,1,0,0:0:0:0:
160,320,138869,5,4,0:0:0:0:
160,320,138955,1,0,0:0:0:0:
160,320,139040,1,0,0:0:0:0:
192,80,139212,6,8,B|192:224,1,120
320,200,139555,2,8,B|320:80,1,120
448,128,139898,6,0,B|368:160|400:240|400:240|416:304|336:352,1,240,4|0,0:0|0:0,0:0:0:0:
256,192,140412,1,0,0:0:0:0:
145,329,140583,2,0,B|96:304|112:240|112:240|144:160|64:128,1,240,4|0,0:0|0:0,0:0:0:0:
256,192,141098,1,0,0:0:0:0:
192,336,141269,6,0,B|192:208,1,120,8|0,0:0|0:0,0:0:0:0:
128,336,141612,1,0,0:0:0:0:
128,336,141783,1,0,0:0:0:0:
320,336,141955,6,0,B|320:208,1,120,8|0,0:0|0:0,0:0:0:0:
384,336,142298,1,0,0:0:0:0:
384,336,142469,1,0,0:0:0:0:
368,144,142640,6,0,B|416:192|352:272,1,120,4|0,0:0|0:0,0:0:0:0:
146,253,142983,2,0,B|96:192|144:144,1,120,8|0,0:0|0:0,0:0:0:0:
320,144,143326,6,0,B|368:192|304:272,1,120,4|0,0:0|0:0,0:0:0:0:
194,253,143669,2,0,B|144:192|192:144,1,120,8|0,0:0|0:0,0:0:0:0:
256,192,144012,12,4,145383,0:0:0:0:
440,344,150264,5,8,0:0:0:0:
328,232,150483,1,8,0:0:0:0:
440,344,150701,1,8,0:0:0:0:
440,232,150919,1,8,0:0:0:0:
440,344,151138,1,8,0:0:0:0:
328,232,151356,1,8,0:0:0:0:
440,344,151575,1,8,0:0:0:0:
328,344,151793,1,8,0:0:0:0:
440,344,152012,1,8,0:0:0:0:
440,344,152230,1,8,0:0:0:0:
256,192,152448,12,4,153541,0:0:0:0:
72,344,153759,5,8,0:0:0:0:
184,232,153977,1,8,0:0:0:0:
72,344,154196,1,8,0:0:0:0:
72,232,154414,1,8,0:0:0:0:
72,344,154633,1,8,0:0:0:0:
184,232,154851,1,8,0:0:0:0:
72,344,155069,1,8,0:0:0:0:
184,344,155288,1,8,0:0:0:0:
72,344,155506,1,8,0:0:0:0:
72,344,155725,1,8,0:0:0:0:
256,192,155943,12,4,157035,0:0:0:0:
416,64,157254,5,8,0:0:0:0:
288,112,157472,1,0,0:0:0:0:
416,160,157691,1,2,0:0:0:0:
288,224,157909,5,0,0:0:0:0:
256,256,158018,1,0,0:0:0:0:
224,224,158127,1,8,0:0:0:0:
96,160,158346,5,8,0:0:0:0:
224,112,158564,1,2,0:0:0:0:
96,64,158783,1,0,0:0:0:0:
96,160,159001,5,8,0:0:0:0:
96,288,159219,1,0,0:0:0:0:
160,160,159438,1,2,0:0:0:0:
160,288,159656,5,0,0:0:0:0:
160,224,159765,1,0,0:0:0:0:
160,160,159875,1,8,0:0:0:0:
224,288,160093,5,8,0:0:0:0:
224,160,160312,1,2,0:0:0:0:
288,288,160530,5,0,0:0:0:0:
416,160,160748,5,8,0:0:0:0:
416,288,160967,1,0,0:0:0:0:
352,160,161185,1,2,0:0:0:0:
352,288,161404,5,0,0:0:0:0:
352,224,161513,1,0,0:0:0:0:
352,160,161622,1,8,0:0:0:0:
288,288,161840,5,8,0:0:0:0:
288,160,162059,1,2,0:0:0:0:
224,288,162277,5,4,0:0:0:0:
256,112,162496,6,0,L|236:92|227:83|153:41|185:-22,1,130,10|2,0:0|0:0,0:0:0:0:
256,112,162933,6,0,L|243:99|236:92|293:53|261:-10,1,130,10|2,0:0|0:0,0:0:0:0:
256,112,163369,6,0,L|249:105|246:102|306:130|274:194,1,130,10|2,0:0|0:0,0:0:0:0:
256,112,163806,6,0,L|192:144|224:208,1,130,10|0,0:0|0:0,0:0:0:0:
80,192,164243,5,12,0:0:0:0:
96,288,164462,1,0,0:0:0:0:
176,336,164680,1,0,0:0:0:0:
256,272,164898,1,0,0:0:0:0:
432,192,165117,5,12,0:0:0:0:
416,288,165335,1,0,0:0:0:0:
336,336,165554,1,0,0:0:0:0:
256,272,165772,1,0,0:0:0:0:
256,96,165990,6,0,L|243:83|236:76|165:21|117:69,1,130,8|0,0:0|0:0,0:0:0:0:
256,96,166427,6,0,L|249:89|246:86|306:34|354:82,1,130,8|0,0:0|0:0,0:0:0:0:
256,96,166864,6,8,L|256:176,4,65,8|8|8|8|12,0:0|0:0|0:0|0:0|0:0,0:0:0:0:
256,272,167519,5,0,0:0:0:0:
352,240,167738,6,2,L|304:288|240:240|192:240,2,195
160,144,168612,6,2,L|208:96|272:144|320:144,2,195
160,288,169485,5,8,0:0:0:0:
224,224,169704,1,2,0:0:0:0:
288,160,169922,1,8,0:0:0:0:
352,96,170140,1,2,0:0:0:0:
352,288,170359,5,8,0:0:0:0:
288,224,170577,1,2,0:0:0:0:
224,160,170796,1,8,0:0:0:0:
160,96,171014,1,2,0:0:0:0:
256,288,171233,5,4,0:0:0:0:
256,96,171451,1,0,0:0:0:0:
256,288,171669,1,8,0:0:0:0:
256,96,171888,1,0,0:0:0:0:
256,288,172106,1,2,0:0:0:0:
256,96,172325,1,0,0:0:0:0:
256,288,172543,1,8,0:0:0:0:
256,96,172761,1,0,0:0:0:0:
160,192,172980,5,4,0:0:0:0:
352,192,173198,1,0,0:0:0:0:
160,192,173417,1,8,0:0:0:0:
352,192,173635,1,0,0:0:0:0:
160,192,173854,1,2,0:0:0:0:
352,192,174072,1,0,0:0:0:0:
160,192,174290,1,8,0:0:0:0:
352,192,174509,1,0,0:0:0:0:
192,96,174727,5,4,0:0:0:0:
320,288,174946,1,0,0:0:0:0:
192,96,175164,1,8,0:0:0:0:
320,288,175383,1,0,0:0:0:0:
192,96,175601,1,2,0:0:0:0:
320,288,175819,1,0,0:0:0:0:
192,96,176038,1,8,0:0:0:0:
320,288,176256,1,0,0:0:0:0:
320,96,176475,5,4,0:0:0:0:
192,288,176693,1,0,0:0:0:0:
320,96,176911,1,8,0:0:0:0:
192,288,177130,1,0,0:0:0:0:
320,96,177348,1,2,0:0:0:0:
192,288,177567,1,0,0:0:0:0:
320,96,177785,1,8,0:0:0:0:
192,288,178004,1,0,0:0:0:0:
256,96,178222,5,4,0:0:0:0:
256,288,178440,1,0,0:0:0:0:
160,192,178659,5,8,0:0:0:0:
352,192,178877,1,0,0:0:0:0:
192,96,179096,5,2,0:0:0:0:
320,288,179314,1,0,0:0:0:0:
320,96,179533,5,8,0:0:0:0:
192,288,179751,1,0,0:0:0:0:
256,96,179969,5,4,0:0:0:0:
256,288,180188,1,0,0:0:0:0:
352,192,180406,5,8,0:0:0:0:
160,192,180625,1,0,0:0:0:0:
320,96,180843,5,2,0:0:0:0:
192,288,181061,1,0,0:0:0:0:
192,96,181280,5,8,0:0:0:0:
320,288,181498,1,0,0:0:0:0:
64,64,181717,6,0,L|128:96|192:64,1,130,0|8,0:0|0:0,0:0:0:0:
128,160,182154,2,0,L|192:192|256:160,1,130,0|8,0:0|0:0,0:0:0:0:
448,320,182590,6,0,L|384:288|320:320,1,130,0|8,0:0|0:0,0:0:0:0:
384,224,183027,2,0,L|320:192|256:224,1,130,0|8,0:0|0:0,0:0:0:0:
432,64,183464,5,8,0:0:0:0:
288,64,183682,1,0,0:0:0:0:
432,128,183901,1,8,0:0:0:0:
288,128,184119,1,0,0:0:0:0:
360,192,184338,5,2,0:0:0:0:
256,192,184556,1,2,0:0:0:0:
152,192,184775,1,2,0:0:0:0:
256,192,184993,1,2,0:0:0:0:
80,64,185211,5,8,0:0:0:0:
224,64,185430,1,0,0:0:0:0:
80,128,185648,1,8,0:0:0:0:
224,128,185867,1,0,0:0:0:0:
152,192,186085,5,2,0:0:0:0:
256,192,186304,1,2,0:0:0:0:
360,192,186522,1,2,0:0:0:0:
256,192,186740,1,2,0:0:0:0:
256,320,186959,5,8,0:0:0:0:
160,256,187177,1,0,0:0:0:0:
256,320,187396,1,8,0:0:0:0:
352,256,187614,1,0,0:0:0:0:
256,320,187832,5,2,0:0:0:0:
256,192,188051,1,2,0:0:0:0:
256,64,188269,1,2,0:0:0:0:
256,192,188488,1,2,0:0:0:0:
192,64,188706,6,0,L|144:112|192:160,1,130,8|0,0:0|0:0,0:0:0:0:
320,64,189143,2,0,L|368:112|320:160,1,130,2|0,0:0|0:0,0:0:0:0:
160,192,189580,6,0,L|112:240|160:288,1,130,8|0,0:0|0:0,0:0:0:0:
352,192,190017,2,0,L|400:240|352:288,1,130,2|0,0:0|0:0,0:0:0:0:
256,336,190454,6,0,L|192:304|192:240,1,130,8|0,0:0|0:0,0:0:0:0:
256,192,190890,2,0,L|192:160|192:96,1,130,2|0,0:0|0:0,0:0:0:0:
256,112,191327,2,0,L|320:80|320:16,1,130,8|0,0:0|0:0,0:0:0:0:
256,272,191764,2,0,L|320:240|320:176,1,130,2|0,0:0|0:0,0:0:0:0:
256,48,192201,6,0,L|192:80|192:144,1,130,8|0,0:0|0:0,0:0:0:0:
256,192,192638,2,0,L|192:224|192:288,1,130,2|0,0:0|0:0,0:0:0:0:
256,272,193075,2,0,L|320:304|320:368,1,130,8|0,0:0|0:0,0:0:0:0:
256,112,193511,2,0,L|320:144|320:208,1,130,2|0,0:0|0:0,0:0:0:0:
64,64,193948,5,8,0:0:0:0:
160,64,194167,1,0,0:0:0:0:
256,64,194385,1,8,0:0:0:0:
352,64,194604,1,0,0:0:0:0:
448,64,194822,1,8,0:0:0:0:
448,64,195040,5,2,0:0:0:0:
448,192,195259,1,2,0:0:0:0:
448,320,195477,1,2,0:0:0:0:
448,320,195696,5,8,0:0:0:0:
352,320,195914,1,0,0:0:0:0:
256,320,196132,1,8,0:0:0:0:
160,320,196351,1,0,0:0:0:0:
64,320,196569,1,10,0:0:0:0:
112,320,196678,1,2,0:0:0:0:
160,320,196788,1,2,0:0:0:0:
208,320,196897,1,2,0:0:0:0:
256,320,197006,1,2,0:0:0:0:
448,320,197225,1,2,0:0:0:0:
256,320,197443,5,4,0:0:0:0:
256,64,207335,5,0,2:0:0:0:
256,320,207763,1,8,0:0:0:0:
256,128,208192,1,2,0:0:0:0:
256,256,208620,1,2,0:0:0:0:
192,64,209049,6,0,B|128:64|128:128|48:128,2,130
320,64,209692,1,8,0:0:0:0:
320,64,209799,1,8,0:0:0:0:
320,64,209906,2,0,B|384:64|384:128|464:128,2,130
192,64,210549,1,8,0:0:0:0:
192,64,210656,1,8,0:0:0:0:
192,64,210763,6,0,B|240:128|176:208,1,130,2|8,0:0|0:0,0:0:0:0:
320,64,211192,2,0,B|272:128|336:208,1,130,2|8,0:0|0:0,0:0:0:0:
256,336,211620,6,0,B|256:192,2,130,2|0|6,0:0|0:0|0:0,0:0:0:0:
256,206,212263,1,0,0:0:0:0:
256,208,212477,1,8,0:0:0:0:
160,272,212692,5,0,0:0:0:0:
96,272,212799,1,0,0:0:0:0:
160,272,212906,1,8,0:0:0:0:
352,224,213120,1,0,0:0:0:0:
416,224,213227,1,0,0:0:0:0:
352,224,213335,1,8,0:0:0:0:
160,176,213549,5,0,0:0:0:0:
96,176,213656,1,0,0:0:0:0:
160,176,213763,1,8,0:0:0:0:
352,128,213977,1,0,0:0:0:0:
416,128,214085,1,0,0:0:0:0:
352,128,214192,1,8,0:0:0:0:
160,112,214406,5,2,0:0:0:0:
352,64,214620,1,2,0:0:0:0:
160,48,214835,1,2,0:0:0:0:
256,88,215049,5,8,0:0:0:0:
256,152,215156,1,0,0:0:0:0:
256,216,215263,1,8,0:0:0:0:
256,280,215370,1,0,0:0:0:0:
256,344,215477,1,8,0:0:0:0:
256,216,215692,1,4,0:0:0:0:
320,320,215906,6,0,B|384:320|384:256|464:256,2,130
192,320,216549,1,8,0:0:0:0:
192,320,216656,1,8,0:0:0:0:
192,320,216763,2,0,B|128:320|128:256|48:256,2,130
320,320,217406,1,8,0:0:0:0:
320,320,217513,1,8,0:0:0:0:
320,320,217620,6,0,B|272:256|336:176,1,130,2|8,0:0|0:0,0:0:0:0:
192,320,218049,2,0,B|240:256|176:176,1,130,2|8,0:0|0:0,0:0:0:0:
256,48,218477,6,0,B|256:192,2,130,2|0|6,0:0|0:0|0:0,0:0:0:0:
256,178,219120,1,0,0:0:0:0:
256,176,219335,1,8,0:0:0:0:
352,272,219549,5,0,0:0:0:0:
416,272,219656,1,0,0:0:0:0:
352,272,219763,1,8,0:0:0:0:
160,224,219977,1,0,0:0:0:0:
96,224,220085,1,0,0:0:0:0:
160,224,220192,1,8,0:0:0:0:
352,176,220406,5,0,0:0:0:0:
416,176,220513,1,0,0:0:0:0:
352,176,220620,1,8,0:0:0:0:
160,128,220835,1,0,0:0:0:0:
96,128,220942,1,0,0:0:0:0:
160,128,221049,1,8,0:0:0:0:
352,112,221263,5,2,0:0:0:0:
160,64,221477,1,2,0:0:0:0:
352,48,221692,1,2,0:0:0:0:
256,296,221906,5,8,0:0:0:0:
256,232,222013,1,0,0:0:0:0:
256,168,222120,1,8,0:0:0:0:
256,104,222227,1,0,0:0:0:0:
256,40,222335,1,8,0:0:0:0:
256,40,222549,1,4,0:0:0:0:
176,192,222763,6,0,B|144:240|144:240|96:208|48:240,1,130,8|0,0:0|0:0,0:0:0:0:
112,160,223085,1,0,0:0:0:0:
48,128,223192,2,0,B|80:80|80:80|128:112|176:80,1,130,2|0,0:0|0:0,0:0:0:0:
336,192,223620,6,0,B|368:240|368:240|416:208|464:240,1,130,8|0,0:0|0:0,0:0:0:0:
400,160,223942,1,0,0:0:0:0:
464,128,224049,2,0,B|432:80|432:80|384:112|336:80,1,130,2|0,0:0|0:0,0:0:0:0:
224,80,224477,5,4,0:0:0:0:
64,192,224692,2,0,B|96:128,1,65,8|0,0:0|0:0,0:0:0:0:
93,133,224906,2,0,B|160:128,1,65,2|0,0:0|0:0,0:0:0:0:
157,128,225120,2,8,B|192:192,1,65
188,185,225335,2,0,B|144:240,1,65,0|8,0:0|0:0,0:0:0:0:
147,235,225549,2,8,B|80:224,2,65
288,80,226192,5,4,0:0:0:0:
448,192,226406,2,0,B|416:128,1,65,8|0,0:0|0:0,0:0:0:0:
418,133,226620,2,0,B|352:128,1,65,2|0,0:0|0:0,0:0:0:0:
354,128,226835,2,8,B|320:192,1,65
323,185,227049,2,0,B|368:240,1,65,0|8,0:0|0:0,0:0:0:0:
364,235,227263,2,8,B|432:224,4,65
256,112,227906,5,2,0:0:0:0:
160,192,228120,1,0,0:0:0:0:
128,256,228227,1,2,0:0:0:0:
256,304,228442,1,0,0:0:0:0:
256,240,228549,1,2,0:0:0:0:
256,176,228656,1,0,0:0:0:0:
384,256,228870,1,2,0:0:0:0:
352,192,228977,1,0,0:0:0:0:
384,256,229085,1,2,0:0:0:0:
256,48,229406,5,4,0:0:0:0:
256,192,229620,12,4,236049,0:0:0:0:
400,304,239314,5,4,0:0:0:0:
400,304,239504,1,4,0:0:0:0:
48,336,239693,5,2,0:0:0:0:
464,304,240073,1,0,0:0:0:0:
48,272,240453,1,4,0:0:0:0:
256,128,240643,6,8,B|256:64,2,59.9999964237214
256,128,241023,1,0,0:0:0:0:
464,336,241212,5,2,0:0:0:0:
48,304,241592,1,0,0:0:0:0:
464,272,241972,1,4,0:0:0:0:
368,192,242162,5,8,0:0:0:0:
256,128,242352,1,8,0:0:0:0:
144,192,242542,1,0,0:0:0:0:
256,320,242731,6,0,B|176:320|144:272,1,119.999992847443,8|0,0:0|0:0,0:0:0:0:
80,272,243016,1,0,0:0:0:0:
64,208,243111,2,0,B|64:112|96:80,1,119.999992847443,8|0,0:0|0:0,0:0:0:0:
256,32,243491,5,8,0:0:0:0:
208,80,243586,1,0,0:0:0:0:
144,48,243681,1,0,0:0:0:0:
256,32,243871,5,8,0:0:0:0:
304,80,243966,1,0,0:0:0:0:
368,48,244061,1,0,0:0:0:0:
256,320,244250,6,0,B|336:320|368:272,1,119.999992847443,4|0,0:0|0:0,0:0:0:0:
432,272,244535,1,0,0:0:0:0:
448,208,244630,2,0,B|448:112|416:80,1,119.999992847443,4|0,0:0|0:0,0:0:0:0:
256,320,245010,1,4,0:0:0:0:
48,32,245390,5,0,0:0:0:0:
128,160,245580,1,0,0:0:0:0:
256,32,245769,6,0,B|208:32|208:96|128:96,1,119.999992847443
96,96,246054,1,0,0:0:0:0:
48,144,246149,2,2,B|16:208|16:304|112:368,1,239.999985694886
192,192,246719,5,8,0:0:0:0:
256,336,246909,1,0,0:0:0:0:
320,192,247099,1,8,0:0:0:0:
256,32,247288,6,0,B|304:32|304:96|384:96,1,119.999992847443
416,96,247573,1,0,0:0:0:0:
464,144,247668,2,2,B|496:208|496:304|400:368,1,239.999985694886
384,160,248238,5,0,0:0:0:0:
464,32,248428,1,8,0:0:0:0:
256,192,248618,12,4,251086,0:0:0:0:
256,320,251466,5,8,0:0:0:0:
256,320,251656,1,8,0:0:0:0:
384,80,251845,5,8,0:0:0:0:
464,224,252035,1,0,0:0:0:0:
304,224,252225,1,8,0:0:0:0:
384,80,252415,1,0,0:0:0:0:
464,224,252605,1,2,0:0:0:0:
256,64,252795,6,0,B|256:0,2,59.9999964237214
256,64,253175,1,0,0:0:0:0:
128,80,253364,5,8,0:0:0:0:
48,224,253554,1,0,0:0:0:0:
208,224,253744,1,8,0:0:0:0:
128,80,253934,1,0,0:0:0:0:
48,224,254124,1,2,0:0:0:0:
256,320,254314,6,8,B|256:192,2,119.999992847443
256,320,254883,5,2,0:0:0:0:
256,320,255073,1,2,0:0:0:0:
432,320,255263,6,0,B|416:256|336:240,1,119.999992847443,8|0,0:0|0:0,0:0:0:0:
288,224,255548,1,0,0:0:0:0:
288,160,255643,2,8,B|304:96|384:80,1,119.999992847443
432,64,255928,1,0,0:0:0:0:
464,128,256023,2,0,B|480:192|464:256,1,119.999992847443,12|0,0:0|0:0,0:0:0:0:
256,64,256402,5,2,0:0:0:0:
256,64,256592,1,2,0:0:0:0:
80,320,256782,6,0,B|96:256|176:240,1,119.999992847443,8|0,0:0|0:0,0:0:0:0:
224,224,257067,1,0,0:0:0:0:
224,160,257162,2,8,B|208:96|128:80,1,119.999992847443
80,64,257447,1,0,0:0:0:0:
48,128,257542,2,0,B|32:192|48:256,1,119.999992847443,12|0,0:0|0:0,0:0:0:0:
400,160,257921,6,0,B|400:80|320:80,1,119.999992847443,4|0,0:0|0:0,0:0:0:0:
256,96,258206,1,0,0:0:0:0:
183,80,258301,2,8,B|112:80|112:160,1,119.999992847443
80,336,258681,6,0,B|144:352|144:304|192:304,1,119.999992847443,2|0,0:0|0:0,0:0:0:0:
432,336,259061,2,0,B|368:352|368:304|320:304,1,119.999992847443
176,240,259440,5,8,0:0:0:0:
176,112,259630,1,0,0:0:0:0:
336,112,259820,1,8,0:0:0:0:
336,240,260010,1,0,0:0:0:0:
256,32,260200,5,4,0:0:0:0:
256,192,260580,12,4,263238,0:0:0:0:
464,64,263997,5,4,0:0:0:0:
320,128,264187,2,0,B|384:128,3,59.9999964237214,0|0|8|0,0:0|0:0|0:0|0:0,0:0:0:0:
192,128,264567,2,0,B|128:128,3,59.9999964237214,0|0|8|0,0:0|0:0|0:0|0:0,0:0:0:0:
304,192,264947,2,0,B|368:192,3,59.9999964237214,0|0|8|0,0:0|0:0|0:0|0:0,0:0:0:0:
208,192,265326,2,0,B|144:192,3,59.9999964237214,0|0|8|0,0:0|0:0|0:0|0:0,0:0:0:0:
320,256,265706,2,0,B|384:256,3,59.9999964237214,0|0|8|0,0:0|0:0|0:0|0:0,0:0:0:0:
192,256,266086,2,8,B|128:256,4,59.9999964237214
48,64,267035,5,4,0:0:0:0:
288,272,267225,2,0,B|288:336,3,59.9999964237214,0|0|8|0,0:0|0:0|0:0|0:0,0:0:0:0:
224,272,267605,2,0,B|224:336,3,59.9999964237214,0|0|8|0,0:0|0:0|0:0|0:0,0:0:0:0:
352,224,267985,2,0,B|352:288,3,59.9999964237214,0|0|8|0,0:0|0:0|0:0|0:0,0:0:0:0:
160,224,268364,2,0,B|160:288,3,59.9999964237214,0|0|8|0,0:0|0:0|0:0|0:0,0:0:0:0:
416,176,268744,2,0,B|416:240,3,59.9999964237214,0|0|8|0,0:0|0:0|0:0|0:0,0:0:0:0:
96,176,269124,2,8,B|96:240,2,59.9999964237214
256,96,269504,5,8,0:0:0:0:
256,32,269599,1,0,0:0:0:0:
256,96,269693,1,8,0:0:0:0:
256,224,269883,1,4,0:0:0:0:
256,352,270073,5,8,0:0:0:0:
112,304,270263,5,0,0:0:0:0:
144,272,270358,1,0,0:0:0:0:
192,256,270453,1,0,0:0:0:0:
240,240,270548,1,0,0:0:0:0:
208,208,270643,1,0,0:0:0:0:
208,160,270738,1,0,0:0:0:0:
160,160,270833,1,8,0:0:0:0:
128,128,270928,1,0,0:0:0:0:
160,96,271023,1,0,0:0:0:0:
192,64,271118,1,0,0:0:0:0:
224,32,271212,1,0,0:0:0:0:
256,0,271307,1,0,0:0:0:0:
288,32,271402,1,0,0:0:0:0:
320,64,271497,1,0,0:0:0:0:
352,96,271592,1,8,0:0:0:0:
384,128,271687,1,0,0:0:0:0:
352,160,271782,1,0,0:0:0:0:
304,160,271877,1,0,0:0:0:0:
304,208,271972,1,8,0:0:0:0:
272,240,272067,1,0,0:0:0:0:
320,256,272162,1,0,0:0:0:0:
368,272,272257,1,0,0:0:0:0:
400,304,272352,1,8,0:0:0:0:
256,352,272542,1,4,0:0:0:0:
256,192,273111,12,4,276149,0:0:0:0:
176,336,292514,6,0,B|128:336|96:288|80:208|0:208,1,190,4|0,0:0|0:0,0:0:0:0:
256,288,292923,5,0,0:0:0:0:
336,240,293060,2,0,B|384:240|416:192|432:112|512:112,1,190,4|0,0:0|0:0,0:0:0:0:
256,192,293469,5,0,0:0:0:0:
176,160,293605,2,0,B|128:160|96:112|80:32|0:32,1,190,4|0,0:0|0:0,0:0:0:0:
256,32,294151,6,8,B|256:128,2,95
336,336,294696,6,0,B|384:336|416:288|432:208|512:208,1,190,4|0,0:0|0:0,0:0:0:0:
256,288,295105,5,0,0:0:0:0:
176,240,295242,2,0,B|128:240|96:192|80:112|0:112,1,190,4|0,0:0|0:0,0:0:0:0:
256,192,295651,5,0,0:0:0:0:
336,160,295787,2,0,B|384:160|416:112|432:32|512:32,1,190,4|0,0:0|0:0,0:0:0:0:
256,32,296333,6,8,B|256:128,2,95
192,336,296878,5,8,0:0:0:0:
128,304,297014,1,0,0:0:0:0:
96,240,297151,1,8,0:0:0:0:
96,176,297287,1,0,0:0:0:0:
128,112,297423,5,4,0:0:0:0:
192,144,297560,1,0,0:0:0:0:
224,208,297696,1,4,0:0:0:0:
224,272,297833,1,0,0:0:0:0:
288,272,297969,5,8,0:0:0:0:
288,208,298105,1,0,0:0:0:0:
320,144,298242,1,8,0:0:0:0:
384,112,298378,1,0,0:0:0:0:
416,176,298514,5,4,0:0:0:0:
416,240,298651,1,0,0:0:0:0:
384,304,298787,1,4,0:0:0:0:
320,336,298923,1,0,0:0:0:0:
224,272,299060,6,2,B|48:176,1,190
288,208,299605,6,2,B|464:112,1,190
192,176,300151,6,2,B|16:80,1,190
304,112,300696,6,0,B|480:16,1,190,2|4,0:0|0:0,0:0:0:0:
304,304,301242,5,4,0:0:0:0:
304,304,301514,2,0,B|400:304,2,95,0|0|8,0:0|0:0|0:0,0:0:0:0:
304,192,302060,2,0,B|400:192,2,95,0|0|8,0:0|0:0|0:0,0:0:0:0:
304,80,302605,2,0,B|416:80,1,95
112,192,302878,5,10,0:0:0:0:
112,192,303151,1,6,0:0:0:0:
208,304,303423,5,4,0:0:0:0:
208,304,303696,2,0,B|112:304,2,95,0|0|8,0:0|0:0|0:0,0:0:0:0:
208,192,304242,2,0,B|112:192,2,95,0|0|8,0:0|0:0|0:0,0:0:0:0:
208,80,304787,2,0,B|96:80,1,95
400,192,305060,5,10,0:0:0:0:
400,192,305333,1,6,0:0:0:0:
320,320,305605,5,2,0:0:0:0:
384,288,305742,1,0,0:0:0:0:
384,224,305878,1,4,0:0:0:0:
384,160,306014,1,0,0:0:0:0:
448,144,306151,5,8,0:0:0:0:
416,80,306287,1,8,0:0:0:0:
352,80,306423,1,12,0:0:0:0:
288,80,306560,1,0,0:0:0:0:
224,80,306696,5,2,0:0:0:0:
160,80,306833,1,0,0:0:0:0:
96,80,306969,1,4,0:0:0:0:
64,144,307105,1,0,0:0:0:0:
128,160,307242,5,8,0:0:0:0:
128,224,307378,1,8,0:0:0:0:
128,288,307514,1,4,0:0:0:0:
192,320,307651,1,0,0:0:0:0:
288,272,307787,6,2,B|464:176,1,190
224,208,308333,6,2,B|48:112,1,190
320,176,308878,6,2,B|496:80,1,190
208,112,309423,6,0,B|32:16,1,190,2|4,0:0|0:0,0:0:0:0:
352,336,309969,6,0,B|432:304|416:224|336:224|288:272,1,190,4|0,0:0|0:0,0:0:0:0:
256,192,310378,1,0,0:0:0:0:
201,254,310514,2,0,B|176:224|96:224|80:304|160:336,1,190,8|0,0:0|0:0,0:0:0:0:
256,112,311060,5,0,0:0:0:0:
256,320,311333,5,12,0:0:0:0:
336,320,311469,1,0,0:0:0:0:
296,240,311605,1,8,0:0:0:0:
216,240,311742,1,0,0:0:0:0:
176,320,311878,1,4,0:0:0:0:
400,192,312151,6,0,B|400:48|288:32,1,190,0|8,0:0|0:0,0:0:0:0:
112,192,312696,2,0,B|112:48|224:32,1,190,0|8,0:0|0:0,0:0:0:0:
416,304,313242,5,2,0:0:0:0:
336,304,313378,1,0,0:0:0:0:
256,304,313514,1,2,0:0:0:0:
176,304,313651,1,2,0:0:0:0:
96,304,313787,1,2,0:0:0:0:
256,192,314060,5,6,0:0:0:0:
160,80,314333,5,0,0:0:0:0:
352,80,314605,1,8,0:0:0:0:
160,304,314878,1,8,0:0:0:0:
160,304,315014,1,8,0:0:0:0:
352,304,315287,1,8,0:0:0:0:
352,304,315423,1,8,0:0:0:0:
352,304,315560,1,0,0:0:0:0:
352,304,315696,1,8,0:0:0:0:
128,192,315969,5,12,0:0:0:0:
384,192,316242,1,12,0:0:0:0:
256,48,316514,6,2,B|176:112|64:48,1,190
256,48,317060,2,2,B|336:112|448:48,1,190
256,128,317605,5,4,0:0:0:0:
192,160,317742,1,0,0:0:0:0:
160,224,317878,1,4,0:0:0:0:
192,288,318014,1,0,0:0:0:0:
256,320,318151,1,4,0:0:0:0:
320,288,318287,1,0,0:0:0:0:
352,224,318423,1,4,0:0:0:0:
320,160,318560,1,0,0:0:0:0:
256,224,318696,6,0,B|192:304|64:256,1,190,0|8,0:0|0:0,0:0:0:0:
256,160,319242,2,0,B|320:80|448:128,1,190,0|8,0:0|0:0,0:0:0:0:
192,80,319787,5,8,0:0:0:0:
144,128,319923,1,0,0:0:0:0:
96,176,320060,1,0,0:0:0:0:
80,112,320196,1,8,0:0:0:0:
128,64,320333,1,8,0:0:0:0:
256,224,320605,1,4,0:0:0:0:
256,224,320878,6,0,B|320:304|448:256,1,190,0|8,0:0|0:0,0:0:0:0:
256,160,321423,2,0,B|192:80|64:128,1,190,0|8,0:0|0:0,0:0:0:0:
320,80,321969,5,8,0:0:0:0:
368,128,322105,1,0,0:0:0:0:
416,176,322242,1,0,0:0:0:0:
432,112,322378,1,8,0:0:0:0:
384,64,322514,1,8,0:0:0:0:
256,224,322787,1,4,0:0:0:0:
208,336,323060,6,0,B|96:336,3,95,8|0|8|0,0:0|0:0|0:0|0:0,0:0:0:0:
112,256,323605,2,4,B|112:48,1,190
304,336,324151,6,0,B|416:336,3,95,8|0|8|0,0:0|0:0|0:0|0:0,0:0:0:0:
400,256,324696,2,4,B|400:48,1,190
112,192,325242,5,4,0:0:0:0:
256,48,325514,1,2,0:0:0:0:
400,192,325787,1,4,0:0:0:0:
256,336,326060,1,2,0:0:0:0:
224,192,326333,6,8,B|160:96,1,95
288,192,326605,2,8,B|352:96,1,95
256,48,326878,1,4,0:0:0:0:
144,192,327151,1,0,0:0:0:0:
368,192,327423,1,4,0:0:0:0:
208,320,336151,6,2,B|240:272|240:128,1,190
160,176,336560,5,8,0:0:0:0:
160,96,336696,2,0,B|160:32|256:32|256:32|304:96,1,190,4|4,0:0|0:0,0:0:0:0:
64,160,337242,5,2,0:0:0:0:
48,240,337378,1,0,0:0:0:0:
96,304,337514,1,4,0:0:0:0:
168,336,337651,1,2,0:0:0:0:
240,336,337787,1,2,0:0:0:0:
256,112,338060,1,6,0:0:0:0:
304,320,338333,6,2,B|272:272|272:128,1,190
352,176,338742,1,8,0:0:0:0:
352,96,338878,2,0,B|352:32|256:32|256:32|208:96,1,190,4|4,0:0|0:0,0:0:0:0:
448,160,339423,5,2,0:0:0:0:
464,240,339560,1,0,0:0:0:0:
416,304,339696,1,4,0:0:0:0:
344,336,339833,1,2,0:0:0:0:
272,336,339969,1,2,0:0:0:0:
256,112,340242,1,6,0:0:0:0:
144,32,340514,6,0,B|64:96,1,95,8|0,0:0|0:0,0:0:0:0:
176,96,340787,2,0,B|96:160,1,95,8|0,0:0|0:0,0:0:0:0:
208,160,341060,2,4,B|128:224|128:224|128:320,1,190
368,32,341605,6,0,B|448:96,1,95,8|0,0:0|0:0,0:0:0:0:
336,96,341878,2,0,B|416:160,1,95,8|0,0:0|0:0,0:0:0:0:
304,160,342151,2,4,B|384:224|384:224|384:320,1,190
256,336,342696,5,0,0:0:0:0:
256,32,342969,1,4,0:0:0:0:
256,256,343242,5,0,0:0:0:0:
256,112,343514,1,4,0:0:0:0:
96,192,343787,5,2,0:0:0:0:
176,192,343923,1,2,0:0:0:0:
256,192,344060,1,2,0:0:0:0:
336,192,344196,1,2,0:0:0:0:
416,192,344333,1,6,0:0:0:0:
96,192,344605,5,0,0:0:0:0:
304,336,344878,6,0,B|400:320|448:208,1,190,4|8,0:0|0:0,0:0:0:0:
256,272,345287,1,8,0:0:0:0:
208,336,345423,6,0,B|112:320|64:208,2,190,2|2|2,0:0|0:0|0:0,0:0:0:0:
256,272,346105,1,0,0:0:0:0:
320,224,346242,1,8,0:0:0:0:
320,144,346378,1,0,0:0:0:0:
256,96,346514,1,8,0:0:0:0:
192,144,346651,1,8,0:0:0:0:
192,224,346787,1,8,0:0:0:0:
192,64,347060,6,0,B|48:128|80:224,1,190,4|0,0:0|0:0,0:0:0:0:
224,320,347605,2,0,B|144:288|144:192|192:144,1,190,4|0,0:0|0:0,0:0:0:0:
256,224,348014,1,4,0:0:0:0:
333,161,348151,2,4,B|368:192|368:288|288:320,1,190
437,197,348696,2,4,B|464:128|320:64,1,190
160,64,349242,5,8,0:0:0:0:
96,112,349378,1,0,0:0:0:0:
96,192,349514,1,8,0:0:0:0:
96,272,349651,1,0,0:0:0:0:
160,320,349787,1,8,0:0:0:0:
352,320,350060,5,8,0:0:0:0:
416,272,350196,1,8,0:0:0:0:
416,192,350333,1,8,0:0:0:0:
416,112,350469,1,0,0:0:0:0:
352,64,350605,1,8,0:0:0:0:
256,256,350878,5,8,0:0:0:0:
176,128,351014,1,8,0:0:0:0:
336,128,351151,1,4,0:0:0:0:
256,192,351423,12,4,353333,0:0:0:0:
416,64,353605,6,2,B|368:96|384:256,1,190
448,192,354014,1,8,0:0:0:0:
448,192,354151,2,4,B|256:192,1,190
48,288,354696,6,4,B|144:336,1,95
256,288,354969,2,4,B|160:336,1,95
144,256,355242,2,8,B|240:208|240:96,1,190
96,64,355787,6,2,B|144:96|128:256,1,190
64,192,356196,1,8,0:0:0:0:
64,192,356333,2,4,B|256:192,1,190
464,288,356878,6,4,B|368:336,1,95
256,288,357151,2,4,B|352:336,1,95
368,256,357423,2,8,B|272:208|272:96,1,190
384,48,357969,6,0,B|416:112|416:256,1,190
416,304,358378,1,0,0:0:0:0:
416,304,358514,2,8,B|288:320|288:192,1,190
128,48,359060,6,0,B|96:112|96:256,1,190
96,304,359469,1,0,0:0:0:0:
96,304,359605,2,8,B|224:320|224:192,1,190
256,192,360151,12,4,360969,0:0:0:0:
256,192,361242,12,4,362060,0:0:0:0:
96,40,362333,5,8,0:0:0:0:
176,40,362469,1,0,0:0:0:0:
256,40,362605,1,8,0:0:0:0:
336,40,362742,1,8,0:0:0:0:
416,40,362878,5,2,0:0:0:0:
376,120,363014,1,0,0:0:0:0:
296,120,363151,1,8,0:0:0:0:
216,120,363287,1,8,0:0:0:0:
136,120,363423,5,2,0:0:0:0:
176,200,363560,1,0,0:0:0:0:
256,200,363696,1,8,0:0:0:0:
336,200,363833,1,8,0:0:0:0:
296,280,363969,5,2,0:0:0:0:
216,280,364105,1,0,0:0:0:0:
256,352,364242,1,4,0:0:0:0:
416,344,364514,5,8,0:0:0:0:
336,344,364651,1,0,0:0:0:0:
256,344,364787,1,8,0:0:0:0:
176,344,364923,1,8,0:0:0:0:
96,344,365060,5,2,0:0:0:0:
136,264,365196,1,0,0:0:0:0:
216,264,365333,1,8,0:0:0:0:
296,264,365469,1,8,0:0:0:0:
376,264,365605,5,2,0:0:0:0:
336,184,365742,1,0,0:0:0:0:
256,184,365878,1,8,0:0:0:0:
176,184,366014,1,8,0:0:0:0:
216,104,366151,5,2,0:0:0:0:
296,104,366287,1,0,0:0:0:0:
256,32,366423,1,4,0:0:0:0:
32,224,366696,6,0,B|32:320,1,95,4|0,0:0|0:0,0:0:0:0:
96,224,366969,2,8,B|96:336,1,95
160,224,367242,2,0,B|160:320,1,95,4|0,0:0|0:0,0:0:0:0:
224,224,367514,2,8,B|224:336,1,95
288,319,367787,6,0,B|288:224,1,95,4|0,0:0|0:0,0:0:0:0:
352,319,368060,2,8,B|352:224,1,95
416,319,368333,2,0,B|416:224,1,95,4|0,0:0|0:0,0:0:0:0:
480,319,368605,2,8,B|480:224,1,95
448,160,368878,6,6,B|304:32,1,190
256,160,369287,1,4,0:0:0:0:
64,160,369423,6,6,B|208:32,1,190
256,160,369833,1,4,0:0:0:0:
352,192,369969,5,2,0:0:0:0:
320,256,370105,1,2,0:0:0:0:
256,304,370242,1,2,0:0:0:0:
192,256,370378,1,2,0:0:0:0:
160,192,370514,1,2,0:0:0:0:
256,80,370787,5,6,0:0:0:0:
256,192,371060,12,0,375423,0:0:0:0:
64,96,382527,5,4,0:0:0:0:
64,192,382741,1,0,0:0:0:0:
128,224,382848,1,0,0:0:0:0:
192,192,382955,1,8,0:0:0:0:
192,288,383170,1,0,0:0:0:0:
128,320,383277,1,0,0:0:0:0:
64,288,383384,1,0,0:0:0:0:
192,192,383598,6,0,B|185:185|182:182|178:114|146:114,2,60,0|0|8,0:0|0:0|0:0,0:0:0:0:
192,192,384027,2,4,B|256:192|256:288,1,120
448,192,384455,5,0,0:0:0:0:
384,224,384563,1,0,0:0:0:0:
320,192,384670,1,8,0:0:0:0:
320,288,384884,1,0,0:0:0:0:
384,320,384991,1,0,0:0:0:0:
448,288,385098,1,0,0:0:0:0:
320,192,385313,6,0,B|313:185|310:182|306:114|338:114,2,60,0|0|8,0:0|0:0|0:0,0:0:0:0:
320,192,385741,2,4,B|256:192|256:288,1,120
176,112,386170,6,0,B|112:64,2,60,0|0|8,0:0|0:0|0:0,0:0:0:0:
336,112,386598,6,0,B|400:64,2,60,0|0|0,0:0|0:0|0:0,0:0:0:0:
256,272,387027,6,0,B|256:336,2,60,0|0|8,0:0|0:0|0:0,0:0:0:0:
256,192,387455,5,4,0:0:0:0:
448,96,387670,5,2,0:0:0:0:
256,192,387884,1,0,0:0:0:0:
192,248,387991,1,0,0:0:0:0:
256,304,388098,1,2,0:0:0:0:
336,96,388313,5,0,0:0:0:0:
256,96,388420,1,0,0:0:0:0:
176,96,388527,1,2,0:0:0:0:
256,304,388741,5,2,0:0:0:0:
320,248,388848,1,0,0:0:0:0:
256,192,388955,1,2,0:0:0:0:
64,96,389170,1,4,0:0:0:0:
336,336,389384,5,4,0:0:0:0:
400,336,389491,1,0,0:0:0:0:
464,304,389598,1,0,0:0:0:0:
400,272,389705,5,0,0:0:0:0:
336,272,389813,1,8,0:0:0:0:
400,64,390027,6,8,B|320:64|320:144,1,120
191,134,390455,6,8,B|192:64|112:64,2,120
176,336,391098,5,4,0:0:0:0:
112,336,391205,1,0,0:0:0:0:
48,304,391313,1,0,0:0:0:0:
112,272,391420,1,0,0:0:0:0:
176,272,391527,1,8,0:0:0:0:
112,64,391741,6,8,B|192:64|192:144,1,120
320,134,392170,6,8,B|320:64|400:64,2,120
256,256,392813,5,0,0:0:0:0:
144,192,393027,2,2,B|64:192,1,60
256,48,393348,6,8,B|176:48,1,60
256,128,393670,5,0,0:0:0:0:
368,192,393884,2,2,B|448:192,1,60
256,336,394205,2,8,B|336:336,1,60
256,256,394527,5,4,0:0:0:0:
352,336,394741,1,0,0:0:0:0:
448,272,394955,1,4,0:0:0:0:
448,144,395170,1,0,0:0:0:0:
352,80,395384,1,4,0:0:0:0:
256,144,395598,1,4,0:0:0:0:
160,80,395813,1,4,0:0:0:0:
64,144,396027,1,4,0:0:0:0:
64,272,396241,1,4,0:0:0:0:
160,336,396455,1,0,0:0:0:0:
256,192,396777,12,0,397527,0:0:0:0:
256,192,397634,12,0,398384,0:0:0:0:
256,192,398491,12,4,399241,0:0:0:0:
224,80,399563,5,8,0:0:0:0:
288,80,399670,1,8,0:0:0:0:
368,192,399884,5,2,0:0:0:0:
144,192,400098,1,2,0:0:0:0:
336,320,400420,5,8,0:0:0:0:
320,256,400527,1,8,0:0:0:0:
256,224,400634,1,0,0:0:0:0:
192,256,400741,1,2,0:0:0:0:
176,320,400848,1,0,0:0:0:0:
256,320,400955,1,2,0:0:0:0:
256,112,401170,6,0,L|256:32,2,60,0|0|4,0:0|0:0|0:0,0:0:0:0:
176,320,401598,5,8,0:0:0:0:
336,144,401813,1,0,0:0:0:0:
176,144,402027,1,8,0:0:0:0:
256,240,402134,1,0,0:0:0:0:
336,320,402241,1,0,0:0:0:0:
112,240,402455,5,8,0:0:0:0:
400,240,402670,1,8,0:0:0:0:
256,80,402884,5,0,0:0:0:0:
224,144,402991,1,0,0:0:0:0:
208,208,403098,2,8,L|64:208,2,120
256,304,403741,5,0,0:0:0:0:
288,240,403848,1,0,0:0:0:0:
304,176,403955,2,8,L|448:176,2,120
256,128,404598,5,8,0:0:0:0:
256,64,404705,1,0,0:0:0:0:
192,64,404813,6,0,L|192:144,1,60,2|0,0:0|0:0,0:0:0:0:
256,192,405027,6,0,L|192:192,1,60,0|0,0:0|0:0,0:0:0:0:
320,192,405241,6,0,L|320:112,1,60,2|0,0:0|0:0,0:0:0:0:
256,64,405455,2,2,L|320:64,2,60
256,192,405884,6,4,L|256:320,1,120
144,304,406313,5,0,0:0:0:0:
80,256,406420,1,0,0:0:0:0:
144,224,406527,1,2,0:0:0:0:
144,80,406741,5,0,0:0:0:0:
144,144,406848,1,0,0:0:0:0:
208,112,406955,1,4,0:0:0:0:
304,112,407170,5,0,0:0:0:0:
368,144,407277,1,0,0:0:0:0:
368,80,407384,1,2,0:0:0:0:
368,224,407598,5,0,0:0:0:0:
432,256,407705,1,0,0:0:0:0:
368,304,407813,1,4,0:0:0:0:
256,192,408027,5,8,0:0:0:0:
256,192,408134,1,8,0:0:0:0:
256,256,408241,2,0,L|128:256,1,120,2|0,0:0|0:0,0:0:0:0:
192,192,408563,1,0,0:0:0:0:
256,192,408670,2,0,L|400:192,1,120,2|0,0:0|0:0,0:0:0:0:
320,128,408991,1,0,0:0:0:0:
256,128,409098,2,8,L|112:128,2,120
256,192,409634,1,0,0:0:0:0:
256,192,409741,5,8,0:0:0:0:
256,192,409848,5,8,0:0:0:0:
256,128,409955,2,0,L|384:128,1,120,2|0,0:0|0:0,0:0:0:0:
320,192,410277,1,0,0:0:0:0:
256,192,410384,2,0,L|112:192,1,120,2|0,0:0|0:0,0:0:0:0:
192,256,410705,1,0,0:0:0:0:
256,256,410813,2,8,L|400:256,2,120
256,192,411348,12,4,412955,0:0:0:0:
208,192,420241,5,0,0:0:0:0:
89,73,420455,5,2,0:0:0:0:
144,128,420563,5,0,0:0:0:0:
208,192,420670,5,0,0:0:0:0:
89,310,420884,5,2,0:0:0:0:
208,192,421098,5,0,0:0:0:0:
51,132,421313,6,2,B|24:208|61:260,2,120
304,192,421955,5,0,0:0:0:0:
422,310,422170,5,2,0:0:0:0:
360,256,422277,1,0,0:0:0:0:
304,192,422384,5,0,0:0:0:0:
422,73,422598,1,2,0:0:0:0:
304,192,422813,5,0,0:0:0:0:
460,251,423027,2,2,B|488:176|451:124,2,120
341,132,423670,5,0,0:0:0:0:
294,94,423777,1,0,0:0:0:0:
232,88,423884,1,8,0:0:0:0:
232,146,423991,1,0,0:0:0:0:
232,205,424098,1,0,0:0:0:0:
448,192,424313,5,2,0:0:0:0:
170,251,424527,5,0,0:0:0:0:
218,290,424634,1,0,0:0:0:0:
280,296,424741,1,8,0:0:0:0:
280,238,424848,1,0,0:0:0:0:
280,179,424955,1,0,0:0:0:0:
64,192,425170,5,2,0:0:0:0:
256,192,425384,12,4,426670,0:0:0:0:
256,48,426991,6,0,B|256:112,1,60
256,275,427313,5,2,0:0:0:0:
128,120,427527,5,0,0:0:0:0:
96,168,427634,1,0,0:0:0:0:
144,200,427741,5,8,0:0:0:0:
184,248,427848,1,0,0:0:0:0:
208,296,427955,1,8,0:0:0:0:
256,48,428170,5,2,0:0:0:0:
384,120,428384,5,0,0:0:0:0:
416,168,428491,1,0,0:0:0:0:
368,200,428598,1,8,0:0:0:0:
328,248,428705,1,0,0:0:0:0:
304,296,428813,1,8,0:0:0:0:
185,177,429027,5,8,0:0:0:0:
122,146,429134,1,0,0:0:0:0:
62,180,429241,1,8,0:0:0:0:
256,48,429455,5,2,0:0:0:0:
256,48,429563,1,0,0:0:0:0:
256,48,429670,1,0,0:0:0:0:
326,206,429884,5,8,0:0:0:0:
389,237,429991,1,0,0:0:0:0:
449,203,430098,1,8,0:0:0:0:
256,336,430313,5,2,0:0:0:0:
256,336,430420,1,0,0:0:0:0:
256,336,430527,1,0,0:0:0:0:
88,136,430741,5,8,0:0:0:0:
112,64,430955,1,0,0:0:0:0:
152,112,431063,1,0,0:0:0:0:
168,176,431170,1,8,0:0:0:0:
160,240,431277,1,0,0:0:0:0:
136,304,431384,1,0,0:0:0:0:
424,248,431598,5,8,0:0:0:0:
400,320,431813,1,0,0:0:0:0:
360,272,431920,1,0,0:0:0:0:
344,208,432027,1,8,0:0:0:0:
352,144,432134,1,0,0:0:0:0:
376,80,432241,1,0,0:0:0:0:
376,80,432455,6,0,B|281:80,1,60,0|2,0:0|0:0,0:0:0:0:
136,80,432777,6,0,B|231:80,1,60,0|2,0:0|0:0,0:0:0:0:
256,240,433098,6,2,B|249:233|246:230|242:266|242:266|218:290,1,60
256,240,433313,2,2,B|256:200|256:200|280:176,1,60,2|2,0:0|0:0,0:0:0:0:
256,240,433527,5,2,0:0:0:0:
113,330,433741,5,0,0:0:0:0:
71,280,433848,1,0,0:0:0:0:
122,240,433955,1,2,0:0:0:0:
172,199,434063,1,2,0:0:0:0:
196,144,434170,1,2,0:0:0:0:
166,90,434277,1,2,0:0:0:0:
112,63,434384,1,2,0:0:0:0:
172,199,434598,5,0,0:0:0:0:
340,199,434813,1,8,0:0:0:0:
172,199,435027,1,0,0:0:0:0:
340,199,435241,1,8,0:0:0:0:
398,330,435455,5,0,0:0:0:0:
441,280,435563,1,0,0:0:0:0:
390,240,435670,1,2,0:0:0:0:
340,199,435777,1,2,0:0:0:0:
315,144,435884,1,2,0:0:0:0:
345,90,435991,1,2,0:0:0:0:
399,63,436098,1,2,0:0:0:0:
340,199,436313,5,0,0:0:0:0:
172,199,436527,1,8,0:0:0:0:
340,199,436741,1,0,0:0:0:0:
172,199,436955,1,8,0:0:0:0:
53,317,437170,5,0,0:0:0:0:
120,319,437277,1,0,0:0:0:0:
186,319,437384,1,2,0:0:0:0:
252,318,437491,1,0,0:0:0:0:
280,257,437598,1,0,0:0:0:0:
308,196,437705,1,0,0:0:0:0:
334,132,437813,1,2,0:0:0:0:
458,66,438027,5,0,0:0:0:0:
392,65,438134,1,0,0:0:0:0:
326,65,438241,1,2,0:0:0:0:
260,66,438348,1,0,0:0:0:0:
232,127,438455,1,0,0:0:0:0:
204,188,438563,1,0,0:0:0:0:
178,252,438670,1,2,0:0:0:0:
256,192,438884,12,4,440384,0:0:0:0:
48,48,440813,5,2,0:0:0:0:
464,48,441241,5,2,0:0:0:0:
256,344,441670,5,2,0:0:0:0:
256,344,441884,1,2,0:0:0:0:
64,192,442098,5,0,0:0:0:0:
192,192,442313,5,0,0:0:0:0:
320,192,442527,5,0,0:0:0:0:
448,192,442741,5,0,0:0:0:0:
254,63,442955,2,2,B|198:79|314:157|216:178,1,120
432,64,444241,5,4,0:0:0:0:
368,64,444348,1,0,0:0:0:0:
320,112,444455,1,2,0:0:0:0:
320,176,444563,1,0,0:0:0:0:
384,128,444670,6,0,L|432:176|400:224,1,120,2|0,0:0|0:0,0:0:0:0:
368,272,444991,5,0,0:0:0:0:
304,320,445098,1,0,0:0:0:0:
208,320,445205,1,0,0:0:0:0:
144,272,445313,1,2,0:0:0:0:
256,240,445420,1,0,0:0:0:0:
256,240,445527,1,2,0:0:0:0:
256,64,445741,5,0,0:0:0:0:
176,80,445848,1,0,0:0:0:0:
96,112,445955,2,0,L|96:240,1,120
176,208,446277,1,0,0:0:0:0:
256,192,446384,1,2,0:0:0:0:
256,192,446598,5,0,0:0:0:0:
336,208,446705,1,0,0:0:0:0:
416,232,446813,2,0,L|416:112,2,120,0|2|2,0:0|0:0|0:0,0:0:0:0:
80,64,447670,5,4,0:0:0:0:
144,64,447777,1,0,0:0:0:0:
192,112,447884,1,2,0:0:0:0:
192,176,447991,1,0,0:0:0:0:
128,128,448098,6,0,L|80:176|112:224,1,120,2|0,0:0|0:0,0:0:0:0:
144,272,448420,5,0,0:0:0:0:
208,320,448527,1,0,0:0:0:0:
304,320,448634,1,0,0:0:0:0:
368,272,448741,1,2,0:0:0:0:
256,240,448848,1,0,0:0:0:0:
256,240,448955,1,2,0:0:0:0:
336,80,449170,5,8,0:0:0:0:
384,128,449277,1,8,0:0:0:0:
416,192,449384,5,2,0:0:0:0:
352,192,449491,1,0,0:0:0:0:
288,192,449598,1,2,0:0:0:0:
224,192,449705,1,2,0:0:0:0:
160,192,449813,1,2,0:0:0:0:
96,192,449920,1,0,0:0:0:0:
128,128,450027,5,2,0:0:0:0:
176,80,450134,1,0,0:0:0:0:
256,48,450241,5,2,0:0:0:0:
224,288,450455,5,2,0:0:0:0:
288,288,450563,1,6,0:0:0:0:
384,256,450884,5,8,0:0:0:0:
448,224,450991,1,8,0:0:0:0:
384,192,451098,1,2,0:0:0:0:
448,160,451205,1,0,0:0:0:0:
384,128,451313,2,0,L|320:128,1,60
336,64,451527,2,0,L|256:64|256:128,1,120,2|0,0:0|0:0,0:0:0:0:
256,176,451848,1,0,0:0:0:0:
256,240,451955,2,8,L|256:368,2,120,8|8|12,0:0|0:0|0:0,0:0:0:0:
128,256,452598,5,8,0:0:0:0:
64,224,452705,1,0,0:0:0:0:
128,192,452813,1,2,0:0:0:0:
64,160,452920,1,0,0:0:0:0:
128,128,453027,2,0,L|192:128,1,60,2|0,0:0|0:0,0:0:0:0:
176,64,453241,2,8,L|256:64|256:128,1,120
256,176,453563,1,0,0:0:0:0:
256,240,453670,2,6,L|256:368,2,120
256,48,454313,6,0,L|256:112,1,60
192,160,454527,5,8,0:0:0:0:
320,160,454741,1,0,0:0:0:0:
128,240,454955,1,2,0:0:0:0:
384,240,455170,1,0,0:0:0:0:
192,320,455384,5,2,0:0:0:0:
256,288,455491,1,0,0:0:0:0:
320,320,455598,1,0,0:0:0:0:
256,352,455705,1,4,0:0:0:0:
160,192,456027,5,0,0:0:0:0:
256,192,456134,1,0,0:0:0:0:
352,192,456241,1,2,0:0:0:0:
432,80,456455,5,2,0:0:0:0:
256,80,456670,1,2,0:0:0:0:
80,80,456884,1,2,0:0:0:0:
256,320,457098,6,4,L|256:192,2,120
432,288,457741,5,0,0:0:0:0:
432,192,457848,1,0,0:0:0:0:
432,80,457955,2,0,L|304:80,1,120,8|0,0:0|0:0,0:0:0:0:
368,144,458170,2,0,L|368:272,2,120,0|0|2,0:0|0:0|0:0,0:0:0:0:
80,80,458598,6,8,L|208:80,1,120
144,144,458813,2,0,B|144:272|256:272|256:272|288:224,2,240,8|2|2,0:0|0:0|0:0,0:0:0:0:
256,336,459455,6,8,B|256:208,1,120
320,272,459670,5,2,0:0:0:0:
192,272,459884,1,0,0:0:0:0:
384,192,460098,5,2,0:0:0:0:
128,192,460313,1,0,0:0:0:0:
432,96,460527,5,8,0:0:0:0:
80,96,460741,1,2,0:0:0:0:
256,96,460955,5,6,0:0:0:0:
80,288,461170,5,0,0:0:0:0:
80,192,461277,1,0,0:0:0:0:
80,80,461384,2,0,L|208:80,1,120,8|0,0:0|0:0,0:0:0:0:
144,144,461598,2,0,L|144:272,2,120,0|0|2,0:0|0:0|0:0,0:0:0:0:
432,80,462027,6,8,L|304:80,1,120
368,144,462241,2,0,B|368:272|256:272|256:272|224:224,2,240,8|2|2,0:0|0:0|0:0,0:0:0:0:
256,336,462884,6,8,B|256:208,1,120
192,272,463098,5,2,0:0:0:0:
320,272,463313,1,0,0:0:0:0:
128,192,463527,5,2,0:0:0:0:
384,192,463741,1,0,0:0:0:0:
80,96,463955,5,8,0:0:0:0:
432,96,464170,5,2,0:0:0:0:
256,96,464384,5,6,0:0:0:0:
384,320,464598,5,8,0:0:0:0:
448,240,464705,1,8,0:0:0:0:
320,240,464813,6,0,B|320:96,1,120
176,48,465027,1,8,0:0:0:0:
176,144,465134,1,0,0:0:0:0:
176,240,465241,1,8,0:0:0:0:
448,336,465455,6,2,B|448:192|272:192,3,240
128,320,466313,5,8,0:0:0:0:
64,240,466420,1,8,0:0:0:0:
192,240,466527,6,0,B|192:96,1,120
336,48,466741,1,8,0:0:0:0:
336,144,466848,1,0,0:0:0:0:
336,240,466955,1,8,0:0:0:0:
64,336,467170,6,2,B|64:192|240:192,3,240
256,192,468241,12,4,471241,0:0:0:0:
160,160,476910,6,0,B|160:96|224:32,1,140,12|0,0:0|0:0,0:0:0:0:
292,36,477251,2,8,B|352:96|352:160,1,140
288,160,477592,1,0,0:0:0:0:
224,160,477706,1,8,0:0:0:0:
256,352,477934,1,8,0:0:0:0:
288,160,478161,5,12,0:0:0:0:
320,96,478275,1,0,0:0:0:0:
288,32,478389,1,0,0:0:0:0:
224,32,478503,1,8,0:0:0:0:
192,96,478616,1,8,0:0:0:0:
224,160,478730,6,0,B|224:240|160:288,1,140,8|0,0:0|0:0,0:0:0:0:
288,160,479071,2,8,B|288:240|352:288,1,140
288,320,479413,5,0,0:0:0:0:
224,320,479527,1,8,0:0:0:0:
144,144,479754,5,8,0:0:0:0:
192,192,479868,1,8,0:0:0:0:
256,208,479982,1,0,0:0:0:0:
320,192,480095,1,12,0:0:0:0:
368,144,480209,1,0,0:0:0:0:
352,80,480323,6,8,B|272:80,1,70
160,80,480551,2,8,B|240:80,1,70
256,144,480778,1,0,0:0:0:0:
320,192,480892,2,0,B|352:256|288:336,2,140,8|8|8,0:0|0:0|0:0,0:0:0:0:
256,240,481461,1,0,0:0:0:0:
214,322,481575,2,0,B|160:256|192:192,2,140,8|8|8,0:0|0:0|0:0,0:0:0:0:
256,272,482144,1,0,0:0:0:0:
256,208,482257,6,8,B|256:64,1,140
224,16,482599,1,8,0:0:0:0:
288,16,482712,1,8,0:0:0:0:
368,144,482940,1,8,0:0:0:0:
144,144,483168,1,12,0:0:0:0:
64,160,483281,5,12,0:0:0:0:
112,208,483395,1,0,0:0:0:0:
176,208,483509,1,0,0:0:0:0:
224,160,483623,1,0,0:0:0:0:
288,160,483737,5,12,0:0:0:0:
336,208,483850,1,0,0:0:0:0:
400,208,483964,1,0,0:0:0:0:
448,160,484078,1,0,0:0:0:0:
432,96,484192,6,0,B|288:64,1,140,8|0,0:0|0:0,0:0:0:0:
216,65,484533,2,8,B|80:96,1,140
144,224,484988,1,12,0:0:0:0:
368,224,485216,1,4,0:0:0:0:
256,352,485443,5,12,0:0:0:0:
256,288,485557,1,0,0:0:0:0:
256,224,485671,1,0,0:0:0:0:
256,160,485785,1,8,0:0:0:0:
256,96,485898,1,8,0:0:0:0:
208,48,486012,6,0,B|144:112|160:176,1,140,8|0,0:0|0:0,0:0:0:0:
96,192,486354,2,8,B|96:282|152:316,1,140
362,314,486809,6,8,B|416:282|416:192,1,140
352,172,487150,2,8,B|368:112|304:48,1,140
224,192,487605,5,8,0:0:0:0:
288,192,487719,1,0,0:0:0:0:
336,240,487833,6,6,B|288:304|208:304|208:304|144:352,1,210
176,240,488515,2,6,B|224:304|304:304|304:304|368:352,1,210
256,192,489198,5,10,0:0:0:0:
224,64,489426,1,2,0:0:0:0:
288,64,489539,1,14,0:0:0:0:
320,192,489653,6,0,B|320:144,2,46.6666666666667,8|0|0,0:0|0:0|0:0,0:0:0:0:
272,176,489881,2,0,B|272:128,2,46.6666666666667,8|0|0,0:0|0:0|0:0,0:0:0:0:
240,176,490108,2,0,B|240:128,2,46.6666666666667,8|0|0,0:0|0:0|0:0,0:0:0:0:
192,192,490336,2,0,B|192:144,2,46.6666666666667,8|0|0,0:0|0:0|0:0,0:0:0:0:
240,224,490564,2,0,B|224:272,2,46.6666666666667,8|0|0,0:0|0:0|0:0,0:0:0:0:
272,224,490791,2,0,B|288:272,2,46.6666666666667,8|0|0,0:0|0:0|0:0,0:0:0:0:
384,336,491019,5,2,0:0:0:0:
384,192,491246,1,2,0:0:0:0:
384,48,491474,1,2,0:0:0:0:
320,336,491701,5,8,0:0:0:0:
320,192,491815,1,0,0:0:0:0:
256,336,491929,5,2,0:0:0:0:
256,192,492156,1,2,0:0:0:0:
256,48,492384,1,2,0:0:0:0:
192,336,492612,5,8,0:0:0:0:
192,192,492725,1,0,0:0:0:0:
128,336,492839,5,2,0:0:0:0:
128,192,493067,1,2,0:0:0:0:
128,48,493294,1,2,0:0:0:0:
256,48,493522,1,2,0:0:0:0:
384,48,493749,1,2,0:0:0:0:
384,192,493977,1,2,0:0:0:0:
320,336,494205,5,8,0:0:0:0:
256,336,494318,1,0,0:0:0:0:
192,336,494432,1,12,0:0:0:0:
128,336,494660,5,2,0:0:0:0:
64,192,494887,1,2,0:0:0:0:
128,48,495115,1,2,0:0:0:0:
256,192,495342,5,8,0:0:0:0:
256,192,495456,1,0,0:0:0:0:
384,336,495570,5,2,0:0:0:0:
448,192,495798,1,2,0:0:0:0:
384,48,496025,1,2,0:0:0:0:
256,192,496253,5,8,0:0:0:0:
256,192,496366,1,0,0:0:0:0:
128,256,496480,5,2,0:0:0:0:
256,352,496708,1,2,0:0:0:0:
384,256,496935,1,2,0:0:0:0:
384,128,497163,1,2,0:0:0:0:
256,32,497390,1,2,0:0:0:0:
128,128,497618,1,2,0:0:0:0:
256,160,497846,5,8,0:0:0:0:
224,224,497959,1,0,0:0:0:0:
288,224,498073,1,12,0:0:0:0:
384,128,498301,5,2,0:0:0:0:
496,336,498528,1,2,0:0:0:0:
272,336,498756,1,2,0:0:0:0:
384,240,498983,5,8,0:0:0:0:
384,240,499097,1,0,0:0:0:0:
128,128,499211,5,2,0:0:0:0:
16,336,499439,1,2,0:0:0:0:
240,336,499666,1,2,0:0:0:0:
128,240,499894,5,8,0:0:0:0:
128,240,500007,1,0,0:0:0:0:
256,272,500121,5,2,0:0:0:0:
256,64,500349,1,2,0:0:0:0:
192,160,500576,6,2,B|256:212|320:160,1,140
416,208,501032,2,2,B|468:272|416:336,1,140
96,336,501487,2,2,B|44:272|96:208,1,140
256,336,501942,1,2,0:0:0:0:
256,192,502169,2,2,B|256:48,1,140,2|6,0:0|0:0,0:0:0:0:
400,240,502624,5,8,0:0:0:0:
400,48,502852,1,8,0:0:0:0:
112,48,503080,2,0,B|32:48,1,70,0|8,0:0|0:0,0:0:0:0:
400,112,503421,2,0,B|480:112,1,70,0|8,0:0|0:0,0:0:0:0:
112,112,503762,1,8,0:0:0:0:
400,240,503990,2,0,B|400:320,1,70,0|8,0:0|0:0,0:0:0:0:
112,310,504331,6,0,B|112:240,1,70,0|8,0:0|0:0,0:0:0:0:
400,112,504673,1,8,0:0:0:0:
112,112,504900,2,0,B|32:112,1,70,0|8,0:0|0:0,0:0:0:0:
400,48,505241,2,8,B|480:48,1,70
368,80,505583,5,2,0:0:0:0:
256,16,505810,1,2,0:0:0:0:
144,80,506038,1,2,0:0:0:0:
256,192,506266,5,8,0:0:0:0:
256,192,506379,1,0,0:0:0:0:
144,80,506493,5,2,0:0:0:0:
80,192,506721,1,2,0:0:0:0:
144,304,506948,1,2,0:0:0:0:
256,192,507176,5,8,0:0:0:0:
256,192,507290,1,0,0:0:0:0:
144,304,507403,5,2,0:0:0:0:
256,368,507631,1,2,0:0:0:0:
368,304,507859,1,2,0:0:0:0:
256,368,508086,1,2,0:0:0:0:
144,304,508314,1,2,0:0:0:0:
256,192,508541,1,2,0:0:0:0:
256,192,508769,5,8,0:0:0:0:
256,192,508883,1,0,0:0:0:0:
256,192,508996,1,8,0:0:0:0:
144,80,509224,5,2,0:0:0:0:
256,16,509451,1,2,0:0:0:0:
368,80,509679,1,2,0:0:0:0:
256,192,509907,5,8,0:0:0:0:
256,192,510020,1,0,0:0:0:0:
368,80,510134,5,2,0:0:0:0:
432,192,510362,1,2,0:0:0:0:
368,304,510589,1,2,0:0:0:0:
256,192,510817,5,8,0:0:0:0:
256,192,510931,1,0,0:0:0:0:
144,80,511044,5,2,0:0:0:0:
368,80,511272,1,2,0:0:0:0:
368,208,511500,6,2,B|352:288|256:288|256:288|256:352|160:352,1,280
350,351,512182,2,2,B|256:352|256:288|256:288|160:288|144:208,1,280
160,80,512865,1,2,0:0:0:0:
352,80,513093,1,2,0:0:0:0:
256,192,513320,12,4,515596,0:0:0:0:
432,192,516051,6,0,B|432:144,2,46.6666666666667,8|0|0,0:0|0:0|0:0,0:0:0:0:
400,208,516278,1,12,0:0:0:0:
80,192,516506,6,0,B|80:144,2,46.6666666666667,8|0|0,0:0|0:0|0:0,0:0:0:0:
112,208,516734,1,12,0:0:0:0:
144,288,516961,5,8,0:0:0:0:
176,288,517075,1,0,0:0:0:0:
208,288,517189,1,8,0:0:0:0:
240,288,517302,1,8,0:0:0:0:
272,288,517416,5,0,0:0:0:0:
304,288,517530,1,8,0:0:0:0:
336,288,517644,1,8,0:0:0:0:
368,288,517758,1,0,0:0:0:0:
368,256,517871,5,8,0:0:0:0:
336,256,517985,1,0,0:0:0:0:
304,256,518099,1,8,0:0:0:0:
272,256,518213,1,8,0:0:0:0:
240,256,518327,5,0,0:0:0:0:
208,256,518440,1,8,0:0:0:0:
176,256,518554,1,8,0:0:0:0:
144,256,518668,1,8,0:0:0:0:
144,224,518782,6,0,B|144:144,1,70,8|0,0:0|0:0,0:0:0:0:
176,224,519009,2,8,B|176:144,1,70
208,224,519237,5,0,0:0:0:0:
240,224,519351,1,8,0:0:0:0:
272,224,519464,1,8,0:0:0:0:
304,224,519578,1,8,0:0:0:0:
336,224,519692,6,0,B|336:144,1,70,8|0,0:0|0:0,0:0:0:0:
368,224,519919,2,8,B|368:144,1,70
368,128,520147,5,0,0:0:0:0:
336,128,520261,1,8,0:0:0:0:
304,128,520375,1,8,0:0:0:0:
272,128,520488,1,8,0:0:0:0:
240,128,520602,5,8,0:0:0:0:
208,128,520716,1,0,0:0:0:0:
176,128,520830,1,8,0:0:0:0:
144,128,520944,1,8,0:0:0:0:
144,96,521057,5,8,0:0:0:0:
176,96,521171,1,0,0:0:0:0:
208,96,521285,2,8,B|208:16,1,70
240,96,521512,6,8,B|240:16,1,70
272,96,521740,2,8,B|272:16,1,70
304,96,521968,6,0,B|304:16,1,70,8|0,0:0|0:0,0:0:0:0:
336,96,522195,1,8,0:0:0:0:
368,96,522309,1,0,0:0:0:0:
328,144,522423,6,0,B|168:144,1,140,8|0,0:0|0:0,0:0:0:0:
152,200,522764,1,0,0:0:0:0:
128,128,522878,6,2,B|64:176|48:256,1,140
128,272,523219,1,0,0:0:0:0:
192,320,523333,2,2,B|256:372|320:320,1,140
384,272,523674,1,0,0:0:0:0:
460,241,523788,2,2,B|448:176|384:128,1,140
360,200,524129,1,0,0:0:0:0:
304,144,524243,5,8,0:0:0:0:
272,128,524357,1,0,0:0:0:0:
256,96,524471,1,0,0:0:0:0:
272,64,524585,1,0,0:0:0:0:
304,48,524698,5,8,0:0:0:0:
336,64,524812,1,0,0:0:0:0:
352,96,524926,1,0,0:0:0:0:
336,128,525040,1,0,0:0:0:0:
304,144,525154,5,8,0:0:0:0:
272,176,525267,1,8,0:0:0:0:
256,208,525381,1,8,0:0:0:0:
272,240,525495,1,8,0:0:0:0:
304,256,525609,5,10,0:0:0:0:
448,336,525836,1,14,0:0:0:0:
208,144,526064,5,8,0:0:0:0:
240,128,526178,1,0,0:0:0:0:
256,96,526291,1,0,0:0:0:0:
240,64,526405,1,0,0:0:0:0:
208,48,526519,5,8,0:0:0:0:
176,64,526633,1,0,0:0:0:0:
160,96,526746,1,0,0:0:0:0:
176,128,526860,1,0,0:0:0:0:
208,144,526974,5,8,0:0:0:0:
240,176,527088,1,8,0:0:0:0:
256,208,527202,1,8,0:0:0:0:
240,240,527315,1,8,0:0:0:0:
208,256,527429,5,10,0:0:0:0:
64,336,527657,1,14,0:0:0:0:
128,224,527884,6,0,B|128:144,1,70,12|0,0:0|0:0,0:0:0:0:
160,96,528112,2,0,B|224:48,1,70
296,54,528339,6,0,B|352:96,1,70,8|0,0:0|0:0,0:0:0:0:
384,154,528567,2,8,B|384:224,1,70
448,336,528795,6,2,B|368:320|336:256,1,140
256,320,529136,2,2,B|256:176,1,140
174,258,529477,2,2,B|144:320|64:336,1,140
96,256,529819,5,4,0:0:0:0:
144,208,529932,1,0,0:0:0:0:
192,160,530046,1,0,0:0:0:0:
256,128,530160,5,4,0:0:0:0:
320,160,530274,1,0,0:0:0:0:
368,208,530388,1,0,0:0:0:0:
416,256,530501,1,0,0:0:0:0:
352,288,530615,6,0,B|352:336,2,46.6666666666667,8|0|0,0:0|0:0|0:0,0:0:0:0:
320,272,530843,1,12,0:0:0:0:
160,288,531070,6,0,B|160:336,2,46.6666666666667,8|0|0,0:0|0:0|0:0,0:0:0:0:
192,272,531298,1,12,0:0:0:0:
64,48,531525,5,12,0:0:0:0:
96,48,531639,1,0,0:0:0:0:
128,48,531753,1,0,0:0:0:0:
160,48,531867,1,0,0:0:0:0:
130,173,531980,5,12,0:0:0:0:
153,150,532094,1,0,0:0:0:0:
176,128,532208,1,0,0:0:0:0:
198,105,532322,1,0,0:0:0:0:
256,240,532436,5,12,0:0:0:0:
256,207,532549,1,0,0:0:0:0:
256,175,532663,1,0,0:0:0:0:
256,144,532777,1,0,0:0:0:0:
381,173,532891,5,12,0:0:0:0:
358,150,533005,1,0,0:0:0:0:
336,128,533118,1,0,0:0:0:0:
313,105,533232,1,0,0:0:0:0:
448,48,533346,5,12,0:0:0:0:
415,48,533460,1,0,0:0:0:0:
383,48,533573,1,0,0:0:0:0:
351,48,533687,1,0,0:0:0:0:
288,48,533801,5,12,0:0:0:0:
256,16,533915,1,0,0:0:0:0:
224,48,534029,1,0,0:0:0:0:
256,80,534142,1,0,0:0:0:0:
288,128,534256,6,0,B|288:208,1,70,8|0,0:0|0:0,0:0:0:0:
336,240,534484,1,12,0:0:0:0:
224,128,534711,6,0,B|224:208,1,70,8|0,0:0|0:0,0:0:0:0:
176,240,534939,1,12,0:0:0:0:
336,336,535166,6,0,B|384:336,5,46.6666666666667,8|0|0|12|0|0,0:0|0:0|0:0|0:0|0:0|0:0,0:0:0:0:
176,336,535622,6,0,B|128:336,5,46.6666666666667,8|0|0|12|0|0,0:0|0:0|0:0|0:0|0:0|0:0,0:0:0:0:
256,192,536077,5,6,0:0:0:0:
32,32,536418,1,6,0:0:0:0:
480,32,536759,1,6,0:0:0:0:
256,192,536987,12,4,538807,0:0:0:0:
136,172,548365,5,4,0:0:0:0:
138,125,548469,1,0,0:0:0:0:
172,92,548573,1,0,0:0:0:0:
218,92,548677,1,0,0:0:0:0:
253,124,548781,1,0,0:0:0:0:
256,171,548885,1,0,0:0:0:0:
256,220,548990,5,8,0:0:0:0:
258,266,549094,1,0,0:0:0:0:
292,299,549198,1,0,0:0:0:0:
338,299,549302,1,0,0:0:0:0:
373,267,549406,1,0,0:0:0:0:
376,220,549510,1,0,0:0:0:0:
376,172,549615,5,4,0:0:0:0:
374,125,549719,1,0,0:0:0:0:
340,92,549823,1,0,0:0:0:0:
294,92,549927,1,0,0:0:0:0:
259,124,550031,1,0,0:0:0:0:
256,171,550135,1,0,0:0:0:0:
256,220,550240,5,8,0:0:0:0:
254,266,550344,1,0,0:0:0:0:
220,299,550448,1,0,0:0:0:0:
174,299,550552,1,0,0:0:0:0:
139,267,550656,1,0,0:0:0:0:
136,220,550760,1,0,0:0:0:0:
160,64,550865,6,0,L|80:60,5,80,4|0|0|0|0|0,0:0|0:0|0:0|0:0|0:0|0:0,0:0:0:0:
352,64,551490,2,0,L|432:60,5,80,8|0|0|0|0|0,0:0|0:0|0:0|0:0|0:0|0:0,0:0:0:0:
360,192,552115,6,0,L|360:272,1,80,12|0,0:0|0:0,0:0:0:0:
292,336,552323,2,0,L|212:336,1,80
152,272,552531,2,0,L|152:192,1,80,8|0,0:0|0:0,0:0:0:0:
116,112,552740,2,0,L|196:112,1,80,4|0,0:0|0:0,0:0:0:0:
396,112,552948,2,0,L|316:112,1,80,8|0,0:0|0:0,0:0:0:0:
256,192,553156,2,0,L|256:276,1,80
112,312,553365,5,8,0:0:0:0:
400,312,553573,1,8,0:0:0:0:
112,312,553781,1,8,0:0:0:0:
400,312,553990,6,0,L|400:232,1,80,8|0,3:1|0:3,0:3:0:0:
400,312,554198,1,2,3:3:0:0:
112,232,554406,1,2,3:3:0:0:
400,72,554615,5,8,0:0:0:0:
112,72,554823,1,8,0:0:0:0:
400,72,555031,1,8,0:0:0:0:
112,72,555240,6,0,L|112:152,1,80,8|0,3:1|3:0,3:0:0:0:
112,72,555448,1,2,3:3:0:0:
400,152,555656,1,2,3:3:0:0:
212,324,555865,6,0,L|120:312,1,80,4|0,0:0|0:0,0:0:0:0:
176,252,556073,2,0,L|84:240,1,80
140,180,556281,2,0,L|48:168,1,80
300,324,556490,6,0,L|392:312,1,80,4|0,0:0|0:0,0:0:0:0:
336,252,556698,2,0,L|428:240,1,80
372,180,556906,2,0,L|464:168,1,80
304,88,557115,6,0,P|256:35|208:88,1,160,4|0,0:0|0:0,0:0:0:0:
256,144,557427,1,0,0:0:0:0:
180,192,557531,6,0,L|180:272,1,80,8|0,0:0|0:0,0:0:0:0:
256,320,557740,2,0,L|256:240,1,80,8|0,0:0|0:0,0:0:0:0:
332,196,557948,6,0,L|332:116,1,80,8|0,0:0|0:0,0:0:0:0:
256,64,558156,2,0,L|256:144,1,80,8|0,0:0|0:0,0:0:0:0:
104,260,558365,6,0,B|56:268|32:224|32:224|48:192|32:160|32:160|56:116|104:124,1,240,4|0,0:0|0:0,0:0:0:0:
120,192,558781,1,8,0:0:0:0:
392,192,558990,1,0,0:0:0:0:
120,192,559198,6,0,L|180:124,1,80,8|0,0:0|0:0,0:0:0:0:
208,216,559406,2,0,L|148:284,1,80
408,260,559615,6,0,B|456:268|480:224|480:224|464:192|480:160|480:160|456:116|408:124,1,240,4|0,0:0|0:0,0:0:0:0:
392,192,560031,1,8,0:0:0:0:
120,192,560240,1,0,0:0:0:0:
392,192,560448,6,0,L|332:124,1,80,8|0,0:0|0:0,0:0:0:0:
304,216,560656,2,0,L|364:284,1,80
130,287,560865,5,4,0:0:0:0:
119,240,560969,1,0,0:0:0:0:
120,192,561073,1,0,0:0:0:0:
133,146,561177,1,0,0:0:0:0:
158,105,561281,1,8,0:0:0:0:
192,72,561385,1,0,0:0:0:0:
158,105,561490,5,8,0:0:0:0:
205,116,561594,1,0,0:0:0:0:
253,115,561698,1,8,0:0:0:0:
299,102,561802,1,0,0:0:0:0:
340,77,561906,1,0,0:0:0:0:
373,43,562010,1,0,0:0:0:0:
256,192,562115,12,6,562948,0:0:0:0:
216,260,563365,6,0,B|200:312|224:344|224:344|256:328|288:344|288:344|312:312|296:260,1,240,4|0,0:0|0:0,0:0:0:0:
364,224,563781,1,8,0:0:0:0:
148,224,563990,1,0,0:0:0:0:
56,64,564198,5,8,0:0:0:0:
104,80,564302,1,0,0:0:0:0:
152,64,564406,1,0,0:0:0:0:
332,256,564615,6,0,B|360:308|288:312|256:296|256:296|224:312|152:308|180:256,1,240,4|0,0:0|0:0,0:0:0:0:
128,216,565031,1,8,0:0:0:0:
384,216,565240,1,0,0:0:0:0:
456,64,565448,5,8,0:0:0:0:
408,80,565552,1,0,0:0:0:0:
360,64,565656,1,0,0:0:0:0:
139,43,565865,5,4,0:0:0:0:
172,77,565969,1,0,0:0:0:0:
213,102,566073,1,0,0:0:0:0:
259,115,566177,1,0,0:0:0:0:
307,116,566281,1,8,0:0:0:0:
354,105,566385,1,0,0:0:0:0:
320,72,566490,5,8,0:0:0:0:
354,105,566594,1,0,0:0:0:0:
379,146,566698,1,8,0:0:0:0:
392,192,566802,1,0,0:0:0:0:
393,240,566906,1,0,0:0:0:0:
382,287,567010,1,0,0:0:0:0:
256,192,567115,12,6,567948,0:0:0:0:
96,72,568365,6,0,P|68:144|96:240,1,160,4|0,0:0|0:0,0:0:0:0:
132,204,568677,1,0,0:0:0:0:
154,248,568781,1,8,0:0:0:0:
130,292,568885,1,0,0:0:0:0:
153,335,568990,1,0,0:0:0:0:
416,72,569198,5,8,0:0:0:0:
96,72,569406,1,0,0:0:0:0:
416,72,569615,6,0,P|444:144|416:240,1,160,4|0,0:0|0:0,0:0:0:0:
380,204,569927,1,0,0:0:0:0:
358,248,570031,1,8,0:0:0:0:
382,292,570135,1,0,0:0:0:0:
359,335,570240,1,0,0:0:0:0:
184,288,570448,6,0,L|104:312,1,80,8|0,0:0|0:0,0:0:0:0:
328,288,570656,2,0,L|408:312,1,80
160,192,570865,5,4,0:0:0:0:
208,164,570969,1,0,0:0:0:0:
256,192,571073,1,8,0:0:0:0:
304,164,571177,1,0,0:0:0:0:
352,192,571281,1,8,0:0:0:0:
352,52,571490,5,4,0:0:0:0:
304,80,571594,1,0,0:0:0:0:
256,52,571698,1,8,0:0:0:0:
208,80,571802,1,0,0:0:0:0:
160,52,571906,1,8,0:0:0:0:
200,192,572115,6,0,B|200:276|280:232|336:352,1,160,12|0,0:0|0:0,0:0:0:0:
120,272,572427,1,0,0:0:0:0:
312,192,572531,2,0,B|312:276|232:232|176:352,1,160,12|0,0:0|0:0,0:0:0:0:
392,272,572844,1,0,0:0:0:0:
332,112,572948,6,0,L|352:72,2,40,2|0|0,3:3|3:3|3:3,3:3:0:0:
256,100,573156,1,0,3:3:0:0:
180,112,573260,2,0,L|160:72,2,40,2|0|4,3:3|3:3|3:3,3:3:0:0:
72,188,573573,5,0,0:0:0:0:
420,256,573781,1,8,0:0:0:0:
92,256,573990,1,0,0:0:0:0:
440,188,574198,1,8,0:0:0:0:
256,52,574406,6,0,L|256:96,2,40,2|0|2,3:3|3:3|3:3,3:3:0:0:
256,52,574615,1,4,3:3:0:0:
96,136,574823,5,0,0:0:0:0:
384,328,575031,1,8,0:0:0:0:
128,328,575240,1,0,0:0:0:0:
416,136,575448,1,8,0:0:0:0:
256,332,575656,6,0,L|256:288,2,40,2|0|2,3:3|3:3|3:3,3:3:0:0:
128,328,575865,5,4,0:0:0:0:
124,280,575969,1,0,0:0:0:0:
136,232,576073,1,8,0:0:0:0:
128,184,576177,1,0,0:0:0:0:
108,140,576281,1,8,0:0:0:0:
384,328,576490,5,4,0:0:0:0:
388,280,576594,1,0,0:0:0:0:
376,232,576698,1,8,0:0:0:0:
384,184,576802,1,0,0:0:0:0:
404,140,576906,1,8,0:0:0:0:
256,60,577115,5,4,0:0:0:0:
220,96,577219,1,0,0:0:0:0:
256,132,577323,1,0,0:0:0:0:
292,96,577427,1,0,0:0:0:0:
256,60,577531,1,4,0:0:0:0:
220,96,577635,1,0,0:0:0:0:
172,128,577740,6,0,L|88:148,1,80,2|0,3:3|3:3,3:3:0:0:
340,128,577948,2,0,L|424:148,1,80,2|0,3:3|3:3,3:3:0:0:
256,308,578156,1,4,3:3:0:0:
92,312,578365,5,0,0:0:0:0:
392,80,578573,1,2,0:0:0:0:
256,308,578781,1,2,0:0:0:0:
120,80,578990,1,2,0:0:0:0:
420,312,579198,6,2,P|380:248|412:176,1,160,10|2,0:0|0:0,0:0:0:0:
256,212,579510,1,0,0:0:0:0:
100,176,579615,2,0,P|132:246|92:312,1,160,8|2,0:0|0:0,0:0:0:0:
440,124,580031,5,2,0:0:0:0:
72,124,580240,1,2,0:0:0:0:
256,228,580448,5,6,3:1:0:0:
256,180,580552,1,0,3:3:0:0:
256,132,580656,1,2,3:3:0:0:
256,84,580760,1,0,3:3:0:0:
256,132,580865,6,0,L|168:104,1,80,4|0,0:0|0:0,0:0:0:0:
188,176,581073,2,0,L|100:204,1,80,2|0,0:0|0:0,0:0:0:0:
48,44,581281,1,2,0:0:0:0:
256,132,581490,6,0,L|344:104,1,80,6|0,0:0|0:0,0:0:0:0:
324,176,581698,2,0,L|412:204,1,80,2|0,0:0|0:0,0:0:0:0:
464,44,581906,1,2,0:0:0:0:
80,280,582115,5,6,0:0:0:0:
120,312,582219,1,0,0:0:0:0:
160,280,582323,1,0,0:0:0:0:
176,328,582427,1,0,0:0:0:0:
220,304,582531,1,6,0:0:0:0:
256,332,582635,1,0,0:0:0:0:
292,304,582740,1,0,0:0:0:0:
336,328,582844,1,0,0:0:0:0:
352,280,582948,1,6,0:0:0:0:
392,312,583052,1,0,0:0:0:0:
432,280,583156,1,0,0:0:0:0:
256,48,583365,5,4,0:0:0:0:
76,56,588365,5,4,0:0:0:0:
436,56,588573,1,0,0:0:0:0:
76,144,588781,1,8,0:0:0:0:
76,144,588990,5,0,0:0:0:0:
256,188,589094,1,0,0:0:0:0:
436,232,589198,1,4,0:0:0:0:
76,232,589406,5,4,0:0:0:0:
436,144,589615,1,8,0:0:0:0:
436,144,589823,5,0,0:0:0:0:
256,100,589927,1,0,0:0:0:0:
76,56,590031,1,4,0:0:0:0:
436,56,590240,5,0,0:0:0:0:
76,144,590448,1,8,0:0:0:0:
256,344,590656,2,0,L|256:252,1,89.9999972534181
332,192,590865,6,0,L|388:120,1,89.9999972534181,8|0,0:0|0:0,0:0:0:0:
180,192,591073,2,0,L|124:120,1,89.9999972534181,8|0,0:0|0:0,0:0:0:0:
225,49,591281,2,0,P|256:114|287:49,1,179.999994506836,4|0,0:0|0:0,0:0:0:0:
192,344,591698,5,8,0:0:0:0:
112,328,591802,1,0,0:0:0:0:
256,280,591906,1,8,0:0:0:0:
176,264,592010,1,0,0:0:0:0:
96,248,592115,2,0,P|52:192|68:88,1,179.999994506836,4|0,0:0|0:0,0:0:0:0:
320,344,592531,5,8,0:0:0:0:
400,328,592635,1,0,0:0:0:0:
256,280,592740,1,8,0:0:0:0:
336,264,592844,1,0,0:0:0:0:
416,248,592948,2,4,P|460:192|444:88,1,179.999994506836
88,152,593365,5,2,0:0:0:0:
124,41,593469,1,0,0:0:0:0:
160,152,593573,1,0,0:0:0:0:
65,83,593677,1,0,0:0:0:0:
182,83,593781,1,2,0:0:0:0:
127,260,593990,1,2,0:0:0:0:
192,248,594094,1,0,0:0:0:0:
244,205,594198,1,2,0:0:0:0:
267,143,594302,1,0,0:0:0:0:
257,77,594406,1,0,0:0:0:0:
368,328,594615,6,0,L|392:240,1,89.9999972534181,8|0,0:0|0:0,0:0:0:0:
368,56,594823,2,0,L|392:144,1,89.9999972534181,8|0,0:0|0:0,0:0:0:0:
464,192,595031,5,4,0:0:0:0:
296,144,595240,2,0,L|208:116,1,89.9999972534181
464,192,595448,1,8,0:0:0:0:
188,256,595656,2,0,L|100:288,1,89.9999972534181
464,192,595865,1,4,0:0:0:0:
80,100,596073,1,4,0:0:0:0:
224,280,596281,5,8,0:0:0:0:
304,344,596385,1,0,0:0:0:0:
288,280,596490,5,8,0:0:0:0:
208,344,596594,1,0,0:0:0:0:
380,300,596698,6,0,P|416:268|440:224,1,89.9999972534181,12|0,0:0|0:0,0:0:0:0:
132,300,596906,2,0,P|96:268|72:224,1,89.9999972534181
420,156,597115,1,2,0:0:0:0:
92,156,597323,1,0,0:0:0:0:
436,88,597531,1,8,0:0:0:0:
76,88,597740,1,0,0:0:0:0:
204,60,597844,6,2,P|256:32|308:60,2,119.999996337891
156,324,598365,5,12,0:0:0:0:
194,286,598469,1,0,0:0:0:0:
239,255,598573,1,0,0:0:0:0:
283,224,598677,1,8,0:0:0:0:
304,177,598781,1,0,0:0:0:0:
281,129,598885,1,0,0:0:0:0:
230,129,598990,1,8,0:0:0:0:
207,177,599094,1,0,0:0:0:0:
228,224,599198,1,8,0:0:0:0:
272,255,599302,1,0,0:0:0:0:
317,286,599406,1,0,0:0:0:0:
356,324,599510,1,8,0:0:0:0:
256,82,599719,6,0,L|256:172,2,89.9999972534181,0|12|0,0:0|0:0|0:0,0:0:0:0:
144,272,600135,1,8,0:0:0:0:
172,306,600240,1,8,0:0:0:0:
211,328,600344,1,0,0:0:0:0:
255,335,600448,1,8,0:0:0:0:
299,328,600552,1,0,0:0:0:0:
339,307,600656,1,8,0:0:0:0:
367,272,600760,1,0,0:0:0:0:
192,216,600865,6,8,L|100:192,1,89.9999972534181
352,156,601073,2,8,L|444:132,1,89.9999972534181
72,133,601281,2,8,L|160:156,1,89.9999972534181
407,193,601490,2,8,L|320:216,1,89.9999972534181
112,328,601698,5,4,0:0:0:0:
28,104,601906,1,0,0:0:0:0:
208,244,602115,1,8,0:0:0:0:
256,24,602323,1,0,0:0:0:0:
304,244,602531,1,4,0:0:0:0:
484,104,602740,1,4,0:0:0:0:
400,328,602948,6,0,L|212:328,1,179.999994506836,8|0,0:0|0:0,0:0:0:0:
412,232,603260,1,0,0:0:0:0:
344,268,603365,2,0,P|256:252|168:268,1,179.999994506836,8|0,0:0|0:0,0:0:0:0:
100,232,603677,1,0,0:0:0:0:
292,328,603781,2,0,L|112:328,1,179.999994506836,8|8,0:0|0:0,0:0:0:0:
132,148,604198,5,12,0:0:0:0:
196,108,604302,1,0,0:0:0:0:
256,160,604406,1,0,0:0:0:0:
308,108,604510,1,0,0:0:0:0:
372,148,604615,1,4,0:0:0:0:
256,336,604823,1,0,0:0:0:0:
48,48,605031,6,0,B|72:68|108:48|108:48|132:64|156:48|156:48|192:68|216:48,1,179.999994506836,8|8,0:0|0:0,0:0:0:0:
256,108,605344,1,0,0:0:0:0:
184,132,605448,2,0,P|160:224|212:288,1,179.999994506836,2|0,0:0|0:0,0:0:0:0:
256,340,605760,1,0,0:0:0:0:
303,286,605865,6,0,P|353:214|328:132,1,179.999994506836,8|8,0:0|0:0,0:0:0:0:
256,108,606177,1,0,0:0:0:0:
296,48,606281,2,0,B|320:68|356:48|356:48|380:64|404:48|404:48|440:68|464:48,1,179.999994506836,2|0,0:0|0:0,0:0:0:0:
452,292,606698,6,0,P|408:229|364:292,1,179.999994506836,8|0,0:0|0:0,0:0:0:0:
408,348,607010,1,0,0:0:0:0:
300,292,607115,2,0,P|256:229|212:292,1,179.999994506836,2|2,0:0|0:0,0:0:0:0:
256,348,607427,1,0,0:0:0:0:
147,292,607531,2,0,P|104:229|60:292,1,179.999994506836,2|4,0:0|0:0,0:0:0:0:
104,348,607844,1,0,0:0:0:0:
368,168,607948,6,0,L|280:120,1,89.9999972534181,8|0,0:0|0:0,0:0:0:0:
144,168,608156,2,0,L|232:120,1,89.9999972534181,8|0,0:0|0:0,0:0:0:0:
320,272,608365,5,12,0:0:0:0:
216,40,608573,1,0,0:0:0:0:
192,272,608781,1,8,0:0:0:0:
296,40,608990,1,0,0:0:0:0:
256,336,609198,1,8,0:0:0:0:
212,144,609406,6,0,P|256:136|300:144,1,89.9999972534181
312,236,609615,2,0,B|316:276|256:300|256:300|196:276|200:236,1,179.999994506836,12|0,0:0|0:0,0:0:0:0:
256,92,609927,1,0,0:0:0:0:
176,56,610031,6,0,L|88:36,1,89.9999972534181,8|0,0:0|0:0,0:0:0:0:
336,56,610240,2,0,L|424:36,1,89.9999972534181
140,116,610448,1,8,0:0:0:0:
344,304,610656,1,8,0:0:0:0:
168,304,610865,1,8,0:0:0:0:
372,116,611073,1,0,0:0:0:0:
280,192,611177,6,6,P|256:235|232:192,2,119.999996337891
104,127,611698,5,8,0:0:0:0:
93,174,611802,1,0,0:0:0:0:
114,217,611906,1,8,0:0:0:0:
155,243,612010,1,8,0:0:0:0:
114,271,612115,1,0,0:0:0:0:
140,312,612219,1,8,0:0:0:0:
185,327,612323,1,8,0:0:0:0:
232,316,612427,1,8,0:0:0:0:
279,316,612531,5,8,0:0:0:0:
326,327,612635,1,0,0:0:0:0:
371,312,612740,1,8,0:0:0:0:
397,271,612844,1,8,0:0:0:0:
356,243,612948,1,0,0:0:0:0:
397,217,613052,1,8,0:0:0:0:
418,174,613156,1,12,0:0:0:0:
407,127,613260,1,8,0:0:0:0:
256,44,613469,5,8,0:0:0:0:
105,123,613573,2,0,L|192:100,1,89.9999972534181,8|0,0:0|0:0,0:0:0:0:
406,123,613781,2,0,L|320:100,1,89.9999972534181,8|0,0:0|0:0,0:0:0:0:
216,176,613990,2,0,P|256:193|296:176,1,89.9999972534181,8|0,0:0|0:0,0:0:0:0:
136,316,614198,6,0,L|168:232,1,89.9999972534181,6|0,0:0|0:0,0:0:0:0:
320,60,614406,2,0,L|408:36,1,89.9999972534181,4|0,0:0|0:0,0:0:0:0:
105,36,614615,2,0,L|192:60,1,89.9999972534181,6|0,0:0|0:0,0:0:0:0:
344,232,614823,2,0,L|376:316,1,89.9999972534181,4|0,0:0|0:0,0:0:0:0:
52,232,615031,5,6,0:0:0:0:
460,156,615240,1,2,0:0:0:0:
52,156,615448,1,6,0:0:0:0:
460,232,615656,1,2,0:0:0:0:
180,232,615865,5,2,0:0:0:0:
332,152,615969,1,0,0:0:0:0:
180,152,616073,1,0,0:0:0:0:
332,232,616177,1,0,0:0:0:0:
256,92,616281,6,0,B|249:85|246:82|178:34|122:74|70:30,1,179.999994506836,2|0,0:0|0:0,0:0:0:0:
48,192,616594,1,0,0:0:0:0:
256,92,616698,2,0,B|320:48|376:88|428:44,1,179.999994506836,2|0,0:0|0:0,0:0:0:0:
464,192,617010,1,0,0:0:0:0:
220,324,617115,6,0,P|184:308|188:264,1,89.9999972534181,2|0,0:0|0:0,0:0:0:0:
323,263,617323,2,0,P|329:305|292:324,1,89.9999972534181,2|0,0:0|0:0,0:0:0:0:
256,220,617531,2,0,L|256:176,2,44.999998626709,6|0|0,0:0|0:0|0:0,0:0:0:0:
96,224,617740,6,0,L|116:136,1,89.9999972534181
416,224,617948,2,0,L|396:136,1,89.9999972534181
211,36,618156,2,0,P|255:28|300:36,1,89.9999972534181
184,144,618365,6,0,L|88:144,1,89.9999972534181,2|0,0:0|0:0,0:0:0:0:
328,144,618573,2,0,L|424:144,1,89.9999972534181,2|0,0:0|0:0,0:0:0:0:
216,80,618781,6,0,L|176:60,2,44.999998626709,2|0|0,0:0|0:0|0:0,0:0:0:0:
160,208,618990,2,0,L|64:208,1,89.9999972534181
296,80,619198,2,0,L|336:60,2,44.999998626709,2|0|0,0:0|0:0|0:0,0:0:0:0:
352,208,619406,2,0,L|448:208,1,89.9999972534181,2|0,0:0|0:0,0:0:0:0:
89,314,619615,6,0,P|129:331|168:312,1,89.9999972534181,2|0,0:0|0:0,0:0:0:0:
422,314,619823,2,0,P|382:331|344:312,1,89.9999972534181
352,152,620031,5,2,0:0:0:0:
388,41,620135,1,0,0:0:0:0:
424,152,620240,1,0,0:0:0:0:
330,83,620344,1,0,0:0:0:0:
447,83,620448,1,2,0:0:0:0:
385,260,620656,1,2,0:0:0:0:
320,248,620760,1,0,0:0:0:0:
268,205,620865,1,2,0:0:0:0:
245,143,620969,1,0,0:0:0:0:
255,77,621073,1,0,0:0:0:0:
144,328,621281,6,0,L|120:240,1,89.9999972534181,8|0,0:0|0:0,0:0:0:0:
144,56,621490,2,0,L|120:144,1,89.9999972534181,8|0,0:0|0:0,0:0:0:0:
48,192,621698,5,8,0:0:0:0:
216,144,621906,2,0,L|304:116,1,89.9999972534181,8|0,0:0|0:0,0:0:0:0:
48,192,622115,1,8,0:0:0:0:
324,256,622323,2,0,L|412:288,1,89.9999972534181,8|0,0:0|0:0,0:0:0:0:
48,192,622531,1,8,0:0:0:0:
432,100,622740,1,0,0:0:0:0:
92,344,622948,5,8,0:0:0:0:
420,344,623156,1,8,0:0:0:0:
212,112,623365,5,12,0:0:0:0:
328,244,623469,1,0,0:0:0:0:
184,244,623573,1,0,0:0:0:0:
300,112,623677,1,0,0:0:0:0:
216,312,623781,6,0,P|140:328|72:256,1,179.999994506836,8|0,0:0|0:0,0:0:0:0:
296,312,624198,2,0,P|372:328|440:256,1,179.999994506836
228,164,624510,6,2,P|256:207|284:164,2,119.999996337891
208,48,625031,5,8,0:0:0:0:
256,72,625135,1,0,0:0:0:0:
288,116,625240,1,8,0:0:0:0:
284,168,625344,1,8,0:0:0:0:
228,168,625448,1,0,0:0:0:0:
224,116,625552,1,8,0:0:0:0:
256,72,625656,1,8,0:0:0:0:
304,48,625760,1,8,0:0:0:0:
345,79,625865,5,8,0:0:0:0:
358,131,625969,1,0,0:0:0:0:
332,177,626073,1,8,0:0:0:0:
282,199,626177,1,8,0:0:0:0:
229,199,626281,1,0,0:0:0:0:
179,177,626385,1,8,0:0:0:0:
153,131,626490,1,8,0:0:0:0:
166,79,626594,1,8,0:0:0:0:
64,296,626802,5,8,0:0:0:0:
24,260,626906,1,8,0:0:0:0:
64,224,627010,1,0,0:0:0:0:
104,260,627115,1,8,0:0:0:0:
140,300,627219,1,0,0:0:0:0:
180,336,627323,1,8,0:0:0:0:
220,300,627427,1,0,0:0:0:0:
256,260,627531,1,8,0:0:0:0:
292,300,627635,1,8,0:0:0:0:
332,336,627740,1,8,0:0:0:0:
372,300,627844,1,8,0:0:0:0:
408,260,627948,1,8,0:0:0:0:
448,224,628052,1,8,0:0:0:0:
488,260,628156,1,8,0:0:0:0:
448,296,628260,1,8,0:0:0:0:
408,260,628365,5,2,3:3:0:0:
408,260,628781,1,2,3:3:0:0:
408,260,629198,1,2,3:3:0:0:
408,260,629615,1,2,3:3:0:0:
256,36,630031,5,4,0:0:0:0:
