osu file format v14

[General]
AudioFilename: K - POP Compilation.mp3
AudioLeadIn: 0
PreviewTime: 24892
Countdown: 0
SampleSet: Normal
StackLeniency: 0.7
Mode: 0
LetterboxInBreaks: 1
EpilepsyWarning: 1
WidescreenStoryboard: 1

[Editor]
Bookmarks: 21062,44032,66565,94475,114172,148929,202351,240238,274472,319429,337792,363786,394866,428723,463281,523420
DistanceSpacing: 0.6
BeatDivisor: 4
GridSize: 4
TimelineZoom: 6.799996

[Metadata]
Title:K - POP Compilation I
TitleUnicode:K - POP Compilation I
Artist:Various Artists
ArtistUnicode:Various Artists
Creator:-Deer Lu-
Version:Marathon
Source:
Tags:kpop k pop sunmi gash nuest w where you at pentagon runaway btob i'll be your man victon remember me momoland boom boom produce 101 pick me infinite tell me wanna one energetic k.a.r.d you in me twice likey monsta x shine forever exo lightsaber bts dna tvxq catch me henry trap
BeatmapID:1586835
BeatmapSetID:753709

[Difficulty]
HPDrainRate:7.5
CircleSize:3
OverallDifficulty:8
ApproachRate:9.5
SliderMultiplier:1.8
SliderTickRate:1

[Events]
//Background and Video events
0,0,"BG.jpg",0,0
//Break Periods
2,21262,25150
2,44335,45395
2,66765,68983
2,94675,95870
2,114372,118404
2,149129,154951
2,202551,205077
2,240438,242747
2,274671,277967
2,319629,323631
2,337992,338886
2,363986,366270
2,395066,398198
2,428923,432874
2,463481,467327
//Storyboard Layer 0 (Background)
//Storyboard Layer 1 (Fail)
//Storyboard Layer 2 (Pass)
//Storyboard Layer 3 (Foreground)
//Storyboard Sound Samples

[TimingPoints]
1914,638.297872340426,4,1,1,30,1,0
25675,419.58041958042,4,1,1,30,1,0
25675,-133.333333333333,4,1,1,30,0,0
26514,-50,4,1,1,30,0,0
26933,-133.333333333333,4,1,1,30,0,0
28192,-50,4,1,1,30,0,0
28612,-133.333333333333,4,1,1,30,0,0
29870,-50,4,1,1,30,0,0
30290,-133.333333333333,4,1,1,30,0,0
31549,-50,4,1,1,30,0,0
32073,-133.333333333333,4,1,1,30,0,0
33227,-50,4,1,1,30,0,0
33647,-133.333333333333,4,1,1,30,0,0
34905,-50,4,1,1,30,0,0
35325,-133.333333333333,4,1,1,30,0,0
36584,-50,4,1,1,30,0,0
37003,-133.333333333333,4,1,1,30,0,0
38262,-50,4,1,1,30,0,0
38786,-133.333333333333,4,1,1,30,0,0
45920,645.161290322581,4,1,1,30,1,0
46887,-50,4,1,1,30,0,0
47855,-100,4,1,1,30,0,0
49468,-50,4,1,1,30,0,0
50436,-100,4,1,1,30,0,0
52049,-50,4,1,1,30,0,0
53016,-100,4,1,1,30,0,0
54629,-50,4,1,1,30,0,0
55597,-100,4,1,1,30,0,0
57210,-50,4,1,1,30,0,0
58178,-100,4,1,1,30,0,0
59790,-50,4,1,1,30,0,0
60758,-100,4,1,1,30,0,0
62371,-50,4,1,1,30,0,0
63339,-100,4,1,1,30,0,0
64952,-50,4,1,1,30,0,0
65920,-100,4,1,1,30,0,0
69508,387.096774193548,4,1,1,30,1,0
70282,-50,4,1,1,30,0,0
70475,-100,4,1,1,30,0,0
71830,-50,4,1,1,30,0,0
72024,-100,4,1,1,30,0,0
73378,-50,4,1,1,30,0,0
73572,-100,4,1,1,30,0,0
74927,-50,4,1,1,30,0,0
75120,-100,4,1,1,30,0,0
76475,-50,4,1,1,30,0,0
76669,-100,4,1,1,30,0,0
78024,-50,4,1,1,30,0,0
78217,-100,4,1,1,30,0,0
79572,-50,4,1,1,30,0,0
79766,-100,4,1,1,30,0,0
81701,-166.666666666667,4,1,1,30,0,0
82669,-50,4,1,1,30,0,0
82862,-100,4,1,1,30,0,0
84217,-50,4,1,1,30,0,0
84604,-100,4,1,1,30,0,0
85766,-50,4,1,1,30,0,0
85959,-100,4,1,1,30,0,0
87314,-50,4,1,1,30,0,0
87508,-100,4,1,1,30,0,0
88862,-50,4,1,1,30,0,0
89056,-100,4,1,1,30,0,0
90411,-50,4,1,1,30,0,0
90604,-100,4,1,1,30,0,0
94088,-166.666666666667,4,1,1,30,0,0
96395,555.555555555556,4,1,1,30,1,0
118929,476.190476190476,4,1,1,30,1,0
155476,468.75,4,1,1,30,1,0
205602,545.454545454546,4,1,1,30,1,0
243272,480,4,1,1,30,1,0
278492,625,4,1,1,30,1,0
318492,-153.846153846154,4,1,1,30,0,0
324156,454.545454545455,4,1,1,30,1,0
339411,375,4,1,1,30,1,0
339411,-133.333333333333,4,1,1,30,0,0
340161,-50,4,1,1,30,0,0
341286,-133.333333333333,4,1,1,30,0,0
341661,-50,4,1,1,30,0,0
341942,-133.333333333333,4,1,1,30,0,0
343161,-50,4,1,1,30,0,0
343442,-133.333333333333,4,1,1,30,0,0
344661,-50,4,1,1,30,0,0
345036,-133.333333333333,4,1,1,30,0,0
346161,-50,4,1,1,30,0,0
347286,-133.333333333333,4,1,1,30,0,0
347661,-50,4,1,1,30,0,0
347942,-133.333333333333,4,1,1,30,0,0
349161,-50,4,1,1,30,0,0
349442,-133.333333333333,4,1,1,30,0,0
350661,-50,4,1,1,30,0,0
351036,-133.333333333333,4,1,1,30,0,0
352161,-50,4,1,1,30,0,0
353286,-133.333333333333,4,1,1,30,0,0
353661,-50,4,1,1,30,0,0
354036,-133.333333333333,4,1,1,30,0,0
355161,-50,4,1,1,30,0,0
355536,-133.333333333333,4,1,1,30,0,0
356661,-50,4,1,1,30,0,0
357036,-133.333333333333,4,1,1,30,0,0
358161,-50,4,1,1,30,0,0
359286,-133.333333333333,4,1,1,30,0,0
359661,-50,4,1,1,30,0,0
359942,-133.333333333333,4,1,1,30,0,0
361161,-50,4,1,1,30,0,0
361536,-133.333333333333,4,1,1,30,0,0
362661,-50,4,1,1,30,0,0
363036,-133.333333333333,4,1,1,30,0,0
366795,428.571428571429,4,1,1,30,1,0
367652,-50,4,1,1,30,0,0
368080,-100,4,1,1,30,0,0
369366,-50,4,1,1,30,0,0
369687,-100,4,1,1,30,0,0
369795,-50,4,1,1,30,0,0
370223,-100,4,1,1,30,0,0
371080,-50,4,1,1,30,0,0
371509,-100,4,1,1,30,0,0
372795,-50,4,1,1,30,0,0
373116,-100,4,1,1,30,0,0
373223,-50,4,1,1,30,0,0
373652,-100,4,1,1,30,0,0
374509,-50,4,1,1,30,0,0
374937,-100,4,1,1,30,0,0
376223,-50,4,1,1,30,0,0
376545,-100,4,1,1,30,0,0
377937,-50,4,1,1,30,0,0
378366,-100,4,1,1,30,0,0
379652,-50,4,1,1,30,0,0
379973,-100,4,1,1,30,0,0
380080,-50,4,1,1,30,0,0
380509,-100,4,1,1,30,0,0
381366,-50,4,1,1,30,0,0
381795,-100,4,1,1,30,0,0
383080,-50,4,1,1,30,0,0
383402,-100,4,1,1,30,0,0
383509,-50,4,1,1,30,0,0
383937,-100,4,1,1,30,0,0
384795,-50,4,1,1,30,0,0
385223,-100,4,1,1,30,0,0
386509,-50,4,1,1,30,0,0
386830,-100,4,1,1,30,0,0
386937,-50,4,1,1,30,0,0
387366,-100,4,1,1,30,0,0
388223,-50,4,1,1,30,0,0
388545,-100,4,1,1,30,0,0
388652,-50,4,1,1,30,0,0
389080,-100,4,1,1,30,0,0
389937,-50,4,1,1,30,0,0
390259,-100,4,1,1,30,0,0
390366,-50,4,1,1,30,0,0
390795,-100,4,1,1,30,0,0
391652,-50,4,1,1,30,0,0
391973,-100,4,1,1,30,0,0
392080,-50,4,1,1,30,0,0
392509,-100,4,1,1,30,0,0
398723,461.538461538462,4,1,1,30,1,0
398723,-133.333333333333,4,1,1,30,0,0
399184,-50,4,1,1,30,0,0
399646,-133.333333333333,4,1,1,30,0,0
400107,-50,4,1,1,30,0,0
400569,-133.333333333333,4,1,1,30,0,0
402876,-50,4,1,1,30,0,0
403338,-133.333333333333,4,1,1,30,0,0
403799,-50,4,1,1,30,0,0
404261,-133.333333333333,4,1,1,30,0,0
406569,-50,4,1,1,30,0,0
407030,-133.333333333333,4,1,1,30,0,0
407492,-50,4,1,1,30,0,0
407953,-133.333333333333,4,1,1,30,0,0
410261,-50,4,1,1,30,0,0
410723,-133.333333333333,4,1,1,30,0,0
411184,-50,4,1,1,30,0,0
411646,-133.333333333333,4,1,1,30,0,0
413492,-50,4,1,1,30,0,0
413953,-133.333333333333,4,1,1,30,0,0
415223,-50,4,1,1,30,0,0
415799,-133.333333333333,4,1,1,30,0,0
417646,-50,4,1,1,30,0,0
418107,-133.333333333333,4,1,1,30,0,0
418569,-50,4,1,1,30,0,0
419030,-133.333333333333,4,1,1,30,0,0
420876,-50,4,1,1,30,0,0
421338,-133.333333333333,4,1,1,30,0,0
422607,-50,4,1,1,30,0,0
423184,-133.333333333333,4,1,1,30,0,0
425030,-50,4,1,1,30,0,0
425492,-133.333333333333,4,1,1,30,0,0
425953,-50,4,1,1,30,0,0
426415,-133.333333333333,4,1,1,30,0,0
428030,-200,4,1,1,30,0,0
433399,468.75,4,1,1,30,1,0
467852,681.818181818182,4,1,1,30,1,0
520352,-166.666666666667,4,1,1,30,0,0

[Colours]
Combo1 : 255,0,128
Combo2 : 255,166,255
Combo3 : 220,24,44

[HitObjects]
80,340,1914,5,4,0:0:0:0:
32,248,2233,1,4,0:0:0:0:
88,192,2392,1,4,0:0:0:0:
40,128,2552,2,0,P|36:92|56:24,1,90,4|0,0:0|0:0,0:0:0:0:
184,204,3190,2,0,P|192:244|188:300,1,90,4|0,0:0|0:0,0:0:0:0:
244,352,3669,1,4,0:0:0:0:
300,296,3828,1,4,0:0:0:0:
408,356,4148,1,4,0:0:0:0:
492,212,4467,1,4,0:0:0:0:
408,104,4786,5,4,0:0:0:0:
340,148,4945,1,4,0:0:0:0:
272,104,5105,2,0,P|232:104|168:128,1,90,4|0,0:0|0:0,0:0:0:0:
116,248,5743,2,0,P|160:248|208:224,1,90,4|0,0:0|0:0,0:0:0:0:
260,180,6222,1,4,0:0:0:0:
312,240,6382,1,4,0:0:0:0:
384,148,6701,1,4,0:0:0:0:
476,292,7020,1,4,0:0:0:0:
368,264,7339,5,4,0:0:0:0:
312,320,7499,1,4,0:0:0:0:
248,272,7658,2,0,L|140:276,1,90,2|0,0:0|0:0,0:0:0:0:
56,184,8296,2,0,L|152:180,1,90,4|0,0:0|0:0,0:0:0:0:
204,128,8775,1,4,0:0:0:0:
268,80,8935,1,4,0:0:0:0:
344,160,9254,1,4,0:0:0:0:
460,44,9573,1,4,0:0:0:0:
492,196,9892,5,4,0:0:0:0:
456,264,10052,1,4,0:0:0:0:
416,332,10211,2,0,P|372:332|316:348,1,90,4|0,0:0|0:0,0:0:0:0:
112,280,10850,2,0,P|160:276|216:288,1,90,4|0,0:0|0:0,0:0:0:0:
264,232,11328,1,4,0:0:0:0:
232,160,11488,1,4,0:0:0:0:
344,56,11807,2,4,L|344:36,4,11.25
232,160,12126,54,0,P|192:156|128:172,1,90,4|0,0:0|0:0,0:0:0:0:
88,224,12605,1,4,0:0:0:0:
160,260,12765,2,0,P|172:292|180:348,1,90,4|0,0:0|0:0,0:0:0:0:
272,268,13403,2,0,P|276:220|304:168,1,90,4|0,0:0|0:0,0:0:0:0:
392,336,14041,54,4,L|448:332,1,45
293,182,14360,2,4,L|237:178,1,45
392,212,14679,54,0,P|392:164|408:112,1,90,4|0,0:0|0:0,0:0:0:0:
460,68,15158,1,4,0:0:0:0:
388,32,15318,2,0,L|284:36,1,90,4|0,0:0|0:0,0:0:0:0:
148,144,15956,2,0,L|268:136,1,90,4|0,0:0|0:0,0:0:0:0:
348,232,16594,54,4,L|352:184,1,45
232,352,16914,2,4,L|224:304,1,45
345,276,17233,2,0,L|353:168,1,90,4|0,0:0|0:0,0:0:0:0:
218,263,17871,54,4,L|227:325,1,45
64,140,18190,2,4,L|68:76,1,45
60,184,18509,2,0,L|67:85,1,90,4|0,0:0|0:0,0:0:0:0:
128,44,18988,1,4,0:0:0:0:
192,92,19148,1,4,0:0:0:0:
328,32,19467,1,6,0:0:0:0:
420,136,19786,54,4,P|412:184|420:240,1,90
472,348,20424,1,2,0:0:0:0:
304,260,20743,1,2,0:0:0:0:
220,344,21062,1,2,0:0:0:0:
128,184,25675,6,4,P|128:144|120:104,1,67.5000025749208,6|4,0:0|0:0,0:0:0:0:
64,64,25989,1,4,0:0:0:0:
208,212,26094,2,4,P|200:252|200:296,1,67.5000025749208
256,332,26409,1,4,0:0:0:0:
464,312,26514,54,2,B|415:319|415:319|355:351|355:351|255:331|255:331|307:375,1,270
256,332,26933,54,4,L|332:348,1,67.5000025749208
396,320,27248,1,4,0:0:0:0:
188,248,27353,2,4,L|108:260,1,67.5000025749208
72,320,27668,1,4,0:0:0:0:
264,172,27772,2,4,L|352:184,1,67.5000025749208
404,148,28087,1,4,0:0:0:0:
144,165,28192,54,2,B|232:145|232:145|301:172|301:172|416:145,1,270
404,148,28612,54,4,L|408:80,1,67.5000025749208
344,32,28926,1,4,0:0:0:0:
324,232,29031,2,4,L|332:312,1,67.5000025749208
396,344,29346,1,4,0:0:0:0:
200,156,29451,2,4,L|192:72,1,67.5000025749208
128,44,29765,1,4,0:0:0:0:
154,300,29870,54,2,B|181:240|181:240|122:24,1,270
128,44,30290,54,4,L|152:136,1,67.5000025749208
96,172,30605,1,4,0:0:0:0:
248,316,30709,2,4,L|256:228,1,67.5000025749208
312,196,31024,1,4,0:0:0:0:
408,56,31129,2,4,L|416:144,1,67.5000025749208
464,184,31444,1,4,0:0:0:0:
443,361,31549,2,0,P|443:298|467:170,1,180
328,88,32073,54,2,L|319:79|315:75|311:71|307:39,3,22.5
328,88,32388,2,4,P|284:100|248:124,1,67.5000025749208
204,200,32702,1,4,0:0:0:0:
68,288,32807,2,4,P|104:288|156:264,1,67.5000025749208
224,316,33122,1,4,0:0:0:0:
482,361,33227,54,2,B|414:337|414:337|318:351|318:351|194:305,1,270
224,316,33647,54,4,L|300:344,1,67.5000025749208
384,364,33961,1,4,0:0:0:0:
448,216,34066,2,4,P|440:252|448:308,1,67.5000025749208
496,356,34381,1,4,0:0:0:0:
352,168,34486,2,4,P|352:132|336:80,1,67.5000025749208
268,44,34800,1,4,0:0:0:0:
9,54,34905,54,2,B|81:86|81:86|289:38,1,270
268,44,35325,54,4,P|216:52|180:68,1,67.5000025749208
144,136,35640,1,4,0:0:0:0:
72,212,35744,2,4,P|104:244|120:284,1,67.5000025749208
48,360,36059,1,4,0:0:0:0:
204,352,36164,2,4,P|208:320|228:272,1,67.5000025749208
288,216,36479,1,4,0:0:0:0:
295,132,36584,54,2,P|231:116|287:216,1,270
288,216,37003,54,4,P|288:184|300:136,1,67.5000025749208
360,76,37318,1,4,0:0:0:0:
180,32,37423,2,4,L|196:120,1,67.5000025749208
140,176,37737,1,4,0:0:0:0:
88,340,37842,2,4,L|76:252,1,67.5000025749208
24,196,38157,1,4,0:0:0:0:
32,68,38262,2,4,B|28:108|28:108|44:140|44:140|24:196|24:196|80:160,1,180
224,272,38786,54,2,L|220:240,3,22.5
260,304,39101,1,2,0:0:0:0:
408,188,40150,54,2,L|412:104,1,67.5000025749208
268,44,40570,2,2,L|276:112,1,67.5000025749208
140,260,42458,53,2,0:0:0:0:
140,260,43507,2,2,P|184:256|224:264,1,67.5000025749208
368,336,43926,2,2,P|320:336|288:328,1,67.5000025749208
80,348,45920,102,0,B|72:304|72:304|84:268|84:268|72:192,1,135,4|0,0:0|0:0,0:0:0:0:
180,128,46565,102,4,L|180:140,6,10
234,103,46887,2,2,L|131:103,1,90
55,103,47210,2,2,L|244:104,1,180
379,215,47855,6,4,L|391:215,6,10
304,264,48178,1,2,0:0:0:0:
340,312,48339,1,2,0:0:0:0:
370,332,48500,2,0,P|362:284|396:192,1,135,4|0,0:0|0:0,0:0:0:0:
370,332,49145,102,4,L|368:320,6,10
456,336,49468,2,2,P|406:322|347:334,1,90
292,342,49790,2,2,P|344:326|476:340,1,180
152,248,50436,6,4,L|164:248,6,10
88,328,50758,1,2,0:0:0:0:
124,340,50920,1,2,0:0:0:0:
160,368,51081,2,0,L|152:224,1,135,4|0,0:0|0:0,0:0:0:0:
160,368,51726,102,4,L|160:356,6,10
80,360,52049,2,2,L|184:368,1,90
237,358,52371,2,2,B|181:354|181:354|137:366|137:366|52:360,1,180
24,156,53016,6,4,L|28:168,6,10
68,84,53339,1,2,0:0:0:0:
112,64,53500,1,2,0:0:0:0:
27,49,53661,2,0,P|19:69|32:180,1,135,4|0,0:0|0:0,0:0:0:0:
26,164,54307,102,4,L|24:156,6,10
120,168,54629,2,2,P|69:158|21:166,1,90
25,305,54952,2,2,B|49:261|49:261|16:132,1,180
208,220,55597,6,4,L|204:208,5,11.25
280,272,55920,1,2,0:0:0:0:
236,316,56081,1,2,0:0:0:0:
222,349,56242,2,0,B|234:309|234:309|202:201,1,135,4|0,0:0|0:0,0:0:0:0:
222,349,56887,102,4,L|224:336,5,11.25
132,347,57210,2,2,P|176:343|232:351,1,90
340,324,57532,2,2,B|292:352|292:352|136:344,1,180
68,176,58178,6,4,L|68:188,5,11.25
128,124,58500,1,2,0:0:0:0:
164,164,58661,1,2,0:0:0:0:
186,139,58823,2,0,P|142:139|60:200,1,135,4|0,0:0|0:0,0:0:0:0:
190,129,59468,102,4,L|185:144,5,11.25
195,51,59790,2,2,P|183:91|191:155,1,90
197,314,60113,2,2,P|207:251|181:130,1,180
419,217,60758,6,4,L|407:217,5,11.25
436,312,61081,1,2,0:0:0:0:
372,356,61242,1,2,0:0:0:0:
416,352,61403,2,0,L|408:208,1,135,4|0,0:0|0:0,0:0:0:0:
416,352,62049,102,4,L|404:352,5,11.25
315,358,62371,2,2,L|419:350,1,90
512,344,62694,2,2,L|312:360,1,180
154,225,63339,6,4,L|154:213,5,11.25
112,328,63661,1,2,0:0:0:0:
188,356,63823,1,2,0:0:0:0:
144,360,63984,2,0,P|152:312|152:200,1,135,4|0,0:0|0:0,0:0:0:0:
144,360,64629,102,4,L|148:344,5,11.25
56,363,64952,2,2,B|96:351|96:351|160:363,1,90
272,348,65274,2,2,B|208:340|208:340|160:356|160:356|80:352,1,180
48,200,65920,6,4,L|48:212,5,11.25
96,160,66242,1,2,0:0:0:0:
160,144,66403,1,2,0:0:0:0:
216,184,66565,1,2,0:0:0:0:
76,128,69508,6,2,L|72:56,1,45
200,224,69701,2,2,L|204:152,1,45
32,40,69895,22,2,L|40:108,1,45
232,240,70088,2,2,L|240:304,1,45
380,360,70282,86,0,P|376:316|400:240,1,90,4|0,0:0|0:0,0:0:0:0:
472,180,70475,1,4,0:0:0:0:
448,152,70572,1,4,0:0:0:0:
488,140,70669,2,0,P|488:104|468:44,1,90,4|0,0:0|0:0,0:0:0:0:
384,28,70959,1,2,0:0:0:0:
312,160,71056,22,2,L|304:108,1,45
212,288,71249,2,2,L|220:216,1,45
252,52,71443,86,2,L|256:100,1,45
160,360,71637,2,2,L|160:312,1,45
36,228,71830,22,0,P|76:224|128:236,1,90,4|0,0:0|0:0,0:0:0:0:
312,324,72024,1,4,0:0:0:0:
348,304,72120,1,4,0:0:0:0:
352,340,72217,2,0,P|308:344|252:324,1,90,4|0,0:0|0:0,0:0:0:0:
180,352,72508,1,2,0:0:0:0:
40,324,72604,86,2,L|96:320,1,45
168,196,72798,2,2,L|164:252,1,45
43,368,72991,22,2,L|39:312,1,45
213,196,73185,2,2,L|157:196,1,45
276,260,73378,86,0,L|384:252,1,90,4|0,0:0|0:0,0:0:0:0:
456,132,73572,1,4,0:0:0:0:
416,144,73669,1,4,0:0:0:0:
428,120,73766,2,0,L|304:132,1,90,4|0,0:0|0:0,0:0:0:0:
256,88,74056,1,2,0:0:0:0:
148,184,74153,22,2,L|152:232,1,45
252,43,74346,2,2,L|256:99,1,45
120,276,74540,86,2,L|168:268,1,45
328,120,74733,2,2,L|280:128,1,45
248,212,74927,22,0,P|272:216|332:260,1,90,4|0,0:0|0:0,0:0:0:0:
244,348,75120,1,4,0:0:0:0:
204,332,75217,1,4,0:0:0:0:
200,360,75314,2,0,P|152:344|120:312,1,90,4|0,0:0|0:0,0:0:0:0:
56,192,75701,85,2,0:0:0:0:
80,180,75798,1,2,0:0:0:0:
128,168,75895,1,2,0:0:0:0:
184,176,75991,1,2,0:0:0:0:
220,204,76088,22,2,L|228:248,1,45
288,140,76282,2,2,L|296:92,1,45
428,220,76475,86,0,P|372:216|324:224,1,90,4|0,0:0|0:0,0:0:0:0:
204,328,76669,1,4,0:0:0:0:
240,356,76766,1,4,0:0:0:0:
200,360,76862,2,0,L|188:256,1,90,4|0,0:0|0:0,0:0:0:0:
128,200,77153,1,2,0:0:0:0:
36,288,77249,22,2,L|80:288,1,45
120,120,77443,2,2,L|124:188,1,45
44,348,77637,86,2,L|40:304,1,45
216,84,77830,2,2,L|156:88,1,45
280,144,78024,22,0,B|268:180|268:180|280:244,1,90,4|0,0:0|0:0,0:0:0:0:
392,344,78217,1,4,0:0:0:0:
436,344,78314,1,4,0:0:0:0:
408,360,78411,2,0,B|412:328|412:328|400:268,1,90,4|0,0:0|0:0,0:0:0:0:
456,164,78798,85,2,0:0:0:0:
464,140,78895,1,2,0:0:0:0:
464,104,78991,1,2,0:0:0:0:
448,68,79088,1,2,0:0:0:0:
420,48,79185,1,2,0:0:0:0:
388,36,79282,1,2,0:0:0:0:
352,36,79378,1,2,0:0:0:0:
296,52,79475,1,2,0:0:0:0:
240,120,79573,22,2,P|192:128|136:112,1,90
44,192,79767,1,2,0:0:0:0:
68,232,79863,1,2,0:0:0:0:
32,232,79960,2,2,P|88:224|148:252,1,90,2|2,0:0|0:0,0:0:0:0:
204,212,80250,1,2,0:0:0:0:
212,352,80347,86,2,L|208:304,1,45
304,216,80541,2,2,L|316:160,1,45
204,60,80734,22,2,L|212:112,1,45
312,276,80928,2,2,L|308:320,1,45
328,340,81121,1,2,0:0:0:0:
364,360,81218,1,2,0:0:0:0:
416,356,81315,1,2,0:0:0:0:
456,336,81412,1,2,0:0:0:0:
480,304,81508,1,2,0:0:0:0:
480,260,81605,1,2,0:0:0:0:
412,200,81701,86,0,B|404:156|404:156|424:120|424:120|416:24|416:24|388:80,1,242.999992584229,2|0,0:0|0:0,0:0:0:0:
416,24,82669,2,0,L|376:120,1,90,4|0,0:0|0:0,0:0:0:0:
228,216,82862,1,4,0:0:0:0:
256,236,82959,1,4,0:0:0:0:
220,248,83056,2,0,L|208:140,1,90,4|0,0:0|0:0,0:0:0:0:
140,84,83346,1,2,0:0:0:0:
64,184,83443,22,2,L|116:176,1,45
264,244,83637,2,2,L|208:248,1,45
128,352,83830,86,2,L|120:304,1,45
210,158,84024,2,2,L|218:106,1,45
364,344,84217,22,4,P|352:284|376:160,1,180,4|0,0:0|0:0,0:0:0:0:
256,52,84604,2,4,P|264:112|264:160,1,90,4|0,0:0|0:0,0:0:0:0:
204,224,84895,1,2,0:0:0:0:
108,140,84991,86,2,L|168:132,1,45
280,272,85185,2,2,L|228:264,1,45
140,96,85378,22,2,L|88:108,1,45
208,320,85572,2,2,L|256:308,1,45
120,360,85766,86,0,P|116:312|132:256,1,90,4|0,0:0|0:0,0:0:0:0:
320,120,85959,1,4,0:0:0:0:
352,152,86056,1,4,0:0:0:0:
304,152,86153,2,0,P|312:196|304:256,1,90,4|0,0:0|0:0,0:0:0:0:
336,336,86443,1,2,0:0:0:0:
448,344,86540,22,2,L|392:344,1,45
224,268,86733,2,2,L|280:260,1,45
428,320,86927,86,2,L|360:296,1,45
204,212,87120,2,2,L|260:244,1,45
168,124,87314,22,0,L|72:136,1,90,4|0,0:0|0:0,0:0:0:0:
48,256,87508,2,4,P|56:208|8:88,1,180,4|0,0:0|0:0,0:0:0:0:
76,108,87991,2,4,P|48:164|108:296,1,180,4|0,0:0|0:0,0:0:0:0:
140,288,88475,2,4,P|88:280|36:304,1,90,4|0,0:0|0:0,0:0:0:0:
236,356,88862,86,0,P|292:356|336:336,1,90,4|0,0:0|0:0,0:0:0:0:
432,228,89056,1,4,0:0:0:0:
396,204,89153,1,4,0:0:0:0:
396,228,89249,2,0,P|344:232|300:252,1,90,4|0,0:0|0:0,0:0:0:0:
240,304,89540,1,2,0:0:0:0:
148,356,89637,22,2,L|136:308,1,45
48,184,89830,2,2,L|56:132,1,45
192,60,90024,86,2,L|184:108,1,45
88,352,90217,2,2,L|104:288,1,45
200,240,90411,22,0,P|256:240|304:252,1,90,4|0,0:0|0:0,0:0:0:0:
384,356,90604,2,0,P|384:300|404:248,1,90,4|0,0:0|0:0,0:0:0:0:
244,72,90991,2,0,P|256:128|256:180,1,90,4|0,0:0|0:0,0:0:0:0:
192,216,91282,86,2,L|196:280,1,45
64,352,91475,2,2,L|72:304,1,45
256,152,91669,22,2,L|240:216,1,45
120,360,91862,2,2,L|112:304,1,45
204,104,92056,86,2,L|216:156,1,45
44,320,92249,22,2,L|72:260,1,45
260,136,92443,2,2,L|244:192,1,45
176,348,92637,86,2,L|164:300,1,45
208,256,92830,1,2,0:0:0:0:
260,240,92927,1,2,0:0:0:0:
316,264,93024,1,2,0:0:0:0:
372,292,93120,1,2,0:0:0:0:
444,292,93217,1,2,0:0:0:0:
472,256,93314,1,2,0:0:0:0:
476,220,93411,1,2,0:0:0:0:
464,184,93507,1,2,0:0:0:0:
424,148,93604,21,2,0:0:0:0:
392,136,93701,1,2,0:0:0:0:
344,132,93798,1,2,0:0:0:0:
312,144,93895,1,2,0:0:0:0:
276,164,93991,1,2,0:0:0:0:
224,224,94088,2,2,B|184:220|184:220|156:224|156:224|112:216,1,107.999996704102,2|0,0:0|0:0,0:0:0:0:
436,168,96395,54,0,P|432:208|444:260,1,90,2|0,0:0|0:0,0:0:0:0:
456,280,96811,1,2,0:0:0:0:
468,304,96950,1,4,0:0:0:0:
420,368,97228,101,2,0:0:0:0:
296,332,97506,2,0,P|296:292|276:224,1,90,0|2,0:0|0:0,0:0:0:0:
228,188,97922,1,2,0:0:0:0:
176,248,98061,2,0,P|172:288|184:344,1,90,4|0,0:0|0:0,0:0:0:0:
84,208,98617,6,0,P|84:164|72:112,1,90,2|0,0:0|0:0,0:0:0:0:
60,96,99033,1,2,0:0:0:0:
60,68,99172,1,4,0:0:0:0:
128,28,99450,1,2,0:0:0:0:
200,92,99728,2,0,L|300:84,1,90
368,200,100283,2,0,L|272:200,1,90,4|0,0:0|0:0,0:0:0:0:
200,176,100700,101,2,0:0:0:0:
132,216,100839,2,0,P|128:256|136:312,1,90,2|0,0:0|0:0,0:0:0:0:
200,352,101256,1,2,0:0:0:0:
272,320,101395,2,0,P|272:280|260:224,1,90,4|0,0:0|0:0,0:0:0:0:
352,88,101950,6,0,P|344:136|348:196,1,90
420,280,102506,1,4,0:0:0:0:
376,348,102645,1,2,0:0:0:0:
304,312,102783,1,2,0:0:0:0:
216,272,103061,2,0,P|168:272|116:296,1,90,2|0,0:0|0:0,0:0:0:0:
108,304,103478,1,2,0:0:0:0:
92,328,103617,1,4,0:0:0:0:
8,188,103895,1,2,0:0:0:0:
116,112,104172,102,4,L|72:112,1,45
184,176,104450,2,4,L|236:172,1,45
320,280,104728,6,4,L|312:224,1,45
440,348,105006,2,4,L|448:304,1,45
328,348,105283,102,0,L|316:244,1,90,2|0,0:0|0:0,0:0:0:0:
328,232,105700,1,2,0:0:0:0:
332,204,105839,1,4,0:0:0:0:
260,100,106117,1,2,0:0:0:0:
180,164,106395,2,0,L|72:164,1,90,0|2,0:0|0:0,0:0:0:0:
36,224,106811,1,2,0:0:0:0:
100,272,106950,2,0,L|196:264,1,90,4|0,0:0|0:0,0:0:0:0:
416,336,107506,6,0,L|316:332,1,90,2|0,0:0|0:0,0:0:0:0:
300,344,107922,1,2,0:0:0:0:
276,352,108061,1,4,0:0:0:0:
189,264,108339,1,2,0:0:0:0:
248,184,108617,2,0,P|252:136|232:68,1,90
364,40,109172,2,0,P|352:80|352:144,1,90,4|0,0:0|0:0,0:0:0:0:
400,188,109589,1,2,0:0:0:0:
448,252,109728,102,0,P|452:304|440:356,1,90,2|0,0:0|0:0,0:0:0:0:
368,356,110145,1,2,0:0:0:0:
308,304,110283,2,0,P|256:308|196:332,1,90,4|0,0:0|0:0,0:0:0:0:
96,352,110839,6,0,P|88:304|60:256,1,90,2|0,0:0|0:0,0:0:0:0:
60,244,111256,1,2,0:0:0:0:
44,224,111395,1,4,0:0:0:0:
116,100,111672,1,2,0:0:0:0:
188,156,111950,2,0,P|180:208|188:308,1,135
244,344,112506,101,4,0:0:0:0:
288,316,112645,1,4,0:0:0:0:
360,328,112783,1,4,0:0:0:0:
432,348,112922,1,4,0:0:0:0:
480,260,113061,6,4,L|476:212,1,45
432,348,113339,2,4,L|424:292,1,45
284,160,113617,102,4,L|300:216,1,45
312,108,113895,2,4,L|304:168,1,45
292,232,114172,1,2,0:0:0:0:
148,200,118929,38,0,P|144:160|148:108,1,90,4|0,0:0|0:0,0:0:0:0:
216,68,119286,1,2,0:0:0:0:
272,124,119405,2,0,L|368:120,1,90,4|0,0:0|0:0,0:0:0:0:
440,252,119881,102,0,L|344:248,1,90,4|0,0:0|0:0,0:0:0:0:
288,300,120238,1,2,0:0:0:0:
352,348,120357,2,0,L|448:340,1,90,4|0,0:0|0:0,0:0:0:0:
288,300,120833,2,0,P|248:300|180:336,1,90,4|0,0:0|0:0,0:0:0:0:
136,364,121190,1,2,0:0:0:0:
88,300,121309,2,0,L|80:196,1,90,4|0,0:0|0:0,0:0:0:0:
176,112,121786,6,2,L|168:164,1,45
256,84,122024,2,2,L|248:36,1,45
308,184,122262,102,2,L|256:184,1,45
376,236,122500,2,2,L|424:236,1,45
436,328,122738,6,0,P|388:324|324:340,1,90,4|0,0:0|0:0,0:0:0:0:
276,368,123095,1,2,0:0:0:0:
216,308,123214,101,2,0:0:0:0:
36,368,123452,1,2,0:0:0:0:
80,156,123690,5,2,0:0:0:0:
128,336,123929,1,2,0:0:0:0:
276,360,124167,101,2,0:0:0:0:
360,96,124405,1,2,0:0:0:0:
436,168,124643,5,2,0:0:0:0:
428,200,124762,1,2,0:0:0:0:
424,232,124881,1,2,0:0:0:0:
428,264,125000,1,2,0:0:0:0:
436,296,125119,1,2,0:0:0:0:
256,360,125357,1,2,0:0:0:0:
204,288,125595,102,0,P|164:288|108:304,1,90,4|0,0:0|0:0,0:0:0:0:
48,344,125952,1,2,0:0:0:0:
44,264,126071,2,0,P|40:220|24:160,1,90,4|0,0:0|0:0,0:0:0:0:
140,72,126548,2,0,P|136:124|140:172,1,90,4|0,0:0|0:0,0:0:0:0:
192,220,126905,1,2,0:0:0:0:
252,168,127024,2,0,P|248:124|236:60,1,90,4|0,0:0|0:0,0:0:0:0:
332,24,127500,6,0,P|380:24|432:40,1,90,4|0,0:0|0:0,0:0:0:0:
472,96,127857,1,2,0:0:0:0:
416,152,127976,2,0,P|372:156|316:140,1,90,4|0,0:0|0:0,0:0:0:0:
240,204,128452,2,0,P|252:256|252:308,1,90,4|0,0:0|0:0,0:0:0:0:
192,344,128809,1,2,0:0:0:0:
132,292,128929,2,0,P|96:292|40:320,1,90,4|0,0:0|0:0,0:0:0:0:
16,140,129405,101,2,0:0:0:0:
232,48,129643,1,2,0:0:0:0:
312,288,129881,5,2,0:0:0:0:
140,112,130119,1,2,0:0:0:0:
160,336,130357,101,2,0:0:0:0:
312,160,130595,1,2,0:0:0:0:
384,124,130714,1,2,0:0:0:0:
460,152,130833,1,2,0:0:0:0:
376,336,131071,5,2,0:0:0:0:
280,268,131309,1,2,0:0:0:0:
100,316,131548,101,2,0:0:0:0:
56,236,131786,2,0,P|52:188|32:128,1,90,4|0,0:0|0:0,0:0:0:0:
136,80,132262,6,4,L|132:128,1,45
256,328,132500,2,4,L|248:272,1,45
116,44,132738,102,4,L|132:92,1,45
216,332,132976,2,4,L|232:288,1,45
160,80,133214,6,4,L|136:144,1,45
304,340,133452,2,4,L|280:296,1,45
144,360,133690,102,0,P|192:352|248:364,1,90,4|0,0:0|0:0,0:0:0:0:
124,272,134167,2,0,P|72:276|32:260,1,90,4|0,0:0|0:0,0:0:0:0:
20,188,134524,1,2,0:0:0:0:
72,128,134643,2,0,P|120:128|160:148,1,90,4|0,0:0|0:0,0:0:0:0:
252,308,135119,5,2,0:0:0:0:
368,124,135357,1,2,0:0:0:0:
432,336,135595,101,2,0:0:0:0:
200,300,135833,1,2,0:0:0:0:
320,352,136071,6,0,P|312:304|328:160,1,180,4|0,0:0|0:0,0:0:0:0:
404,80,136786,1,2,0:0:0:0:
316,44,137024,2,0,L|224:48,1,90,4|0,0:0|0:0,0:0:0:0:
168,104,137381,1,2,0:0:0:0:
128,172,137500,2,0,P|140:216|144:280,1,90,4|0,0:0|0:0,0:0:0:0:
64,344,137976,2,0,P|120:340|176:356,1,90,4|0,0:0|0:0,0:0:0:0:
232,360,138333,1,2,0:0:0:0:
296,312,138452,2,0,P|356:308|400:320,1,90,4|0,0:0|0:0,0:0:0:0:
472,360,138929,101,2,0:0:0:0:
500,128,139167,1,2,0:0:0:0:
240,64,139405,5,2,0:0:0:0:
288,344,139643,1,2,0:0:0:0:
88,280,139881,102,0,P|144:272|284:312,1,180,4|0,0:0|0:0,0:0:0:0:
360,352,140595,1,2,0:0:0:0:
424,284,140833,2,0,P|424:240|408:184,1,90,4|0,0:0|0:0,0:0:0:0:
344,156,141190,1,2,0:0:0:0:
268,136,141309,2,0,P|268:92|288:28,1,90,4|0,0:0|0:0,0:0:0:0:
160,172,141786,6,0,P|172:216|176:272,1,90,4|0,0:0|0:0,0:0:0:0:
112,308,142143,1,2,0:0:0:0:
180,352,142262,2,0,P|224:352|268:336,1,90,4|0,0:0|0:0,0:0:0:0:
376,232,142738,101,2,0:0:0:0:
504,352,142976,1,2,0:0:0:0:
468,76,143214,5,2,0:0:0:0:
264,224,143452,1,2,0:0:0:0:
168,176,143690,102,0,P|180:132|68:100,1,180,4|0,0:0|0:0,0:0:0:0:
28,160,144405,1,2,0:0:0:0:
80,344,144643,1,2,0:0:0:0:
216,280,144881,1,2,0:0:0:0:
284,320,145000,1,2,0:0:0:0:
352,276,145119,1,2,0:0:0:0:
416,160,145357,5,2,0:0:0:0:
264,60,145595,1,2,0:0:0:0:
176,108,145833,1,2,0:0:0:0:
216,176,145952,1,2,0:0:0:0:
172,244,146071,1,2,0:0:0:0:
76,344,146309,101,2,0:0:0:0:
288,280,146548,1,2,0:0:0:0:
356,324,146667,1,2,0:0:0:0:
428,288,146786,1,2,0:0:0:0:
472,112,147024,5,2,0:0:0:0:
256,184,147262,1,2,0:0:0:0:
180,120,147500,102,4,L|176:76,1,45
256,184,147738,2,4,L|244:240,1,45
156,344,147976,6,4,L|148:288,1,45
340,132,148214,2,4,L|344:188,1,45
96,224,148452,102,4,L|140:228,1,45
372,336,148690,2,4,L|316:328,1,45
288,312,148929,1,2,0:0:0:0:
132,72,155476,22,0,P|176:72|224:92,1,90,4|0,0:0|0:0,0:0:0:0:
268,152,155827,1,2,0:0:0:0:
188,276,155944,2,0,L|184:168,1,90,4|0,0:0|0:0,0:0:0:0:
264,340,156413,5,2,0:0:0:0:
336,304,156647,2,0,P|388:304|432:324,1,90,4|0,0:0|0:0,0:0:0:0:
488,272,156999,1,2,0:0:0:0:
424,128,157116,2,0,P|416:160|424:220,1,90,4|0,0:0|0:0,0:0:0:0:
356,60,157585,101,2,0:0:0:0:
172,32,157819,1,2,0:0:0:0:
200,240,158054,5,2,0:0:0:0:
268,32,158288,1,2,0:0:0:0:
364,304,158522,101,2,0:0:0:0:
396,300,158640,1,2,0:0:0:0:
428,308,158757,2,0,P|468:312|516:336,1,90,4|0,0:0|0:0,0:0:0:0:
288,352,159226,2,0,P|248:356|200:344,1,90,4|0,0:0|0:0,0:0:0:0:
144,288,159577,1,2,0:0:0:0:
24,196,159694,2,0,P|76:196|124:220,1,90,4|0,0:0|0:0,0:0:0:0:
196,144,160163,5,2,0:0:0:0:
260,208,160397,2,0,L|252:304,1,90,4|0,0:0|0:0,0:0:0:0:
316,352,160749,1,2,0:0:0:0:
196,144,160866,2,0,L|188:44,1,90,4|0,0:0|0:0,0:0:0:0:
368,24,161335,101,2,0:0:0:0:
452,268,161569,1,2,0:0:0:0:
500,88,161804,5,2,0:0:0:0:
272,328,162038,1,2,0:0:0:0:
168,200,162272,101,2,0:0:0:0:
140,192,162390,1,2,0:0:0:0:
96,220,162507,2,0,P|72:256|56:308,1,90,4|0,0:0|0:0,0:0:0:0:
32,148,162976,2,0,P|24:96|8:56,1,90,4|0,0:0|0:0,0:0:0:0:
72,12,163327,1,2,0:0:0:0:
136,60,163444,2,0,P|184:60|232:68,1,90,4|0,0:0|0:0,0:0:0:0:
312,168,163913,5,2,0:0:0:0:
240,220,164147,2,0,P|248:268|244:332,1,90,4|0,0:0|0:0,0:0:0:0:
180,352,164499,1,2,0:0:0:0:
312,168,164616,2,0,P|316:120|332:72,1,90,4|0,0:0|0:0,0:0:0:0:
200,24,165085,101,2,0:0:0:0:
400,248,165319,1,2,0:0:0:0:
460,120,165554,5,2,0:0:0:0:
244,324,165788,1,2,0:0:0:0:
112,240,166022,101,2,0:0:0:0:
108,212,166140,1,2,0:0:0:0:
128,176,166257,2,0,L|124:80,1,90,4|0,0:0|0:0,0:0:0:0:
244,40,166726,2,0,L|236:144,1,90,4|0,0:0|0:0,0:0:0:0:
288,192,167077,1,2,0:0:0:0:
336,128,167194,2,0,L|332:24,1,90,4|0,0:0|0:0,0:0:0:0:
440,184,167663,5,2,0:0:0:0:
388,244,167897,2,0,B|376:280|376:280|388:348,1,90,4|0,0:0|0:0,0:0:0:0:
456,368,168249,1,2,0:0:0:0:
296,364,168366,2,0,B|300:324|300:324|280:264,1,90,4|4,0:0|0:0,0:0:0:0:
208,204,168718,102,4,L|204:144,1,45
96,260,168952,2,4,L|104:324,1,45
232,128,169186,2,4,L|220:176,1,45
48,344,169421,2,4,L|64:292,1,45
52,244,169655,5,4,0:0:0:0:
80,228,169772,1,4,0:0:0:0:
124,216,169890,1,4,0:0:0:0:
172,216,170007,1,4,0:0:0:0:
164,268,170124,1,4,0:0:0:0:
192,252,170241,1,4,0:0:0:0:
236,240,170358,1,4,0:0:0:0:
284,240,170476,102,0,P|336:240|432:324,1,180,4|0,0:0|0:0,0:0:0:0:
352,360,171179,1,2,0:0:0:0:
352,360,171296,1,2,0:0:0:0:
432,184,171413,2,0,L|440:88,1,90
380,40,171765,1,2,0:0:0:0:
312,84,171882,2,0,L|324:180,1,90,4|0,0:0|0:0,0:0:0:0:
224,344,172351,2,0,L|208:228,1,90
152,184,172819,5,2,0:0:0:0:
48,316,173054,1,2,0:0:0:0:
4,248,173171,1,2,0:0:0:0:
32,172,173288,2,0,P|32:124|16:64,1,90
76,24,173640,1,2,0:0:0:0:
144,68,173757,2,0,P|136:112|132:164,1,90,4|0,0:0|0:0,0:0:0:0:
252,344,174226,2,0,P|252:288|244:248,1,90
284,184,174577,101,2,0:0:0:0:
352,228,174694,1,4,0:0:0:0:
484,104,174929,1,2,0:0:0:0:
404,48,175163,6,0,P|360:48|312:64,1,90
260,116,175515,1,2,0:0:0:0:
192,72,175632,1,4,0:0:0:0:
100,144,175866,2,0,P|96:196|104:248,1,90
228,336,176335,1,2,0:0:0:0:
284,280,176452,1,2,0:0:0:0:
220,232,176569,2,0,P|220:188|204:128,1,90,2|0,0:0|0:0,0:0:0:0:
344,40,177038,102,0,P|340:88|344:136,1,90,2|0,0:0|0:0,0:0:0:0:
404,180,177390,1,2,0:0:0:0:
456,120,177507,2,0,P|456:76|452:24,1,90,4|0,0:0|0:0,0:0:0:0:
352,256,177976,6,0,P|348:304|352:356,1,90
276,372,178327,1,2,0:0:0:0:
216,320,178444,1,4,0:0:0:0:
72,360,178679,1,2,0:0:0:0:
40,268,178913,102,0,L|32:168,1,90
72,108,179265,1,2,0:0:0:0:
144,144,179382,1,4,0:0:0:0:
240,80,179616,1,2,0:0:0:0:
312,44,179733,1,2,0:0:0:0:
380,88,179851,2,0,P|428:88|476:96,1,90
432,212,180319,5,2,0:0:0:0:
352,308,180554,1,2,0:0:0:0:
284,264,180671,1,2,0:0:0:0:
216,308,180788,2,0,P|164:308|124:292,1,90
64,200,181257,1,4,0:0:0:0:
156,100,181491,101,2,0:0:0:0:
224,144,181608,1,2,0:0:0:0:
284,92,181726,2,0,L|396:88,1,90,4|0,0:0|0:0,0:0:0:0:
432,144,182077,1,2,0:0:0:0:
376,200,182194,2,0,P|360:248|356:296,1,90,4|0,0:0|0:0,0:0:0:0:
396,352,182546,1,2,0:0:0:0:
316,364,182663,2,0,P|264:364|216:352,1,90,4|0,0:0|0:0,0:0:0:0:
80,360,183132,5,2,0:0:0:0:
52,92,183366,1,2,0:0:0:0:
188,196,183601,102,4,L|140:192,1,45
280,104,183835,2,4,L|344:96,1,45
216,244,184069,6,4,L|168:232,1,45
352,56,184304,2,4,L|296:68,1,45
208,288,184538,102,4,L|264:276,1,45
388,92,184772,2,4,L|328:92,1,45
184,248,185007,6,4,L|240:256,1,45
324,56,185241,2,4,L|308:104,1,45
188,40,185476,102,0,P|196:84|192:152,1,90,4|0,0:0|0:0,0:0:0:0:
128,172,185827,1,2,0:0:0:0:
76,232,185944,2,0,P|72:276|72:328,1,90
244,360,186413,2,0,P|244:312|236:264,1,90
280,204,186765,1,2,0:0:0:0:
348,248,186882,1,4,0:0:0:0:
432,196,187116,6,0,P|480:188|512:160,1,90,0|0,0:0|0:0,0:0:0:0:
496,84,187468,1,2,0:0:0:0:
424,48,187585,2,0,P|380:64|348:92,1,90,0|0,0:0|0:0,0:0:0:0:
256,184,188054,1,2,0:0:0:0:
188,140,188171,1,2,0:0:0:0:
120,184,188288,2,0,B|132:224|132:224|120:276,1,90,4|0,0:0|0:0,0:0:0:0:
68,332,188640,1,2,0:0:0:0:
140,368,188757,2,0,L|240:356,1,90,4|0,0:0|0:0,0:0:0:0:
308,272,189226,101,4,0:0:0:0:
432,360,189460,1,2,0:0:0:0:
476,292,189577,1,2,0:0:0:0:
432,224,189694,2,0,P|432:176|444:120,1,90,4|0,0:0|0:0,0:0:0:0:
324,48,190163,2,0,P|328:96|324:152,1,90
268,192,190515,1,2,0:0:0:0:
304,264,190632,1,4,0:0:0:0:
144,344,190866,6,0,L|140:240,1,90
84,200,191218,1,2,0:0:0:0:
32,140,191335,2,0,L|44:40,1,90
116,20,191686,1,2,0:0:0:0:
184,64,191804,1,2,0:0:0:0:
260,160,192038,102,0,P|252:208|248:260,1,90,4|0,0:0|0:0,0:0:0:0:
300,308,192390,1,2,0:0:0:0:
380,320,192507,2,0,P|380:272|372:220,1,90,4|0,0:0|0:0,0:0:0:0:
448,160,192976,2,0,P|456:112|472:68,1,90,4|0,0:0|0:0,0:0:0:0:
424,8,193327,1,2,0:0:0:0:
356,48,193444,2,0,P|308:52|256:68,1,90
140,176,193913,2,0,P|192:176|252:156,1,90
304,144,194265,1,2,0:0:0:0:
360,200,194382,1,4,0:0:0:0:
304,288,194616,6,0,P|260:288|208:304,1,90
156,352,194968,1,2,0:0:0:0:
92,304,195085,2,0,P|84:260|60:208,1,90
24,152,195436,1,2,0:0:0:0:
64,84,195554,1,2,0:0:0:0:
184,148,195788,102,0,L|292:136,1,90,4|0,0:0|0:0,0:0:0:0:
336,188,196140,1,2,0:0:0:0:
388,128,196257,2,0,L|496:120,1,90,4|0,0:0|0:0,0:0:0:0:
420,40,196726,5,4,0:0:0:0:
396,28,196843,1,4,0:0:0:0:
368,24,196960,1,4,0:0:0:0:
340,28,197077,1,4,0:0:0:0:
296,32,197194,1,4,0:0:0:0:
264,48,197311,101,4,0:0:0:0:
232,68,197429,1,4,0:0:0:0:
208,104,197546,1,4,0:0:0:0:
196,136,197663,1,4,0:0:0:0:
196,180,197780,6,4,L|152:176,1,45
256,248,198015,2,4,L|312:244,1,45
116,140,198249,102,4,L|172:144,1,45
356,284,198483,2,4,L|280:280,1,45
440,356,198835,6,2,P|448:308|468:264,1,90
480,192,199186,1,2,0:0:0:0:
424,136,199304,2,2,P|376:140|328:152,1,90
244,88,199772,101,2,0:0:0:0:
140,208,200007,1,2,0:0:0:0:
36,40,200241,1,2,0:0:0:0:
256,192,200476,12,0,202351,0:0:0:0:
384,360,205602,38,0,P|384:324|372:264,1,90,2|0,0:0|0:0,0:0:0:0:
264,228,206147,101,2,0:0:0:0:
212,168,206283,2,0,P|208:124|220:68,1,90,2|0,0:0|0:0,0:0:0:0:
152,32,206692,2,0,P|116:28|56:44,1,90,2|0,0:0|0:0,0:0:0:0:
104,180,207238,2,2,L|96:132,1,45
168,244,207511,2,2,L|160:292,1,45
252,360,207783,6,0,P|248:316|260:256,1,90,2|0,0:0|0:0,0:0:0:0:
336,204,208329,2,2,L|328:156,1,45
424,244,208602,2,2,L|424:292,1,45
476,168,208874,2,0,P|480:120|468:48,1,90,2|0,0:0|0:0,0:0:0:0:
256,132,209420,101,2,0:0:0:0:
244,160,209556,1,2,0:0:0:0:
240,192,209692,1,2,0:0:0:0:
248,224,209829,1,2,0:0:0:0:
260,252,209965,2,2,L|264:304,1,45
112,360,210238,2,2,L|116:308,1,45
36,200,210511,5,2,0:0:0:0:
28,168,210647,1,2,0:0:0:0:
36,136,210783,2,0,P|36:96|52:48,1,90,2|0,0:0|0:0,0:0:0:0:
200,160,211602,101,2,0:0:0:0:
232,152,211738,1,2,0:0:0:0:
264,152,211874,1,2,0:0:0:0:
296,164,212011,1,2,0:0:0:0:
324,180,212147,2,2,L|328:236,1,45
404,352,212420,2,2,L|408:304,1,45
484,192,212692,5,2,0:0:0:0:
492,160,212829,1,2,0:0:0:0:
484,128,212965,2,0,P|484:88|472:36,1,90,2|0,0:0|0:0,0:0:0:0:
360,68,213783,1,2,0:0:0:0:
288,32,213920,1,2,0:0:0:0:
216,64,214056,1,2,0:0:0:0:
40,196,214329,102,0,L|48:308,1,90,2|0,0:0|0:0,0:0:0:0:
136,356,214874,1,2,0:0:0:0:
200,308,215011,2,0,L|188:208,1,90,2|0,0:0|0:0,0:0:0:0:
248,164,215420,2,0,L|260:68,1,90,2|0,0:0|0:0,0:0:0:0:
364,44,215965,2,2,L|376:108,1,45
436,196,216238,2,2,L|444:144,1,45
356,240,216511,6,0,P|340:284|336:336,1,90,2|0,0:0|0:0,0:0:0:0:
464,368,217056,2,2,L|412:364,1,45
252,248,217329,2,2,L|260:312,1,45
184,344,217602,2,0,P|136:344|68:364,1,90,2|0,0:0|0:0,0:0:0:0:
20,240,218147,101,2,0:0:0:0:
12,216,218283,1,2,0:0:0:0:
8,172,218420,1,2,0:0:0:0:
16,128,218556,1,2,0:0:0:0:
40,88,218692,2,2,L|44:44,1,45
140,172,218965,2,2,L|136:220,1,45
220,336,219238,5,2,0:0:0:0:
256,320,219374,1,2,0:0:0:0:
308,344,219511,2,0,P|356:344|408:352,1,90,2|0,0:0|0:0,0:0:0:0:
424,176,220329,101,2,0:0:0:0:
400,168,220465,1,2,0:0:0:0:
348,160,220602,1,2,0:0:0:0:
296,172,220738,1,2,0:0:0:0:
248,200,220874,2,4,L|236:256,1,45
80,352,221147,2,4,L|72:292,1,45
28,192,221420,5,4,0:0:0:0:
16,152,221556,1,4,0:0:0:0:
36,108,221692,2,0,P|84:104|140:128,1,90,4|0,0:0|0:0,0:0:0:0:
180,172,222102,1,4,0:0:0:0:
248,132,222238,1,4,0:0:0:0:
288,288,222511,102,2,L|340:288,1,45
204,180,222783,2,2,L|200:232,1,45
104,344,223056,2,0,P|104:292|88:232,1,90,4|0,0:0|0:0,0:0:0:0:
36,204,223465,1,2,0:0:0:0:
72,132,223602,2,0,P|116:128|180:144,1,90,4|0,0:0|0:0,0:0:0:0:
252,212,224147,6,2,L|300:208,1,45
452,344,224420,2,2,L|396:336,1,45
320,164,224692,102,2,L|260:176,1,45
344,356,224965,2,2,L|396:344,1,45
284,364,225238,2,0,L|400:344,1,90,4|0,0:0|0:0,0:0:0:0:
432,296,225647,1,2,0:0:0:0:
464,224,225783,2,0,P|460:176|468:120,1,90,4|0,0:0|0:0,0:0:0:0:
372,44,226329,6,2,L|376:104,1,45
244,208,226602,2,2,L|252:144,1,45
312,32,226874,102,2,L|300:76,1,45
208,256,227147,2,2,L|196:208,1,45
120,272,227420,2,0,P|68:280|20:304,1,90,4|0,0:0|0:0,0:0:0:0:
56,372,227829,1,2,0:0:0:0:
136,360,227965,2,0,P|184:352|216:328,1,90,4|0,0:0|0:0,0:0:0:0:
304,208,228511,6,2,L|260:208,1,45
364,336,228783,2,2,L|416:336,1,45
320,152,229056,102,2,L|324:200,1,45
452,360,229329,2,2,L|460:316,1,45
444,296,229602,1,2,0:0:0:0:
408,272,229738,1,2,0:0:0:0:
364,264,229874,1,2,0:0:0:0:
316,272,230011,1,2,0:0:0:0:
252,300,230147,2,0,P|204:304|156:288,1,90,4|0,0:0|0:0,0:0:0:0:
36,196,230692,5,2,0:0:0:0:
64,180,230829,1,2,0:0:0:0:
108,168,230965,1,2,0:0:0:0:
156,168,231102,1,2,0:0:0:0:
204,188,231238,2,0,P|256:184|328:200,1,90,4|0,0:0|0:0,0:0:0:0:
404,248,231783,102,0,P|404:200|420:148,1,90,4|0,0:0|0:0,0:0:0:0:
468,100,232192,1,2,0:0:0:0:
408,48,232329,2,0,L|300:48,1,90,4|0,0:0|0:0,0:0:0:0:
180,120,232874,6,2,L|240:112,1,45
140,232,233147,2,2,L|96:224,1,45
148,64,233420,102,2,L|160:120,1,45
108,320,233692,2,2,L|100:264,1,45
192,352,233965,2,0,L|200:236,1,90,4|0,0:0|0:0,0:0:0:0:
256,208,234374,1,2,0:0:0:0:
316,260,234511,2,0,L|320:356,1,90,4|0,0:0|0:0,0:0:0:0:
424,308,235056,6,2,L|472:304,1,45
256,208,235329,2,2,L|200:216,1,45
176,184,235602,102,2,L|232:184,1,45
480,340,235874,2,2,L|424:328,1,45
356,356,236147,2,0,P|352:312|368:264,1,90,4|0,0:0|0:0,0:0:0:0:
416,208,236556,1,2,0:0:0:0:
472,152,236692,2,0,P|476:108|460:48,1,90,4|0,0:0|0:0,0:0:0:0:
280,96,237238,6,2,L|292:148,1,45
180,224,237511,2,2,L|228:220,1,45
328,308,237783,102,2,L|276:304,1,45
104,340,238056,2,2,L|100:288,1,45
48,192,238329,5,4,0:0:0:0:
72,168,238465,1,4,0:0:0:0:
112,156,238602,1,4,0:0:0:0:
172,168,238738,1,4,0:0:0:0:
224,200,238874,1,4,0:0:0:0:
248,236,239011,1,4,0:0:0:0:
296,280,239147,2,4,P|344:292|416:192,1,180,4|0,0:0|0:0,0:0:0:0:
328,64,239965,101,2,0:0:0:0:
204,248,240238,1,2,0:0:0:0:
92,348,243272,86,0,P|92:308|72:244,1,90,4|0,0:0|0:0,0:0:0:0:
176,152,243752,2,0,P|168:188|168:248,1,90,4|0,0:0|0:0,0:0:0:0:
236,300,244232,1,0,0:0:0:0:
312,244,244472,1,0,0:0:0:0:
432,360,244712,1,4,0:0:0:0:
432,360,245192,54,0,L|436:260,1,90,4|0,0:0|0:0,0:0:0:0:
305,164,245672,2,0,L|312:272,1,90,4|0,0:0|0:0,0:0:0:0:
248,316,246152,1,0,0:0:0:0:
188,248,246392,1,0,0:0:0:0:
48,348,246632,1,4,0:0:0:0:
40,232,246872,53,0,0:0:0:0:
32,200,246992,1,0,0:0:0:0:
32,168,247112,2,0,P|28:128|44:68,1,90,4|0,0:0|0:0,0:0:0:0:
108,40,247472,1,0,0:0:0:0:
184,20,247592,2,0,P|192:60|188:116,1,90,4|0,0:0|0:0,0:0:0:0:
240,180,248072,53,0,0:0:0:0:
160,248,248312,1,0,0:0:0:0:
288,352,248552,1,4,0:0:0:0:
288,352,249032,53,0,0:0:0:0:
376,264,249272,1,4,0:0:0:0:
384,232,249392,1,4,0:0:0:0:
380,200,249512,2,4,L|376:132,1,45
248,52,249752,1,4,0:0:0:0:
240,84,249872,1,4,0:0:0:0:
244,116,249992,2,4,L|248:172,1,45
132,340,250232,53,4,0:0:0:0:
128,304,250352,1,4,0:0:0:0:
128,272,250472,2,4,L|124:216,1,45
76,164,250712,2,4,P|72:120|56:72,1,90
152,32,251192,53,0,0:0:0:0:
204,36,251312,1,0,0:0:0:0:
240,60,251432,2,0,P|224:104|212:152,1,90,4|0,0:0|0:0,0:0:0:0:
256,224,251912,1,0,0:0:0:0:
340,180,252152,1,0,0:0:0:0:
472,308,252392,1,4,0:0:0:0:
472,308,252872,54,0,P|424:308|368:328,1,90
296,360,253352,2,0,P|280:308|256:268,1,90,4|0,0:0|0:0,0:0:0:0:
192,220,253832,1,0,0:0:0:0:
120,280,254072,1,0,0:0:0:0:
8,160,254312,1,4,0:0:0:0:
96,80,254552,53,0,0:0:0:0:
144,64,254672,1,0,0:0:0:0:
200,84,254792,2,0,P|248:80|304:56,1,90,4|0,0:0|0:0,0:0:0:0:
360,32,255152,1,0,0:0:0:0:
364,112,255272,2,0,P|328:140|292:188,1,90,4|0,0:0|0:0,0:0:0:0:
296,264,255752,53,0,0:0:0:0:
216,216,255992,1,0,0:0:0:0:
48,344,256232,1,4,0:0:0:0:
48,344,256712,54,0,P|40:288|24:236,1,90,4|0,0:0|0:0,0:0:0:0:
64,184,257072,1,0,0:0:0:0:
132,228,257192,2,0,P|184:228|240:244,1,90,4|0,0:0|0:0,0:0:0:0:
244,252,257552,1,0,0:0:0:0:
264,272,257672,1,4,0:0:0:0:
364,352,257912,54,2,L|372:304,1,45
424,152,258152,2,2,L|436:200,1,45
324,304,258392,54,2,L|328:364,1,45
448,192,258632,2,0,L|448:92,1,90,4|2,0:0|0:0,0:0:0:0:
432,64,258992,1,2,0:0:0:0:
392,48,259112,1,2,0:0:0:0:
352,40,259232,1,2,0:0:0:0:
300,44,259352,1,2,0:0:0:0:
256,68,259472,1,2,0:0:0:0:
200,124,259592,54,0,L|208:240,1,90,4|0,0:0|0:0,0:0:0:0:
264,268,259952,1,0,0:0:0:0:
200,316,260072,2,0,P|148:320|104:304,1,90,4|0,0:0|0:0,0:0:0:0:
36,332,260432,1,0,0:0:0:0:
44,252,260552,54,0,P|40:208|24:152,1,90,4|2,0:0|0:0,0:0:0:0:
72,96,260912,1,2,0:0:0:0:
112,68,261032,1,2,0:0:0:0:
168,60,261152,1,2,0:0:0:0:
216,72,261272,1,2,0:0:0:0:
256,100,261392,1,2,0:0:0:0:
312,176,261512,54,2,L|304:232,1,45
392,344,261752,2,2,L|388:280,1,45
232,312,261992,54,2,L|300:304,1,45
136,356,262232,2,2,L|132:304,1,45
72,248,262472,54,0,P|72:192|64:132,1,90,4|0,0:0|0:0,0:0:0:0:
20,96,262832,1,0,0:0:0:0:
76,40,262952,2,0,P|136:48|180:64,1,90,4|0,0:0|0:0,0:0:0:0:
312,176,263432,2,0,P|260:176|216:156,1,90
280,88,263912,54,2,L|272:40,1,45
408,192,264152,2,2,L|404:256,1,45
328,348,264392,2,0,P|324:296|304:232,1,90,4|0,0:0|0:0,0:0:0:0:
256,208,264752,1,0,0:0:0:0:
192,256,264872,2,0,P|184:304|184:368,1,90,4|0,0:0|0:0,0:0:0:0:
112,196,265352,2,0,P|104:144|88:96,1,90
48,44,265712,1,0,0:0:0:0:
172,68,265832,54,2,L|228:68,1,45
308,148,266072,2,2,L|252:148,1,45
176,216,266312,54,0,P|184:268|184:332,1,90,4|2,0:0|0:0,0:0:0:0:
204,328,266672,1,2,0:0:0:0:
252,300,266792,1,2,0:0:0:0:
300,300,266912,1,2,0:0:0:0:
352,308,267032,1,2,0:0:0:0:
392,324,267152,1,2,0:0:0:0:
476,348,267272,54,0,P|476:296|488:240,1,90,4|0,0:0|0:0,0:0:0:0:
440,192,267632,1,0,0:0:0:0:
372,148,267752,2,0,P|368:96|356:40,1,90,4|0,0:0|0:0,0:0:0:0:
288,28,268112,1,0,0:0:0:0:
232,84,268232,54,0,P|232:136|236:180,1,90,4|2,0:0|0:0,0:0:0:0:
180,232,268592,1,2,0:0:0:0:
140,212,268712,1,2,0:0:0:0:
88,204,268832,1,2,0:0:0:0:
40,224,268952,1,2,0:0:0:0:
8,256,269072,1,2,0:0:0:0:
56,336,269192,54,2,L|56:288,1,45
192,352,269432,2,2,L|148:352,1,45
24,308,269672,54,2,L|20:248,1,45
216,344,269912,2,2,L|268:336,1,45
356,364,270152,54,0,P|360:320|380:268,1,90,4|0,0:0|0:0,0:0:0:0:
448,304,270512,1,0,0:0:0:0:
488,236,270632,2,0,P|476:192|448:148,1,90,4|0,0:0|0:0,0:0:0:0:
316,76,271112,2,0,L|328:184,1,90
256,300,271592,54,2,L|252:236,1,45
144,360,271832,2,2,L|136:312,1,45
72,268,272072,2,0,P|72:224|84:160,1,90,4|0,0:0|0:0,0:0:0:0:
136,128,272432,1,0,0:0:0:0:
196,180,272552,2,0,P|240:180|292:192,1,90,4|0,0:0|0:0,0:0:0:0:
416,344,273032,2,0,P|360:348|312:328,1,90
272,280,273392,1,0,0:0:0:0:
204,348,273512,54,4,L|156:348,1,45
44,240,273752,2,4,L|104:256,1,45
76,360,273992,2,0,P|68:292|20:184,1,180
88,72,278492,38,0,P|84:120|92:168,1,90,4|0,0:0|0:0,0:0:0:0:
144,220,278960,5,2,0:0:0:0:
208,268,279117,2,0,P|216:308|212:364,1,90,4|0,0:0|0:0,0:0:0:0:
124,368,279742,1,4,0:0:0:0:
312,296,280054,1,4,0:0:0:0:
344,288,280210,1,4,0:0:0:0:
372,296,280367,2,4,L|432:292,1,45
124,368,280679,2,4,L|72:368,1,45
32,284,280992,102,0,P|72:284|128:260,1,90,4|0,0:0|0:0,0:0:0:0:
140,252,281460,1,4,0:0:0:0:
156,228,281617,1,4,0:0:0:0:
248,292,281929,1,4,0:0:0:0:
280,284,282085,1,4,0:0:0:0:
312,292,282242,2,0,P|352:288|408:304,1,90,4|0,0:0|0:0,0:0:0:0:
464,348,282710,1,2,0:0:0:0:
488,272,282867,2,0,P|488:224|472:164,1,90,4|0,0:0|0:0,0:0:0:0:
296,200,283492,6,0,P|292:160|300:108,1,90,4|0,0:0|0:0,0:0:0:0:
364,64,283960,1,2,0:0:0:0:
292,28,284117,2,0,P|256:24|200:40,1,90,4|0,0:0|0:0,0:0:0:0:
120,128,284742,102,2,L|64:132,1,45
184,264,285054,2,2,L|184:204,1,45
248,152,285367,5,4,0:0:0:0:
316,224,285679,1,4,0:0:0:0:
308,256,285835,1,4,0:0:0:0:
316,288,285992,2,0,P|312:328|320:380,1,90,4|0,0:0|0:0,0:0:0:0:
420,332,286617,1,4,0:0:0:0:
188,356,286929,102,4,L|184:308,1,45
80,240,287242,2,4,L|92:292,1,45
160,168,287554,2,4,L|164:120,1,45
228,76,287867,2,4,P|284:80|320:104,1,90
384,232,288492,6,0,P|332:232|288:216,1,90,4|0,0:0|0:0,0:0:0:0:
240,164,288960,1,2,0:0:0:0:
180,216,289117,2,0,P|192:260|192:316,1,90,4|0,0:0|0:0,0:0:0:0:
116,360,289742,1,4,0:0:0:0:
24,204,290054,1,4,0:0:0:0:
12,160,290210,1,4,0:0:0:0:
32,124,290367,2,4,L|40:76,1,45
136,40,290679,2,4,L|144:88,1,45
264,180,290992,102,0,P|208:180|160:192,1,90,4|0,0:0|0:0,0:0:0:0:
160,208,291460,1,4,0:0:0:0:
148,232,291617,1,4,0:0:0:0:
208,332,291929,1,4,0:0:0:0:
232,324,292085,1,4,0:0:0:0:
260,324,292242,2,0,P|312:324|356:308,1,90,4|0,0:0|0:0,0:0:0:0:
400,252,292710,1,2,0:0:0:0:
452,312,292867,2,0,P|460:268|480:216,1,90,4|0,0:0|0:0,0:0:0:0:
364,80,293492,6,0,P|376:128|380:176,1,90,4|0,0:0|0:0,0:0:0:0:
332,232,293960,1,4,0:0:0:0:
368,304,294117,1,4,0:0:0:0:
256,360,294429,1,4,0:0:0:0:
200,260,294742,1,4,0:0:0:0:
160,248,294898,1,4,0:0:0:0:
108,260,295054,2,0,P|64:260|16:272,1,90,4|0,0:0|0:0,0:0:0:0:
40,352,295679,1,4,0:0:0:0:
84,156,295992,101,4,0:0:0:0:
128,128,296148,1,4,0:0:0:0:
180,128,296304,1,4,0:0:0:0:
232,140,296460,1,4,0:0:0:0:
268,168,296617,5,4,0:0:0:0:
372,324,296929,1,4,0:0:0:0:
472,104,297242,1,4,0:0:0:0:
412,52,297398,1,4,0:0:0:0:
336,68,297554,1,4,0:0:0:0:
276,120,297710,102,4,L|284:168,1,45
184,252,298023,2,4,L|184:196,1,45
84,344,298492,6,0,P|80:292|64:236,1,90,4|0,0:0|0:0,0:0:0:0:
28,188,298960,1,2,0:0:0:0:
104,168,299117,2,0,P|112:112|124:68,1,90,4|0,0:0|0:0,0:0:0:0:
228,32,299742,1,4,0:0:0:0:
320,112,300054,1,4,0:0:0:0:
340,144,300210,1,4,0:0:0:0:
336,192,300367,2,4,L|340:240,1,45
240,344,300679,2,4,L|236:296,1,45
132,200,300992,102,0,L|144:292,1,90,4|0,0:0|0:0,0:0:0:0:
132,312,301460,1,4,0:0:0:0:
124,340,301617,1,4,0:0:0:0:
32,376,301929,1,4,0:0:0:0:
20,352,302085,1,4,0:0:0:0:
20,324,302242,2,0,L|24:228,1,90,4|0,0:0|0:0,0:0:0:0:
76,176,302710,1,2,0:0:0:0:
128,116,302867,2,0,P|180:112|232:120,1,90,4|0,0:0|0:0,0:0:0:0:
324,204,303492,6,0,P|328:152|344:104,1,90,4|0,0:0|0:0,0:0:0:0:
404,72,303960,1,2,0:0:0:0:
460,128,304117,2,0,P|468:176|464:224,1,90,4|0,0:0|0:0,0:0:0:0:
384,304,304742,1,4,0:0:0:0:
292,252,305054,1,4,0:0:0:0:
252,244,305210,1,4,0:0:0:0:
200,264,305367,2,4,L|152:264,1,45
48,352,305679,2,4,L|96:340,1,45
40,256,305992,102,0,P|40:208|32:156,1,90,4|0,0:0|0:0,0:0:0:0:
32,140,306460,1,4,0:0:0:0:
24,116,306617,1,4,0:0:0:0:
128,48,306929,1,4,0:0:0:0:
156,44,307085,1,4,0:0:0:0:
184,52,307242,2,0,P|236:56|288:40,1,90,4|0,0:0|0:0,0:0:0:0:
344,80,307710,1,2,0:0:0:0:
296,144,307867,2,0,P|304:200|300:240,1,90,4|0,0:0|0:0,0:0:0:0:
164,352,308492,6,0,P|168:304|184:260,1,90,4|0,0:0|0:0,0:0:0:0:
164,188,308960,1,2,0:0:0:0:
88,216,309117,2,0,P|92:264|84:308,1,90,4|0,0:0|0:0,0:0:0:0:
16,356,309742,1,4,0:0:0:0:
24,148,310054,101,4,0:0:0:0:
16,108,310210,1,4,0:0:0:0:
28,72,310367,2,4,L|32:28,1,45
144,152,310679,2,4,L|140:204,1,45
212,348,310992,2,0,P|216:288|236:232,1,90,4|0,0:0|0:0,0:0:0:0:
244,240,311460,1,4,0:0:0:0:
264,224,311617,1,4,0:0:0:0:
352,316,311929,5,4,0:0:0:0:
380,308,312085,1,4,0:0:0:0:
408,316,312242,2,4,L|464:312,1,45
488,188,312554,2,4,L|440:196,1,45
368,148,312867,2,0,P|364:96|352:40,1,90,4|0,0:0|0:0,0:0:0:0:
232,184,313492,102,0,P|224:232|224:280,1,90,4|0,0:0|0:0,0:0:0:0:
260,344,313960,1,2,0:0:0:0:
184,368,314117,2,0,L|76:356,1,90,4|0,0:0|0:0,0:0:0:0:
32,292,314742,1,4,0:0:0:0:
88,184,315054,1,4,0:0:0:0:
80,144,315210,1,4,0:0:0:0:
96,108,315367,2,4,L|100:64,1,45
200,148,315679,2,4,L|200:212,1,45
252,252,315992,5,4,0:0:0:0:
296,232,316148,1,4,0:0:0:0:
352,232,316304,1,4,0:0:0:0:
396,256,316460,1,4,0:0:0:0:
428,296,316617,1,4,0:0:0:0:
484,192,316929,102,4,L|476:140,1,45
352,232,317242,2,4,L|360:300,1,45
296,328,317554,2,4,P|244:328|192:348,1,90
136,372,318023,2,4,P|84:372|40:352,1,90
24,284,318492,2,4,P|36:228|4:108,1,175.499991966248,4|0,0:0|0:0,0:0:0:0:
72,188,324156,38,2,L|168:192,1,90
224,140,324496,1,2,0:0:0:0:
264,300,324610,2,2,P|260:256|272:200,1,90
344,348,324951,5,2,0:0:0:0:
396,288,325065,2,2,L|492:288,1,90
512,212,325406,1,2,0:0:0:0:
452,64,325519,2,2,P|448:104|456:160,1,90
364,40,325860,101,2,0:0:0:0:
304,92,325974,2,2,P|264:96|208:80,1,90
192,72,326315,1,2,0:0:0:0:
168,64,326428,1,2,0:0:0:0:
96,140,326656,5,2,0:0:0:0:
116,168,326769,1,2,0:0:0:0:
124,200,326883,2,2,P|136:248|136:296,1,90
88,352,327224,1,2,0:0:0:0:
232,240,327337,2,2,P|232:192|248:144,1,90
308,68,327678,101,2,0:0:0:0:
360,128,327792,2,2,L|456:120,1,90
496,184,328133,1,2,0:0:0:0:
416,272,328246,6,2,L|408:224,1,45
316,300,328474,2,2,L|320:348,1,45
224,368,328701,101,2,0:0:0:0:
156,324,328815,1,2,0:0:0:0:
88,364,328928,1,2,0:0:0:0:
24,316,329042,1,2,0:0:0:0:
60,336,329156,1,2,0:0:0:0:
128,296,329269,1,2,0:0:0:0:
192,336,329383,1,2,0:0:0:0:
260,320,329496,1,2,0:0:0:0:
232,360,329610,6,2,P|228:312|240:256,1,90
284,208,329951,1,2,0:0:0:0:
220,160,330065,2,2,P|220:116|212:64,1,90
276,20,330406,1,2,0:0:0:0:
344,64,330519,2,2,L|456:56,1,90
484,200,330974,102,2,L|368:192,1,90
328,236,331315,1,2,0:0:0:0:
248,352,331428,2,2,P|248:304|232:248,1,90
176,212,331769,5,2,0:0:0:0:
120,268,331883,2,2,P|76:268|24:252,1,90
8,180,332224,1,2,0:0:0:0:
56,116,332337,2,2,P|108:116|156:128,1,90
212,168,332678,101,2,0:0:0:0:
276,216,332792,2,2,P|324:216|376:196,1,90
384,188,333133,1,2,0:0:0:0:
404,172,333246,1,2,0:0:0:0:
468,256,333474,5,2,0:0:0:0:
480,280,333587,1,2,0:0:0:0:
476,320,333701,2,2,P|428:316|376:332,1,90
316,360,334042,1,2,0:0:0:0:
256,312,334156,2,2,L|248:212,1,90
180,172,334496,101,2,0:0:0:0:
112,216,334610,2,2,L|124:320,1,90
60,356,334951,1,2,0:0:0:0:
20,288,335065,2,2,P|24:248|12:168,1,90
56,128,335406,1,2,0:0:0:0:
184,200,335519,6,2,L|140:196,1,45
264,272,335746,2,2,L|316:264,1,45
392,196,335974,101,2,0:0:0:0:
344,168,336087,1,2,0:0:0:0:
288,168,336201,1,2,0:0:0:0:
244,180,336315,1,2,0:0:0:0:
268,192,336428,6,2,P|264:136|272:88,1,90
328,52,336769,1,2,0:0:0:0:
256,20,336883,2,2,L|152:36,1,90
44,160,337337,101,2,0:0:0:0:
216,344,337792,1,2,0:0:0:0:
104,72,339411,85,2,0:0:0:0:
144,76,339504,1,2,0:0:0:0:
100,112,339598,1,2,0:0:0:0:
152,112,339692,1,2,0:0:0:0:
124,108,339786,54,2,L|128:152,1,33.7500012874604
242,310,339973,2,2,L|246:258,1,33.7500012874604
323,255,340161,54,0,B|278:269|278:269|203:235|203:235|119:255|119:255|171:252|171:252|244:312,1,360,4|0,0:0|0:0,0:0:0:0:
240,368,340723,1,2,0:0:0:0:
288,352,340817,1,2,0:0:0:0:
364,376,340911,1,2,0:0:0:0:
404,344,341004,1,2,0:0:0:0:
476,380,341098,1,2,0:0:0:0:
512,348,341192,1,2,0:0:0:0:
432,128,341286,54,0,P|424:160|428:200,1,67.5000025749208
504,172,341567,1,0,0:0:0:0:
344,264,341661,2,0,P|344:176|328:68,1,180,4|0,0:0|0:0,0:0:0:0:
268,40,341942,1,0,0:0:0:0:
212,96,342036,2,0,L|132:92,1,67.5000025749208
52,144,342317,53,2,0:0:0:0:
92,184,342411,1,2,0:0:0:0:
36,240,342504,1,2,0:0:0:0:
68,276,342598,1,2,0:0:0:0:
4,324,342692,1,2,0:0:0:0:
32,288,342786,54,0,P|64:288|100:304,1,67.5000025749208
156,356,343067,1,0,0:0:0:0:
208,296,343161,2,0,L|200:92,1,180,4|0,0:0|0:0,0:0:0:0:
264,68,343442,1,0,0:0:0:0:
332,296,343536,54,0,L|336:208,1,67.5000025749208
376,156,343817,1,2,0:0:0:0:
336,128,343911,1,2,0:0:0:0:
268,172,344004,1,2,0:0:0:0:
216,196,344098,1,2,0:0:0:0:
152,148,344192,1,2,0:0:0:0:
184,192,344286,54,0,L|72:196,1,101.250003862381
36,288,344661,2,0,L|316:264,1,270,4|0,0:0|0:0,0:0:0:0:
264,360,345036,2,0,L|152:360,1,101.250003862381
68,296,345411,53,2,0:0:0:0:
108,304,345504,1,2,0:0:0:0:
80,328,345598,1,2,0:0:0:0:
104,264,345692,1,2,0:0:0:0:
96,300,345786,54,2,L|92:248,1,33.7500012874604
208,140,345973,2,2,L|204:184,1,33.7500012874604
164,113,346161,54,0,B|92:101|92:101|88:249|88:249|216:165,1,360,4|0,0:0|0:0,0:0:0:0:
256,232,346723,1,2,0:0:0:0:
300,216,346817,1,2,0:0:0:0:
352,228,346911,1,2,0:0:0:0:
416,180,347004,1,2,0:0:0:0:
376,160,347098,1,2,0:0:0:0:
324,164,347192,1,2,0:0:0:0:
256,44,347286,54,0,L|252:120,1,67.5000025749208
176,24,347567,1,0,0:0:0:0:
340,104,347661,2,0,L|328:284,1,180,4|0,0:0|0:0,0:0:0:0:
272,340,347942,1,0,0:0:0:0:
204,300,348036,2,0,L|196:220,1,67.5000025749208
260,168,348317,53,2,0:0:0:0:
216,140,348411,1,2,0:0:0:0:
148,172,348504,1,2,0:0:0:0:
100,152,348598,1,2,0:0:0:0:
60,220,348692,1,2,0:0:0:0:
104,200,348786,54,0,P|100:148|92:104,1,67.5000025749208
44,76,349067,1,0,0:0:0:0:
180,248,349161,2,0,B|236:220|236:220|288:220|288:220|360:176,1,180,4|0,0:0|0:0,0:0:0:0:
396,124,349442,1,0,0:0:0:0:
456,176,349536,2,0,P|456:216|460:252,1,67.5000025749208
396,332,349817,53,2,0:0:0:0:
364,312,349911,1,2,0:0:0:0:
316,336,350004,1,2,0:0:0:0:
264,320,350098,1,2,0:0:0:0:
200,344,350192,1,2,0:0:0:0:
248,364,350286,54,0,B|240:320|240:320|252:252,1,101.250003862381
193,83,350661,2,0,B|223:138|223:138|197:363,1,270,4|0,0:0|0:0,0:0:0:0:
169,250,351036,2,0,B|193:286|193:286|201:362,1,101.250003862381
88,360,351411,53,2,0:0:0:0:
100,332,351504,1,2,0:0:0:0:
64,308,351598,1,2,0:0:0:0:
56,340,351692,1,2,0:0:0:0:
76,344,351786,54,2,L|128:340,1,33.7500012874604
256,252,351973,2,2,L|208:248,1,33.7500012874604
217,33,352161,54,0,B|241:105|241:105|205:165|205:165|217:309|217:309|273:225,1,360,4|0,0:0|0:0,0:0:0:0:
320,296,352723,1,2,0:0:0:0:
364,268,352817,1,2,0:0:0:0:
412,288,352911,1,2,0:0:0:0:
448,264,353004,1,2,0:0:0:0:
492,296,353098,1,2,0:0:0:0:
448,340,353192,1,2,0:0:0:0:
400,312,353286,54,0,L|408:224,1,67.5000025749208
360,184,353567,1,0,0:0:0:0:
217,254,353661,2,0,P|265:262|361:174,1,180,4|0,0:0|0:0,0:0:0:0:
280,168,353942,1,0,0:0:0:0:
204,144,354036,2,0,P|164:152|132:168,1,67.5000025749208
64,236,354317,53,0,0:0:0:0:
100,232,354411,1,2,0:0:0:0:
144,248,354504,1,2,0:0:0:0:
176,284,354598,1,2,0:0:0:0:
128,288,354692,1,2,0:0:0:0:
88,304,354786,54,0,L|128:372,1,67.5000025749208
200,368,355067,1,0,0:0:0:0:
232,296,355161,2,0,B|180:292|180:292|140:308|140:308|112:296|112:296|48:296,1,180,4|0,0:0|0:0,0:0:0:0:
16,228,355442,1,0,0:0:0:0:
80,100,355536,54,0,L|76:180,1,67.5000025749208
132,224,355817,1,2,0:0:0:0:
176,200,355911,1,2,0:0:0:0:
232,208,356004,1,2,0:0:0:0:
276,240,356098,1,2,0:0:0:0:
336,232,356192,1,2,0:0:0:0:
308,260,356286,54,0,P|304:200|316:144,1,101.250003862381
382,11,356661,2,0,P|336:73|312:277,1,270,4|0,0:0|0:0,0:0:0:0:
349,170,357036,2,0,P|313:226|309:282,1,101.250003862381
420,352,357411,53,2,0:0:0:0:
460,328,357504,1,2,0:0:0:0:
412,296,357598,1,2,0:0:0:0:
472,284,357692,1,2,0:0:0:0:
452,284,357786,54,2,L|452:224,1,33.7500012874604
320,356,357973,2,2,L|312:304,1,33.7500012874604
62,338,358161,54,0,B|115:350|115:350|179:310|179:310|235:342|235:342|354:326|354:326|294:378,1,360,4|0,0:0|0:0,0:0:0:0:
240,356,358723,1,2,0:0:0:0:
200,340,358817,1,2,0:0:0:0:
148,352,358911,1,2,0:0:0:0:
96,332,359004,1,2,0:0:0:0:
40,356,359098,1,2,0:0:0:0:
76,304,359192,1,2,0:0:0:0:
128,320,359286,54,0,P|124:276|128:232,1,67.5000025749208
176,192,359567,1,0,0:0:0:0:
392,244,359661,2,0,B|320:221|320:221|224:260,1,180,4|0,0:0|0:0,0:0:0:0:
252,336,359942,1,0,0:0:0:0:
328,360,360036,2,0,L|332:288,1,67.5000025749208
416,276,360317,53,2,0:0:0:0:
456,240,360411,1,2,0:0:0:0:
392,192,360504,1,2,0:0:0:0:
440,152,360598,1,2,0:0:0:0:
388,120,360692,1,2,0:0:0:0:
416,120,360786,54,0,P|416:76|424:36,1,67.5000025749208
348,16,361067,1,0,0:0:0:0:
177,23,361161,2,0,B|261:-10|261:-10|357:18,1,180,4|0,0:0|0:0,0:0:0:0:
372,92,361442,1,0,0:0:0:0:
304,136,361536,2,0,P|256:140|224:136,1,67.5000025749208
156,96,361817,53,0,0:0:0:0:
124,92,361911,1,2,0:0:0:0:
72,112,362004,1,2,0:0:0:0:
56,148,362098,1,2,0:0:0:0:
108,152,362192,1,2,0:0:0:0:
72,168,362286,54,0,L|88:288,1,101.250003862381
120,348,362661,2,0,L|152:56,1,270,4|0,0:0|0:0,0:0:0:0:
220,40,363036,2,0,L|192:160,1,101.250003862381
264,232,363411,53,2,0:0:0:0:
312,204,363504,1,2,0:0:0:0:
364,204,363598,1,2,0:0:0:0:
416,240,363692,1,2,0:0:0:0:
472,240,363786,1,2,0:0:0:0:
164,348,366795,102,0,P|156:292|128:204,1,135,4|0,0:0|0:0,0:0:0:0:
200,96,367223,2,2,L|196:144,1,45
78,326,367437,2,2,L|66:266,1,45
48,379,367652,6,0,P|-20:359|76:347,1,270,4|0,0:0|0:0,0:0:0:0:
24,336,368080,2,0,L|12:188,1,135,4|2,0:0|0:0,0:0:0:0:
92,132,368509,101,2,0:0:0:0:
116,168,368616,1,2,0:0:0:0:
180,72,368723,5,2,0:0:0:0:
212,116,368830,1,2,0:0:0:0:
152,128,368937,102,0,P|156:72|168:16,1,90,2|0,0:0|0:0,0:0:0:0:
244,28,369259,1,2,0:0:0:0:
419,52,369366,2,0,B|355:36|355:36|311:44|311:44|231:24,1,180,4|0,0:0|0:0,0:0:0:0:
204,92,369687,1,2,0:0:0:0:
236,140,369795,2,0,P|264:116|168:120,1,270,4|0,0:0|0:0,0:0:0:0:
204,92,370223,6,0,P|148:88|56:120,1,135,4|0,0:0|0:0,0:0:0:0:
16,48,370652,2,2,L|4:-8,1,45
156,176,370866,2,2,L|144:236,1,45
302,179,371080,102,0,B|250:175|250:175|190:207|190:207|94:207|94:207|162:223,1,270,4|0,0:0|0:0,0:0:0:0:
192,280,371509,2,0,P|180:220|224:136,1,135,4|2,0:0|0:0,0:0:0:0:
308,176,371937,5,2,0:0:0:0:
304,148,372045,1,2,0:0:0:0:
388,200,372152,101,2,0:0:0:0:
392,228,372259,1,2,0:0:0:0:
448,144,372366,5,2,0:0:0:0:
440,116,372473,1,2,0:0:0:0:
508,208,372580,101,2,0:0:0:0:
512,236,372687,1,2,0:0:0:0:
448,188,372795,6,0,B|424:240|424:240|440:304|440:304|420:360,1,180,4|0,0:0|0:0,0:0:0:0:
344,372,373116,1,2,0:0:0:0:
288,344,373223,2,0,B|332:324|332:324|384:344|384:344|388:216|388:216|368:264,1,270,4|0,0:0|0:0,0:0:0:0:
386,116,373652,102,0,L|370:276,1,135,4|0,0:0|0:0,0:0:0:0:
280,292,374080,2,2,L|272:224,1,45
420,88,374295,2,2,L|408:160,1,45
296,114,374509,6,0,B|348:102|348:102|408:134|408:134|484:114|484:114|396:78,1,270,4|0,0:0|0:0,0:0:0:0:
376,144,374937,2,0,P|348:112|252:60,1,135,4|2,0:0|0:0,0:0:0:0:
208,124,375366,101,2,0:0:0:0:
160,144,375473,1,2,0:0:0:0:
244,208,375580,5,2,0:0:0:0:
296,228,375687,1,2,0:0:0:0:
200,228,375795,102,0,L|188:112,1,90,2|0,0:0|0:0,0:0:0:0:
128,88,376116,1,2,0:0:0:0:
52,40,376223,2,0,B|84:72|84:104|84:104|104:116|104:116|108:156|160:184,1,180,4|0,0:0|0:0,0:0:0:0:
156,260,376545,1,2,0:0:0:0:
128,88,376652,6,2,L|128:164,1,45
204,296,376866,2,2,L|212:232,1,45
296,344,377080,102,0,P|292:280|320:176,1,135,4|0,0:0|0:0,0:0:0:0:
384,104,377509,2,2,L|384:164,1,45
208,312,377723,2,2,L|200:244,1,45
123,220,377937,6,0,L|399:144,1,270,4|0,0:0|0:0,0:0:0:0:
312,188,378366,2,0,L|448:144,1,135,4|2,0:0|0:0,0:0:0:0:
504,208,378795,101,2,0:0:0:0:
484,228,378902,1,2,0:0:0:0:
404,284,379009,5,2,0:0:0:0:
428,296,379116,1,2,0:0:0:0:
316,276,379223,101,2,0:0:0:0:
296,296,379330,1,2,0:0:0:0:
216,352,379437,5,2,0:0:0:0:
240,364,379544,1,2,0:0:0:0:
292,344,379652,102,0,B|312:288|312:288|288:204|288:204|260:256,1,180,4|0,0:0|0:0,0:0:0:0:
196,260,379973,1,2,0:0:0:0:
30,316,380080,6,0,B|98:276|98:276|202:284|202:284|290:220,1,270,4|0,0:0|0:0,0:0:0:0:
244,184,380509,2,0,P|192:192|108:244,1,135,4|0,0:0|0:0,0:0:0:0:
188,340,380937,102,2,L|192:280,1,45
56,172,381152,2,2,L|64:120,1,45
80,56,381366,2,0,L|48:336,1,270,4|0,0:0|0:0,0:0:0:0:
76,356,381795,2,0,L|64:208,1,135,4|2,0:0|0:0,0:0:0:0:
128,152,382223,5,2,0:0:0:0:
152,144,382330,1,2,0:0:0:0:
248,200,382437,101,2,0:0:0:0:
224,192,382545,1,2,0:0:0:0:
180,200,382652,6,0,P|192:144|216:88,1,90,2|0,0:0|0:0,0:0:0:0:
272,72,382973,1,2,0:0:0:0:
398,175,383080,2,0,P|330:159|270:59,1,180,4|0,0:0|0:0,0:0:0:0:
332,20,383402,1,2,0:0:0:0:
199,240,383509,102,0,B|235:164|235:164|295:124|295:124|299:76|299:76|343:0,1,270,4|0,0:0|0:0,0:0:0:0:
272,72,383937,2,0,P|344:72|416:104,1,135,4|0,0:0|0:0,0:0:0:0:
460,192,384366,2,2,L|472:140,1,45
336,28,384580,2,2,L|348:92,1,45
88,76,384795,6,0,B|268:112|268:112|360:63,1,270,4|0,0:0|0:0,0:0:0:0:
268,68,385223,2,0,P|300:116|300:216,1,135,4|2,0:0|0:0,0:0:0:0:
240,260,385652,101,2,0:0:0:0:
232,236,385759,1,2,0:0:0:0:
144,184,385866,5,2,0:0:0:0:
144,212,385973,1,2,0:0:0:0:
96,304,386080,101,2,0:0:0:0:
88,280,386187,1,2,0:0:0:0:
0,228,386294,5,2,0:0:0:0:
0,256,386401,1,2,0:0:0:0:
44,264,386509,2,0,B|24:208|24:208|44:72,1,180,4|0,0:0|0:0,0:0:0:0:
104,44,386830,1,2,0:0:0:0:
132,100,386937,2,0,P|52:52|156:56,1,270,4|2,0:0|0:0,0:0:0:0:
208,160,387366,101,2,0:0:0:0:
232,152,387473,1,2,0:0:0:0:
300,220,387580,5,2,0:0:0:0:
324,208,387687,1,2,0:0:0:0:
284,172,387795,101,2,0:0:0:0:
264,188,387902,1,2,0:0:0:0:
192,268,388009,5,2,0:0:0:0:
216,276,388116,1,2,0:0:0:0:
252,240,388223,102,0,B|208:252|208:252|156:304|156:304|88:324,1,180,4|0,0:0|0:0,0:0:0:0:
24,292,388545,1,2,0:0:0:0:
52,364,388652,2,0,B|72:320|72:320|12:72,1,270,4|2,0:0|0:0,0:0:0:0:
104,48,389080,5,2,0:0:0:0:
132,56,389187,1,2,0:0:0:0:
220,136,389295,101,2,0:0:0:0:
192,136,389402,1,2,0:0:0:0:
96,196,389509,5,2,0:0:0:0:
124,204,389616,1,2,0:0:0:0:
212,284,389724,101,2,0:0:0:0:
184,284,389831,1,2,0:0:0:0:
144,280,389937,6,0,P|172:232|288:264,1,180,4|0,0:0|0:0,0:0:0:0:
260,324,390259,1,2,0:0:0:0:
321,338,390366,2,0,B|214:374|214:374|222:286|222:286|290:242,1,270,4|2,0:0|0:0,0:0:0:0:
388,268,390795,101,2,0:0:0:0:
408,284,390902,1,2,0:0:0:0:
492,200,391009,5,2,0:0:0:0:
480,224,391116,1,2,0:0:0:0:
360,156,391223,101,2,0:0:0:0:
380,172,391330,1,2,0:0:0:0:
464,88,391437,5,2,0:0:0:0:
452,112,391544,1,2,0:0:0:0:
428,176,391652,102,0,B|340:160|340:160|244:212,1,180,4|0,0:0|0:0,0:0:0:0:
212,268,391973,1,2,0:0:0:0:
252,304,392080,2,0,B|224:216|224:216|248:132|248:132|216:24,1,270,4|2,0:0|0:0,0:0:0:0:
124,100,392509,5,2,0:0:0:0:
116,76,392616,1,2,0:0:0:0:
64,208,392723,101,2,0:0:0:0:
68,180,392830,1,2,0:0:0:0:
184,212,392937,5,2,0:0:0:0:
176,188,393044,1,2,0:0:0:0:
124,320,393151,101,2,0:0:0:0:
128,292,393259,1,2,0:0:0:0:
256,192,393366,12,0,394866,0:0:0:0:
88,168,398723,102,4,L|84:112,1,33.7500012874604
168,324,398953,2,4,L|176:268,1,33.7500012874604
427,281,399184,86,0,B|384:272|384:272|345:286|345:286|310:273|310:273|270:293|270:293|224:276|224:276|158:293,1,270,4|0,0:0|0:0,0:0:0:0:
468,172,399646,22,4,L|472:220,1,33.7500012874604
346,91,399876,2,4,L|400:76,1,33.7500012874604
199,71,400107,86,0,B|267:64|267:64|311:82|311:82|403:68|403:68|328:100,1,270,4|0,0:0|0:0,0:0:0:0:
124,24,400569,22,0,P|104:80|140:156,1,135.000005149842,4|0,0:0|0:0,0:0:0:0:
212,220,401261,1,4,0:0:0:0:
156,288,401376,1,4,0:0:0:0:
264,372,401492,1,4,0:0:0:0:
48,360,401723,85,2,0:0:0:0:
96,340,401838,1,2,0:0:0:0:
168,368,401953,1,2,0:0:0:0:
216,344,402069,1,2,0:0:0:0:
292,368,402184,1,2,0:0:0:0:
336,344,402299,1,2,0:0:0:0:
324,360,402415,22,4,L|320:312,1,33.7500012874604
421,164,402646,2,4,L|420:212,1,33.7500012874604
224,180,402876,86,0,B|284:248|284:248|362:247|362:247|436:144,1,270,4|0,0:0|0:0,0:0:0:0:
144,92,403338,22,4,L|200:88,1,33.7500012874604
100,232,403569,2,4,L|40:232,1,33.7500012874604
106,322,403799,86,0,B|23:340|23:340|19:236|19:236|99:232,1,270,4|0,0:0|0:0,0:0:0:0:
248,352,404261,22,0,B|236:308|236:308|252:212,1,135.000005149842,4|0,0:0|0:0,0:0:0:0:
344,168,404953,1,4,0:0:0:0:
284,96,405069,1,4,0:0:0:0:
392,28,405184,1,4,0:0:0:0:
452,48,405415,85,2,0:0:0:0:
404,60,405530,1,2,0:0:0:0:
360,40,405646,1,2,0:0:0:0:
312,60,405761,1,2,0:0:0:0:
268,40,405876,1,2,0:0:0:0:
224,52,405992,1,2,0:0:0:0:
236,68,406107,22,4,L|232:8,1,33.7500012874604
152,172,406338,2,4,L|196:172,1,33.7500012874604
191,359,406569,86,0,B|162:299|162:299|186:239|186:239|159:143|159:143|203:191,1,270,4|0,0:0|0:0,0:0:0:0:
312,304,407030,22,4,L|264:304,1,33.7500012874604
416,360,407261,2,4,L|416:308,1,33.7500012874604
416,360,407492,86,0,B|352:328|352:328|236:344|236:344|132:300,1,270,4|0,0:0|0:0,0:0:0:0:
64,364,407953,22,0,L|48:220,1,135.000005149842,4|0,0:0|0:0,0:0:0:0:
112,168,408646,1,4,0:0:0:0:
48,96,408761,1,4,0:0:0:0:
180,16,408876,1,4,0:0:0:0:
128,48,409107,85,2,0:0:0:0:
168,68,409223,1,2,0:0:0:0:
216,64,409338,1,2,0:0:0:0:
256,36,409453,1,2,0:0:0:0:
300,20,409569,1,2,0:0:0:0:
352,24,409684,1,2,0:0:0:0:
328,40,409799,22,4,L|336:96,1,33.7500012874604
240,232,410030,2,4,L|232:184,1,33.7500012874604,4|4,0:0|0:0,0:0:0:0:
276,363,410261,86,0,B|316:291|316:291|240:179|240:179|240:259,1,270,4|0,0:0|0:0,0:0:0:0:
416,352,410723,22,4,L|368:356,1,33.7500012874604
136,308,410953,2,4,L|180:304,1,33.7500012874604
249,363,411184,86,0,B|185:335|185:335|89:387|89:387|153:291,1,270,4|0,0:0|0:0,0:0:0:0:
249,363,411646,21,2,0:0:0:0:
312,116,411761,1,2,0:0:0:0:
380,304,411876,1,2,0:0:0:0:
184,216,411992,1,2,0:0:0:0:
420,208,412107,1,2,0:0:0:0:
432,168,412223,85,2,0:0:0:0:
424,132,412338,1,2,0:0:0:0:
408,96,412453,1,2,0:0:0:0:
384,72,412569,1,2,0:0:0:0:
352,56,412684,1,2,0:0:0:0:
332,48,412799,21,2,0:0:0:0:
256,152,413030,1,2,0:0:0:0:
104,48,413261,1,2,0:0:0:0:
48,188,413492,86,0,B|100:216|100:216|132:268|132:268|204:300,1,180,4|0,0:0|0:0,0:0:0:0:
256,332,413953,1,2,0:0:0:0:
264,348,414069,1,2,0:0:0:0:
284,352,414184,2,4,L|284:340,4,8.43750032186509
384,364,414415,21,2,0:0:0:0:
384,336,414530,1,2,0:0:0:0:
464,284,414646,85,2,0:0:0:0:
468,324,414761,1,2,0:0:0:0:
432,360,414876,22,0,P|432:320|420:276,1,67.5000025749208,2|0,0:0|0:0,0:0:0:0:
384,376,415223,2,0,B|432:352|432:352|504:352|504:352|464:236|464:236|440:276,1,270,4|0,0:0|0:0,0:0:0:0:
328,192,415799,85,2,0:0:0:0:
320,172,415915,1,2,0:0:0:0:
336,160,416030,2,4,L|336:152,4,8.43750032186509
240,108,416261,21,2,0:0:0:0:
232,68,416376,1,2,0:0:0:0:
132,48,416492,85,2,0:0:0:0:
140,92,416607,1,2,0:0:0:0:
188,68,416723,22,0,P|232:68|312:80,1,101.250003862381,2|0,0:0|0:0,0:0:0:0:
188,34,417184,86,4,L|188:82,1,33.7500012874604
120,216,417415,2,4,L|112:164,1,33.7500012874604
311,189,417646,22,0,B|255:185|255:185|199:201|199:201|83:201|83:201|133:221,1,270,4|0,0:0|0:0,0:0:0:0:
180,344,418107,86,4,L|220:332,1,33.7500012874604
396,276,418338,2,4,L|336:268,1,33.7500012874604
429,368,418569,22,0,B|381:356|329:380|329:380|293:344|293:344|233:372|153:332,1,270,4|0,0:0|0:0,0:0:0:0:
48,252,419030,86,0,B|108:228|108:228|192:260,1,135.000005149842,4|0,0:0|0:0,0:0:0:0:
252,208,419723,1,4,0:0:0:0:
324,264,419838,1,4,0:0:0:0:
464,188,419953,1,4,0:0:0:0:
480,224,420184,21,2,0:0:0:0:
492,184,420299,1,2,0:0:0:0:
488,136,420415,1,2,0:0:0:0:
464,92,420530,1,2,0:0:0:0:
432,64,420646,1,2,0:0:0:0:
384,56,420761,1,2,0:0:0:0:
308,116,420876,86,0,B|256:92|256:92|196:96|196:96|116:64,1,180,4|0,0:0|0:0,0:0:0:0:
68,152,421338,1,2,0:0:0:0:
80,168,421453,1,2,0:0:0:0:
68,184,421569,2,4,L|68:176,4,8.43750032186509
136,264,421799,21,2,0:0:0:0:
132,296,421915,1,2,0:0:0:0:
224,208,422030,85,2,0:0:0:0:
232,256,422146,1,2,0:0:0:0:
192,312,422261,22,0,B|184:280|184:280|192:224,1,67.5000025749208,2|0,0:0|0:0,0:0:0:0:
132,296,422607,2,0,B|208:280|208:280|260:296|260:296|296:272|296:272|412:252,1,270,4|0,0:0|0:0,0:0:0:0:
464,172,423184,85,2,0:0:0:0:
480,160,423299,1,2,0:0:0:0:
468,144,423415,2,4,L|472:152,4,8.43750032186509
384,68,423646,21,2,0:0:0:0:
392,96,423761,1,2,0:0:0:0:
300,164,423876,85,2,0:0:0:0:
304,128,423992,1,2,0:0:0:0:
356,132,424107,2,0,P|356:100|328:24,1,101.250003862381,2|0,0:0|0:0,0:0:0:0:
358,165,424569,22,4,L|354:109,1,33.7500012874604
252,288,424799,2,4,L|244:236,1,33.7500012874604
242,40,425030,86,0,B|288:87|288:87|250:296,1,270,4|0,0:0|0:0,0:0:0:0:
276,160,425492,22,4,L|268:216,1,33.7500012874604
192,44,425723,2,4,L|196:92,1,33.7500012874604
10,216,425953,86,0,B|70:184|70:184|78:116|78:116|158:116|158:116|218:52,1,270,4|0,0:0|0:0,0:0:0:0:
208,184,426415,22,0,P|248:160|316:152,1,101.250003862381,4|2,0:0|0:0,0:0:0:0:
384,216,426876,85,2,0:0:0:0:
392,196,426992,1,2,0:0:0:0:
456,268,427107,21,2,0:0:0:0:
452,288,427223,1,2,0:0:0:0:
368,336,427338,85,2,0:0:0:0:
364,316,427453,1,2,0:0:0:0:
424,360,427569,22,2,L|432:268,1,67.5000025749208,2|0,0:0|0:0,0:0:0:0:
256,192,428030,12,0,428723,0:0:0:0:
104,336,433399,54,0,P|152:332|196:340,1,90,4|0,0:0|0:0,0:0:0:0:
272,324,433750,1,4,0:0:0:0:
344,356,433867,1,4,0:0:0:0:
472,296,434102,1,4,0:0:0:0:
408,208,434336,70,0,P|360:204|316:212,1,90,4|0,0:0|0:0,0:0:0:0:
244,240,434688,1,4,0:0:0:0:
176,200,434805,1,4,0:0:0:0:
36,280,435039,1,4,0:0:0:0:
72,156,435274,38,0,P|68:104|52:56,1,90,4|0,0:0|0:0,0:0:0:0:
104,4,435625,1,4,0:0:0:0:
172,48,435742,1,4,0:0:0:0:
320,16,435977,1,4,0:0:0:0:
420,112,436211,69,4,0:0:0:0:
376,180,436328,1,4,0:0:0:0:
424,244,436445,2,4,P|432:288|424:344,1,90,4|4,0:0|0:0,0:0:0:0:
324,360,436914,1,4,0:0:0:0:
256,316,437031,1,4,0:0:0:0:
188,360,437149,2,4,L|88:356,1,90,4|4,0:0|0:0,0:0:0:0:
40,300,437500,1,4,0:0:0:0:
88,236,437617,2,4,L|184:248,1,90,4|4,0:0|0:0,0:0:0:0:
268,316,438086,37,2,0:0:0:0:
296,284,438203,1,2,0:0:0:0:
336,268,438320,1,2,0:0:0:0:
384,264,438438,1,2,0:0:0:0:
432,272,438555,1,2,0:0:0:0:
488,172,438789,70,4,B|480:136|480:136|496:72,1,90
392,20,439258,1,4,0:0:0:0:
320,56,439375,1,4,0:0:0:0:
244,32,439492,2,4,P|192:32|140:48,1,90
76,152,439961,37,2,0:0:0:0:
116,132,440078,1,2,0:0:0:0:
160,128,440195,1,2,0:0:0:0:
200,144,440313,1,2,0:0:0:0:
240,192,440430,2,2,L|232:244,1,45
328,328,440664,2,2,L|320:284,1,45
416,356,440899,70,0,P|424:308|440:260,1,90,4|0,0:0|0:0,0:0:0:0:
484,204,441250,1,4,0:0:0:0:
440,136,441367,1,4,0:0:0:0:
292,176,441602,1,4,0:0:0:0:
208,256,441836,38,0,P|160:256|112:236,1,90,4|0,0:0|0:0,0:0:0:0:
44,264,442188,1,4,0:0:0:0:
4,196,442305,1,4,0:0:0:0:
104,76,442539,1,4,0:0:0:0:
248,96,442774,70,0,L|240:200,1,90,4|0,0:0|0:0,0:0:0:0:
284,252,443125,1,4,0:0:0:0:
352,208,443242,1,4,0:0:0:0:
480,296,443477,1,4,0:0:0:0:
416,364,443711,37,4,0:0:0:0:
340,336,443828,1,4,0:0:0:0:
264,356,443945,2,4,P|216:352|160:368,1,90
84,304,444414,1,4,0:0:0:0:
112,228,444531,1,4,0:0:0:0:
60,168,444649,2,4,B|52:128|52:128|72:68,1,90
136,40,445000,1,4,0:0:0:0:
208,76,445117,2,4,B|216:120|216:120|204:164,1,90
152,276,445586,69,2,0:0:0:0:
188,292,445703,1,2,0:0:0:0:
232,300,445820,1,2,0:0:0:0:
280,292,445938,1,2,0:0:0:0:
320,268,446055,1,2,0:0:0:0:
404,348,446289,38,4,P|408:300|428:248,1,90
484,168,446758,1,4,0:0:0:0:
432,108,446875,1,4,0:0:0:0:
364,152,446992,2,4,P|320:152|260:180,1,90
212,248,447461,69,2,0:0:0:0:
172,240,447578,1,2,0:0:0:0:
120,248,447695,1,2,0:0:0:0:
80,264,447813,1,2,0:0:0:0:
52,304,447930,2,2,L|64:352,1,45
164,372,448164,2,2,L|172:320,1,45
264,276,448399,38,0,P|320:276|360:292,1,90,4|0,0:0|0:0,0:0:0:0:
408,344,448750,1,4,0:0:0:0:
456,280,448867,2,0,P|460:224|476:172,1,90,4|0,0:0|0:0,0:0:0:0:
364,92,449336,2,0,P|376:144|380:192,1,90,4|0,0:0|0:0,0:0:0:0:
316,228,449688,1,4,0:0:0:0:
248,184,449805,1,4,0:0:0:0:
164,264,450039,70,0,L|60:256,1,90,4|0,0:0|0:0,0:0:0:0:
20,200,450391,1,4,0:0:0:0:
64,132,450508,1,4,0:0:0:0:
172,176,450742,38,4,L|216:176,1,45
64,132,450977,2,4,L|60:76,1,45
120,32,451211,2,0,P|168:32|220:48,1,90,4|0,0:0|0:0,0:0:0:0:
268,96,451563,1,4,0:0:0:0:
336,52,451680,1,4,0:0:0:0:
420,124,451914,70,4,P|408:168|408:232,1,90,4|4,0:0|0:0,0:0:0:0:
332,296,452383,1,4,0:0:0:0:
264,252,452500,1,4,0:0:0:0:
200,300,452617,2,4,L|100:292,1,90,4|4,0:0|0:0,0:0:0:0:
40,204,453086,2,4,L|152:188,1,90,4|4,0:0|0:0,0:0:0:0:
176,128,453438,1,4,0:0:0:0:
248,164,453555,1,4,0:0:0:0:
364,196,453789,38,4,P|364:144|376:104,1,90
436,56,454141,1,4,0:0:0:0:
488,116,454258,2,4,P|496:164|492:208,1,90
420,288,454727,70,4,L|412:228,1,45
320,336,454961,2,4,L|328:292,1,45
224,360,455195,2,4,L|216:316,1,45
164,256,455430,1,4,0:0:0:0:
124,244,455547,1,4,0:0:0:0:
84,248,455664,1,4,0:0:0:0:
44,272,455781,1,4,0:0:0:0:
16,196,455899,38,0,B|20:148|20:148|8:92,1,90,4|0,0:0|0:0,0:0:0:0:
52,40,456250,1,4,0:0:0:0:
120,80,456367,2,0,B|164:88|164:88|220:72,1,90,4|0,0:0|0:0,0:0:0:0:
260,160,456836,2,0,B|304:144|304:144|356:164,1,90,4|0,0:0|0:0,0:0:0:0:
400,216,457188,1,4,0:0:0:0:
356,284,457305,1,4,0:0:0:0:
256,352,457539,70,0,P|256:304|244:240,1,90,4|0,0:0|0:0,0:0:0:0:
176,232,457891,1,4,0:0:0:0:
104,268,458008,1,4,0:0:0:0:
36,192,458242,38,4,L|32:132,1,45
128,60,458477,2,4,L|120:108,1,45
180,156,458711,2,0,P|232:152|292:168,1,90,4|0,0:0|0:0,0:0:0:0:
336,204,459063,1,4,0:0:0:0:
408,172,459180,1,4,0:0:0:0:
492,248,459414,70,4,P|484:300|488:344,1,90,4|4,0:0|0:0,0:0:0:0:
416,376,459766,1,4,0:0:0:0:
348,336,459883,1,4,0:0:0:0:
244,364,460117,2,4,P|244:320|228:256,1,90
172,232,460469,1,4,0:0:0:0:
208,160,460586,2,4,P|216:112|232:72,1,90
324,36,461055,37,6,0:0:0:0:
256,192,461289,12,0,463281,0:0:0:0:
28,360,467852,37,4,0:0:0:0:
216,268,468192,1,4,0:0:0:0:
244,264,468363,1,4,0:0:0:0:
268,276,468533,2,4,P|316:276|368:292,1,90,4|0,0:0|0:0,0:0:0:0:
376,180,469215,102,2,L|380:132,1,45
472,268,469556,2,2,L|480:220,1,45
212,296,469897,6,2,L|220:348,1,45
284,184,470238,2,2,L|292:232,1,45
232,100,470579,102,0,P|184:96|132:112,1,90,4|4,0:0|0:0,0:0:0:0:
124,124,471090,1,4,0:0:0:0:
108,148,471261,1,4,0:0:0:0:
168,268,471602,6,2,L|164:220,1,45
264,312,471942,2,2,L|252:360,2,45
352,256,472624,1,2,0:0:0:0:
256,56,472965,1,2,0:0:0:0:
164,128,473306,102,4,P|180:176|188:232,1,90,4|4,0:0|0:0,0:0:0:0:
160,288,473817,1,4,0:0:0:0:
212,348,473988,1,4,0:0:0:0:
368,296,474329,1,4,0:0:0:0:
452,352,474670,6,4,P|456:308|464:256,1,90,4|4,0:0|0:0,0:0:0:0:
504,196,475181,1,4,0:0:0:0:
456,132,475352,1,4,0:0:0:0:
308,188,475692,1,4,0:0:0:0:
232,248,476033,102,4,L|244:348,1,90
168,368,476545,1,4,0:0:0:0:
96,332,476715,1,4,0:0:0:0:
28,176,477056,1,4,0:0:0:0:
116,100,477397,6,4,P|168:100|216:116,1,90
264,164,477908,1,4,0:0:0:0:
316,224,478079,1,4,0:0:0:0:
448,128,478420,1,2,0:0:0:0:
496,192,478590,1,2,0:0:0:0:
468,268,478761,101,6,0:0:0:0:
348,344,479102,1,4,0:0:0:0:
324,336,479272,1,4,0:0:0:0:
296,336,479442,2,0,B|256:328|256:328|192:340,1,90,4|0,0:0|0:0,0:0:0:0:
84,316,480124,6,2,L|76:256,1,45
160,160,480465,2,2,L|156:208,1,45
72,60,480806,102,2,L|80:112,1,45
232,280,481147,2,2,L|240:216,1,45
336,344,481488,6,4,L|328:248,1,90
384,196,481999,1,4,0:0:0:0:
340,128,482170,1,4,0:0:0:0:
244,180,482511,102,2,L|200:172,1,45
340,128,482852,2,2,L|388:116,3,45
192,200,483533,6,2,L|248:192,1,45
384,268,483874,2,2,L|324:264,1,45
260,364,484215,102,4,P|260:316|248:252,1,90
180,252,484727,1,4,0:0:0:0:
112,292,484897,1,4,0:0:0:0:
24,136,485238,1,4,0:0:0:0:
108,168,485579,6,4,P|112:116|120:68,1,90
188,44,486090,1,4,0:0:0:0:
248,96,486261,1,4,0:0:0:0:
392,40,486602,1,4,0:0:0:0:
444,120,486942,102,4,B|432:152|432:152|440:216,1,90
484,272,487454,1,4,0:0:0:0:
436,336,487624,1,4,0:0:0:0:
288,272,487965,1,4,0:0:0:0:
204,352,488306,6,4,L|196:256,1,90
136,212,488817,1,4,0:0:0:0:
180,148,488988,1,4,0:0:0:0:
64,64,489329,1,4,0:0:0:0:
128,16,489500,1,4,0:0:0:0:
200,48,489670,101,6,0:0:0:0:
300,176,490011,1,4,0:0:0:0:
296,204,490181,1,4,0:0:0:0:
304,232,490352,2,0,P|304:280|316:336,1,90,4|0,0:0|0:0,0:0:0:0:
448,352,491033,6,2,L|400:348,1,45
216,332,491374,2,2,L|264:328,1,45
124,224,491715,102,2,L|132:284,1,45
24,360,492056,2,2,L|28:304,1,45
124,224,492397,6,4,L|116:128,1,90,4|4,0:0|0:0,0:0:0:0:
160,68,492908,1,4,0:0:0:0:
228,104,493079,1,4,0:0:0:0:
336,56,493420,102,2,L|332:8,1,45
228,104,493761,2,2,L|236:152,2,45
144,56,494442,1,2,0:0:0:0:
40,176,494783,1,2,0:0:0:0:
116,224,495124,6,4,P|104:264|96:320,1,90
160,360,495636,1,4,0:0:0:0:
228,320,495806,1,4,0:0:0:0:
360,368,496147,1,4,0:0:0:0:
440,316,496488,102,4,P|420:308|368:256,1,90
408,192,496999,1,4,0:0:0:0:
360,128,497170,1,4,0:0:0:0:
480,32,497511,1,4,0:0:0:0:
404,72,497852,6,4,L|296:68,1,90
248,112,498363,1,4,0:0:0:0:
296,176,498533,1,4,0:0:0:0:
200,288,498874,1,4,0:0:0:0:
112,356,499215,102,4,L|104:264,1,90
48,212,499727,1,4,0:0:0:0:
96,148,499897,1,4,0:0:0:0:
220,216,500238,1,4,0:0:0:0:
288,176,500408,1,4,0:0:0:0:
356,224,500579,5,6,0:0:0:0:
504,184,500920,1,4,0:0:0:0:
508,156,501090,1,4,0:0:0:0:
496,132,501261,2,0,P|496:104|484:28,1,90,4|0,0:0|0:0,0:0:0:0:
384,24,501942,102,2,L|392:72,1,45
276,152,502283,2,2,L|332:144,1,45
200,256,502624,6,2,L|188:196,1,45
144,340,502965,2,2,L|96:336,1,45
244,368,503306,102,4,L|344:360,1,90,4|4,0:0|0:0,0:0:0:0:
396,312,503817,1,4,0:0:0:0:
464,356,503988,1,4,0:0:0:0:
496,220,504329,6,2,L|492:268,1,45
396,312,504670,2,2,L|388:256,3,45
288,332,505352,102,2,L|304:376,1,45
192,304,505692,2,2,L|208:248,1,45
104,348,506033,6,4,P|96:292|84:232,1,90
32,204,506545,1,4,0:0:0:0:
76,136,506715,1,4,0:0:0:0:
24,24,507056,1,4,0:0:0:0:
148,56,507397,102,4,L|240:48,1,90
304,92,507908,1,4,0:0:0:0:
260,160,508079,1,4,0:0:0:0:
336,288,508420,1,4,0:0:0:0:
248,356,508761,6,4,B|252:320|252:320|240:248,1,90
180,220,509272,1,4,0:0:0:0:
116,268,509442,1,4,0:0:0:0:
20,120,509783,1,4,0:0:0:0:
108,76,510124,102,4,P|104:128|104:176,1,90
164,216,510636,1,4,0:0:0:0:
236,180,510806,1,4,0:0:0:0:
352,280,511147,1,4,0:0:0:0:
236,180,511488,5,2,0:0:0:0:
112,364,511829,1,2,0:0:0:0:
60,200,512170,1,2,0:0:0:0:
288,352,512511,1,2,0:0:0:0:
176,116,512852,1,2,0:0:0:0:
168,360,513192,1,2,0:0:0:0:
24,264,513533,1,2,0:0:0:0:
320,204,513874,1,2,0:0:0:0:
448,368,514215,101,2,0:0:0:0:
384,88,514556,1,2,0:0:0:0:
272,324,514897,5,2,0:0:0:0:
160,124,515238,1,2,0:0:0:0:
76,348,515579,101,2,0:0:0:0:
260,200,515920,1,2,0:0:0:0:
344,356,516261,5,2,0:0:0:0:
104,208,516602,1,2,0:0:0:0:
324,76,516942,101,2,0:0:0:0:
488,256,517283,1,2,0:0:0:0:
240,288,517624,5,2,0:0:0:0:
112,56,517965,1,2,0:0:0:0:
56,208,518306,1,2,0:0:0:0:
284,64,518647,1,2,0:0:0:0:
176,296,518988,1,2,0:0:0:0:
136,64,519329,1,2,0:0:0:0:
348,168,519670,1,2,0:0:0:0:
40,280,520011,1,2,0:0:0:0:
256,192,520352,12,2,522397,0:0:0:0:
