osu file format v14

[General]
AudioFilename: TWlzc2lvbkNvbXBsZXRl_Mission Complete.ogg
AudioLeadIn: 1500
PreviewTime: 78000
Countdown: 0
SampleSet: None
StackLeniency: 0.7
Mode: 3
LetterboxInBreaks: 0
SpecialStyle: 0
WidescreenStoryboard: 0

[Editor]
Bookmarks: 228051,264802
DistanceSpacing: 0.8
BeatDivisor: 4
GridSize: 16
TimelineZoom: 1.7

[Metadata]
Title:Jumpstream Of Fighters Vol. 1B
TitleUnicode:Jumpstream Of Fighters Vol. 1B
Artist:Various Artists
ArtistUnicode:Various Artists
Creator:Leo137
Version:sun3 - Mission Complete [Leo137 28]
Source:
Tags:jsof stepmania Blaziken blazziken_old Akuma123 touhou bms trance 東方Project U2 Remixed by rider Missing Banquet DJ Sa9 feat. YURiE forever we can make it! THYME M.Iz 駆け抜けるアニソンメドレーⅤ Kakenukeru Anime Song Medley V Anison 5 M.I. Aカップ三兄弟 I Want You (USAMIMIX) Lin-G honey princess LOVE☆BEAM (orange summer mix) Love*Beam Love Beam Getty vs. DJ DiA Ops Code Rapture Marc-André Hamelin Circus Galop Marc-Andre サーカス・ギャロップ ZUN Remixed by rider Glantz sun3 Mission Complete BACO Love & Justice and
BeatmapID:4236898
BeatmapSetID:796826

[Difficulty]
HPDrainRate:8
CircleSize:4
OverallDifficulty:8
ApproachRate:9
SliderMultiplier:1.4
SliderTickRate:1

[Events]
//Background and Video events
0,0,"TWlzc2lvbkNvbXBsZXRl_bg.png",0,0
//Break Periods
//Storyboard Layer 0 (Background)
//Storyboard Layer 1 (Fail)
//Storyboard Layer 2 (Pass)
//Storyboard Layer 3 (Foreground)
//Storyboard Layer 4 (Overlay)
//Storyboard Sound Samples

[TimingPoints]
75,307.692,4,1,0,15,1,0
75,-100,4,1,0,15,0,0
197306,710.311,4,1,0,15,1,0
197306,-43.2900432900433,4,1,0,15,0,0
222877,710.059,4,1,0,15,1,0
222877,-43.2900432900433,4,1,0,15,0,0
223587,736.196,4,1,0,15,1,0
223587,-41.8410041841004,4,1,0,15,0,0
224323,710.059,4,1,0,15,1,0
224323,-43.2900432900433,4,1,0,15,0,0
224856,648.649,4,1,0,15,1,0
224856,-47.39336492891,4,1,0,15,0,0
225180,701.754,4,1,0,15,1,0
225180,-43.859649122807,4,1,0,15,0,0
225531,851.064,4,1,0,15,1,0
225531,-36.101083032491,4,1,0,15,0,0
225744,710.059,4,1,0,15,1,0
225744,-43.2900432900433,4,1,0,15,0,0
226454,662.983,4,1,0,15,1,0
226454,-46.5116279069767,4,1,0,15,0,0
226951,851.064,4,1,0,15,1,0
226951,-36.101083032491,4,1,0,15,0,0
227164,710.059,4,1,0,15,1,0
227164,-43.2900432900433,4,1,0,15,0,0
229294,670.391,4,1,0,15,1,0
229294,-45.8715596330275,4,1,0,15,0,0
229797,827.586,4,1,0,15,1,0
229797,-37.1747211895911,4,1,0,15,0,0
230004,710.059,4,1,0,15,1,0
230004,-43.2900432900433,4,1,0,15,0,0
231956,603.015,4,1,0,15,1,0
231956,-51.0204081632653,4,1,0,15,0,0
232107,701.754,4,1,0,15,1,0
232107,-43.859649122807,4,1,0,15,0,0
232633,827.586,4,1,0,15,1,0
232633,-37.1747211895911,4,1,0,15,0,0
232840,718.563,4,1,0,15,1,0
232840,-42.7350427350427,4,1,0,15,0,0
233559,670.391,4,1,0,15,1,0
233559,-45.8715596330275,4,1,0,15,0,0
234229,709.639,4,1,0,15,1,0
234229,-43.2900432900433,4,1,0,15,0,0
235649,307.692,4,1,0,15,1,0
235649,-100,4,1,0,15,0,0

[HitObjects]
64,0,382,5,0,1:0:0:0:
448,0,382,1,0,1:0:0:0:
192,0,536,1,0,1:0:0:0:
320,0,536,1,0,1:0:0:0:
64,0,690,1,0,1:0:0:0:
448,0,690,1,0,1:0:0:0:
192,0,767,1,0,1:0:0:0:
320,0,844,1,0,1:0:0:0:
448,0,844,1,0,1:0:0:0:
64,0,998,1,0,1:0:0:0:
320,0,998,1,0,1:0:0:0:
192,0,1074,1,0,1:0:0:0:
448,0,1074,1,0,1:0:0:0:
64,0,1151,1,0,1:0:0:0:
320,0,1151,1,0,1:0:0:0:
320,0,1305,1,0,1:0:0:0:
448,0,1305,1,0,1:0:0:0:
192,0,1382,1,0,1:0:0:0:
64,0,1459,1,0,1:0:0:0:
192,0,1536,1,0,1:0:0:0:
64,0,1613,128,0,1844:0:0:0:0:
320,0,1613,1,0,1:0:0:0:
448,0,1690,1,0,1:0:0:0:
192,0,1767,1,0,1:0:0:0:
320,0,1767,1,0,1:0:0:0:
320,0,1921,1,0,1:0:0:0:
448,0,1921,1,0,1:0:0:0:
64,0,1998,1,0,1:0:0:0:
192,0,1998,1,0,1:0:0:0:
320,0,2074,1,0,1:0:0:0:
448,0,2074,1,0,1:0:0:0:
64,0,2151,1,0,1:0:0:0:
192,0,2151,1,0,1:0:0:0:
320,0,2228,1,0,1:0:0:0:
448,0,2228,128,0,2459:0:0:0:0:
192,0,2305,1,0,1:0:0:0:
64,0,2382,1,0,1:0:0:0:
64,0,2536,128,0,2767:0:0:0:0:
192,0,2536,1,0,1:0:0:0:
320,0,2613,1,0,1:0:0:0:
448,0,2690,1,0,1:0:0:0:
192,0,2844,1,0,1:0:0:0:
448,0,2844,1,0,1:0:0:0:
64,0,2998,1,0,1:0:0:0:
192,0,2998,1,0,1:0:0:0:
64,0,3151,1,0,1:0:0:0:
448,0,3151,1,0,1:0:0:0:
192,0,3228,1,0,1:0:0:0:
320,0,3305,1,0,1:0:0:0:
448,0,3305,1,0,1:0:0:0:
64,0,3459,1,0,1:0:0:0:
448,0,3459,1,0,1:0:0:0:
192,0,3536,1,0,1:0:0:0:
320,0,3536,1,0,1:0:0:0:
64,0,3613,1,0,1:0:0:0:
448,0,3613,1,0,1:0:0:0:
320,0,3767,1,0,1:0:0:0:
448,0,3767,1,0,1:0:0:0:
192,0,3844,1,0,1:0:0:0:
64,0,3921,1,0,1:0:0:0:
192,0,3998,1,0,1:0:0:0:
64,0,4074,128,0,4305:0:0:0:0:
320,0,4074,1,0,1:0:0:0:
448,0,4151,1,0,1:0:0:0:
192,0,4228,1,0,1:0:0:0:
320,0,4228,1,0,1:0:0:0:
320,0,4382,1,0,1:0:0:0:
448,0,4382,1,0,1:0:0:0:
64,0,4459,1,0,1:0:0:0:
192,0,4459,1,0,1:0:0:0:
320,0,4536,1,0,1:0:0:0:
448,0,4536,1,0,1:0:0:0:
64,0,4613,1,0,1:0:0:0:
192,0,4613,1,0,1:0:0:0:
320,0,4690,1,0,1:0:0:0:
448,0,4690,128,0,4921:0:0:0:0:
192,0,4767,1,0,1:0:0:0:
64,0,4844,1,0,1:0:0:0:
64,0,4998,128,0,5228:0:0:0:0:
192,0,4998,1,0,1:0:0:0:
320,0,5074,1,0,1:0:0:0:
448,0,5151,1,0,1:0:0:0:
192,0,5305,1,0,1:0:0:0:
448,0,5305,1,0,1:0:0:0:
64,0,5459,1,0,1:0:0:0:
192,0,5459,1,0,1:0:0:0:
64,0,5613,1,0,1:0:0:0:
320,0,5613,1,0,1:0:0:0:
192,0,5690,1,0,1:0:0:0:
320,0,5767,1,0,1:0:0:0:
448,0,5767,1,0,1:0:0:0:
64,0,5921,1,0,1:0:0:0:
320,0,5921,1,0,1:0:0:0:
192,0,5998,1,0,1:0:0:0:
448,0,5998,1,0,1:0:0:0:
64,0,6074,1,0,1:0:0:0:
320,0,6074,1,0,1:0:0:0:
320,0,6228,1,0,1:0:0:0:
448,0,6228,1,0,1:0:0:0:
192,0,6305,1,0,1:0:0:0:
64,0,6382,1,0,1:0:0:0:
192,0,6459,1,0,1:0:0:0:
64,0,6536,128,0,6767:0:0:0:0:
320,0,6536,1,0,1:0:0:0:
448,0,6613,1,0,1:0:0:0:
192,0,6690,1,0,1:0:0:0:
320,0,6690,1,0,1:0:0:0:
320,0,6844,1,0,1:0:0:0:
448,0,6844,1,0,1:0:0:0:
64,0,6921,1,0,1:0:0:0:
192,0,6921,1,0,1:0:0:0:
320,0,6998,1,0,1:0:0:0:
448,0,6998,1,0,1:0:0:0:
64,0,7074,1,0,1:0:0:0:
192,0,7074,1,0,1:0:0:0:
320,0,7151,1,0,1:0:0:0:
448,0,7151,128,0,7382:0:0:0:0:
192,0,7228,1,0,1:0:0:0:
64,0,7305,1,0,1:0:0:0:
64,0,7459,128,0,7690:0:0:0:0:
192,0,7459,1,0,1:0:0:0:
320,0,7536,1,0,1:0:0:0:
448,0,7613,1,0,1:0:0:0:
192,0,7767,1,0,1:0:0:0:
448,0,7767,1,0,1:0:0:0:
64,0,7921,1,0,1:0:0:0:
192,0,7921,1,0,1:0:0:0:
64,0,8074,1,0,1:0:0:0:
448,0,8074,1,0,1:0:0:0:
192,0,8151,1,0,1:0:0:0:
320,0,8228,1,0,1:0:0:0:
448,0,8228,1,0,1:0:0:0:
64,0,8382,1,0,1:0:0:0:
448,0,8382,1,0,1:0:0:0:
192,0,8459,1,0,1:0:0:0:
320,0,8459,1,0,1:0:0:0:
64,0,8536,1,0,1:0:0:0:
448,0,8536,1,0,1:0:0:0:
320,0,8690,1,0,1:0:0:0:
448,0,8690,128,0,8921:0:0:0:0:
192,0,8767,1,0,1:0:0:0:
64,0,8844,1,0,1:0:0:0:
192,0,8921,1,0,1:0:0:0:
64,0,8998,1,0,1:0:0:0:
320,0,8998,1,0,1:0:0:0:
448,0,9074,1,0,1:0:0:0:
192,0,9151,1,0,1:0:0:0:
320,0,9151,1,0,1:0:0:0:
320,0,9305,1,0,1:0:0:0:
448,0,9305,1,0,1:0:0:0:
64,0,9382,1,0,1:0:0:0:
192,0,9382,1,0,1:0:0:0:
320,0,9459,1,0,1:0:0:0:
448,0,9459,1,0,1:0:0:0:
64,0,9536,1,0,1:0:0:0:
192,0,9536,1,0,1:0:0:0:
320,0,9613,1,0,1:0:0:0:
448,0,9613,128,0,9844:0:0:0:0:
192,0,9690,1,0,1:0:0:0:
64,0,9767,1,0,1:0:0:0:
64,0,9921,128,0,10151:0:0:0:0:
320,0,9921,1,0,1:0:0:0:
192,0,9998,1,0,1:0:0:0:
320,0,10074,1,0,1:0:0:0:
448,0,10074,1,0,1:0:0:0:
192,0,10228,1,0,1:0:0:0:
320,0,10228,1,0,1:0:0:0:
448,0,10228,1,0,1:0:0:0:
64,0,10382,1,0,1:0:0:0:
192,0,10382,1,0,1:0:0:0:
64,0,10536,1,0,1:0:0:0:
320,0,10536,1,0,1:0:0:0:
192,0,10613,1,0,1:0:0:0:
320,0,10690,1,0,1:0:0:0:
448,0,10690,1,0,1:0:0:0:
64,0,10844,1,0,1:0:0:0:
320,0,10844,1,0,1:0:0:0:
192,0,10921,1,0,1:0:0:0:
448,0,10921,1,0,1:0:0:0:
64,0,10998,1,0,1:0:0:0:
320,0,10998,1,0,1:0:0:0:
320,0,11151,1,0,1:0:0:0:
448,0,11151,128,0,11382:0:0:0:0:
192,0,11228,1,0,1:0:0:0:
64,0,11305,1,0,1:0:0:0:
192,0,11382,1,0,1:0:0:0:
64,0,11459,1,0,1:0:0:0:
320,0,11459,1,0,1:0:0:0:
448,0,11536,1,0,1:0:0:0:
192,0,11613,1,0,1:0:0:0:
320,0,11613,1,0,1:0:0:0:
320,0,11767,1,0,1:0:0:0:
448,0,11767,1,0,1:0:0:0:
64,0,11844,1,0,1:0:0:0:
192,0,11844,1,0,1:0:0:0:
320,0,11921,1,0,1:0:0:0:
448,0,11921,1,0,1:0:0:0:
64,0,11998,1,0,1:0:0:0:
192,0,11998,1,0,1:0:0:0:
320,0,12074,1,0,1:0:0:0:
448,0,12074,128,0,12305:0:0:0:0:
192,0,12151,1,0,1:0:0:0:
64,0,12228,1,0,1:0:0:0:
64,0,12382,128,0,12613:0:0:0:0:
192,0,12382,1,0,1:0:0:0:
320,0,12459,1,0,1:0:0:0:
448,0,12536,1,0,1:0:0:0:
192,0,12690,1,0,1:0:0:0:
448,0,12690,1,0,1:0:0:0:
64,0,12844,1,0,1:0:0:0:
192,0,12844,1,0,1:0:0:0:
64,0,12998,1,0,1:0:0:0:
448,0,12998,1,0,1:0:0:0:
192,0,13074,1,0,1:0:0:0:
320,0,13151,1,0,1:0:0:0:
448,0,13151,1,0,1:0:0:0:
64,0,13305,1,0,1:0:0:0:
448,0,13305,1,0,1:0:0:0:
192,0,13382,1,0,1:0:0:0:
320,0,13382,1,0,1:0:0:0:
64,0,13459,1,0,1:0:0:0:
448,0,13459,1,0,1:0:0:0:
320,0,13613,1,0,1:0:0:0:
448,0,13613,128,0,13844:0:0:0:0:
192,0,13690,1,0,1:0:0:0:
64,0,13767,1,0,1:0:0:0:
192,0,13844,1,0,1:0:0:0:
64,0,13921,1,0,1:0:0:0:
320,0,13921,1,0,1:0:0:0:
448,0,13998,1,0,1:0:0:0:
192,0,14074,1,0,1:0:0:0:
320,0,14074,1,0,1:0:0:0:
320,0,14228,1,0,1:0:0:0:
448,0,14228,1,0,1:0:0:0:
64,0,14305,1,0,1:0:0:0:
192,0,14305,1,0,1:0:0:0:
320,0,14382,1,0,1:0:0:0:
448,0,14382,1,0,1:0:0:0:
64,0,14459,1,0,1:0:0:0:
192,0,14459,1,0,1:0:0:0:
320,0,14536,1,0,1:0:0:0:
448,0,14536,128,0,14767:0:0:0:0:
192,0,14613,1,0,1:0:0:0:
64,0,14690,1,0,1:0:0:0:
64,0,14844,128,0,15074:0:0:0:0:
192,0,14844,1,0,1:0:0:0:
320,0,14921,1,0,1:0:0:0:
448,0,14998,1,0,1:0:0:0:
192,0,15151,1,0,1:0:0:0:
320,0,15151,1,0,1:0:0:0:
448,0,15151,1,0,1:0:0:0:
64,0,15305,1,0,1:0:0:0:
192,0,15305,1,0,1:0:0:0:
320,0,15382,1,0,1:0:0:0:
448,0,15382,1,0,1:0:0:0:
64,0,15536,1,0,1:0:0:0:
192,0,15536,1,0,1:0:0:0:
320,0,15613,1,0,1:0:0:0:
448,0,15613,1,0,1:0:0:0:
192,0,15690,1,0,1:0:0:0:
64,0,15767,1,0,1:0:0:0:
320,0,15767,1,0,1:0:0:0:
448,0,15767,1,0,1:0:0:0:
192,0,15921,1,0,1:0:0:0:
320,0,15921,1,0,1:0:0:0:
320,0,16074,1,0,1:0:0:0:
448,0,16074,1,0,1:0:0:0:
64,0,16151,1,0,1:0:0:0:
192,0,16151,1,0,1:0:0:0:
320,0,16228,1,0,1:0:0:0:
448,0,16228,1,0,1:0:0:0:
64,0,16305,1,0,1:0:0:0:
192,0,16305,1,0,1:0:0:0:
320,0,16382,1,0,1:0:0:0:
448,0,16382,1,0,1:0:0:0:
64,0,16536,1,0,1:0:0:0:
192,0,16536,1,0,1:0:0:0:
320,0,16613,1,0,1:0:0:0:
448,0,16613,1,0,1:0:0:0:
320,0,16767,1,0,1:0:0:0:
448,0,16767,1,0,1:0:0:0:
64,0,16844,1,0,1:0:0:0:
192,0,16844,1,0,1:0:0:0:
320,0,16921,1,0,1:0:0:0:
64,0,16998,1,0,1:0:0:0:
192,0,16998,1,0,1:0:0:0:
448,0,16998,1,0,1:0:0:0:
192,0,17151,1,0,1:0:0:0:
320,0,17151,1,0,1:0:0:0:
448,0,17228,1,0,1:0:0:0:
64,0,17305,128,0,17536:0:0:0:0:
320,0,17305,1,0,1:0:0:0:
192,0,17382,1,0,1:0:0:0:
320,0,17459,1,0,1:0:0:0:
448,0,17459,1,0,1:0:0:0:
320,0,17613,1,0,1:0:0:0:
448,0,17613,1,0,1:0:0:0:
64,0,17690,1,0,1:0:0:0:
192,0,17690,1,0,1:0:0:0:
320,0,17767,1,0,1:0:0:0:
448,0,17767,1,0,1:0:0:0:
64,0,17844,1,0,1:0:0:0:
192,0,17844,1,0,1:0:0:0:
320,0,17921,1,0,1:0:0:0:
448,0,17921,1,0,1:0:0:0:
64,0,17998,1,0,1:0:0:0:
192,0,17998,1,0,1:0:0:0:
320,0,18074,1,0,1:0:0:0:
448,0,18074,1,0,1:0:0:0:
64,0,18151,1,0,1:0:0:0:
192,0,18151,1,0,1:0:0:0:
320,0,18228,1,0,1:0:0:0:
448,0,18228,1,0,1:0:0:0:
64,0,18305,1,0,1:0:0:0:
192,0,18305,1,0,1:0:0:0:
320,0,18382,1,0,1:0:0:0:
448,0,18382,1,0,1:0:0:0:
64,0,18459,1,0,1:0:0:0:
192,0,18459,1,0,1:0:0:0:
320,0,18536,1,0,1:0:0:0:
448,0,18536,1,0,1:0:0:0:
64,0,18613,1,0,1:0:0:0:
192,0,18613,1,0,1:0:0:0:
320,0,18690,1,0,1:0:0:0:
448,0,18690,1,0,1:0:0:0:
64,0,18767,1,0,1:0:0:0:
192,0,18767,1,0,1:0:0:0:
320,0,18844,1,0,1:0:0:0:
448,0,18844,1,0,1:0:0:0:
64,0,18921,1,0,1:0:0:0:
192,0,18921,1,0,1:0:0:0:
320,0,18998,1,0,1:0:0:0:
448,0,18998,1,0,1:0:0:0:
64,0,19074,1,0,1:0:0:0:
192,0,19074,1,0,1:0:0:0:
320,0,19151,1,0,1:0:0:0:
448,0,19151,1,0,1:0:0:0:
64,0,19228,1,0,1:0:0:0:
192,0,19228,1,0,1:0:0:0:
320,0,19305,1,0,1:0:0:0:
448,0,19305,1,0,1:0:0:0:
192,0,19382,1,0,1:0:0:0:
64,0,19459,128,0,19536:0:0:0:0:
320,0,19459,128,0,19536:0:0:0:0:
448,0,19459,128,0,19536:0:0:0:0:
64,0,19690,128,0,19767:0:0:0:0:
192,0,19690,128,0,19767:0:0:0:0:
320,0,19690,128,0,19767:0:0:0:0:
192,0,19921,128,0,19998:0:0:0:0:
320,0,19921,128,0,19998:0:0:0:0:
448,0,19921,128,0,19998:0:0:0:0:
64,0,20074,1,0,1:0:0:0:
192,0,20074,1,0,1:0:0:0:
448,0,20074,1,0,1:0:0:0:
320,0,20151,1,0,1:0:0:0:
64,0,20228,1,0,1:0:0:0:
192,0,20228,1,0,1:0:0:0:
320,0,20305,1,0,1:0:0:0:
448,0,20305,1,0,1:0:0:0:
64,0,20382,1,0,1:0:0:0:
192,0,20382,1,0,1:0:0:0:
320,0,20459,1,0,1:0:0:0:
64,0,20536,1,0,1:0:0:0:
192,0,20536,1,0,1:0:0:0:
320,0,20613,1,0,1:0:0:0:
448,0,20613,1,0,1:0:0:0:
64,0,20690,1,0,1:0:0:0:
192,0,20690,1,0,1:0:0:0:
320,0,20767,1,0,1:0:0:0:
448,0,20767,1,0,1:0:0:0:
192,0,20844,1,0,1:0:0:0:
64,0,20921,1,0,1:0:0:0:
448,0,20921,1,0,1:0:0:0:
192,0,20998,1,0,1:0:0:0:
320,0,20998,1,0,1:0:0:0:
64,0,21074,1,0,1:0:0:0:
192,0,21151,1,0,1:0:0:0:
448,0,21151,1,0,1:0:0:0:
64,0,21228,1,0,1:0:0:0:
320,0,21228,1,0,1:0:0:0:
192,0,21305,1,0,1:0:0:0:
448,0,21305,1,0,1:0:0:0:
320,0,21382,1,0,1:0:0:0:
64,0,21459,1,0,1:0:0:0:
192,0,21459,1,0,1:0:0:0:
320,0,21536,1,0,1:0:0:0:
448,0,21536,1,0,1:0:0:0:
64,0,21613,1,0,1:0:0:0:
192,0,21690,1,0,1:0:0:0:
320,0,21767,1,0,1:0:0:0:
448,0,21767,1,0,1:0:0:0:
64,0,21844,1,0,1:0:0:0:
192,0,21844,1,0,1:0:0:0:
320,0,21921,1,0,1:0:0:0:
448,0,21921,1,0,1:0:0:0:
64,0,21998,1,0,1:0:0:0:
192,0,21998,1,0,1:0:0:0:
320,0,22074,1,0,1:0:0:0:
64,0,22151,1,0,1:0:0:0:
448,0,22151,1,0,1:0:0:0:
192,0,22228,1,0,1:0:0:0:
320,0,22228,1,0,1:0:0:0:
448,0,22305,1,0,1:0:0:0:
64,0,22382,1,0,1:0:0:0:
320,0,22459,1,0,1:0:0:0:
448,0,22459,1,0,1:0:0:0:
64,0,22536,1,0,1:0:0:0:
192,0,22536,1,0,1:0:0:0:
320,0,22613,1,0,1:0:0:0:
64,0,22690,1,0,1:0:0:0:
192,0,22690,1,0,1:0:0:0:
320,0,22767,1,0,1:0:0:0:
448,0,22767,1,0,1:0:0:0:
64,0,22844,1,0,1:0:0:0:
192,0,22844,1,0,1:0:0:0:
320,0,22921,1,0,1:0:0:0:
64,0,22998,1,0,1:0:0:0:
192,0,22998,1,0,1:0:0:0:
320,0,23074,1,0,1:0:0:0:
448,0,23074,1,0,1:0:0:0:
64,0,23151,1,0,1:0:0:0:
192,0,23151,1,0,1:0:0:0:
320,0,23228,1,0,1:0:0:0:
448,0,23228,1,0,1:0:0:0:
192,0,23305,1,0,1:0:0:0:
64,0,23382,1,0,1:0:0:0:
448,0,23382,1,0,1:0:0:0:
192,0,23459,1,0,1:0:0:0:
320,0,23459,1,0,1:0:0:0:
64,0,23536,1,0,1:0:0:0:
192,0,23613,1,0,1:0:0:0:
448,0,23613,1,0,1:0:0:0:
64,0,23690,1,0,1:0:0:0:
320,0,23690,1,0,1:0:0:0:
192,0,23767,1,0,1:0:0:0:
448,0,23767,1,0,1:0:0:0:
320,0,23844,1,0,1:0:0:0:
64,0,23921,1,0,1:0:0:0:
192,0,23921,1,0,1:0:0:0:
320,0,23998,1,0,1:0:0:0:
448,0,23998,1,0,1:0:0:0:
64,0,24074,1,0,1:0:0:0:
192,0,24151,1,0,1:0:0:0:
320,0,24228,1,0,1:0:0:0:
448,0,24228,1,0,1:0:0:0:
64,0,24305,1,0,1:0:0:0:
192,0,24305,1,0,1:0:0:0:
320,0,24382,1,0,1:0:0:0:
448,0,24382,1,0,1:0:0:0:
64,0,24459,1,0,1:0:0:0:
192,0,24459,1,0,1:0:0:0:
320,0,24536,1,0,1:0:0:0:
64,0,24613,1,0,1:0:0:0:
448,0,24613,1,0,1:0:0:0:
192,0,24690,1,0,1:0:0:0:
320,0,24690,1,0,1:0:0:0:
64,0,24767,1,0,1:0:0:0:
448,0,24844,1,0,1:0:0:0:
64,0,24921,1,0,1:0:0:0:
320,0,24921,1,0,1:0:0:0:
192,0,24998,1,0,1:0:0:0:
448,0,24998,1,0,1:0:0:0:
64,0,25074,1,0,1:0:0:0:
320,0,25151,1,0,1:0:0:0:
448,0,25151,1,0,1:0:0:0:
64,0,25228,1,0,1:0:0:0:
192,0,25228,1,0,1:0:0:0:
320,0,25305,1,0,1:0:0:0:
448,0,25305,1,0,1:0:0:0:
192,0,25382,1,0,1:0:0:0:
320,0,25459,1,0,1:0:0:0:
448,0,25459,1,0,1:0:0:0:
64,0,25536,1,0,1:0:0:0:
192,0,25536,1,0,1:0:0:0:
320,0,25613,1,0,1:0:0:0:
448,0,25613,1,0,1:0:0:0:
64,0,25690,1,0,1:0:0:0:
192,0,25690,1,0,1:0:0:0:
320,0,25767,1,0,1:0:0:0:
64,0,25844,1,0,1:0:0:0:
448,0,25844,1,0,1:0:0:0:
192,0,25921,1,0,1:0:0:0:
320,0,25921,1,0,1:0:0:0:
448,0,25998,1,0,1:0:0:0:
64,0,26074,1,0,1:0:0:0:
320,0,26074,1,0,1:0:0:0:
192,0,26151,1,0,1:0:0:0:
448,0,26151,1,0,1:0:0:0:
64,0,26228,1,0,1:0:0:0:
320,0,26228,1,0,1:0:0:0:
192,0,26305,1,0,1:0:0:0:
320,0,26382,1,0,1:0:0:0:
448,0,26382,1,0,1:0:0:0:
64,0,26459,1,0,1:0:0:0:
192,0,26459,1,0,1:0:0:0:
448,0,26536,1,0,1:0:0:0:
192,0,26613,1,0,1:0:0:0:
320,0,26690,1,0,1:0:0:0:
448,0,26690,1,0,1:0:0:0:
64,0,26767,1,0,1:0:0:0:
192,0,26767,1,0,1:0:0:0:
320,0,26844,1,0,1:0:0:0:
448,0,26844,1,0,1:0:0:0:
64,0,26921,1,0,1:0:0:0:
192,0,26921,1,0,1:0:0:0:
320,0,26998,1,0,1:0:0:0:
64,0,27074,1,0,1:0:0:0:
448,0,27074,1,0,1:0:0:0:
192,0,27151,1,0,1:0:0:0:
320,0,27151,1,0,1:0:0:0:
64,0,27228,1,0,1:0:0:0:
192,0,27305,1,0,1:0:0:0:
64,0,27382,1,0,1:0:0:0:
320,0,27382,1,0,1:0:0:0:
192,0,27459,1,0,1:0:0:0:
448,0,27459,1,0,1:0:0:0:
64,0,27536,1,0,1:0:0:0:
320,0,27613,1,0,1:0:0:0:
448,0,27613,1,0,1:0:0:0:
64,0,27690,1,0,1:0:0:0:
192,0,27690,1,0,1:0:0:0:
320,0,27767,1,0,1:0:0:0:
448,0,27767,1,0,1:0:0:0:
192,0,27844,1,0,1:0:0:0:
320,0,27921,1,0,1:0:0:0:
448,0,27921,1,0,1:0:0:0:
64,0,27998,1,0,1:0:0:0:
192,0,27998,1,0,1:0:0:0:
320,0,28074,1,0,1:0:0:0:
448,0,28074,1,0,1:0:0:0:
64,0,28151,1,0,1:0:0:0:
192,0,28151,1,0,1:0:0:0:
320,0,28228,1,0,1:0:0:0:
192,0,28305,1,0,1:0:0:0:
448,0,28305,1,0,1:0:0:0:
64,0,28382,1,0,1:0:0:0:
320,0,28382,1,0,1:0:0:0:
448,0,28459,1,0,1:0:0:0:
64,0,28536,1,0,1:0:0:0:
320,0,28536,1,0,1:0:0:0:
192,0,28613,1,0,1:0:0:0:
448,0,28613,1,0,1:0:0:0:
64,0,28690,1,0,1:0:0:0:
320,0,28690,1,0,1:0:0:0:
192,0,28767,1,0,1:0:0:0:
320,0,28844,1,0,1:0:0:0:
448,0,28844,1,0,1:0:0:0:
64,0,28921,1,0,1:0:0:0:
192,0,28921,1,0,1:0:0:0:
448,0,28998,1,0,1:0:0:0:
192,0,29074,1,0,1:0:0:0:
320,0,29151,1,0,1:0:0:0:
448,0,29151,1,0,1:0:0:0:
64,0,29228,1,0,1:0:0:0:
192,0,29228,1,0,1:0:0:0:
320,0,29305,1,0,1:0:0:0:
448,0,29305,1,0,1:0:0:0:
64,0,29382,1,0,1:0:0:0:
192,0,29382,1,0,1:0:0:0:
320,0,29459,1,0,1:0:0:0:
448,0,29536,1,0,1:0:0:0:
64,0,29613,1,0,1:0:0:0:
192,0,29613,1,0,1:0:0:0:
320,0,29613,1,0,1:0:0:0:
448,0,29690,1,0,1:0:0:0:
64,0,29767,1,0,1:0:0:0:
192,0,29767,1,0,1:0:0:0:
320,0,29767,1,0,1:0:0:0:
448,0,29844,1,0,1:0:0:0:
64,0,29921,1,0,1:0:0:0:
192,0,29921,1,0,1:0:0:0:
320,0,29921,1,0,1:0:0:0:
448,0,29998,1,0,1:0:0:0:
192,0,30074,1,0,1:0:0:0:
320,0,30074,1,0,1:0:0:0:
64,0,30151,1,0,1:0:0:0:
448,0,30151,1,0,1:0:0:0:
192,0,30228,1,0,1:0:0:0:
320,0,30228,1,0,1:0:0:0:
64,0,30305,1,0,1:0:0:0:
320,0,30382,1,0,1:0:0:0:
448,0,30382,1,0,1:0:0:0:
64,0,30459,1,0,1:0:0:0:
192,0,30459,1,0,1:0:0:0:
320,0,30536,1,0,1:0:0:0:
448,0,30536,1,0,1:0:0:0:
64,0,30613,1,0,1:0:0:0:
192,0,30613,1,0,1:0:0:0:
448,0,30690,1,0,1:0:0:0:
64,0,30767,1,0,1:0:0:0:
320,0,30767,1,0,1:0:0:0:
192,0,30844,1,0,1:0:0:0:
448,0,30844,1,0,1:0:0:0:
64,0,30921,1,0,1:0:0:0:
192,0,30998,1,0,1:0:0:0:
448,0,30998,1,0,1:0:0:0:
64,0,31074,1,0,1:0:0:0:
320,0,31074,1,0,1:0:0:0:
192,0,31151,1,0,1:0:0:0:
448,0,31151,1,0,1:0:0:0:
64,0,31228,1,0,1:0:0:0:
192,0,31305,1,0,1:0:0:0:
320,0,31305,1,0,1:0:0:0:
64,0,31382,1,0,1:0:0:0:
448,0,31382,1,0,1:0:0:0:
320,0,31459,1,0,1:0:0:0:
192,0,31536,1,0,1:0:0:0:
64,0,31613,1,0,1:0:0:0:
320,0,31613,1,0,1:0:0:0:
192,0,31690,1,0,1:0:0:0:
448,0,31690,1,0,1:0:0:0:
64,0,31767,1,0,1:0:0:0:
320,0,31767,1,0,1:0:0:0:
192,0,31844,1,0,1:0:0:0:
448,0,31844,1,0,1:0:0:0:
64,0,31921,1,0,1:0:0:0:
320,0,31998,1,0,1:0:0:0:
448,0,31998,1,0,1:0:0:0:
64,0,32074,1,0,1:0:0:0:
192,0,32074,1,0,1:0:0:0:
320,0,32151,1,0,1:0:0:0:
64,0,32228,1,0,1:0:0:0:
320,0,32305,1,0,1:0:0:0:
448,0,32305,1,0,1:0:0:0:
64,0,32382,1,0,1:0:0:0:
192,0,32382,1,0,1:0:0:0:
448,0,32459,1,0,1:0:0:0:
64,0,32536,1,0,1:0:0:0:
192,0,32536,1,0,1:0:0:0:
320,0,32613,1,0,1:0:0:0:
448,0,32613,1,0,1:0:0:0:
64,0,32690,1,0,1:0:0:0:
192,0,32690,1,0,1:0:0:0:
448,0,32767,1,0,1:0:0:0:
64,0,32844,1,0,1:0:0:0:
192,0,32844,1,0,1:0:0:0:
320,0,32921,1,0,1:0:0:0:
448,0,32921,1,0,1:0:0:0:
64,0,32998,1,0,1:0:0:0:
192,0,32998,1,0,1:0:0:0:
320,0,33074,1,0,1:0:0:0:
448,0,33074,1,0,1:0:0:0:
192,0,33151,1,0,1:0:0:0:
64,0,33228,1,0,1:0:0:0:
448,0,33228,1,0,1:0:0:0:
192,0,33305,1,0,1:0:0:0:
320,0,33305,1,0,1:0:0:0:
64,0,33382,1,0,1:0:0:0:
192,0,33459,1,0,1:0:0:0:
448,0,33459,1,0,1:0:0:0:
64,0,33536,1,0,1:0:0:0:
320,0,33536,1,0,1:0:0:0:
192,0,33613,1,0,1:0:0:0:
448,0,33613,1,0,1:0:0:0:
64,0,33690,1,0,1:0:0:0:
192,0,33767,1,0,1:0:0:0:
320,0,33767,1,0,1:0:0:0:
64,0,33844,1,0,1:0:0:0:
448,0,33844,1,0,1:0:0:0:
320,0,33921,1,0,1:0:0:0:
192,0,33998,1,0,1:0:0:0:
64,0,34074,1,0,1:0:0:0:
320,0,34074,1,0,1:0:0:0:
192,0,34151,1,0,1:0:0:0:
448,0,34151,1,0,1:0:0:0:
64,0,34228,1,0,1:0:0:0:
320,0,34228,1,0,1:0:0:0:
192,0,34305,1,0,1:0:0:0:
448,0,34305,1,0,1:0:0:0:
320,0,34382,1,0,1:0:0:0:
192,0,34459,1,0,1:0:0:0:
448,0,34459,1,0,1:0:0:0:
64,0,34536,1,0,1:0:0:0:
320,0,34536,1,0,1:0:0:0:
448,0,34613,1,0,1:0:0:0:
64,0,34690,1,0,1:0:0:0:
320,0,34767,1,0,1:0:0:0:
448,0,34767,1,0,1:0:0:0:
64,0,34844,1,0,1:0:0:0:
192,0,34844,1,0,1:0:0:0:
320,0,34921,1,0,1:0:0:0:
64,0,34998,1,0,1:0:0:0:
192,0,34998,1,0,1:0:0:0:
320,0,35074,1,0,1:0:0:0:
448,0,35074,1,0,1:0:0:0:
64,0,35151,1,0,1:0:0:0:
192,0,35151,1,0,1:0:0:0:
320,0,35228,1,0,1:0:0:0:
64,0,35305,1,0,1:0:0:0:
192,0,35305,1,0,1:0:0:0:
320,0,35382,1,0,1:0:0:0:
448,0,35382,1,0,1:0:0:0:
64,0,35459,1,0,1:0:0:0:
192,0,35459,1,0,1:0:0:0:
320,0,35536,1,0,1:0:0:0:
448,0,35536,1,0,1:0:0:0:
192,0,35613,1,0,1:0:0:0:
64,0,35690,1,0,1:0:0:0:
448,0,35690,1,0,1:0:0:0:
192,0,35767,1,0,1:0:0:0:
320,0,35767,1,0,1:0:0:0:
64,0,35844,1,0,1:0:0:0:
192,0,35921,1,0,1:0:0:0:
448,0,35921,1,0,1:0:0:0:
64,0,35998,1,0,1:0:0:0:
320,0,35998,1,0,1:0:0:0:
192,0,36074,1,0,1:0:0:0:
448,0,36074,1,0,1:0:0:0:
320,0,36151,1,0,1:0:0:0:
64,0,36228,1,0,1:0:0:0:
192,0,36228,1,0,1:0:0:0:
320,0,36305,1,0,1:0:0:0:
448,0,36305,1,0,1:0:0:0:
64,0,36382,1,0,1:0:0:0:
192,0,36459,1,0,1:0:0:0:
320,0,36536,1,0,1:0:0:0:
448,0,36536,1,0,1:0:0:0:
64,0,36613,1,0,1:0:0:0:
192,0,36613,1,0,1:0:0:0:
320,0,36690,1,0,1:0:0:0:
448,0,36690,1,0,1:0:0:0:
64,0,36767,1,0,1:0:0:0:
192,0,36767,1,0,1:0:0:0:
320,0,36844,1,0,1:0:0:0:
64,0,36921,1,0,1:0:0:0:
448,0,36921,1,0,1:0:0:0:
192,0,36998,1,0,1:0:0:0:
320,0,36998,1,0,1:0:0:0:
64,0,37074,1,0,1:0:0:0:
320,0,37151,1,0,1:0:0:0:
448,0,37151,1,0,1:0:0:0:
64,0,37228,1,0,1:0:0:0:
192,0,37228,1,0,1:0:0:0:
320,0,37305,1,0,1:0:0:0:
448,0,37305,1,0,1:0:0:0:
192,0,37382,1,0,1:0:0:0:
320,0,37459,1,0,1:0:0:0:
448,0,37459,1,0,1:0:0:0:
64,0,37536,1,0,1:0:0:0:
192,0,37536,1,0,1:0:0:0:
320,0,37613,1,0,1:0:0:0:
448,0,37613,1,0,1:0:0:0:
64,0,37690,1,0,1:0:0:0:
320,0,37767,1,0,1:0:0:0:
448,0,37767,1,0,1:0:0:0:
64,0,37844,1,0,1:0:0:0:
192,0,37844,1,0,1:0:0:0:
320,0,37921,1,0,1:0:0:0:
448,0,37921,1,0,1:0:0:0:
64,0,37998,1,0,1:0:0:0:
192,0,37998,1,0,1:0:0:0:
320,0,38074,1,0,1:0:0:0:
64,0,38151,1,0,1:0:0:0:
448,0,38151,1,0,1:0:0:0:
192,0,38228,1,0,1:0:0:0:
320,0,38228,1,0,1:0:0:0:
448,0,38305,1,0,1:0:0:0:
64,0,38382,1,0,1:0:0:0:
320,0,38382,1,0,1:0:0:0:
192,0,38459,1,0,1:0:0:0:
448,0,38459,1,0,1:0:0:0:
64,0,38536,1,0,1:0:0:0:
320,0,38536,1,0,1:0:0:0:
192,0,38613,1,0,1:0:0:0:
320,0,38690,1,0,1:0:0:0:
448,0,38690,1,0,1:0:0:0:
64,0,38767,1,0,1:0:0:0:
192,0,38767,1,0,1:0:0:0:
448,0,38844,1,0,1:0:0:0:
192,0,38921,1,0,1:0:0:0:
64,0,38998,1,0,1:0:0:0:
320,0,38998,1,0,1:0:0:0:
192,0,39074,1,0,1:0:0:0:
448,0,39074,1,0,1:0:0:0:
64,0,39151,1,0,1:0:0:0:
320,0,39151,1,0,1:0:0:0:
192,0,39228,1,0,1:0:0:0:
448,0,39228,1,0,1:0:0:0:
320,0,39305,1,0,1:0:0:0:
192,0,39382,1,0,1:0:0:0:
64,0,39459,1,0,1:0:0:0:
320,0,39459,1,0,1:0:0:0:
448,0,39459,1,0,1:0:0:0:
192,0,39536,1,0,1:0:0:0:
64,0,39613,1,0,1:0:0:0:
320,0,39613,1,0,1:0:0:0:
448,0,39613,1,0,1:0:0:0:
192,0,39690,1,0,1:0:0:0:
64,0,39767,1,0,1:0:0:0:
320,0,39767,1,0,1:0:0:0:
448,0,39767,1,0,1:0:0:0:
192,0,39844,1,0,1:0:0:0:
320,0,39921,1,0,1:0:0:0:
448,0,39998,1,0,1:0:0:0:
64,0,40074,1,0,1:0:0:0:
192,0,40074,1,0,1:0:0:0:
320,0,40074,1,0,1:0:0:0:
448,0,40151,1,0,1:0:0:0:
192,0,40228,1,0,1:0:0:0:
320,0,40305,1,0,1:0:0:0:
64,0,40382,1,0,1:0:0:0:
192,0,40382,1,0,1:0:0:0:
448,0,40382,1,0,1:0:0:0:
320,0,40459,1,0,1:0:0:0:
192,0,40536,1,0,1:0:0:0:
64,0,40613,1,0,1:0:0:0:
192,0,40690,1,0,1:0:0:0:
320,0,40690,1,0,1:0:0:0:
448,0,40690,1,0,1:0:0:0:
64,0,40767,1,0,1:0:0:0:
192,0,40844,1,0,1:0:0:0:
320,0,40921,1,0,1:0:0:0:
448,0,40921,1,0,1:0:0:0:
64,0,40998,1,0,1:0:0:0:
192,0,40998,1,0,1:0:0:0:
448,0,41074,1,0,1:0:0:0:
64,0,41151,1,0,1:0:0:0:
192,0,41151,1,0,1:0:0:0:
320,0,41228,1,0,1:0:0:0:
64,0,41305,1,0,1:0:0:0:
192,0,41305,1,0,1:0:0:0:
448,0,41305,1,0,1:0:0:0:
320,0,41382,1,0,1:0:0:0:
64,0,41459,1,0,1:0:0:0:
192,0,41459,1,0,1:0:0:0:
320,0,41536,1,0,1:0:0:0:
448,0,41536,1,0,1:0:0:0:
64,0,41613,1,0,1:0:0:0:
192,0,41613,1,0,1:0:0:0:
320,0,41690,1,0,1:0:0:0:
448,0,41690,1,0,1:0:0:0:
64,0,41767,1,0,1:0:0:0:
192,0,41844,1,0,1:0:0:0:
64,0,41921,1,0,1:0:0:0:
320,0,41921,1,0,1:0:0:0:
448,0,41921,1,0,1:0:0:0:
192,0,41998,1,0,1:0:0:0:
320,0,42074,1,0,1:0:0:0:
64,0,42151,1,0,1:0:0:0:
192,0,42228,1,0,1:0:0:0:
320,0,42228,1,0,1:0:0:0:
448,0,42228,1,0,1:0:0:0:
64,0,42305,1,0,1:0:0:0:
448,0,42382,1,0,1:0:0:0:
320,0,42459,1,0,1:0:0:0:
64,0,42536,1,0,1:0:0:0:
192,0,42536,1,0,1:0:0:0:
448,0,42536,1,0,1:0:0:0:
320,0,42613,1,0,1:0:0:0:
448,0,42690,1,0,1:0:0:0:
64,0,42767,1,0,1:0:0:0:
192,0,42844,1,0,1:0:0:0:
320,0,42844,1,0,1:0:0:0:
448,0,42844,1,0,1:0:0:0:
64,0,42921,1,0,1:0:0:0:
448,0,42998,1,0,1:0:0:0:
320,0,43074,1,0,1:0:0:0:
64,0,43151,1,0,1:0:0:0:
192,0,43151,1,0,1:0:0:0:
448,0,43151,1,0,1:0:0:0:
320,0,43228,1,0,1:0:0:0:
448,0,43305,1,0,1:0:0:0:
64,0,43382,1,0,1:0:0:0:
192,0,43382,1,0,1:0:0:0:
320,0,43459,1,0,1:0:0:0:
448,0,43459,1,0,1:0:0:0:
192,0,43536,1,0,1:0:0:0:
320,0,43613,1,0,1:0:0:0:
448,0,43613,1,0,1:0:0:0:
64,0,43690,1,0,1:0:0:0:
192,0,43767,1,0,1:0:0:0:
320,0,43767,1,0,1:0:0:0:
448,0,43767,1,0,1:0:0:0:
64,0,43844,1,0,1:0:0:0:
320,0,43921,1,0,1:0:0:0:
448,0,43921,1,0,1:0:0:0:
64,0,43998,1,0,1:0:0:0:
192,0,43998,1,0,1:0:0:0:
320,0,44074,1,0,1:0:0:0:
448,0,44074,1,0,1:0:0:0:
64,0,44151,1,0,1:0:0:0:
192,0,44151,1,0,1:0:0:0:
448,0,44228,1,0,1:0:0:0:
320,0,44305,1,0,1:0:0:0:
64,0,44382,1,0,1:0:0:0:
192,0,44382,1,0,1:0:0:0:
448,0,44382,1,0,1:0:0:0:
320,0,44459,1,0,1:0:0:0:
192,0,44536,1,0,1:0:0:0:
448,0,44536,1,0,1:0:0:0:
64,0,44613,1,0,1:0:0:0:
192,0,44690,1,0,1:0:0:0:
320,0,44690,1,0,1:0:0:0:
448,0,44690,1,0,1:0:0:0:
64,0,44767,1,0,1:0:0:0:
320,0,44844,1,0,1:0:0:0:
192,0,44921,1,0,1:0:0:0:
64,0,44998,1,0,1:0:0:0:
320,0,44998,1,0,1:0:0:0:
448,0,44998,1,0,1:0:0:0:
192,0,45074,1,0,1:0:0:0:
320,0,45151,1,0,1:0:0:0:
448,0,45151,1,0,1:0:0:0:
64,0,45228,1,0,1:0:0:0:
192,0,45305,1,0,1:0:0:0:
320,0,45305,1,0,1:0:0:0:
448,0,45305,1,0,1:0:0:0:
64,0,45382,1,0,1:0:0:0:
320,0,45459,1,0,1:0:0:0:
448,0,45536,1,0,1:0:0:0:
64,0,45613,1,0,1:0:0:0:
192,0,45613,1,0,1:0:0:0:
320,0,45613,1,0,1:0:0:0:
448,0,45690,1,0,1:0:0:0:
64,0,45767,1,0,1:0:0:0:
192,0,45767,1,0,1:0:0:0:
320,0,45844,1,0,1:0:0:0:
448,0,45844,1,0,1:0:0:0:
64,0,45921,1,0,1:0:0:0:
192,0,45921,1,0,1:0:0:0:
448,0,45998,1,0,1:0:0:0:
64,0,46074,1,0,1:0:0:0:
192,0,46074,1,0,1:0:0:0:
320,0,46151,1,0,1:0:0:0:
64,0,46228,1,0,1:0:0:0:
192,0,46228,1,0,1:0:0:0:
448,0,46228,1,0,1:0:0:0:
320,0,46305,1,0,1:0:0:0:
64,0,46382,1,0,1:0:0:0:
192,0,46382,1,0,1:0:0:0:
320,0,46459,1,0,1:0:0:0:
448,0,46459,1,0,1:0:0:0:
64,0,46536,1,0,1:0:0:0:
192,0,46536,1,0,1:0:0:0:
320,0,46613,1,0,1:0:0:0:
448,0,46613,1,0,1:0:0:0:
64,0,46690,1,0,1:0:0:0:
192,0,46767,1,0,1:0:0:0:
64,0,46844,1,0,1:0:0:0:
320,0,46844,1,0,1:0:0:0:
448,0,46844,1,0,1:0:0:0:
192,0,46921,1,0,1:0:0:0:
64,0,46998,1,0,1:0:0:0:
448,0,46998,1,0,1:0:0:0:
320,0,47074,1,0,1:0:0:0:
64,0,47151,1,0,1:0:0:0:
192,0,47151,1,0,1:0:0:0:
448,0,47151,1,0,1:0:0:0:
320,0,47228,1,0,1:0:0:0:
448,0,47305,1,0,1:0:0:0:
320,0,47382,1,0,1:0:0:0:
64,0,47459,1,0,1:0:0:0:
192,0,47459,1,0,1:0:0:0:
448,0,47459,1,0,1:0:0:0:
320,0,47536,1,0,1:0:0:0:
192,0,47613,1,0,1:0:0:0:
448,0,47613,1,0,1:0:0:0:
64,0,47690,1,0,1:0:0:0:
192,0,47767,1,0,1:0:0:0:
320,0,47767,1,0,1:0:0:0:
448,0,47767,1,0,1:0:0:0:
64,0,47844,1,0,1:0:0:0:
448,0,47921,1,0,1:0:0:0:
192,0,47998,1,0,1:0:0:0:
64,0,48074,1,0,1:0:0:0:
320,0,48074,1,0,1:0:0:0:
448,0,48074,1,0,1:0:0:0:
192,0,48151,1,0,1:0:0:0:
320,0,48228,1,0,1:0:0:0:
448,0,48228,1,0,1:0:0:0:
64,0,48305,1,0,1:0:0:0:
192,0,48305,1,0,1:0:0:0:
320,0,48382,1,0,1:0:0:0:
448,0,48382,1,0,1:0:0:0:
192,0,48459,1,0,1:0:0:0:
320,0,48536,1,0,1:0:0:0:
448,0,48536,1,0,1:0:0:0:
64,0,48613,1,0,1:0:0:0:
192,0,48690,1,0,1:0:0:0:
320,0,48690,1,0,1:0:0:0:
448,0,48690,1,0,1:0:0:0:
64,0,48767,1,0,1:0:0:0:
320,0,48844,1,0,1:0:0:0:
448,0,48844,1,0,1:0:0:0:
64,0,48921,1,0,1:0:0:0:
192,0,48921,1,0,1:0:0:0:
320,0,48998,1,0,1:0:0:0:
448,0,48998,1,0,1:0:0:0:
64,0,49074,1,0,1:0:0:0:
192,0,49074,1,0,1:0:0:0:
448,0,49151,1,0,1:0:0:0:
320,0,49228,1,0,1:0:0:0:
64,0,49305,1,0,1:0:0:0:
192,0,49305,1,0,1:0:0:0:
448,0,49305,1,0,1:0:0:0:
320,0,49382,1,0,1:0:0:0:
64,0,49459,1,0,1:0:0:0:
192,0,49459,1,0,1:0:0:0:
448,0,49459,1,0,1:0:0:0:
320,0,49536,1,0,1:0:0:0:
64,0,49613,1,0,1:0:0:0:
192,0,49613,1,0,1:0:0:0:
448,0,49613,1,0,1:0:0:0:
320,0,49690,1,0,1:0:0:0:
64,0,49767,1,0,1:0:0:0:
192,0,49844,1,0,1:0:0:0:
64,0,49921,1,0,1:0:0:0:
320,0,49921,1,0,1:0:0:0:
448,0,49921,1,0,1:0:0:0:
192,0,49998,1,0,1:0:0:0:
320,0,50074,1,0,1:0:0:0:
448,0,50074,1,0,1:0:0:0:
64,0,50151,1,0,1:0:0:0:
192,0,50228,1,0,1:0:0:0:
320,0,50228,1,0,1:0:0:0:
448,0,50228,1,0,1:0:0:0:
64,0,50305,1,0,1:0:0:0:
320,0,50382,1,0,1:0:0:0:
448,0,50459,1,0,1:0:0:0:
64,0,50536,1,0,1:0:0:0:
192,0,50536,1,0,1:0:0:0:
320,0,50536,1,0,1:0:0:0:
448,0,50613,1,0,1:0:0:0:
64,0,50690,1,0,1:0:0:0:
192,0,50690,1,0,1:0:0:0:
320,0,50767,1,0,1:0:0:0:
448,0,50767,1,0,1:0:0:0:
64,0,50844,1,0,1:0:0:0:
192,0,50844,1,0,1:0:0:0:
448,0,50921,1,0,1:0:0:0:
64,0,50998,1,0,1:0:0:0:
192,0,50998,1,0,1:0:0:0:
320,0,51074,1,0,1:0:0:0:
64,0,51151,1,0,1:0:0:0:
192,0,51151,1,0,1:0:0:0:
448,0,51151,1,0,1:0:0:0:
320,0,51228,1,0,1:0:0:0:
64,0,51305,1,0,1:0:0:0:
192,0,51305,1,0,1:0:0:0:
320,0,51382,1,0,1:0:0:0:
448,0,51382,1,0,1:0:0:0:
64,0,51459,1,0,1:0:0:0:
192,0,51459,1,0,1:0:0:0:
320,0,51536,1,0,1:0:0:0:
448,0,51536,1,0,1:0:0:0:
64,0,51613,1,0,1:0:0:0:
192,0,51690,1,0,1:0:0:0:
64,0,51767,1,0,1:0:0:0:
320,0,51767,1,0,1:0:0:0:
448,0,51767,1,0,1:0:0:0:
192,0,51844,1,0,1:0:0:0:
64,0,51921,1,0,1:0:0:0:
448,0,51921,1,0,1:0:0:0:
320,0,51998,1,0,1:0:0:0:
64,0,52074,1,0,1:0:0:0:
192,0,52074,1,0,1:0:0:0:
448,0,52074,1,0,1:0:0:0:
320,0,52151,1,0,1:0:0:0:
448,0,52228,1,0,1:0:0:0:
320,0,52305,1,0,1:0:0:0:
64,0,52382,1,0,1:0:0:0:
192,0,52382,1,0,1:0:0:0:
448,0,52382,1,0,1:0:0:0:
320,0,52459,1,0,1:0:0:0:
192,0,52536,1,0,1:0:0:0:
448,0,52536,1,0,1:0:0:0:
64,0,52613,1,0,1:0:0:0:
192,0,52690,1,0,1:0:0:0:
320,0,52690,1,0,1:0:0:0:
448,0,52690,1,0,1:0:0:0:
64,0,52767,1,0,1:0:0:0:
448,0,52844,1,0,1:0:0:0:
192,0,52921,1,0,1:0:0:0:
64,0,52998,1,0,1:0:0:0:
320,0,52998,1,0,1:0:0:0:
448,0,52998,1,0,1:0:0:0:
192,0,53074,1,0,1:0:0:0:
320,0,53151,1,0,1:0:0:0:
448,0,53151,1,0,1:0:0:0:
64,0,53228,1,0,1:0:0:0:
192,0,53228,1,0,1:0:0:0:
320,0,53305,1,0,1:0:0:0:
448,0,53305,1,0,1:0:0:0:
192,0,53382,1,0,1:0:0:0:
320,0,53459,1,0,1:0:0:0:
448,0,53459,1,0,1:0:0:0:
64,0,53536,1,0,1:0:0:0:
192,0,53613,1,0,1:0:0:0:
320,0,53613,1,0,1:0:0:0:
448,0,53613,1,0,1:0:0:0:
64,0,53690,1,0,1:0:0:0:
320,0,53767,1,0,1:0:0:0:
448,0,53767,1,0,1:0:0:0:
64,0,53844,1,0,1:0:0:0:
192,0,53844,1,0,1:0:0:0:
320,0,53921,1,0,1:0:0:0:
448,0,53921,1,0,1:0:0:0:
64,0,53998,1,0,1:0:0:0:
192,0,53998,1,0,1:0:0:0:
448,0,54074,1,0,1:0:0:0:
320,0,54151,1,0,1:0:0:0:
64,0,54228,1,0,1:0:0:0:
192,0,54228,1,0,1:0:0:0:
448,0,54228,1,0,1:0:0:0:
320,0,54305,1,0,1:0:0:0:
64,0,54382,1,0,1:0:0:0:
192,0,54382,1,0,1:0:0:0:
448,0,54382,1,0,1:0:0:0:
320,0,54459,1,0,1:0:0:0:
64,0,54536,1,0,1:0:0:0:
192,0,54536,1,0,1:0:0:0:
320,0,54613,1,0,1:0:0:0:
448,0,54613,1,0,1:0:0:0:
64,0,54690,1,0,1:0:0:0:
192,0,54690,1,0,1:0:0:0:
320,0,54767,1,0,1:0:0:0:
448,0,54767,1,0,1:0:0:0:
64,0,54844,1,0,1:0:0:0:
192,0,54844,1,0,1:0:0:0:
320,0,54921,1,0,1:0:0:0:
448,0,54921,1,0,1:0:0:0:
64,0,54998,1,0,1:0:0:0:
192,0,54998,1,0,1:0:0:0:
320,0,55074,1,0,1:0:0:0:
448,0,55074,1,0,1:0:0:0:
64,0,55151,1,0,1:0:0:0:
192,0,55151,1,0,1:0:0:0:
320,0,55228,1,0,1:0:0:0:
448,0,55228,1,0,1:0:0:0:
64,0,55305,1,0,1:0:0:0:
192,0,55305,1,0,1:0:0:0:
320,0,55382,1,0,1:0:0:0:
448,0,55382,1,0,1:0:0:0:
64,0,55459,1,0,1:0:0:0:
192,0,55459,1,0,1:0:0:0:
320,0,55536,1,0,1:0:0:0:
448,0,55536,1,0,1:0:0:0:
64,0,55613,1,0,1:0:0:0:
192,0,55613,1,0,1:0:0:0:
320,0,55690,1,0,1:0:0:0:
448,0,55690,1,0,1:0:0:0:
64,0,55767,1,0,1:0:0:0:
192,0,55767,1,0,1:0:0:0:
320,0,55844,1,0,1:0:0:0:
64,0,55921,1,0,1:0:0:0:
448,0,55921,1,0,1:0:0:0:
192,0,55998,1,0,1:0:0:0:
320,0,55998,1,0,1:0:0:0:
64,0,56074,1,0,1:0:0:0:
448,0,56074,1,0,1:0:0:0:
192,0,56151,1,0,1:0:0:0:
320,0,56151,1,0,1:0:0:0:
64,0,56228,1,0,1:0:0:0:
448,0,56228,1,0,1:0:0:0:
192,0,56305,1,0,1:0:0:0:
320,0,56305,1,0,1:0:0:0:
64,0,56382,1,0,1:0:0:0:
448,0,56382,1,0,1:0:0:0:
192,0,56459,1,0,1:0:0:0:
320,0,56459,1,0,1:0:0:0:
64,0,56536,1,0,1:0:0:0:
448,0,56536,1,0,1:0:0:0:
192,0,56613,1,0,1:0:0:0:
320,0,56613,1,0,1:0:0:0:
64,0,56690,1,0,1:0:0:0:
448,0,56690,1,0,1:0:0:0:
192,0,56767,1,0,1:0:0:0:
320,0,56767,1,0,1:0:0:0:
64,0,56844,1,0,1:0:0:0:
448,0,56844,1,0,1:0:0:0:
192,0,56921,1,0,1:0:0:0:
320,0,56998,1,0,1:0:0:0:
448,0,56998,1,0,1:0:0:0:
64,0,57074,1,0,1:0:0:0:
192,0,57074,1,0,1:0:0:0:
320,0,57151,1,0,1:0:0:0:
448,0,57151,1,0,1:0:0:0:
64,0,57228,1,0,1:0:0:0:
192,0,57228,1,0,1:0:0:0:
320,0,57305,1,0,1:0:0:0:
448,0,57305,1,0,1:0:0:0:
64,0,57382,1,0,1:0:0:0:
192,0,57382,1,0,1:0:0:0:
320,0,57459,1,0,1:0:0:0:
448,0,57459,1,0,1:0:0:0:
64,0,57536,1,0,1:0:0:0:
192,0,57536,1,0,1:0:0:0:
320,0,57613,1,0,1:0:0:0:
448,0,57613,1,0,1:0:0:0:
64,0,57690,1,0,1:0:0:0:
192,0,57690,1,0,1:0:0:0:
320,0,57767,1,0,1:0:0:0:
448,0,57767,1,0,1:0:0:0:
64,0,57844,1,0,1:0:0:0:
192,0,57844,1,0,1:0:0:0:
320,0,57921,1,0,1:0:0:0:
448,0,57921,1,0,1:0:0:0:
64,0,57998,1,0,1:0:0:0:
192,0,57998,1,0,1:0:0:0:
320,0,58074,1,0,1:0:0:0:
448,0,58074,1,0,1:0:0:0:
64,0,58151,1,0,1:0:0:0:
192,0,58151,1,0,1:0:0:0:
320,0,58228,1,0,1:0:0:0:
448,0,58228,1,0,1:0:0:0:
64,0,58305,1,0,1:0:0:0:
192,0,58305,1,0,1:0:0:0:
320,0,58382,1,0,1:0:0:0:
448,0,58382,1,0,1:0:0:0:
64,0,58459,1,0,1:0:0:0:
192,0,58459,1,0,1:0:0:0:
320,0,58536,1,0,1:0:0:0:
448,0,58536,1,0,1:0:0:0:
64,0,58613,1,0,1:0:0:0:
192,0,58613,1,0,1:0:0:0:
320,0,58690,1,0,1:0:0:0:
448,0,58690,1,0,1:0:0:0:
192,0,58767,1,0,1:0:0:0:
64,0,58844,128,0,58882:0:0:0:0:
320,0,58844,128,0,58882:0:0:0:0:
448,0,58844,128,0,58882:0:0:0:0:
192,0,58921,1,0,1:0:0:0:
320,0,58998,1,0,1:0:0:0:
64,0,59074,128,0,59113:0:0:0:0:
192,0,59074,128,0,59113:0:0:0:0:
448,0,59074,128,0,59113:0:0:0:0:
320,0,59151,1,0,1:0:0:0:
448,0,59228,1,0,1:0:0:0:
64,0,59305,128,0,59344:0:0:0:0:
192,0,59305,128,0,59344:0:0:0:0:
320,0,59305,128,0,59344:0:0:0:0:
448,0,59382,1,0,1:0:0:0:
64,0,59459,128,0,59498:0:0:0:0:
192,0,59459,128,0,59498:0:0:0:0:
320,0,59459,128,0,59498:0:0:0:0:
448,0,59536,1,0,1:0:0:0:
64,0,59613,1,0,1:0:0:0:
192,0,59613,1,0,1:0:0:0:
320,0,59690,1,0,1:0:0:0:
64,0,59767,1,0,1:0:0:0:
192,0,59767,1,0,1:0:0:0:
448,0,59767,1,0,1:0:0:0:
320,0,59844,1,0,1:0:0:0:
192,0,59921,1,0,1:0:0:0:
448,0,59921,1,0,1:0:0:0:
64,0,59998,1,0,1:0:0:0:
192,0,60074,1,0,1:0:0:0:
320,0,60074,1,0,1:0:0:0:
448,0,60074,1,0,1:0:0:0:
64,0,60151,1,0,1:0:0:0:
320,0,60228,1,0,1:0:0:0:
192,0,60305,1,0,1:0:0:0:
64,0,60382,1,0,1:0:0:0:
320,0,60382,1,0,1:0:0:0:
448,0,60382,1,0,1:0:0:0:
192,0,60459,1,0,1:0:0:0:
64,0,60536,1,0,1:0:0:0:
320,0,60536,1,0,1:0:0:0:
448,0,60536,1,0,1:0:0:0:
192,0,60613,1,0,1:0:0:0:
64,0,60690,1,0,1:0:0:0:
320,0,60690,1,0,1:0:0:0:
448,0,60767,1,0,1:0:0:0:
192,0,60844,1,0,1:0:0:0:
320,0,60921,1,0,1:0:0:0:
64,0,60998,1,0,1:0:0:0:
192,0,60998,1,0,1:0:0:0:
448,0,60998,1,0,1:0:0:0:
320,0,61074,1,0,1:0:0:0:
64,0,61151,1,0,1:0:0:0:
192,0,61151,1,0,1:0:0:0:
448,0,61228,1,0,1:0:0:0:
64,0,61305,1,0,1:0:0:0:
192,0,61305,1,0,1:0:0:0:
320,0,61305,1,0,1:0:0:0:
448,0,61382,1,0,1:0:0:0:
192,0,61459,1,0,1:0:0:0:
320,0,61459,1,0,1:0:0:0:
64,0,61536,1,0,1:0:0:0:
192,0,61613,1,0,1:0:0:0:
320,0,61613,1,0,1:0:0:0:
448,0,61613,1,0,1:0:0:0:
64,0,61690,1,0,1:0:0:0:
192,0,61767,1,0,1:0:0:0:
320,0,61767,1,0,1:0:0:0:
448,0,61844,1,0,1:0:0:0:
64,0,61921,1,0,1:0:0:0:
192,0,61921,1,0,1:0:0:0:
320,0,61921,1,0,1:0:0:0:
448,0,61998,1,0,1:0:0:0:
64,0,62074,1,0,1:0:0:0:
192,0,62074,1,0,1:0:0:0:
320,0,62151,1,0,1:0:0:0:
448,0,62151,1,0,1:0:0:0:
64,0,62228,1,0,1:0:0:0:
192,0,62228,1,0,1:0:0:0:
448,0,62305,1,0,1:0:0:0:
192,0,62382,1,0,1:0:0:0:
320,0,62382,1,0,1:0:0:0:
64,0,62459,1,0,1:0:0:0:
448,0,62459,1,0,1:0:0:0:
192,0,62536,1,0,1:0:0:0:
64,0,62613,1,0,1:0:0:0:
320,0,62690,1,0,1:0:0:0:
448,0,62690,1,0,1:0:0:0:
192,0,62767,1,0,1:0:0:0:
64,0,62844,1,0,1:0:0:0:
320,0,62844,1,0,1:0:0:0:
448,0,62921,1,0,1:0:0:0:
64,0,62998,1,0,1:0:0:0:
192,0,62998,1,0,1:0:0:0:
320,0,62998,1,0,1:0:0:0:
448,0,63074,1,0,1:0:0:0:
64,0,63151,1,0,1:0:0:0:
192,0,63151,1,0,1:0:0:0:
448,0,63228,1,0,1:0:0:0:
64,0,63305,1,0,1:0:0:0:
192,0,63305,1,0,1:0:0:0:
320,0,63382,1,0,1:0:0:0:
448,0,63382,1,0,1:0:0:0:
64,0,63459,1,0,1:0:0:0:
192,0,63459,1,0,1:0:0:0:
320,0,63536,1,0,1:0:0:0:
64,0,63613,1,0,1:0:0:0:
448,0,63613,1,0,1:0:0:0:
192,0,63690,1,0,1:0:0:0:
320,0,63690,1,0,1:0:0:0:
64,0,63767,1,0,1:0:0:0:
448,0,63767,1,0,1:0:0:0:
192,0,63844,1,0,1:0:0:0:
320,0,63844,1,0,1:0:0:0:
64,0,63921,1,0,1:0:0:0:
448,0,63921,1,0,1:0:0:0:
320,0,63998,1,0,1:0:0:0:
64,0,64074,1,0,1:0:0:0:
192,0,64074,1,0,1:0:0:0:
448,0,64074,1,0,1:0:0:0:
320,0,64151,1,0,1:0:0:0:
192,0,64228,1,0,1:0:0:0:
448,0,64228,1,0,1:0:0:0:
64,0,64305,1,0,1:0:0:0:
192,0,64382,1,0,1:0:0:0:
320,0,64382,1,0,1:0:0:0:
448,0,64382,1,0,1:0:0:0:
64,0,64459,1,0,1:0:0:0:
192,0,64536,1,0,1:0:0:0:
320,0,64613,1,0,1:0:0:0:
64,0,64690,1,0,1:0:0:0:
192,0,64690,1,0,1:0:0:0:
320,0,64767,1,0,1:0:0:0:
64,0,64844,1,0,1:0:0:0:
192,0,64844,1,0,1:0:0:0:
448,0,64844,1,0,1:0:0:0:
320,0,64921,1,0,1:0:0:0:
64,0,64998,1,0,1:0:0:0:
192,0,64998,1,0,1:0:0:0:
448,0,64998,1,0,1:0:0:0:
320,0,65074,1,0,1:0:0:0:
64,0,65151,1,0,1:0:0:0:
192,0,65151,1,0,1:0:0:0:
448,0,65151,1,0,1:0:0:0:
320,0,65228,1,0,1:0:0:0:
64,0,65305,1,0,1:0:0:0:
448,0,65305,1,0,1:0:0:0:
192,0,65382,1,0,1:0:0:0:
64,0,65459,1,0,1:0:0:0:
320,0,65459,1,0,1:0:0:0:
448,0,65459,1,0,1:0:0:0:
192,0,65536,1,0,1:0:0:0:
320,0,65613,1,0,1:0:0:0:
448,0,65613,1,0,1:0:0:0:
64,0,65690,1,0,1:0:0:0:
192,0,65767,1,0,1:0:0:0:
448,0,65767,1,0,1:0:0:0:
320,0,65844,1,0,1:0:0:0:
64,0,65921,1,0,1:0:0:0:
192,0,65921,1,0,1:0:0:0:
448,0,65921,1,0,1:0:0:0:
320,0,65998,1,0,1:0:0:0:
64,0,66074,1,0,1:0:0:0:
448,0,66074,1,0,1:0:0:0:
192,0,66151,1,0,1:0:0:0:
64,0,66228,1,0,1:0:0:0:
320,0,66228,1,0,1:0:0:0:
448,0,66228,1,0,1:0:0:0:
192,0,66305,1,0,1:0:0:0:
64,0,66382,1,0,1:0:0:0:
448,0,66382,1,0,1:0:0:0:
320,0,66459,1,0,1:0:0:0:
64,0,66536,1,0,1:0:0:0:
192,0,66536,1,0,1:0:0:0:
448,0,66536,1,0,1:0:0:0:
320,0,66613,1,0,1:0:0:0:
64,0,66690,1,0,1:0:0:0:
192,0,66690,1,0,1:0:0:0:
320,0,66767,1,0,1:0:0:0:
64,0,66844,1,0,1:0:0:0:
192,0,66844,1,0,1:0:0:0:
448,0,66844,1,0,1:0:0:0:
320,0,66921,1,0,1:0:0:0:
64,0,66998,1,0,1:0:0:0:
448,0,66998,1,0,1:0:0:0:
320,0,67074,1,0,1:0:0:0:
64,0,67151,1,0,1:0:0:0:
192,0,67151,1,0,1:0:0:0:
448,0,67228,1,0,1:0:0:0:
192,0,67305,1,0,1:0:0:0:
320,0,67305,1,0,1:0:0:0:
64,0,67382,1,0,1:0:0:0:
192,0,67459,1,0,1:0:0:0:
320,0,67459,1,0,1:0:0:0:
448,0,67459,1,0,1:0:0:0:
64,0,67536,1,0,1:0:0:0:
192,0,67613,1,0,1:0:0:0:
448,0,67613,1,0,1:0:0:0:
320,0,67690,1,0,1:0:0:0:
64,0,67767,1,0,1:0:0:0:
192,0,67767,1,0,1:0:0:0:
448,0,67767,1,0,1:0:0:0:
320,0,67844,1,0,1:0:0:0:
64,0,67921,1,0,1:0:0:0:
192,0,67921,1,0,1:0:0:0:
320,0,67998,1,0,1:0:0:0:
448,0,67998,1,0,1:0:0:0:
64,0,68074,1,0,1:0:0:0:
192,0,68074,1,0,1:0:0:0:
320,0,68151,1,0,1:0:0:0:
448,0,68151,1,0,1:0:0:0:
64,0,68228,1,0,1:0:0:0:
192,0,68228,1,0,1:0:0:0:
320,0,68305,1,0,1:0:0:0:
448,0,68305,1,0,1:0:0:0:
64,0,68382,1,0,1:0:0:0:
192,0,68382,1,0,1:0:0:0:
320,0,68459,1,0,1:0:0:0:
448,0,68459,1,0,1:0:0:0:
64,0,68536,1,0,1:0:0:0:
192,0,68536,1,0,1:0:0:0:
320,0,68613,1,0,1:0:0:0:
64,0,68690,1,0,1:0:0:0:
192,0,68690,1,0,1:0:0:0:
448,0,68690,1,0,1:0:0:0:
320,0,68767,1,0,1:0:0:0:
192,0,68844,1,0,1:0:0:0:
64,0,68921,1,0,1:0:0:0:
192,0,68998,1,0,1:0:0:0:
320,0,68998,1,0,1:0:0:0:
448,0,68998,1,0,1:0:0:0:
64,0,69074,1,0,1:0:0:0:
192,0,69151,1,0,1:0:0:0:
320,0,69151,1,0,1:0:0:0:
448,0,69151,1,0,1:0:0:0:
64,0,69228,1,0,1:0:0:0:
192,0,69305,1,0,1:0:0:0:
320,0,69305,1,0,1:0:0:0:
448,0,69305,1,0,1:0:0:0:
64,0,69382,1,0,1:0:0:0:
320,0,69459,1,0,1:0:0:0:
448,0,69459,1,0,1:0:0:0:
192,0,69536,1,0,1:0:0:0:
64,0,69613,1,0,1:0:0:0:
320,0,69613,1,0,1:0:0:0:
448,0,69613,1,0,1:0:0:0:
192,0,69690,1,0,1:0:0:0:
64,0,69767,1,0,1:0:0:0:
320,0,69767,1,0,1:0:0:0:
448,0,69844,1,0,1:0:0:0:
64,0,69921,1,0,1:0:0:0:
192,0,69921,1,0,1:0:0:0:
320,0,69921,1,0,1:0:0:0:
448,0,69998,1,0,1:0:0:0:
192,0,70074,1,0,1:0:0:0:
320,0,70151,1,0,1:0:0:0:
64,0,70228,1,0,1:0:0:0:
192,0,70228,1,0,1:0:0:0:
448,0,70228,1,0,1:0:0:0:
320,0,70305,1,0,1:0:0:0:
64,0,70382,1,0,1:0:0:0:
192,0,70382,1,0,1:0:0:0:
448,0,70382,1,0,1:0:0:0:
320,0,70459,1,0,1:0:0:0:
192,0,70536,1,0,1:0:0:0:
448,0,70536,1,0,1:0:0:0:
64,0,70613,1,0,1:0:0:0:
320,0,70690,1,0,1:0:0:0:
192,0,70767,1,0,1:0:0:0:
64,0,70844,1,0,1:0:0:0:
320,0,70844,1,0,1:0:0:0:
448,0,70844,1,0,1:0:0:0:
192,0,70921,1,0,1:0:0:0:
320,0,70998,1,0,1:0:0:0:
448,0,70998,1,0,1:0:0:0:
64,0,71074,1,0,1:0:0:0:
192,0,71151,1,0,1:0:0:0:
320,0,71151,1,0,1:0:0:0:
448,0,71151,1,0,1:0:0:0:
64,0,71228,1,0,1:0:0:0:
192,0,71305,1,0,1:0:0:0:
320,0,71305,1,0,1:0:0:0:
448,0,71382,1,0,1:0:0:0:
64,0,71459,1,0,1:0:0:0:
192,0,71459,1,0,1:0:0:0:
320,0,71459,1,0,1:0:0:0:
448,0,71536,1,0,1:0:0:0:
192,0,71613,1,0,1:0:0:0:
320,0,71613,1,0,1:0:0:0:
64,0,71690,1,0,1:0:0:0:
320,0,71767,1,0,1:0:0:0:
448,0,71767,1,0,1:0:0:0:
64,0,71844,1,0,1:0:0:0:
192,0,71844,1,0,1:0:0:0:
320,0,71921,1,0,1:0:0:0:
448,0,71921,1,0,1:0:0:0:
64,0,71998,1,0,1:0:0:0:
192,0,71998,1,0,1:0:0:0:
320,0,72074,1,0,1:0:0:0:
448,0,72074,1,0,1:0:0:0:
64,0,72151,1,0,1:0:0:0:
192,0,72228,1,0,1:0:0:0:
320,0,72228,1,0,1:0:0:0:
64,0,72305,1,0,1:0:0:0:
448,0,72305,1,0,1:0:0:0:
192,0,72382,1,0,1:0:0:0:
64,0,72459,1,0,1:0:0:0:
320,0,72536,1,0,1:0:0:0:
448,0,72536,1,0,1:0:0:0:
192,0,72613,1,0,1:0:0:0:
320,0,72690,1,0,1:0:0:0:
448,0,72690,1,0,1:0:0:0:
64,0,72767,1,0,1:0:0:0:
192,0,72844,1,0,1:0:0:0:
320,0,72844,1,0,1:0:0:0:
448,0,72844,1,0,1:0:0:0:
64,0,72921,1,0,1:0:0:0:
320,0,72998,1,0,1:0:0:0:
448,0,72998,1,0,1:0:0:0:
64,0,73074,1,0,1:0:0:0:
320,0,73151,1,0,1:0:0:0:
448,0,73151,1,0,1:0:0:0:
64,0,73228,1,0,1:0:0:0:
192,0,73228,1,0,1:0:0:0:
320,0,73305,1,0,1:0:0:0:
448,0,73305,1,0,1:0:0:0:
192,0,73382,1,0,1:0:0:0:
64,0,73459,1,0,1:0:0:0:
448,0,73459,1,0,1:0:0:0:
192,0,73536,1,0,1:0:0:0:
320,0,73536,1,0,1:0:0:0:
64,0,73613,1,0,1:0:0:0:
448,0,73613,1,0,1:0:0:0:
192,0,73690,1,0,1:0:0:0:
320,0,73690,1,0,1:0:0:0:
64,0,73767,1,0,1:0:0:0:
448,0,73767,1,0,1:0:0:0:
192,0,73844,1,0,1:0:0:0:
64,0,73921,1,0,1:0:0:0:
448,0,73921,1,0,1:0:0:0:
192,0,73998,1,0,1:0:0:0:
64,0,74074,1,0,1:0:0:0:
320,0,74074,1,0,1:0:0:0:
192,0,74151,1,0,1:0:0:0:
448,0,74151,1,0,1:0:0:0:
64,0,74228,1,0,1:0:0:0:
320,0,74228,1,0,1:0:0:0:
448,0,74305,1,0,1:0:0:0:
320,0,74382,1,0,1:0:0:0:
192,0,74459,1,0,1:0:0:0:
64,0,74536,1,0,1:0:0:0:
448,0,74536,1,0,1:0:0:0:
192,0,74613,1,0,1:0:0:0:
320,0,74690,1,0,1:0:0:0:
448,0,74767,1,0,1:0:0:0:
64,0,74844,1,0,1:0:0:0:
192,0,74844,1,0,1:0:0:0:
320,0,74844,1,0,1:0:0:0:
448,0,74921,1,0,1:0:0:0:
64,0,74998,1,0,1:0:0:0:
192,0,74998,1,0,1:0:0:0:
320,0,75074,1,0,1:0:0:0:
64,0,75151,1,0,1:0:0:0:
192,0,75151,1,0,1:0:0:0:
448,0,75151,1,0,1:0:0:0:
320,0,75228,1,0,1:0:0:0:
192,0,75305,1,0,1:0:0:0:
448,0,75305,1,0,1:0:0:0:
64,0,75382,1,0,1:0:0:0:
192,0,75459,1,0,1:0:0:0:
320,0,75459,1,0,1:0:0:0:
448,0,75459,1,0,1:0:0:0:
64,0,75536,1,0,1:0:0:0:
192,0,75613,1,0,1:0:0:0:
320,0,75613,1,0,1:0:0:0:
448,0,75690,1,0,1:0:0:0:
64,0,75767,1,0,1:0:0:0:
192,0,75767,1,0,1:0:0:0:
320,0,75767,1,0,1:0:0:0:
448,0,75844,1,0,1:0:0:0:
64,0,75921,1,0,1:0:0:0:
192,0,75921,1,0,1:0:0:0:
320,0,75998,1,0,1:0:0:0:
64,0,76074,1,0,1:0:0:0:
192,0,76074,1,0,1:0:0:0:
448,0,76074,1,0,1:0:0:0:
320,0,76151,1,0,1:0:0:0:
64,0,76228,1,0,1:0:0:0:
448,0,76228,1,0,1:0:0:0:
192,0,76305,1,0,1:0:0:0:
64,0,76382,1,0,1:0:0:0:
320,0,76382,1,0,1:0:0:0:
448,0,76382,1,0,1:0:0:0:
192,0,76459,1,0,1:0:0:0:
320,0,76536,1,0,1:0:0:0:
448,0,76536,1,0,1:0:0:0:
192,0,76613,1,0,1:0:0:0:
64,0,76690,1,0,1:0:0:0:
320,0,76690,1,0,1:0:0:0:
448,0,76690,1,0,1:0:0:0:
192,0,76767,1,0,1:0:0:0:
64,0,76844,1,0,1:0:0:0:
448,0,76844,1,0,1:0:0:0:
192,0,76921,1,0,1:0:0:0:
320,0,76921,1,0,1:0:0:0:
64,0,76998,1,0,1:0:0:0:
192,0,77074,1,0,1:0:0:0:
64,0,77151,1,0,1:0:0:0:
320,0,77151,1,0,1:0:0:0:
448,0,77151,1,0,1:0:0:0:
192,0,77228,1,0,1:0:0:0:
64,0,77305,1,0,1:0:0:0:
320,0,77305,1,0,1:0:0:0:
448,0,77305,1,0,1:0:0:0:
192,0,77382,1,0,1:0:0:0:
320,0,77459,1,0,1:0:0:0:
448,0,77459,1,0,1:0:0:0:
64,0,77536,1,0,1:0:0:0:
192,0,77536,1,0,1:0:0:0:
320,0,77613,1,0,1:0:0:0:
448,0,77613,1,0,1:0:0:0:
64,0,77690,1,0,1:0:0:0:
192,0,77767,1,0,1:0:0:0:
448,0,77767,1,0,1:0:0:0:
64,0,77844,1,0,1:0:0:0:
320,0,77921,1,0,1:0:0:0:
448,0,77921,1,0,1:0:0:0:
64,0,77997,1,0,1:0:0:0:
320,0,78074,1,0,1:0:0:0:
448,0,78074,1,0,1:0:0:0:
64,0,78151,1,0,1:0:0:0:
192,0,78151,1,0,1:0:0:0:
320,0,78228,1,0,1:0:0:0:
448,0,78228,1,0,1:0:0:0:
192,0,78305,1,0,1:0:0:0:
64,0,78382,1,0,1:0:0:0:
448,0,78382,1,0,1:0:0:0:
320,0,78459,1,0,1:0:0:0:
64,0,78536,128,0,78574:0:0:0:0:
192,0,78536,128,0,78574:0:0:0:0:
448,0,78536,128,0,78574:0:0:0:0:
320,0,78613,1,0,1:0:0:0:
64,0,78690,1,0,1:0:0:0:
192,0,78767,128,0,78805:0:0:0:0:
320,0,78767,128,0,78805:0:0:0:0:
448,0,78767,128,0,78805:0:0:0:0:
64,0,78844,1,0,1:0:0:0:
320,0,78921,1,0,1:0:0:0:
64,0,78997,128,0,79036:0:0:0:0:
192,0,78997,128,0,79036:0:0:0:0:
448,0,78997,128,0,79036:0:0:0:0:
320,0,79074,1,0,1:0:0:0:
64,0,79151,128,0,79190:0:0:0:0:
192,0,79151,128,0,79190:0:0:0:0:
448,0,79151,128,0,79190:0:0:0:0:
320,0,79228,1,0,1:0:0:0:
64,0,79305,1,0,1:0:0:0:
448,0,79305,1,0,1:0:0:0:
192,0,79382,1,0,1:0:0:0:
64,0,79459,1,0,1:0:0:0:
320,0,79459,1,0,1:0:0:0:
448,0,79459,1,0,1:0:0:0:
192,0,79536,1,0,1:0:0:0:
64,0,79613,1,0,1:0:0:0:
320,0,79613,1,0,1:0:0:0:
448,0,79690,1,0,1:0:0:0:
64,0,79767,1,0,1:0:0:0:
192,0,79767,1,0,1:0:0:0:
320,0,79767,1,0,1:0:0:0:
448,0,79844,1,0,1:0:0:0:
192,0,79921,1,0,1:0:0:0:
320,0,79997,1,0,1:0:0:0:
64,0,80074,1,0,1:0:0:0:
192,0,80074,1,0,1:0:0:0:
448,0,80074,1,0,1:0:0:0:
320,0,80151,1,0,1:0:0:0:
64,0,80228,1,0,1:0:0:0:
192,0,80228,1,0,1:0:0:0:
448,0,80228,1,0,1:0:0:0:
320,0,80305,1,0,1:0:0:0:
192,0,80382,1,0,1:0:0:0:
448,0,80382,1,0,1:0:0:0:
64,0,80459,1,0,1:0:0:0:
320,0,80536,1,0,1:0:0:0:
192,0,80613,1,0,1:0:0:0:
64,0,80690,1,0,1:0:0:0:
320,0,80690,1,0,1:0:0:0:
448,0,80690,1,0,1:0:0:0:
192,0,80767,1,0,1:0:0:0:
320,0,80844,1,0,1:0:0:0:
448,0,80844,1,0,1:0:0:0:
64,0,80921,1,0,1:0:0:0:
192,0,80997,1,0,1:0:0:0:
320,0,80997,1,0,1:0:0:0:
448,0,80997,1,0,1:0:0:0:
64,0,81074,1,0,1:0:0:0:
192,0,81151,1,0,1:0:0:0:
320,0,81151,1,0,1:0:0:0:
448,0,81228,1,0,1:0:0:0:
64,0,81305,1,0,1:0:0:0:
192,0,81305,1,0,1:0:0:0:
320,0,81305,1,0,1:0:0:0:
448,0,81382,1,0,1:0:0:0:
192,0,81459,1,0,1:0:0:0:
320,0,81459,1,0,1:0:0:0:
64,0,81536,1,0,1:0:0:0:
192,0,81613,1,0,1:0:0:0:
320,0,81613,1,0,1:0:0:0:
448,0,81613,1,0,1:0:0:0:
64,0,81690,1,0,1:0:0:0:
320,0,81767,1,0,1:0:0:0:
448,0,81767,1,0,1:0:0:0:
64,0,81844,1,0,1:0:0:0:
192,0,81844,1,0,1:0:0:0:
320,0,81921,1,0,1:0:0:0:
448,0,81921,1,0,1:0:0:0:
64,0,81997,1,0,1:0:0:0:
192,0,82074,1,0,1:0:0:0:
320,0,82074,1,0,1:0:0:0:
64,0,82151,1,0,1:0:0:0:
448,0,82151,1,0,1:0:0:0:
320,0,82228,1,0,1:0:0:0:
448,0,82305,1,0,1:0:0:0:
64,0,82382,1,0,1:0:0:0:
192,0,82382,1,0,1:0:0:0:
320,0,82459,1,0,1:0:0:0:
192,0,82536,1,0,1:0:0:0:
448,0,82536,1,0,1:0:0:0:
64,0,82613,1,0,1:0:0:0:
192,0,82690,1,0,1:0:0:0:
320,0,82690,1,0,1:0:0:0:
448,0,82690,1,0,1:0:0:0:
64,0,82767,1,0,1:0:0:0:
320,0,82844,1,0,1:0:0:0:
448,0,82844,1,0,1:0:0:0:
64,0,82921,1,0,1:0:0:0:
320,0,82997,1,0,1:0:0:0:
448,0,82997,1,0,1:0:0:0:
64,0,83074,1,0,1:0:0:0:
192,0,83074,1,0,1:0:0:0:
320,0,83151,1,0,1:0:0:0:
448,0,83151,1,0,1:0:0:0:
192,0,83228,1,0,1:0:0:0:
64,0,83305,1,0,1:0:0:0:
448,0,83305,1,0,1:0:0:0:
192,0,83382,1,0,1:0:0:0:
320,0,83382,1,0,1:0:0:0:
64,0,83459,1,0,1:0:0:0:
448,0,83459,1,0,1:0:0:0:
192,0,83536,1,0,1:0:0:0:
320,0,83536,1,0,1:0:0:0:
64,0,83613,1,0,1:0:0:0:
448,0,83613,1,0,1:0:0:0:
192,0,83690,1,0,1:0:0:0:
64,0,83767,1,0,1:0:0:0:
320,0,83767,1,0,1:0:0:0:
448,0,83767,1,0,1:0:0:0:
192,0,83844,1,0,1:0:0:0:
64,0,83921,1,0,1:0:0:0:
320,0,83921,1,0,1:0:0:0:
448,0,83997,1,0,1:0:0:0:
64,0,84074,1,0,1:0:0:0:
192,0,84074,1,0,1:0:0:0:
320,0,84074,1,0,1:0:0:0:
448,0,84151,1,0,1:0:0:0:
320,0,84228,1,0,1:0:0:0:
192,0,84305,1,0,1:0:0:0:
320,0,84382,1,0,1:0:0:0:
448,0,84382,1,0,1:0:0:0:
192,0,84459,1,0,1:0:0:0:
64,0,84536,1,0,1:0:0:0:
320,0,84536,1,0,1:0:0:0:
448,0,84536,1,0,1:0:0:0:
192,0,84613,1,0,1:0:0:0:
64,0,84690,1,0,1:0:0:0:
320,0,84690,1,0,1:0:0:0:
448,0,84690,1,0,1:0:0:0:
192,0,84767,1,0,1:0:0:0:
64,0,84844,1,0,1:0:0:0:
320,0,84844,1,0,1:0:0:0:
448,0,84844,1,0,1:0:0:0:
192,0,84921,1,0,1:0:0:0:
64,0,84997,1,0,1:0:0:0:
448,0,84997,1,0,1:0:0:0:
320,0,85074,1,0,1:0:0:0:
64,0,85151,1,0,1:0:0:0:
192,0,85151,1,0,1:0:0:0:
448,0,85151,1,0,1:0:0:0:
320,0,85228,1,0,1:0:0:0:
64,0,85305,1,0,1:0:0:0:
192,0,85305,1,0,1:0:0:0:
448,0,85382,1,0,1:0:0:0:
64,0,85459,1,0,1:0:0:0:
320,0,85459,1,0,1:0:0:0:
192,0,85536,1,0,1:0:0:0:
64,0,85613,1,0,1:0:0:0:
320,0,85613,1,0,1:0:0:0:
448,0,85613,1,0,1:0:0:0:
192,0,85690,1,0,1:0:0:0:
64,0,85767,1,0,1:0:0:0:
448,0,85767,1,0,1:0:0:0:
320,0,85844,1,0,1:0:0:0:
64,0,85921,1,0,1:0:0:0:
192,0,85921,1,0,1:0:0:0:
448,0,85921,1,0,1:0:0:0:
320,0,85997,1,0,1:0:0:0:
64,0,86074,1,0,1:0:0:0:
448,0,86074,1,0,1:0:0:0:
192,0,86151,1,0,1:0:0:0:
64,0,86228,1,0,1:0:0:0:
320,0,86228,1,0,1:0:0:0:
448,0,86228,1,0,1:0:0:0:
192,0,86305,1,0,1:0:0:0:
320,0,86382,1,0,1:0:0:0:
448,0,86382,1,0,1:0:0:0:
192,0,86459,1,0,1:0:0:0:
64,0,86536,1,0,1:0:0:0:
320,0,86536,1,0,1:0:0:0:
448,0,86536,1,0,1:0:0:0:
192,0,86613,1,0,1:0:0:0:
64,0,86690,1,0,1:0:0:0:
448,0,86690,1,0,1:0:0:0:
192,0,86767,1,0,1:0:0:0:
320,0,86844,1,0,1:0:0:0:
448,0,86844,1,0,1:0:0:0:
64,0,86921,1,0,1:0:0:0:
192,0,86997,1,0,1:0:0:0:
320,0,86997,1,0,1:0:0:0:
448,0,87074,1,0,1:0:0:0:
64,0,87151,1,0,1:0:0:0:
192,0,87151,1,0,1:0:0:0:
320,0,87151,1,0,1:0:0:0:
448,0,87228,1,0,1:0:0:0:
64,0,87305,1,0,1:0:0:0:
320,0,87305,1,0,1:0:0:0:
192,0,87382,1,0,1:0:0:0:
64,0,87459,1,0,1:0:0:0:
320,0,87459,1,0,1:0:0:0:
448,0,87459,1,0,1:0:0:0:
192,0,87536,1,0,1:0:0:0:
320,0,87613,1,0,1:0:0:0:
448,0,87613,1,0,1:0:0:0:
64,0,87690,1,0,1:0:0:0:
192,0,87690,1,0,1:0:0:0:
320,0,87767,1,0,1:0:0:0:
448,0,87767,1,0,1:0:0:0:
64,0,87844,1,0,1:0:0:0:
192,0,87844,1,0,1:0:0:0:
320,0,87921,1,0,1:0:0:0:
448,0,87921,1,0,1:0:0:0:
64,0,87997,1,0,1:0:0:0:
192,0,87997,1,0,1:0:0:0:
320,0,88074,1,0,1:0:0:0:
448,0,88074,1,0,1:0:0:0:
64,0,88151,1,0,1:0:0:0:
192,0,88151,1,0,1:0:0:0:
320,0,88228,1,0,1:0:0:0:
448,0,88228,1,0,1:0:0:0:
192,0,88305,1,0,1:0:0:0:
64,0,88382,1,0,1:0:0:0:
320,0,88382,1,0,1:0:0:0:
448,0,88382,1,0,1:0:0:0:
192,0,88459,1,0,1:0:0:0:
320,0,88536,1,0,1:0:0:0:
448,0,88613,1,0,1:0:0:0:
64,0,88690,1,0,1:0:0:0:
192,0,88690,1,0,1:0:0:0:
320,0,88690,1,0,1:0:0:0:
448,0,88767,1,0,1:0:0:0:
64,0,88844,1,0,1:0:0:0:
192,0,88844,1,0,1:0:0:0:
320,0,88844,1,0,1:0:0:0:
448,0,88921,1,0,1:0:0:0:
64,0,88997,1,0,1:0:0:0:
192,0,88997,1,0,1:0:0:0:
320,0,88997,1,0,1:0:0:0:
448,0,89074,1,0,1:0:0:0:
64,0,89151,1,0,1:0:0:0:
192,0,89151,1,0,1:0:0:0:
320,0,89228,1,0,1:0:0:0:
64,0,89305,1,0,1:0:0:0:
192,0,89305,1,0,1:0:0:0:
448,0,89305,1,0,1:0:0:0:
320,0,89382,1,0,1:0:0:0:
192,0,89459,1,0,1:0:0:0:
448,0,89459,1,0,1:0:0:0:
64,0,89536,1,0,1:0:0:0:
192,0,89613,1,0,1:0:0:0:
320,0,89613,1,0,1:0:0:0:
448,0,89613,1,0,1:0:0:0:
64,0,89690,1,0,1:0:0:0:
320,0,89767,1,0,1:0:0:0:
192,0,89844,1,0,1:0:0:0:
64,0,89921,1,0,1:0:0:0:
320,0,89921,1,0,1:0:0:0:
448,0,89921,1,0,1:0:0:0:
192,0,89997,1,0,1:0:0:0:
64,0,90074,1,0,1:0:0:0:
320,0,90074,1,0,1:0:0:0:
448,0,90074,1,0,1:0:0:0:
192,0,90151,1,0,1:0:0:0:
64,0,90228,1,0,1:0:0:0:
320,0,90228,1,0,1:0:0:0:
448,0,90305,1,0,1:0:0:0:
192,0,90382,1,0,1:0:0:0:
320,0,90459,1,0,1:0:0:0:
64,0,90536,1,0,1:0:0:0:
192,0,90536,1,0,1:0:0:0:
448,0,90536,1,0,1:0:0:0:
320,0,90613,1,0,1:0:0:0:
64,0,90690,1,0,1:0:0:0:
192,0,90690,1,0,1:0:0:0:
448,0,90767,1,0,1:0:0:0:
64,0,90844,1,0,1:0:0:0:
192,0,90844,1,0,1:0:0:0:
320,0,90844,1,0,1:0:0:0:
448,0,90921,1,0,1:0:0:0:
192,0,90997,1,0,1:0:0:0:
320,0,90997,1,0,1:0:0:0:
64,0,91074,1,0,1:0:0:0:
192,0,91151,1,0,1:0:0:0:
320,0,91151,1,0,1:0:0:0:
448,0,91151,1,0,1:0:0:0:
64,0,91228,1,0,1:0:0:0:
192,0,91305,1,0,1:0:0:0:
320,0,91305,1,0,1:0:0:0:
448,0,91382,1,0,1:0:0:0:
64,0,91459,1,0,1:0:0:0:
192,0,91459,1,0,1:0:0:0:
320,0,91536,1,0,1:0:0:0:
448,0,91536,1,0,1:0:0:0:
64,0,91613,1,0,1:0:0:0:
192,0,91613,1,0,1:0:0:0:
320,0,91690,1,0,1:0:0:0:
448,0,91690,1,0,1:0:0:0:
64,0,91767,1,0,1:0:0:0:
192,0,91767,1,0,1:0:0:0:
448,0,91844,1,0,1:0:0:0:
192,0,91921,1,0,1:0:0:0:
320,0,91921,1,0,1:0:0:0:
64,0,91997,1,0,1:0:0:0:
448,0,91997,1,0,1:0:0:0:
320,0,92074,1,0,1:0:0:0:
448,0,92151,1,0,1:0:0:0:
64,0,92228,1,0,1:0:0:0:
192,0,92228,1,0,1:0:0:0:
320,0,92305,1,0,1:0:0:0:
64,0,92382,1,0,1:0:0:0:
192,0,92382,1,0,1:0:0:0:
448,0,92459,1,0,1:0:0:0:
64,0,92536,1,0,1:0:0:0:
192,0,92536,1,0,1:0:0:0:
320,0,92536,1,0,1:0:0:0:
448,0,92613,1,0,1:0:0:0:
64,0,92690,1,0,1:0:0:0:
192,0,92690,1,0,1:0:0:0:
448,0,92767,1,0,1:0:0:0:
64,0,92844,1,0,1:0:0:0:
192,0,92844,1,0,1:0:0:0:
320,0,92921,1,0,1:0:0:0:
448,0,92921,1,0,1:0:0:0:
64,0,92997,1,0,1:0:0:0:
192,0,92997,1,0,1:0:0:0:
320,0,93074,1,0,1:0:0:0:
64,0,93151,1,0,1:0:0:0:
448,0,93151,1,0,1:0:0:0:
192,0,93228,1,0,1:0:0:0:
320,0,93228,1,0,1:0:0:0:
64,0,93305,1,0,1:0:0:0:
448,0,93305,1,0,1:0:0:0:
192,0,93382,1,0,1:0:0:0:
320,0,93382,1,0,1:0:0:0:
64,0,93459,1,0,1:0:0:0:
448,0,93459,1,0,1:0:0:0:
320,0,93536,1,0,1:0:0:0:
64,0,93613,1,0,1:0:0:0:
448,0,93613,1,0,1:0:0:0:
320,0,93690,1,0,1:0:0:0:
192,0,93767,1,0,1:0:0:0:
448,0,93767,1,0,1:0:0:0:
64,0,93844,1,0,1:0:0:0:
320,0,93844,1,0,1:0:0:0:
192,0,93921,1,0,1:0:0:0:
448,0,93921,1,0,1:0:0:0:
64,0,93997,1,0,1:0:0:0:
192,0,94074,1,0,1:0:0:0:
320,0,94151,1,0,1:0:0:0:
64,0,94228,1,0,1:0:0:0:
448,0,94228,1,0,1:0:0:0:
320,0,94305,1,0,1:0:0:0:
192,0,94382,1,0,1:0:0:0:
64,0,94459,1,0,1:0:0:0:
192,0,94536,1,0,1:0:0:0:
320,0,94536,1,0,1:0:0:0:
448,0,94536,1,0,1:0:0:0:
64,0,94613,1,0,1:0:0:0:
320,0,94690,1,0,1:0:0:0:
448,0,94690,1,0,1:0:0:0:
192,0,94767,1,0,1:0:0:0:
64,0,94844,1,0,1:0:0:0:
320,0,94844,1,0,1:0:0:0:
448,0,94844,1,0,1:0:0:0:
192,0,94921,1,0,1:0:0:0:
64,0,94997,1,0,1:0:0:0:
320,0,94997,1,0,1:0:0:0:
448,0,95074,1,0,1:0:0:0:
64,0,95151,1,0,1:0:0:0:
192,0,95151,1,0,1:0:0:0:
320,0,95151,1,0,1:0:0:0:
448,0,95228,1,0,1:0:0:0:
192,0,95305,1,0,1:0:0:0:
320,0,95305,1,0,1:0:0:0:
64,0,95382,1,0,1:0:0:0:
192,0,95459,1,0,1:0:0:0:
320,0,95459,1,0,1:0:0:0:
448,0,95459,1,0,1:0:0:0:
64,0,95536,1,0,1:0:0:0:
320,0,95613,1,0,1:0:0:0:
448,0,95613,1,0,1:0:0:0:
192,0,95690,1,0,1:0:0:0:
64,0,95767,1,0,1:0:0:0:
320,0,95767,1,0,1:0:0:0:
448,0,95767,1,0,1:0:0:0:
192,0,95844,1,0,1:0:0:0:
64,0,95921,1,0,1:0:0:0:
448,0,95921,1,0,1:0:0:0:
320,0,95997,1,0,1:0:0:0:
64,0,96074,1,0,1:0:0:0:
192,0,96074,1,0,1:0:0:0:
448,0,96074,1,0,1:0:0:0:
320,0,96151,1,0,1:0:0:0:
64,0,96228,1,0,1:0:0:0:
192,0,96228,1,0,1:0:0:0:
320,0,96305,1,0,1:0:0:0:
64,0,96382,1,0,1:0:0:0:
192,0,96382,1,0,1:0:0:0:
448,0,96382,1,0,1:0:0:0:
320,0,96459,1,0,1:0:0:0:
64,0,96536,1,0,1:0:0:0:
448,0,96536,1,0,1:0:0:0:
192,0,96613,1,0,1:0:0:0:
320,0,96613,1,0,1:0:0:0:
448,0,96690,1,0,1:0:0:0:
320,0,96767,1,0,1:0:0:0:
64,0,96844,1,0,1:0:0:0:
192,0,96844,1,0,1:0:0:0:
448,0,96844,1,0,1:0:0:0:
320,0,96921,1,0,1:0:0:0:
64,0,96997,1,0,1:0:0:0:
192,0,96997,1,0,1:0:0:0:
448,0,96997,1,0,1:0:0:0:
320,0,97074,1,0,1:0:0:0:
64,0,97151,1,0,1:0:0:0:
192,0,97151,1,0,1:0:0:0:
320,0,97228,1,0,1:0:0:0:
448,0,97228,1,0,1:0:0:0:
64,0,97305,1,0,1:0:0:0:
192,0,97305,1,0,1:0:0:0:
448,0,97382,1,0,1:0:0:0:
64,0,97459,1,0,1:0:0:0:
320,0,97459,1,0,1:0:0:0:
448,0,97536,1,0,1:0:0:0:
64,0,97613,1,0,1:0:0:0:
192,0,97613,1,0,1:0:0:0:
448,0,97690,1,0,1:0:0:0:
64,0,97767,1,0,1:0:0:0:
192,0,97767,1,0,1:0:0:0:
320,0,97844,1,0,1:0:0:0:
448,0,97844,1,0,1:0:0:0:
64,0,97921,1,0,1:0:0:0:
192,0,97921,1,0,1:0:0:0:
320,0,97997,1,0,1:0:0:0:
64,0,98074,1,0,1:0:0:0:
448,0,98074,1,0,1:0:0:0:
192,0,98151,1,0,1:0:0:0:
64,0,98228,128,0,98267:0:0:0:0:
320,0,98228,128,0,98267:0:0:0:0:
448,0,98228,128,0,98267:0:0:0:0:
192,0,98305,1,0,1:0:0:0:
448,0,98382,1,0,1:0:0:0:
64,0,98459,128,0,98497:0:0:0:0:
192,0,98459,128,0,98497:0:0:0:0:
320,0,98459,128,0,98497:0:0:0:0:
448,0,98536,1,0,1:0:0:0:
192,0,98613,1,0,1:0:0:0:
64,0,98690,128,0,98728:0:0:0:0:
320,0,98690,128,0,98728:0:0:0:0:
448,0,98690,128,0,98728:0:0:0:0:
192,0,98767,1,0,1:0:0:0:
64,0,98844,1,0,1:0:0:0:
320,0,98844,1,0,1:0:0:0:
448,0,98844,1,0,1:0:0:0:
192,0,98921,1,0,1:0:0:0:
320,0,98997,1,0,1:0:0:0:
448,0,99074,1,0,1:0:0:0:
64,0,99151,1,0,1:0:0:0:
192,0,99151,1,0,1:0:0:0:
320,0,99151,1,0,1:0:0:0:
448,0,99228,1,0,1:0:0:0:
320,0,99305,1,0,1:0:0:0:
64,0,99382,1,0,1:0:0:0:
192,0,99459,1,0,1:0:0:0:
320,0,99459,1,0,1:0:0:0:
448,0,99459,1,0,1:0:0:0:
64,0,99536,1,0,1:0:0:0:
192,0,99613,1,0,1:0:0:0:
320,0,99690,1,0,1:0:0:0:
64,0,99767,1,0,1:0:0:0:
192,0,99767,1,0,1:0:0:0:
448,0,99767,1,0,1:0:0:0:
320,0,99844,1,0,1:0:0:0:
64,0,99921,1,0,1:0:0:0:
192,0,99921,1,0,1:0:0:0:
448,0,99921,1,0,1:0:0:0:
320,0,99997,1,0,1:0:0:0:
64,0,100074,1,0,1:0:0:0:
192,0,100074,1,0,1:0:0:0:
448,0,100151,1,0,1:0:0:0:
320,0,100228,1,0,1:0:0:0:
64,0,100305,1,0,1:0:0:0:
192,0,100382,1,0,1:0:0:0:
320,0,100382,1,0,1:0:0:0:
448,0,100382,1,0,1:0:0:0:
64,0,100459,1,0,1:0:0:0:
320,0,100536,1,0,1:0:0:0:
448,0,100613,1,0,1:0:0:0:
64,0,100690,1,0,1:0:0:0:
192,0,100690,1,0,1:0:0:0:
320,0,100690,1,0,1:0:0:0:
448,0,100767,1,0,1:0:0:0:
192,0,100844,1,0,1:0:0:0:
64,0,100921,1,0,1:0:0:0:
192,0,100997,1,0,1:0:0:0:
320,0,100997,1,0,1:0:0:0:
448,0,100997,1,0,1:0:0:0:
64,0,101074,1,0,1:0:0:0:
320,0,101151,1,0,1:0:0:0:
192,0,101228,1,0,1:0:0:0:
64,0,101305,1,0,1:0:0:0:
320,0,101305,1,0,1:0:0:0:
448,0,101305,1,0,1:0:0:0:
192,0,101382,1,0,1:0:0:0:
448,0,101459,1,0,1:0:0:0:
320,0,101536,1,0,1:0:0:0:
64,0,101613,1,0,1:0:0:0:
192,0,101613,1,0,1:0:0:0:
448,0,101690,1,0,1:0:0:0:
320,0,101767,1,0,1:0:0:0:
192,0,101844,1,0,1:0:0:0:
320,0,101921,1,0,1:0:0:0:
448,0,101921,1,0,1:0:0:0:
64,0,101997,1,0,1:0:0:0:
192,0,102074,1,0,1:0:0:0:
320,0,102074,1,0,1:0:0:0:
448,0,102074,1,0,1:0:0:0:
64,0,102151,1,0,1:0:0:0:
192,0,102228,1,0,1:0:0:0:
320,0,102228,1,0,1:0:0:0:
448,0,102305,1,0,1:0:0:0:
64,0,102382,1,0,1:0:0:0:
192,0,102382,1,0,1:0:0:0:
320,0,102382,1,0,1:0:0:0:
448,0,102459,1,0,1:0:0:0:
64,0,102536,1,0,1:0:0:0:
320,0,102536,1,0,1:0:0:0:
192,0,102613,1,0,1:0:0:0:
320,0,102690,1,0,1:0:0:0:
64,0,102767,1,0,1:0:0:0:
320,0,102844,1,0,1:0:0:0:
448,0,102844,1,0,1:0:0:0:
192,0,102921,1,0,1:0:0:0:
320,0,102997,1,0,1:0:0:0:
448,0,103074,1,0,1:0:0:0:
64,0,103151,128,0,103190:0:0:0:0:
192,0,103151,128,0,103190:0:0:0:0:
320,0,103151,128,0,103190:0:0:0:0:
448,0,103228,1,0,1:0:0:0:
192,0,103305,1,0,1:0:0:0:
64,0,103382,128,0,103421:0:0:0:0:
320,0,103382,128,0,103421:0:0:0:0:
448,0,103382,128,0,103421:0:0:0:0:
192,0,103459,1,0,1:0:0:0:
320,0,103536,1,0,1:0:0:0:
64,0,103613,128,0,103651:0:0:0:0:
192,0,103613,128,0,103651:0:0:0:0:
448,0,103613,128,0,103651:0:0:0:0:
320,0,103690,1,0,1:0:0:0:
64,0,103767,128,0,103805:0:0:0:0:
192,0,103767,128,0,103805:0:0:0:0:
448,0,103767,128,0,103805:0:0:0:0:
320,0,103844,1,0,1:0:0:0:
192,0,103921,1,0,1:0:0:0:
448,0,103921,1,0,1:0:0:0:
320,0,103997,1,0,1:0:0:0:
64,0,104074,1,0,1:0:0:0:
192,0,104074,1,0,1:0:0:0:
448,0,104151,1,0,1:0:0:0:
192,0,104228,1,0,1:0:0:0:
320,0,104305,1,0,1:0:0:0:
64,0,104382,1,0,1:0:0:0:
192,0,104382,1,0,1:0:0:0:
448,0,104459,1,0,1:0:0:0:
192,0,104536,1,0,1:0:0:0:
320,0,104613,1,0,1:0:0:0:
64,0,104690,1,0,1:0:0:0:
192,0,104690,1,0,1:0:0:0:
448,0,104690,1,0,1:0:0:0:
320,0,104767,1,0,1:0:0:0:
64,0,104844,1,0,1:0:0:0:
192,0,104844,1,0,1:0:0:0:
448,0,104844,1,0,1:0:0:0:
320,0,104921,1,0,1:0:0:0:
64,0,104997,1,0,1:0:0:0:
192,0,104997,1,0,1:0:0:0:
448,0,105074,1,0,1:0:0:0:
192,0,105151,1,0,1:0:0:0:
320,0,105228,1,0,1:0:0:0:
64,0,105305,1,0,1:0:0:0:
192,0,105305,1,0,1:0:0:0:
448,0,105305,1,0,1:0:0:0:
320,0,105382,1,0,1:0:0:0:
192,0,105459,1,0,1:0:0:0:
64,0,105536,1,0,1:0:0:0:
192,0,105613,1,0,1:0:0:0:
320,0,105613,1,0,1:0:0:0:
448,0,105613,1,0,1:0:0:0:
64,0,105690,1,0,1:0:0:0:
192,0,105767,1,0,1:0:0:0:
64,0,105844,1,0,1:0:0:0:
320,0,105844,1,0,1:0:0:0:
448,0,105844,1,0,1:0:0:0:
192,0,105921,1,0,1:0:0:0:
320,0,105997,1,0,1:0:0:0:
64,0,106074,1,0,1:0:0:0:
192,0,106074,1,0,1:0:0:0:
448,0,106074,1,0,1:0:0:0:
320,0,106151,1,0,1:0:0:0:
64,0,106228,1,0,1:0:0:0:
192,0,106228,1,0,1:0:0:0:
448,0,106228,1,0,1:0:0:0:
320,0,106305,1,0,1:0:0:0:
192,0,106382,1,0,1:0:0:0:
448,0,106382,1,0,1:0:0:0:
64,0,106459,1,0,1:0:0:0:
192,0,106536,1,0,1:0:0:0:
320,0,106536,1,0,1:0:0:0:
448,0,106536,1,0,1:0:0:0:
64,0,106613,1,0,1:0:0:0:
192,0,106690,1,0,1:0:0:0:
320,0,106690,1,0,1:0:0:0:
448,0,106767,1,0,1:0:0:0:
64,0,106844,1,0,1:0:0:0:
192,0,106844,1,0,1:0:0:0:
320,0,106844,1,0,1:0:0:0:
448,0,106921,1,0,1:0:0:0:
192,0,106997,1,0,1:0:0:0:
448,0,107074,1,0,1:0:0:0:
64,0,107151,1,0,1:0:0:0:
192,0,107151,1,0,1:0:0:0:
320,0,107151,1,0,1:0:0:0:
448,0,107228,1,0,1:0:0:0:
64,0,107305,1,0,1:0:0:0:
192,0,107305,1,0,1:0:0:0:
320,0,107305,1,0,1:0:0:0:
448,0,107382,1,0,1:0:0:0:
64,0,107459,1,0,1:0:0:0:
320,0,107459,1,0,1:0:0:0:
192,0,107536,1,0,1:0:0:0:
320,0,107613,1,0,1:0:0:0:
448,0,107613,1,0,1:0:0:0:
192,0,107690,1,0,1:0:0:0:
64,0,107767,1,0,1:0:0:0:
448,0,107767,1,0,1:0:0:0:
320,0,107844,1,0,1:0:0:0:
64,0,107921,1,0,1:0:0:0:
448,0,107921,1,0,1:0:0:0:
192,0,107997,1,0,1:0:0:0:
64,0,108074,1,0,1:0:0:0:
320,0,108074,1,0,1:0:0:0:
448,0,108074,1,0,1:0:0:0:
192,0,108151,1,0,1:0:0:0:
64,0,108228,1,0,1:0:0:0:
320,0,108228,1,0,1:0:0:0:
448,0,108228,1,0,1:0:0:0:
192,0,108305,1,0,1:0:0:0:
64,0,108382,1,0,1:0:0:0:
320,0,108382,1,0,1:0:0:0:
448,0,108382,1,0,1:0:0:0:
192,0,108459,1,0,1:0:0:0:
64,0,108536,1,0,1:0:0:0:
448,0,108536,1,0,1:0:0:0:
192,0,108613,1,0,1:0:0:0:
320,0,108613,1,0,1:0:0:0:
64,0,108690,1,0,1:0:0:0:
448,0,108690,1,0,1:0:0:0:
320,0,108767,1,0,1:0:0:0:
64,0,108844,1,0,1:0:0:0:
320,0,108921,1,0,1:0:0:0:
64,0,108997,1,0,1:0:0:0:
192,0,108997,1,0,1:0:0:0:
448,0,109074,1,0,1:0:0:0:
192,0,109151,1,0,1:0:0:0:
320,0,109151,1,0,1:0:0:0:
64,0,109228,1,0,1:0:0:0:
192,0,109305,1,0,1:0:0:0:
320,0,109305,1,0,1:0:0:0:
448,0,109305,1,0,1:0:0:0:
64,0,109382,1,0,1:0:0:0:
320,0,109459,1,0,1:0:0:0:
448,0,109536,1,0,1:0:0:0:
64,0,109613,1,0,1:0:0:0:
192,0,109613,1,0,1:0:0:0:
320,0,109613,1,0,1:0:0:0:
448,0,109690,1,0,1:0:0:0:
64,0,109767,1,0,1:0:0:0:
192,0,109767,1,0,1:0:0:0:
320,0,109767,1,0,1:0:0:0:
448,0,109844,1,0,1:0:0:0:
64,0,109921,1,0,1:0:0:0:
192,0,109921,1,0,1:0:0:0:
320,0,109997,1,0,1:0:0:0:
448,0,110074,1,0,1:0:0:0:
64,0,110151,1,0,1:0:0:0:
192,0,110228,1,0,1:0:0:0:
320,0,110228,1,0,1:0:0:0:
448,0,110228,1,0,1:0:0:0:
64,0,110305,1,0,1:0:0:0:
192,0,110382,1,0,1:0:0:0:
320,0,110382,1,0,1:0:0:0:
448,0,110459,1,0,1:0:0:0:
64,0,110536,1,0,1:0:0:0:
192,0,110536,1,0,1:0:0:0:
320,0,110536,1,0,1:0:0:0:
448,0,110613,1,0,1:0:0:0:
64,0,110690,1,0,1:0:0:0:
192,0,110767,1,0,1:0:0:0:
64,0,110844,1,0,1:0:0:0:
320,0,110844,1,0,1:0:0:0:
448,0,110844,1,0,1:0:0:0:
192,0,110921,1,0,1:0:0:0:
64,0,110997,1,0,1:0:0:0:
320,0,110997,1,0,1:0:0:0:
448,0,111074,1,0,1:0:0:0:
64,0,111151,1,0,1:0:0:0:
192,0,111151,1,0,1:0:0:0:
320,0,111151,1,0,1:0:0:0:
448,0,111228,1,0,1:0:0:0:
192,0,111305,1,0,1:0:0:0:
320,0,111305,1,0,1:0:0:0:
64,0,111382,1,0,1:0:0:0:
320,0,111459,1,0,1:0:0:0:
448,0,111459,1,0,1:0:0:0:
192,0,111536,1,0,1:0:0:0:
64,0,111613,1,0,1:0:0:0:
448,0,111613,1,0,1:0:0:0:
320,0,111690,1,0,1:0:0:0:
64,0,111767,1,0,1:0:0:0:
192,0,111767,1,0,1:0:0:0:
320,0,111844,1,0,1:0:0:0:
64,0,111921,1,0,1:0:0:0:
192,0,111921,1,0,1:0:0:0:
448,0,111921,1,0,1:0:0:0:
320,0,111997,1,0,1:0:0:0:
192,0,112074,1,0,1:0:0:0:
448,0,112074,1,0,1:0:0:0:
64,0,112151,1,0,1:0:0:0:
192,0,112228,1,0,1:0:0:0:
320,0,112228,1,0,1:0:0:0:
448,0,112228,1,0,1:0:0:0:
64,0,112305,1,0,1:0:0:0:
320,0,112382,1,0,1:0:0:0:
448,0,112382,1,0,1:0:0:0:
192,0,112459,1,0,1:0:0:0:
64,0,112536,1,0,1:0:0:0:
448,0,112536,1,0,1:0:0:0:
320,0,112613,1,0,1:0:0:0:
64,0,112690,1,0,1:0:0:0:
192,0,112690,1,0,1:0:0:0:
448,0,112767,1,0,1:0:0:0:
64,0,112844,1,0,1:0:0:0:
192,0,112844,1,0,1:0:0:0:
320,0,112921,1,0,1:0:0:0:
64,0,112997,1,0,1:0:0:0:
192,0,112997,1,0,1:0:0:0:
448,0,112997,1,0,1:0:0:0:
320,0,113074,1,0,1:0:0:0:
64,0,113151,1,0,1:0:0:0:
320,0,113228,1,0,1:0:0:0:
64,0,113305,1,0,1:0:0:0:
192,0,113305,1,0,1:0:0:0:
448,0,113305,1,0,1:0:0:0:
320,0,113382,1,0,1:0:0:0:
64,0,113459,1,0,1:0:0:0:
448,0,113459,1,0,1:0:0:0:
192,0,113536,1,0,1:0:0:0:
64,0,113613,1,0,1:0:0:0:
320,0,113613,1,0,1:0:0:0:
448,0,113613,1,0,1:0:0:0:
192,0,113690,1,0,1:0:0:0:
320,0,113767,1,0,1:0:0:0:
64,0,113844,1,0,1:0:0:0:
192,0,113921,1,0,1:0:0:0:
320,0,113921,1,0,1:0:0:0:
64,0,113997,1,0,1:0:0:0:
192,0,114074,1,0,1:0:0:0:
320,0,114074,1,0,1:0:0:0:
448,0,114074,1,0,1:0:0:0:
64,0,114151,1,0,1:0:0:0:
320,0,114228,1,0,1:0:0:0:
448,0,114228,1,0,1:0:0:0:
64,0,114305,1,0,1:0:0:0:
192,0,114382,1,0,1:0:0:0:
320,0,114382,1,0,1:0:0:0:
448,0,114382,1,0,1:0:0:0:
64,0,114459,1,0,1:0:0:0:
192,0,114536,1,0,1:0:0:0:
320,0,114536,1,0,1:0:0:0:
448,0,114613,1,0,1:0:0:0:
64,0,114690,1,0,1:0:0:0:
192,0,114690,1,0,1:0:0:0:
320,0,114690,1,0,1:0:0:0:
448,0,114767,1,0,1:0:0:0:
192,0,114844,1,0,1:0:0:0:
320,0,114844,1,0,1:0:0:0:
448,0,114921,1,0,1:0:0:0:
64,0,114997,1,0,1:0:0:0:
192,0,114997,1,0,1:0:0:0:
320,0,115074,1,0,1:0:0:0:
448,0,115074,1,0,1:0:0:0:
64,0,115151,1,0,1:0:0:0:
192,0,115151,1,0,1:0:0:0:
320,0,115228,1,0,1:0:0:0:
64,0,115305,1,0,1:0:0:0:
192,0,115305,1,0,1:0:0:0:
448,0,115305,1,0,1:0:0:0:
320,0,115382,1,0,1:0:0:0:
64,0,115459,1,0,1:0:0:0:
192,0,115459,1,0,1:0:0:0:
448,0,115536,1,0,1:0:0:0:
64,0,115613,1,0,1:0:0:0:
192,0,115613,1,0,1:0:0:0:
320,0,115613,1,0,1:0:0:0:
448,0,115690,1,0,1:0:0:0:
64,0,115767,1,0,1:0:0:0:
192,0,115767,1,0,1:0:0:0:
448,0,115844,1,0,1:0:0:0:
192,0,115921,1,0,1:0:0:0:
320,0,115921,1,0,1:0:0:0:
64,0,115997,1,0,1:0:0:0:
320,0,116074,1,0,1:0:0:0:
448,0,116074,1,0,1:0:0:0:
64,0,116151,1,0,1:0:0:0:
192,0,116151,1,0,1:0:0:0:
320,0,116228,1,0,1:0:0:0:
448,0,116228,1,0,1:0:0:0:
64,0,116305,1,0,1:0:0:0:
192,0,116305,1,0,1:0:0:0:
320,0,116382,1,0,1:0:0:0:
448,0,116382,1,0,1:0:0:0:
64,0,116459,1,0,1:0:0:0:
192,0,116459,1,0,1:0:0:0:
320,0,116536,1,0,1:0:0:0:
448,0,116536,1,0,1:0:0:0:
64,0,116613,1,0,1:0:0:0:
192,0,116613,1,0,1:0:0:0:
320,0,116690,1,0,1:0:0:0:
448,0,116690,1,0,1:0:0:0:
192,0,116767,1,0,1:0:0:0:
64,0,116844,1,0,1:0:0:0:
320,0,116844,1,0,1:0:0:0:
448,0,116844,1,0,1:0:0:0:
192,0,116921,1,0,1:0:0:0:
64,0,116997,1,0,1:0:0:0:
320,0,116997,1,0,1:0:0:0:
448,0,116997,1,0,1:0:0:0:
192,0,117074,1,0,1:0:0:0:
64,0,117151,1,0,1:0:0:0:
320,0,117151,1,0,1:0:0:0:
448,0,117151,1,0,1:0:0:0:
192,0,117228,1,0,1:0:0:0:
64,0,117305,1,0,1:0:0:0:
320,0,117305,1,0,1:0:0:0:
192,0,117382,1,0,1:0:0:0:
448,0,117382,1,0,1:0:0:0:
64,0,117459,1,0,1:0:0:0:
320,0,117459,1,0,1:0:0:0:
192,0,117536,1,0,1:0:0:0:
448,0,117536,1,0,1:0:0:0:
64,0,117613,1,0,1:0:0:0:
320,0,117613,1,0,1:0:0:0:
192,0,117690,1,0,1:0:0:0:
448,0,117690,1,0,1:0:0:0:
64,0,117767,1,0,1:0:0:0:
320,0,117767,1,0,1:0:0:0:
448,0,117844,1,0,1:0:0:0:
64,0,117921,128,0,117959:0:0:0:0:
192,0,117921,128,0,117959:0:0:0:0:
320,0,117921,128,0,117959:0:0:0:0:
448,0,117997,1,0,1:0:0:0:
192,0,118074,1,0,1:0:0:0:
64,0,118151,128,0,118190:0:0:0:0:
320,0,118151,128,0,118190:0:0:0:0:
448,0,118151,128,0,118190:0:0:0:0:
192,0,118228,1,0,1:0:0:0:
64,0,118305,1,0,1:0:0:0:
192,0,118382,128,0,118421:0:0:0:0:
320,0,118382,128,0,118421:0:0:0:0:
448,0,118382,128,0,118421:0:0:0:0:
64,0,118459,1,0,1:0:0:0:
192,0,118536,128,0,118574:0:0:0:0:
320,0,118536,128,0,118574:0:0:0:0:
448,0,118536,128,0,118574:0:0:0:0:
64,0,118613,1,0,1:0:0:0:
320,0,118690,1,0,1:0:0:0:
448,0,118690,1,0,1:0:0:0:
192,0,118767,1,0,1:0:0:0:
64,0,118844,1,0,1:0:0:0:
320,0,118844,1,0,1:0:0:0:
448,0,118844,1,0,1:0:0:0:
192,0,118921,1,0,1:0:0:0:
64,0,118997,1,0,1:0:0:0:
320,0,118997,1,0,1:0:0:0:
448,0,119074,1,0,1:0:0:0:
64,0,119151,1,0,1:0:0:0:
192,0,119151,1,0,1:0:0:0:
320,0,119151,1,0,1:0:0:0:
448,0,119228,1,0,1:0:0:0:
192,0,119305,1,0,1:0:0:0:
320,0,119382,1,0,1:0:0:0:
64,0,119459,1,0,1:0:0:0:
192,0,119459,1,0,1:0:0:0:
448,0,119459,1,0,1:0:0:0:
320,0,119536,1,0,1:0:0:0:
64,0,119613,1,0,1:0:0:0:
192,0,119613,1,0,1:0:0:0:
448,0,119613,1,0,1:0:0:0:
320,0,119690,1,0,1:0:0:0:
192,0,119767,1,0,1:0:0:0:
448,0,119767,1,0,1:0:0:0:
64,0,119844,1,0,1:0:0:0:
320,0,119921,1,0,1:0:0:0:
192,0,119997,1,0,1:0:0:0:
64,0,120074,1,0,1:0:0:0:
320,0,120074,1,0,1:0:0:0:
448,0,120074,1,0,1:0:0:0:
192,0,120151,1,0,1:0:0:0:
320,0,120228,1,0,1:0:0:0:
448,0,120228,1,0,1:0:0:0:
64,0,120305,1,0,1:0:0:0:
192,0,120382,1,0,1:0:0:0:
320,0,120382,1,0,1:0:0:0:
448,0,120382,1,0,1:0:0:0:
64,0,120459,1,0,1:0:0:0:
192,0,120536,1,0,1:0:0:0:
320,0,120536,1,0,1:0:0:0:
448,0,120613,1,0,1:0:0:0:
64,0,120690,1,0,1:0:0:0:
192,0,120690,1,0,1:0:0:0:
320,0,120690,1,0,1:0:0:0:
448,0,120767,1,0,1:0:0:0:
192,0,120844,1,0,1:0:0:0:
320,0,120844,1,0,1:0:0:0:
64,0,120921,1,0,1:0:0:0:
192,0,120997,1,0,1:0:0:0:
320,0,120997,1,0,1:0:0:0:
448,0,120997,1,0,1:0:0:0:
64,0,121074,1,0,1:0:0:0:
320,0,121151,1,0,1:0:0:0:
448,0,121151,1,0,1:0:0:0:
64,0,121228,1,0,1:0:0:0:
192,0,121228,1,0,1:0:0:0:
320,0,121305,1,0,1:0:0:0:
448,0,121305,1,0,1:0:0:0:
64,0,121382,1,0,1:0:0:0:
192,0,121459,1,0,1:0:0:0:
320,0,121459,1,0,1:0:0:0:
64,0,121536,1,0,1:0:0:0:
448,0,121536,1,0,1:0:0:0:
320,0,121613,1,0,1:0:0:0:
448,0,121690,1,0,1:0:0:0:
64,0,121767,1,0,1:0:0:0:
192,0,121767,1,0,1:0:0:0:
320,0,121844,1,0,1:0:0:0:
192,0,121921,1,0,1:0:0:0:
448,0,121921,1,0,1:0:0:0:
64,0,121997,1,0,1:0:0:0:
192,0,122074,1,0,1:0:0:0:
320,0,122074,1,0,1:0:0:0:
448,0,122074,1,0,1:0:0:0:
64,0,122151,1,0,1:0:0:0:
320,0,122228,1,0,1:0:0:0:
448,0,122228,1,0,1:0:0:0:
64,0,122305,1,0,1:0:0:0:
320,0,122382,1,0,1:0:0:0:
448,0,122382,1,0,1:0:0:0:
64,0,122459,1,0,1:0:0:0:
192,0,122459,1,0,1:0:0:0:
320,0,122536,1,0,1:0:0:0:
448,0,122536,1,0,1:0:0:0:
192,0,122613,1,0,1:0:0:0:
64,0,122690,1,0,1:0:0:0:
448,0,122690,1,0,1:0:0:0:
192,0,122767,1,0,1:0:0:0:
320,0,122767,1,0,1:0:0:0:
64,0,122844,1,0,1:0:0:0:
448,0,122844,1,0,1:0:0:0:
192,0,122921,1,0,1:0:0:0:
320,0,122921,1,0,1:0:0:0:
64,0,122997,1,0,1:0:0:0:
448,0,122997,1,0,1:0:0:0:
192,0,123074,1,0,1:0:0:0:
64,0,123151,1,0,1:0:0:0:
320,0,123151,1,0,1:0:0:0:
448,0,123151,1,0,1:0:0:0:
192,0,123228,1,0,1:0:0:0:
64,0,123305,1,0,1:0:0:0:
320,0,123305,1,0,1:0:0:0:
448,0,123382,1,0,1:0:0:0:
64,0,123459,1,0,1:0:0:0:
192,0,123459,1,0,1:0:0:0:
320,0,123459,1,0,1:0:0:0:
448,0,123536,1,0,1:0:0:0:
320,0,123613,1,0,1:0:0:0:
192,0,123690,1,0,1:0:0:0:
320,0,123767,1,0,1:0:0:0:
448,0,123767,1,0,1:0:0:0:
192,0,123844,1,0,1:0:0:0:
64,0,123921,1,0,1:0:0:0:
320,0,123921,1,0,1:0:0:0:
448,0,123921,1,0,1:0:0:0:
192,0,123997,1,0,1:0:0:0:
64,0,124074,1,0,1:0:0:0:
320,0,124074,1,0,1:0:0:0:
448,0,124074,1,0,1:0:0:0:
192,0,124151,1,0,1:0:0:0:
64,0,124228,1,0,1:0:0:0:
320,0,124228,1,0,1:0:0:0:
448,0,124228,1,0,1:0:0:0:
192,0,124305,1,0,1:0:0:0:
64,0,124382,1,0,1:0:0:0:
448,0,124382,1,0,1:0:0:0:
320,0,124459,1,0,1:0:0:0:
64,0,124536,1,0,1:0:0:0:
192,0,124536,1,0,1:0:0:0:
448,0,124536,1,0,1:0:0:0:
320,0,124613,1,0,1:0:0:0:
64,0,124690,1,0,1:0:0:0:
192,0,124690,1,0,1:0:0:0:
448,0,124767,1,0,1:0:0:0:
64,0,124844,1,0,1:0:0:0:
320,0,124844,1,0,1:0:0:0:
192,0,124921,1,0,1:0:0:0:
64,0,124997,1,0,1:0:0:0:
320,0,124997,1,0,1:0:0:0:
448,0,124997,1,0,1:0:0:0:
192,0,125074,1,0,1:0:0:0:
64,0,125151,1,0,1:0:0:0:
448,0,125151,1,0,1:0:0:0:
320,0,125228,1,0,1:0:0:0:
64,0,125305,1,0,1:0:0:0:
192,0,125305,1,0,1:0:0:0:
448,0,125305,1,0,1:0:0:0:
320,0,125382,1,0,1:0:0:0:
64,0,125459,1,0,1:0:0:0:
448,0,125459,1,0,1:0:0:0:
192,0,125536,1,0,1:0:0:0:
64,0,125613,1,0,1:0:0:0:
320,0,125613,1,0,1:0:0:0:
448,0,125613,1,0,1:0:0:0:
192,0,125690,1,0,1:0:0:0:
320,0,125767,1,0,1:0:0:0:
448,0,125767,1,0,1:0:0:0:
192,0,125844,1,0,1:0:0:0:
64,0,125921,1,0,1:0:0:0:
320,0,125921,1,0,1:0:0:0:
448,0,125921,1,0,1:0:0:0:
192,0,125997,1,0,1:0:0:0:
64,0,126074,1,0,1:0:0:0:
448,0,126074,1,0,1:0:0:0:
192,0,126151,1,0,1:0:0:0:
320,0,126228,1,0,1:0:0:0:
448,0,126228,1,0,1:0:0:0:
64,0,126305,1,0,1:0:0:0:
192,0,126382,1,0,1:0:0:0:
320,0,126382,1,0,1:0:0:0:
448,0,126459,1,0,1:0:0:0:
64,0,126536,1,0,1:0:0:0:
192,0,126536,1,0,1:0:0:0:
320,0,126536,1,0,1:0:0:0:
448,0,126613,1,0,1:0:0:0:
64,0,126690,1,0,1:0:0:0:
320,0,126690,1,0,1:0:0:0:
192,0,126767,1,0,1:0:0:0:
64,0,126844,1,0,1:0:0:0:
320,0,126844,1,0,1:0:0:0:
448,0,126844,1,0,1:0:0:0:
192,0,126921,1,0,1:0:0:0:
320,0,126997,1,0,1:0:0:0:
448,0,126997,1,0,1:0:0:0:
64,0,127074,1,0,1:0:0:0:
192,0,127074,1,0,1:0:0:0:
320,0,127151,1,0,1:0:0:0:
448,0,127151,1,0,1:0:0:0:
64,0,127228,1,0,1:0:0:0:
192,0,127228,1,0,1:0:0:0:
320,0,127305,1,0,1:0:0:0:
448,0,127305,1,0,1:0:0:0:
64,0,127382,1,0,1:0:0:0:
192,0,127382,1,0,1:0:0:0:
320,0,127459,1,0,1:0:0:0:
448,0,127459,1,0,1:0:0:0:
64,0,127536,1,0,1:0:0:0:
192,0,127536,1,0,1:0:0:0:
320,0,127613,1,0,1:0:0:0:
448,0,127613,1,0,1:0:0:0:
192,0,127690,1,0,1:0:0:0:
64,0,127767,1,0,1:0:0:0:
320,0,127767,1,0,1:0:0:0:
448,0,127767,1,0,1:0:0:0:
192,0,127844,1,0,1:0:0:0:
320,0,127921,1,0,1:0:0:0:
448,0,127997,1,0,1:0:0:0:
64,0,128074,1,0,1:0:0:0:
192,0,128074,1,0,1:0:0:0:
320,0,128074,1,0,1:0:0:0:
448,0,128151,1,0,1:0:0:0:
64,0,128228,1,0,1:0:0:0:
192,0,128228,1,0,1:0:0:0:
320,0,128228,1,0,1:0:0:0:
448,0,128305,1,0,1:0:0:0:
64,0,128382,1,0,1:0:0:0:
192,0,128382,1,0,1:0:0:0:
320,0,128382,1,0,1:0:0:0:
448,0,128459,1,0,1:0:0:0:
320,0,128536,1,0,1:0:0:0:
192,0,128613,1,0,1:0:0:0:
64,0,128690,1,0,1:0:0:0:
448,0,128690,1,0,1:0:0:0:
320,0,128767,1,0,1:0:0:0:
192,0,128844,1,0,1:0:0:0:
64,0,128921,1,0,1:0:0:0:
320,0,128997,1,0,1:0:0:0:
448,0,128997,1,0,1:0:0:0:
64,0,129074,1,0,1:0:0:0:
320,0,129151,1,0,1:0:0:0:
192,0,129228,1,0,1:0:0:0:
64,0,129305,1,0,1:0:0:0:
448,0,129305,1,0,1:0:0:0:
192,0,129382,1,0,1:0:0:0:
64,0,129459,1,0,1:0:0:0:
448,0,129459,1,0,1:0:0:0:
192,0,129536,1,0,1:0:0:0:
320,0,129613,1,0,1:0:0:0:
448,0,129690,1,0,1:0:0:0:
192,0,129767,1,0,1:0:0:0:
320,0,129844,1,0,1:0:0:0:
64,0,129921,1,0,1:0:0:0:
192,0,129921,1,0,1:0:0:0:
320,0,129997,1,0,1:0:0:0:
192,0,130074,1,0,1:0:0:0:
64,0,130151,1,0,1:0:0:0:
320,0,130228,1,0,1:0:0:0:
448,0,130228,1,0,1:0:0:0:
192,0,130305,1,0,1:0:0:0:
320,0,130382,1,0,1:0:0:0:
64,0,130459,1,0,1:0:0:0:
192,0,130536,1,0,1:0:0:0:
448,0,130536,1,0,1:0:0:0:
64,0,130613,1,0,1:0:0:0:
192,0,130690,1,0,1:0:0:0:
320,0,130767,1,0,1:0:0:0:
64,0,130844,1,0,1:0:0:0:
192,0,130844,1,0,1:0:0:0:
320,0,130921,1,0,1:0:0:0:
192,0,130997,1,0,1:0:0:0:
320,0,131074,1,0,1:0:0:0:
192,0,131151,1,0,1:0:0:0:
448,0,131228,1,0,1:0:0:0:
192,0,131305,1,0,1:0:0:0:
64,0,131382,1,0,1:0:0:0:
448,0,131382,1,0,1:0:0:0:
320,0,131459,1,0,1:0:0:0:
448,0,131536,1,0,1:0:0:0:
64,0,131613,1,0,1:0:0:0:
192,0,131613,1,0,1:0:0:0:
320,0,131690,1,0,1:0:0:0:
64,0,131767,1,0,1:0:0:0:
192,0,131767,1,0,1:0:0:0:
448,0,131844,1,0,1:0:0:0:
192,0,131921,1,0,1:0:0:0:
320,0,131921,1,0,1:0:0:0:
64,0,131997,1,0,1:0:0:0:
448,0,131997,1,0,1:0:0:0:
192,0,132074,1,0,1:0:0:0:
320,0,132074,1,0,1:0:0:0:
64,0,132151,1,0,1:0:0:0:
448,0,132151,1,0,1:0:0:0:
192,0,132228,1,0,1:0:0:0:
320,0,132228,1,0,1:0:0:0:
64,0,132305,1,0,1:0:0:0:
448,0,132305,1,0,1:0:0:0:
192,0,132382,1,0,1:0:0:0:
320,0,132382,1,0,1:0:0:0:
64,0,132459,1,0,1:0:0:0:
448,0,132459,1,0,1:0:0:0:
192,0,132536,1,0,1:0:0:0:
320,0,132536,1,0,1:0:0:0:
64,0,132613,1,0,1:0:0:0:
448,0,132613,1,0,1:0:0:0:
192,0,132690,1,0,1:0:0:0:
320,0,132690,1,0,1:0:0:0:
448,0,132767,1,0,1:0:0:0:
64,0,132844,1,0,1:0:0:0:
320,0,132921,1,0,1:0:0:0:
448,0,132997,1,0,1:0:0:0:
320,0,133074,1,0,1:0:0:0:
192,0,133151,1,0,1:0:0:0:
448,0,133151,1,0,1:0:0:0:
320,0,133228,1,0,1:0:0:0:
64,0,133305,1,0,1:0:0:0:
192,0,133305,1,0,1:0:0:0:
448,0,133305,1,0,1:0:0:0:
320,0,133382,1,0,1:0:0:0:
192,0,133459,1,0,1:0:0:0:
320,0,133536,1,0,1:0:0:0:
64,0,133613,1,0,1:0:0:0:
448,0,133613,1,0,1:0:0:0:
320,0,133690,1,0,1:0:0:0:
192,0,133767,1,0,1:0:0:0:
64,0,133844,1,0,1:0:0:0:
320,0,133921,1,0,1:0:0:0:
448,0,133921,1,0,1:0:0:0:
64,0,133997,1,0,1:0:0:0:
320,0,134074,1,0,1:0:0:0:
192,0,134151,1,0,1:0:0:0:
320,0,134228,1,0,1:0:0:0:
448,0,134228,1,0,1:0:0:0:
192,0,134305,1,0,1:0:0:0:
64,0,134382,1,0,1:0:0:0:
448,0,134459,1,0,1:0:0:0:
64,0,134536,1,0,1:0:0:0:
192,0,134536,1,0,1:0:0:0:
320,0,134536,1,0,1:0:0:0:
448,0,134613,1,0,1:0:0:0:
192,0,134690,1,0,1:0:0:0:
64,0,134767,1,0,1:0:0:0:
320,0,134844,1,0,1:0:0:0:
448,0,134844,1,0,1:0:0:0:
64,0,134921,1,0,1:0:0:0:
320,0,134997,1,0,1:0:0:0:
192,0,135074,1,0,1:0:0:0:
64,0,135151,1,0,1:0:0:0:
320,0,135151,1,0,1:0:0:0:
448,0,135151,1,0,1:0:0:0:
192,0,135228,1,0,1:0:0:0:
448,0,135305,1,0,1:0:0:0:
320,0,135382,1,0,1:0:0:0:
64,0,135459,1,0,1:0:0:0:
192,0,135459,1,0,1:0:0:0:
448,0,135459,1,0,1:0:0:0:
320,0,135536,1,0,1:0:0:0:
64,0,135613,1,0,1:0:0:0:
192,0,135613,1,0,1:0:0:0:
320,0,135690,1,0,1:0:0:0:
64,0,135767,1,0,1:0:0:0:
192,0,135767,1,0,1:0:0:0:
448,0,135767,1,0,1:0:0:0:
320,0,135844,1,0,1:0:0:0:
64,0,135921,1,0,1:0:0:0:
192,0,135921,1,0,1:0:0:0:
320,0,135997,1,0,1:0:0:0:
64,0,136074,1,0,1:0:0:0:
448,0,136074,1,0,1:0:0:0:
320,0,136151,1,0,1:0:0:0:
64,0,136228,1,0,1:0:0:0:
192,0,136228,1,0,1:0:0:0:
448,0,136228,1,0,1:0:0:0:
320,0,136305,1,0,1:0:0:0:
64,0,136382,1,0,1:0:0:0:
192,0,136382,1,0,1:0:0:0:
448,0,136382,1,0,1:0:0:0:
320,0,136459,1,0,1:0:0:0:
64,0,136536,1,0,1:0:0:0:
192,0,136536,1,0,1:0:0:0:
320,0,136613,1,0,1:0:0:0:
64,0,136690,1,0,1:0:0:0:
192,0,136690,1,0,1:0:0:0:
448,0,136767,1,0,1:0:0:0:
64,0,136844,1,0,1:0:0:0:
192,0,136844,1,0,1:0:0:0:
320,0,136921,1,0,1:0:0:0:
64,0,136997,1,0,1:0:0:0:
192,0,136997,1,0,1:0:0:0:
320,0,137074,1,0,1:0:0:0:
448,0,137074,1,0,1:0:0:0:
64,0,137151,1,0,1:0:0:0:
192,0,137151,1,0,1:0:0:0:
320,0,137228,1,0,1:0:0:0:
448,0,137228,1,0,1:0:0:0:
64,0,137305,1,0,1:0:0:0:
192,0,137305,1,0,1:0:0:0:
320,0,137382,1,0,1:0:0:0:
448,0,137382,1,0,1:0:0:0:
64,0,137459,1,0,1:0:0:0:
192,0,137459,1,0,1:0:0:0:
320,0,137536,1,0,1:0:0:0:
448,0,137536,1,0,1:0:0:0:
64,0,137613,1,0,1:0:0:0:
192,0,137613,1,0,1:0:0:0:
320,0,137690,1,0,1:0:0:0:
448,0,137690,1,0,1:0:0:0:
64,0,137767,1,0,1:0:0:0:
192,0,137767,1,0,1:0:0:0:
320,0,137844,1,0,1:0:0:0:
64,0,137921,1,0,1:0:0:0:
192,0,137921,1,0,1:0:0:0:
448,0,137921,1,0,1:0:0:0:
320,0,137997,1,0,1:0:0:0:
64,0,138074,1,0,1:0:0:0:
192,0,138074,1,0,1:0:0:0:
448,0,138074,1,0,1:0:0:0:
320,0,138151,1,0,1:0:0:0:
64,0,138228,1,0,1:0:0:0:
192,0,138228,1,0,1:0:0:0:
448,0,138228,1,0,1:0:0:0:
320,0,138305,1,0,1:0:0:0:
192,0,138382,1,0,1:0:0:0:
64,0,138459,1,0,1:0:0:0:
192,0,138536,1,0,1:0:0:0:
448,0,138536,1,0,1:0:0:0:
320,0,138613,1,0,1:0:0:0:
192,0,138690,1,0,1:0:0:0:
64,0,138767,1,0,1:0:0:0:
320,0,138844,1,0,1:0:0:0:
448,0,138844,1,0,1:0:0:0:
64,0,138921,1,0,1:0:0:0:
192,0,138997,1,0,1:0:0:0:
320,0,138997,1,0,1:0:0:0:
448,0,138997,1,0,1:0:0:0:
64,0,139074,1,0,1:0:0:0:
192,0,139151,1,0,1:0:0:0:
320,0,139151,1,0,1:0:0:0:
448,0,139151,1,0,1:0:0:0:
64,0,139228,1,0,1:0:0:0:
192,0,139305,1,0,1:0:0:0:
320,0,139305,1,0,1:0:0:0:
448,0,139305,1,0,1:0:0:0:
64,0,139382,1,0,1:0:0:0:
192,0,139459,1,0,1:0:0:0:
320,0,139459,1,0,1:0:0:0:
448,0,139459,1,0,1:0:0:0:
64,0,139536,1,0,1:0:0:0:
192,0,139613,1,0,1:0:0:0:
448,0,139690,1,0,1:0:0:0:
192,0,139767,1,0,1:0:0:0:
320,0,139767,1,0,1:0:0:0:
64,0,139844,1,0,1:0:0:0:
192,0,139921,1,0,1:0:0:0:
448,0,139997,1,0,1:0:0:0:
192,0,140074,1,0,1:0:0:0:
320,0,140074,1,0,1:0:0:0:
64,0,140151,1,0,1:0:0:0:
192,0,140228,1,0,1:0:0:0:
448,0,140305,1,0,1:0:0:0:
64,0,140382,1,0,1:0:0:0:
192,0,140382,1,0,1:0:0:0:
320,0,140459,1,0,1:0:0:0:
64,0,140536,1,0,1:0:0:0:
192,0,140536,1,0,1:0:0:0:
448,0,140536,1,0,1:0:0:0:
320,0,140613,1,0,1:0:0:0:
64,0,140690,1,0,1:0:0:0:
192,0,140690,1,0,1:0:0:0:
448,0,140690,1,0,1:0:0:0:
320,0,140767,1,0,1:0:0:0:
192,0,140844,1,0,1:0:0:0:
448,0,140921,1,0,1:0:0:0:
64,0,140997,1,0,1:0:0:0:
320,0,140997,1,0,1:0:0:0:
192,0,141074,1,0,1:0:0:0:
64,0,141151,1,0,1:0:0:0:
320,0,141151,1,0,1:0:0:0:
448,0,141151,1,0,1:0:0:0:
192,0,141228,1,0,1:0:0:0:
64,0,141305,1,0,1:0:0:0:
448,0,141305,1,0,1:0:0:0:
320,0,141382,1,0,1:0:0:0:
192,0,141459,1,0,1:0:0:0:
448,0,141536,1,0,1:0:0:0:
64,0,141613,1,0,1:0:0:0:
192,0,141613,1,0,1:0:0:0:
320,0,141613,1,0,1:0:0:0:
448,0,141690,1,0,1:0:0:0:
192,0,141767,1,0,1:0:0:0:
64,0,141844,1,0,1:0:0:0:
192,0,141921,1,0,1:0:0:0:
320,0,141921,1,0,1:0:0:0:
448,0,141921,1,0,1:0:0:0:
64,0,141997,1,0,1:0:0:0:
320,0,142074,1,0,1:0:0:0:
192,0,142151,1,0,1:0:0:0:
320,0,142228,1,0,1:0:0:0:
448,0,142228,1,0,1:0:0:0:
192,0,142305,1,0,1:0:0:0:
64,0,142382,1,0,1:0:0:0:
320,0,142382,1,0,1:0:0:0:
448,0,142382,1,0,1:0:0:0:
192,0,142459,1,0,1:0:0:0:
64,0,142536,1,0,1:0:0:0:
320,0,142536,1,0,1:0:0:0:
448,0,142536,1,0,1:0:0:0:
192,0,142613,1,0,1:0:0:0:
320,0,142690,1,0,1:0:0:0:
448,0,142767,1,0,1:0:0:0:
64,0,142844,1,0,1:0:0:0:
192,0,142844,1,0,1:0:0:0:
320,0,142844,1,0,1:0:0:0:
448,0,142921,1,0,1:0:0:0:
64,0,142997,1,0,1:0:0:0:
192,0,142997,1,0,1:0:0:0:
320,0,142997,1,0,1:0:0:0:
448,0,143074,1,0,1:0:0:0:
64,0,143151,1,0,1:0:0:0:
192,0,143151,1,0,1:0:0:0:
320,0,143151,1,0,1:0:0:0:
448,0,143228,1,0,1:0:0:0:
192,0,143305,1,0,1:0:0:0:
64,0,143382,1,0,1:0:0:0:
320,0,143459,1,0,1:0:0:0:
448,0,143459,1,0,1:0:0:0:
192,0,143536,1,0,1:0:0:0:
64,0,143613,1,0,1:0:0:0:
320,0,143613,1,0,1:0:0:0:
448,0,143613,1,0,1:0:0:0:
192,0,143690,1,0,1:0:0:0:
64,0,143767,1,0,1:0:0:0:
320,0,143767,1,0,1:0:0:0:
448,0,143767,1,0,1:0:0:0:
192,0,143844,1,0,1:0:0:0:
64,0,143921,1,0,1:0:0:0:
320,0,143921,1,0,1:0:0:0:
448,0,143921,1,0,1:0:0:0:
192,0,143997,1,0,1:0:0:0:
320,0,144074,1,0,1:0:0:0:
448,0,144074,1,0,1:0:0:0:
192,0,144151,1,0,1:0:0:0:
64,0,144228,1,0,1:0:0:0:
320,0,144228,1,0,1:0:0:0:
448,0,144228,1,0,1:0:0:0:
192,0,144305,1,0,1:0:0:0:
64,0,144382,1,0,1:0:0:0:
448,0,144382,1,0,1:0:0:0:
320,0,144459,1,0,1:0:0:0:
448,0,144536,1,0,1:0:0:0:
192,0,144613,1,0,1:0:0:0:
64,0,144690,1,0,1:0:0:0:
320,0,144690,1,0,1:0:0:0:
192,0,144767,1,0,1:0:0:0:
320,0,144844,1,0,1:0:0:0:
448,0,144921,1,0,1:0:0:0:
64,0,144997,1,0,1:0:0:0:
192,0,144997,1,0,1:0:0:0:
320,0,144997,1,0,1:0:0:0:
448,0,145074,1,0,1:0:0:0:
192,0,145151,1,0,1:0:0:0:
320,0,145228,1,0,1:0:0:0:
64,0,145305,1,0,1:0:0:0:
192,0,145305,1,0,1:0:0:0:
448,0,145305,1,0,1:0:0:0:
320,0,145382,1,0,1:0:0:0:
448,0,145459,1,0,1:0:0:0:
192,0,145536,1,0,1:0:0:0:
64,0,145613,1,0,1:0:0:0:
320,0,145613,1,0,1:0:0:0:
448,0,145613,1,0,1:0:0:0:
192,0,145690,1,0,1:0:0:0:
320,0,145767,1,0,1:0:0:0:
448,0,145844,1,0,1:0:0:0:
64,0,145921,1,0,1:0:0:0:
192,0,145921,1,0,1:0:0:0:
320,0,145997,1,0,1:0:0:0:
64,0,146074,1,0,1:0:0:0:
192,0,146074,1,0,1:0:0:0:
448,0,146074,1,0,1:0:0:0:
320,0,146151,1,0,1:0:0:0:
64,0,146228,1,0,1:0:0:0:
192,0,146228,1,0,1:0:0:0:
448,0,146305,1,0,1:0:0:0:
320,0,146382,1,0,1:0:0:0:
448,0,146459,1,0,1:0:0:0:
64,0,146536,1,0,1:0:0:0:
192,0,146536,1,0,1:0:0:0:
320,0,146536,1,0,1:0:0:0:
448,0,146613,1,0,1:0:0:0:
192,0,146690,1,0,1:0:0:0:
64,0,146767,1,0,1:0:0:0:
192,0,146844,1,0,1:0:0:0:
320,0,146844,1,0,1:0:0:0:
448,0,146844,1,0,1:0:0:0:
64,0,146921,1,0,1:0:0:0:
320,0,146997,1,0,1:0:0:0:
448,0,146997,1,0,1:0:0:0:
64,0,147074,1,0,1:0:0:0:
320,0,147151,1,0,1:0:0:0:
448,0,147151,1,0,1:0:0:0:
64,0,147228,1,0,1:0:0:0:
320,0,147305,1,0,1:0:0:0:
448,0,147305,1,0,1:0:0:0:
64,0,147382,1,0,1:0:0:0:
192,0,147459,1,0,1:0:0:0:
320,0,147459,1,0,1:0:0:0:
448,0,147536,1,0,1:0:0:0:
64,0,147613,1,0,1:0:0:0:
320,0,147690,1,0,1:0:0:0:
64,0,147767,1,0,1:0:0:0:
192,0,147767,1,0,1:0:0:0:
448,0,147767,1,0,1:0:0:0:
320,0,147844,1,0,1:0:0:0:
64,0,147921,1,0,1:0:0:0:
192,0,147921,1,0,1:0:0:0:
448,0,147921,1,0,1:0:0:0:
320,0,147997,1,0,1:0:0:0:
64,0,148074,1,0,1:0:0:0:
192,0,148074,1,0,1:0:0:0:
448,0,148074,1,0,1:0:0:0:
320,0,148151,1,0,1:0:0:0:
192,0,148228,1,0,1:0:0:0:
64,0,148305,1,0,1:0:0:0:
192,0,148382,1,0,1:0:0:0:
448,0,148382,1,0,1:0:0:0:
320,0,148459,1,0,1:0:0:0:
192,0,148536,1,0,1:0:0:0:
64,0,148613,1,0,1:0:0:0:
320,0,148690,1,0,1:0:0:0:
448,0,148690,1,0,1:0:0:0:
64,0,148767,1,0,1:0:0:0:
192,0,148844,1,0,1:0:0:0:
320,0,148844,1,0,1:0:0:0:
448,0,148844,1,0,1:0:0:0:
64,0,148921,1,0,1:0:0:0:
192,0,148997,1,0,1:0:0:0:
320,0,148997,1,0,1:0:0:0:
448,0,148997,1,0,1:0:0:0:
64,0,149074,1,0,1:0:0:0:
192,0,149151,1,0,1:0:0:0:
320,0,149151,1,0,1:0:0:0:
448,0,149151,1,0,1:0:0:0:
64,0,149228,1,0,1:0:0:0:
192,0,149305,1,0,1:0:0:0:
320,0,149305,1,0,1:0:0:0:
448,0,149305,1,0,1:0:0:0:
64,0,149382,1,0,1:0:0:0:
192,0,149459,1,0,1:0:0:0:
448,0,149536,1,0,1:0:0:0:
192,0,149613,1,0,1:0:0:0:
320,0,149613,1,0,1:0:0:0:
64,0,149690,1,0,1:0:0:0:
192,0,149767,1,0,1:0:0:0:
448,0,149844,1,0,1:0:0:0:
192,0,149921,1,0,1:0:0:0:
320,0,149921,1,0,1:0:0:0:
64,0,149997,1,0,1:0:0:0:
192,0,150074,1,0,1:0:0:0:
448,0,150151,1,0,1:0:0:0:
64,0,150228,1,0,1:0:0:0:
192,0,150228,1,0,1:0:0:0:
320,0,150305,1,0,1:0:0:0:
64,0,150382,1,0,1:0:0:0:
192,0,150382,1,0,1:0:0:0:
448,0,150382,1,0,1:0:0:0:
320,0,150459,1,0,1:0:0:0:
64,0,150536,1,0,1:0:0:0:
192,0,150536,1,0,1:0:0:0:
448,0,150536,1,0,1:0:0:0:
320,0,150613,1,0,1:0:0:0:
192,0,150690,1,0,1:0:0:0:
448,0,150767,1,0,1:0:0:0:
64,0,150844,1,0,1:0:0:0:
320,0,150844,1,0,1:0:0:0:
192,0,150921,1,0,1:0:0:0:
64,0,150997,1,0,1:0:0:0:
320,0,150997,1,0,1:0:0:0:
448,0,150997,1,0,1:0:0:0:
192,0,151074,1,0,1:0:0:0:
64,0,151151,1,0,1:0:0:0:
448,0,151151,1,0,1:0:0:0:
320,0,151228,1,0,1:0:0:0:
192,0,151305,1,0,1:0:0:0:
448,0,151382,1,0,1:0:0:0:
64,0,151459,1,0,1:0:0:0:
192,0,151459,1,0,1:0:0:0:
320,0,151459,1,0,1:0:0:0:
448,0,151536,1,0,1:0:0:0:
192,0,151613,1,0,1:0:0:0:
64,0,151690,1,0,1:0:0:0:
192,0,151767,1,0,1:0:0:0:
320,0,151767,1,0,1:0:0:0:
448,0,151767,1,0,1:0:0:0:
64,0,151844,1,0,1:0:0:0:
320,0,151921,1,0,1:0:0:0:
192,0,151997,1,0,1:0:0:0:
320,0,152074,1,0,1:0:0:0:
448,0,152074,1,0,1:0:0:0:
192,0,152151,1,0,1:0:0:0:
64,0,152228,1,0,1:0:0:0:
320,0,152228,1,0,1:0:0:0:
448,0,152228,1,0,1:0:0:0:
192,0,152305,1,0,1:0:0:0:
64,0,152382,1,0,1:0:0:0:
320,0,152382,1,0,1:0:0:0:
448,0,152382,1,0,1:0:0:0:
192,0,152459,1,0,1:0:0:0:
320,0,152536,1,0,1:0:0:0:
448,0,152613,1,0,1:0:0:0:
64,0,152690,1,0,1:0:0:0:
192,0,152690,1,0,1:0:0:0:
448,0,152767,1,0,1:0:0:0:
64,0,152844,1,0,1:0:0:0:
192,0,152844,1,0,1:0:0:0:
320,0,152844,1,0,1:0:0:0:
448,0,152921,1,0,1:0:0:0:
64,0,152997,1,0,1:0:0:0:
192,0,152997,1,0,1:0:0:0:
320,0,152997,1,0,1:0:0:0:
448,0,153074,1,0,1:0:0:0:
192,0,153151,1,0,1:0:0:0:
64,0,153228,1,0,1:0:0:0:
320,0,153305,1,0,1:0:0:0:
448,0,153305,1,0,1:0:0:0:
192,0,153382,1,0,1:0:0:0:
64,0,153459,1,0,1:0:0:0:
320,0,153459,1,0,1:0:0:0:
448,0,153459,1,0,1:0:0:0:
192,0,153536,1,0,1:0:0:0:
64,0,153613,1,0,1:0:0:0:
320,0,153613,1,0,1:0:0:0:
448,0,153613,1,0,1:0:0:0:
192,0,153690,1,0,1:0:0:0:
64,0,153767,1,0,1:0:0:0:
320,0,153767,1,0,1:0:0:0:
448,0,153767,1,0,1:0:0:0:
192,0,153844,1,0,1:0:0:0:
320,0,153921,1,0,1:0:0:0:
448,0,153921,1,0,1:0:0:0:
192,0,153997,1,0,1:0:0:0:
64,0,154074,1,0,1:0:0:0:
320,0,154074,1,0,1:0:0:0:
448,0,154074,1,0,1:0:0:0:
192,0,154151,1,0,1:0:0:0:
64,0,154228,1,0,1:0:0:0:
448,0,154228,1,0,1:0:0:0:
320,0,154305,1,0,1:0:0:0:
448,0,154382,1,0,1:0:0:0:
192,0,154459,1,0,1:0:0:0:
64,0,154536,1,0,1:0:0:0:
320,0,154536,1,0,1:0:0:0:
448,0,154536,1,0,1:0:0:0:
192,0,154613,1,0,1:0:0:0:
320,0,154690,1,0,1:0:0:0:
448,0,154767,1,0,1:0:0:0:
64,0,154844,1,0,1:0:0:0:
192,0,154844,1,0,1:0:0:0:
320,0,154844,1,0,1:0:0:0:
448,0,154920,1,0,1:0:0:0:
192,0,154997,1,0,1:0:0:0:
320,0,155074,1,0,1:0:0:0:
64,0,155151,1,0,1:0:0:0:
192,0,155151,1,0,1:0:0:0:
448,0,155151,1,0,1:0:0:0:
320,0,155228,1,0,1:0:0:0:
448,0,155305,1,0,1:0:0:0:
192,0,155382,1,0,1:0:0:0:
64,0,155459,1,0,1:0:0:0:
320,0,155459,1,0,1:0:0:0:
448,0,155459,1,0,1:0:0:0:
192,0,155536,1,0,1:0:0:0:
320,0,155613,1,0,1:0:0:0:
448,0,155690,1,0,1:0:0:0:
64,0,155767,1,0,1:0:0:0:
192,0,155767,1,0,1:0:0:0:
320,0,155844,1,0,1:0:0:0:
64,0,155920,1,0,1:0:0:0:
192,0,155920,1,0,1:0:0:0:
448,0,155920,1,0,1:0:0:0:
320,0,155997,1,0,1:0:0:0:
64,0,156074,1,0,1:0:0:0:
192,0,156074,1,0,1:0:0:0:
448,0,156074,1,0,1:0:0:0:
320,0,156151,1,0,1:0:0:0:
64,0,156228,1,0,1:0:0:0:
192,0,156228,1,0,1:0:0:0:
448,0,156305,1,0,1:0:0:0:
64,0,156382,1,0,1:0:0:0:
192,0,156382,1,0,1:0:0:0:
320,0,156382,1,0,1:0:0:0:
448,0,156459,1,0,1:0:0:0:
192,0,156536,1,0,1:0:0:0:
320,0,156536,1,0,1:0:0:0:
64,0,156613,1,0,1:0:0:0:
192,0,156690,1,0,1:0:0:0:
320,0,156690,1,0,1:0:0:0:
448,0,156690,1,0,1:0:0:0:
64,0,156767,1,0,1:0:0:0:
320,0,156844,1,0,1:0:0:0:
448,0,156844,1,0,1:0:0:0:
192,0,156920,1,0,1:0:0:0:
320,0,156997,1,0,1:0:0:0:
448,0,156997,1,0,1:0:0:0:
192,0,157074,1,0,1:0:0:0:
320,0,157151,1,0,1:0:0:0:
448,0,157151,1,0,1:0:0:0:
192,0,157228,1,0,1:0:0:0:
64,0,157305,1,0,1:0:0:0:
320,0,157305,1,0,1:0:0:0:
448,0,157382,1,0,1:0:0:0:
64,0,157459,1,0,1:0:0:0:
192,0,157459,1,0,1:0:0:0:
320,0,157536,1,0,1:0:0:0:
64,0,157613,1,0,1:0:0:0:
192,0,157613,1,0,1:0:0:0:
448,0,157613,1,0,1:0:0:0:
320,0,157690,1,0,1:0:0:0:
64,0,157767,1,0,1:0:0:0:
192,0,157767,1,0,1:0:0:0:
448,0,157767,1,0,1:0:0:0:
320,0,157844,1,0,1:0:0:0:
64,0,157920,1,0,1:0:0:0:
192,0,157920,1,0,1:0:0:0:
448,0,157920,1,0,1:0:0:0:
320,0,157997,1,0,1:0:0:0:
192,0,158074,1,0,1:0:0:0:
64,0,158151,1,0,1:0:0:0:
192,0,158228,1,0,1:0:0:0:
448,0,158228,1,0,1:0:0:0:
320,0,158305,1,0,1:0:0:0:
192,0,158382,1,0,1:0:0:0:
64,0,158459,1,0,1:0:0:0:
320,0,158536,1,0,1:0:0:0:
448,0,158536,1,0,1:0:0:0:
64,0,158613,1,0,1:0:0:0:
192,0,158690,1,0,1:0:0:0:
320,0,158690,1,0,1:0:0:0:
448,0,158690,1,0,1:0:0:0:
64,0,158767,1,0,1:0:0:0:
192,0,158844,1,0,1:0:0:0:
320,0,158844,1,0,1:0:0:0:
448,0,158844,1,0,1:0:0:0:
64,0,158920,1,0,1:0:0:0:
192,0,158997,1,0,1:0:0:0:
320,0,158997,1,0,1:0:0:0:
448,0,158997,1,0,1:0:0:0:
64,0,159074,1,0,1:0:0:0:
192,0,159151,1,0,1:0:0:0:
320,0,159151,1,0,1:0:0:0:
448,0,159151,1,0,1:0:0:0:
64,0,159228,1,0,1:0:0:0:
192,0,159305,1,0,1:0:0:0:
448,0,159382,1,0,1:0:0:0:
192,0,159459,1,0,1:0:0:0:
320,0,159459,1,0,1:0:0:0:
64,0,159536,1,0,1:0:0:0:
192,0,159613,1,0,1:0:0:0:
448,0,159690,1,0,1:0:0:0:
192,0,159767,1,0,1:0:0:0:
320,0,159767,1,0,1:0:0:0:
64,0,159844,1,0,1:0:0:0:
192,0,159920,1,0,1:0:0:0:
448,0,159997,1,0,1:0:0:0:
64,0,160074,1,0,1:0:0:0:
192,0,160074,1,0,1:0:0:0:
320,0,160151,1,0,1:0:0:0:
64,0,160228,1,0,1:0:0:0:
192,0,160228,1,0,1:0:0:0:
448,0,160228,1,0,1:0:0:0:
320,0,160305,1,0,1:0:0:0:
64,0,160382,1,0,1:0:0:0:
192,0,160382,1,0,1:0:0:0:
448,0,160382,1,0,1:0:0:0:
320,0,160459,1,0,1:0:0:0:
192,0,160536,1,0,1:0:0:0:
448,0,160613,1,0,1:0:0:0:
64,0,160690,1,0,1:0:0:0:
320,0,160690,1,0,1:0:0:0:
192,0,160767,1,0,1:0:0:0:
64,0,160844,1,0,1:0:0:0:
320,0,160844,1,0,1:0:0:0:
448,0,160844,1,0,1:0:0:0:
192,0,160920,1,0,1:0:0:0:
64,0,160997,1,0,1:0:0:0:
448,0,160997,1,0,1:0:0:0:
320,0,161074,1,0,1:0:0:0:
192,0,161151,1,0,1:0:0:0:
448,0,161228,1,0,1:0:0:0:
64,0,161305,1,0,1:0:0:0:
192,0,161305,1,0,1:0:0:0:
320,0,161305,1,0,1:0:0:0:
448,0,161382,1,0,1:0:0:0:
192,0,161459,1,0,1:0:0:0:
64,0,161536,1,0,1:0:0:0:
192,0,161613,1,0,1:0:0:0:
320,0,161613,1,0,1:0:0:0:
448,0,161613,1,0,1:0:0:0:
64,0,161690,1,0,1:0:0:0:
320,0,161767,1,0,1:0:0:0:
192,0,161844,1,0,1:0:0:0:
320,0,161920,1,0,1:0:0:0:
448,0,161920,1,0,1:0:0:0:
192,0,161997,1,0,1:0:0:0:
64,0,162074,1,0,1:0:0:0:
320,0,162074,1,0,1:0:0:0:
448,0,162074,1,0,1:0:0:0:
192,0,162151,1,0,1:0:0:0:
64,0,162228,1,0,1:0:0:0:
320,0,162228,1,0,1:0:0:0:
448,0,162228,1,0,1:0:0:0:
192,0,162305,1,0,1:0:0:0:
448,0,162382,1,0,1:0:0:0:
320,0,162459,1,0,1:0:0:0:
64,0,162536,1,0,1:0:0:0:
192,0,162536,1,0,1:0:0:0:
448,0,162536,1,0,1:0:0:0:
320,0,162613,1,0,1:0:0:0:
64,0,162690,1,0,1:0:0:0:
192,0,162690,1,0,1:0:0:0:
448,0,162690,1,0,1:0:0:0:
320,0,162767,1,0,1:0:0:0:
64,0,162844,1,0,1:0:0:0:
192,0,162844,1,0,1:0:0:0:
448,0,162844,1,0,1:0:0:0:
320,0,162920,1,0,1:0:0:0:
192,0,162997,1,0,1:0:0:0:
64,0,163074,1,0,1:0:0:0:
320,0,163151,1,0,1:0:0:0:
448,0,163151,1,0,1:0:0:0:
192,0,163228,1,0,1:0:0:0:
64,0,163305,1,0,1:0:0:0:
320,0,163305,1,0,1:0:0:0:
448,0,163305,1,0,1:0:0:0:
192,0,163382,1,0,1:0:0:0:
64,0,163459,1,0,1:0:0:0:
320,0,163459,1,0,1:0:0:0:
448,0,163459,1,0,1:0:0:0:
192,0,163536,1,0,1:0:0:0:
64,0,163613,1,0,1:0:0:0:
320,0,163613,1,0,1:0:0:0:
448,0,163613,1,0,1:0:0:0:
192,0,163690,1,0,1:0:0:0:
320,0,163767,1,0,1:0:0:0:
448,0,163767,1,0,1:0:0:0:
192,0,163844,1,0,1:0:0:0:
64,0,163920,1,0,1:0:0:0:
320,0,163920,1,0,1:0:0:0:
448,0,163920,1,0,1:0:0:0:
192,0,163997,1,0,1:0:0:0:
64,0,164074,1,0,1:0:0:0:
448,0,164074,1,0,1:0:0:0:
320,0,164151,1,0,1:0:0:0:
192,0,164228,1,0,1:0:0:0:
448,0,164305,1,0,1:0:0:0:
64,0,164382,1,0,1:0:0:0:
320,0,164382,1,0,1:0:0:0:
192,0,164459,1,0,1:0:0:0:
320,0,164536,1,0,1:0:0:0:
448,0,164613,1,0,1:0:0:0:
64,0,164690,1,0,1:0:0:0:
192,0,164690,1,0,1:0:0:0:
320,0,164690,1,0,1:0:0:0:
448,0,164767,1,0,1:0:0:0:
192,0,164844,1,0,1:0:0:0:
320,0,164920,1,0,1:0:0:0:
64,0,164997,1,0,1:0:0:0:
192,0,164997,1,0,1:0:0:0:
448,0,164997,1,0,1:0:0:0:
320,0,165074,1,0,1:0:0:0:
448,0,165151,1,0,1:0:0:0:
192,0,165228,1,0,1:0:0:0:
64,0,165305,1,0,1:0:0:0:
320,0,165305,1,0,1:0:0:0:
448,0,165305,1,0,1:0:0:0:
192,0,165382,1,0,1:0:0:0:
320,0,165459,1,0,1:0:0:0:
448,0,165536,1,0,1:0:0:0:
64,0,165613,1,0,1:0:0:0:
192,0,165613,1,0,1:0:0:0:
320,0,165690,1,0,1:0:0:0:
64,0,165767,1,0,1:0:0:0:
192,0,165767,1,0,1:0:0:0:
448,0,165767,1,0,1:0:0:0:
320,0,165844,1,0,1:0:0:0:
64,0,165920,1,0,1:0:0:0:
192,0,165920,1,0,1:0:0:0:
448,0,165997,1,0,1:0:0:0:
320,0,166074,1,0,1:0:0:0:
448,0,166151,1,0,1:0:0:0:
64,0,166228,1,0,1:0:0:0:
192,0,166228,1,0,1:0:0:0:
320,0,166228,1,0,1:0:0:0:
448,0,166305,1,0,1:0:0:0:
192,0,166382,1,0,1:0:0:0:
64,0,166459,1,0,1:0:0:0:
192,0,166536,1,0,1:0:0:0:
320,0,166536,1,0,1:0:0:0:
448,0,166536,1,0,1:0:0:0:
64,0,166613,1,0,1:0:0:0:
320,0,166690,1,0,1:0:0:0:
448,0,166690,1,0,1:0:0:0:
64,0,166767,1,0,1:0:0:0:
320,0,166844,1,0,1:0:0:0:
448,0,166844,1,0,1:0:0:0:
64,0,166920,1,0,1:0:0:0:
320,0,166997,1,0,1:0:0:0:
448,0,166997,1,0,1:0:0:0:
64,0,167074,1,0,1:0:0:0:
192,0,167151,1,0,1:0:0:0:
320,0,167151,1,0,1:0:0:0:
448,0,167228,1,0,1:0:0:0:
64,0,167305,1,0,1:0:0:0:
320,0,167382,1,0,1:0:0:0:
64,0,167459,1,0,1:0:0:0:
192,0,167459,1,0,1:0:0:0:
448,0,167459,1,0,1:0:0:0:
320,0,167536,1,0,1:0:0:0:
64,0,167613,1,0,1:0:0:0:
192,0,167613,1,0,1:0:0:0:
448,0,167613,1,0,1:0:0:0:
320,0,167690,1,0,1:0:0:0:
64,0,167767,1,0,1:0:0:0:
192,0,167767,1,0,1:0:0:0:
448,0,167767,1,0,1:0:0:0:
320,0,167844,1,0,1:0:0:0:
192,0,167920,1,0,1:0:0:0:
64,0,167997,1,0,1:0:0:0:
192,0,168074,1,0,1:0:0:0:
448,0,168074,1,0,1:0:0:0:
320,0,168151,1,0,1:0:0:0:
192,0,168228,1,0,1:0:0:0:
64,0,168305,1,0,1:0:0:0:
320,0,168382,1,0,1:0:0:0:
64,0,168459,1,0,1:0:0:0:
320,0,168536,1,0,1:0:0:0:
448,0,168536,1,0,1:0:0:0:
64,0,168613,1,0,1:0:0:0:
192,0,168690,1,0,1:0:0:0:
320,0,168690,1,0,1:0:0:0:
64,0,168767,1,0,1:0:0:0:
320,0,168844,1,0,1:0:0:0:
448,0,168844,1,0,1:0:0:0:
64,0,168920,1,0,1:0:0:0:
192,0,168997,1,0,1:0:0:0:
320,0,168997,1,0,1:0:0:0:
64,0,169074,1,0,1:0:0:0:
192,0,169151,1,0,1:0:0:0:
448,0,169228,1,0,1:0:0:0:
192,0,169305,1,0,1:0:0:0:
320,0,169305,1,0,1:0:0:0:
64,0,169382,1,0,1:0:0:0:
192,0,169459,1,0,1:0:0:0:
448,0,169536,1,0,1:0:0:0:
192,0,169613,1,0,1:0:0:0:
320,0,169613,1,0,1:0:0:0:
64,0,169690,1,0,1:0:0:0:
192,0,169767,1,0,1:0:0:0:
448,0,169844,1,0,1:0:0:0:
64,0,169920,1,0,1:0:0:0:
192,0,169920,1,0,1:0:0:0:
320,0,169997,1,0,1:0:0:0:
192,0,170074,1,0,1:0:0:0:
448,0,170074,1,0,1:0:0:0:
320,0,170151,1,0,1:0:0:0:
64,0,170228,1,0,1:0:0:0:
192,0,170228,1,0,1:0:0:0:
320,0,170305,1,0,1:0:0:0:
192,0,170382,1,0,1:0:0:0:
448,0,170459,1,0,1:0:0:0:
64,0,170536,1,0,1:0:0:0:
192,0,170613,1,0,1:0:0:0:
320,0,170690,1,0,1:0:0:0:
448,0,170690,1,0,1:0:0:0:
192,0,170767,1,0,1:0:0:0:
64,0,170844,1,0,1:0:0:0:
320,0,170920,1,0,1:0:0:0:
192,0,170997,1,0,1:0:0:0:
448,0,171074,1,0,1:0:0:0:
64,0,171151,1,0,1:0:0:0:
192,0,171151,1,0,1:0:0:0:
448,0,171228,1,0,1:0:0:0:
320,0,171305,1,0,1:0:0:0:
192,0,171382,1,0,1:0:0:0:
320,0,171459,1,0,1:0:0:0:
448,0,171459,1,0,1:0:0:0:
64,0,171536,1,0,1:0:0:0:
320,0,171613,1,0,1:0:0:0:
64,0,171690,1,0,1:0:0:0:
448,0,171767,1,0,1:0:0:0:
192,0,171844,1,0,1:0:0:0:
64,0,171920,1,0,1:0:0:0:
448,0,171920,1,0,1:0:0:0:
192,0,171997,1,0,1:0:0:0:
64,0,172074,1,0,1:0:0:0:
320,0,172074,1,0,1:0:0:0:
448,0,172151,1,0,1:0:0:0:
192,0,172228,1,0,1:0:0:0:
448,0,172305,1,0,1:0:0:0:
64,0,172382,1,0,1:0:0:0:
448,0,172459,1,0,1:0:0:0:
64,0,172536,1,0,1:0:0:0:
192,0,172536,1,0,1:0:0:0:
448,0,172613,1,0,1:0:0:0:
64,0,172690,1,0,1:0:0:0:
192,0,172690,1,0,1:0:0:0:
320,0,172690,1,0,1:0:0:0:
448,0,172767,1,0,1:0:0:0:
192,0,172844,1,0,1:0:0:0:
64,0,172920,1,0,1:0:0:0:
320,0,172997,1,0,1:0:0:0:
448,0,173074,1,0,1:0:0:0:
64,0,173151,1,0,1:0:0:0:
192,0,173151,1,0,1:0:0:0:
448,0,173228,1,0,1:0:0:0:
64,0,173305,1,0,1:0:0:0:
192,0,173305,1,0,1:0:0:0:
448,0,173382,1,0,1:0:0:0:
64,0,173459,1,0,1:0:0:0:
320,0,173459,1,0,1:0:0:0:
192,0,173536,1,0,1:0:0:0:
320,0,173613,1,0,1:0:0:0:
448,0,173690,1,0,1:0:0:0:
64,0,173767,1,0,1:0:0:0:
192,0,173767,1,0,1:0:0:0:
448,0,173844,1,0,1:0:0:0:
64,0,173920,1,0,1:0:0:0:
192,0,173920,1,0,1:0:0:0:
320,0,173920,1,0,1:0:0:0:
448,0,173997,1,0,1:0:0:0:
320,0,174074,1,0,1:0:0:0:
192,0,174151,1,0,1:0:0:0:
64,0,174228,1,0,1:0:0:0:
448,0,174228,1,0,1:0:0:0:
192,0,174305,1,0,1:0:0:0:
320,0,174382,1,0,1:0:0:0:
448,0,174459,1,0,1:0:0:0:
64,0,174536,1,0,1:0:0:0:
192,0,174536,1,0,1:0:0:0:
320,0,174536,1,0,1:0:0:0:
448,0,174613,1,0,1:0:0:0:
192,0,174690,1,0,1:0:0:0:
320,0,174767,1,0,1:0:0:0:
64,0,174844,1,0,1:0:0:0:
192,0,174844,1,0,1:0:0:0:
448,0,174844,1,0,1:0:0:0:
320,0,174920,1,0,1:0:0:0:
64,0,174997,1,0,1:0:0:0:
192,0,174997,1,0,1:0:0:0:
320,0,175074,1,0,1:0:0:0:
64,0,175151,1,0,1:0:0:0:
192,0,175151,1,0,1:0:0:0:
448,0,175151,1,0,1:0:0:0:
320,0,175228,1,0,1:0:0:0:
64,0,175305,1,0,1:0:0:0:
192,0,175305,1,0,1:0:0:0:
448,0,175382,1,0,1:0:0:0:
192,0,175459,1,0,1:0:0:0:
320,0,175459,1,0,1:0:0:0:
64,0,175536,1,0,1:0:0:0:
320,0,175613,1,0,1:0:0:0:
448,0,175613,1,0,1:0:0:0:
192,0,175690,1,0,1:0:0:0:
64,0,175767,1,0,1:0:0:0:
320,0,175767,1,0,1:0:0:0:
448,0,175767,1,0,1:0:0:0:
192,0,175844,1,0,1:0:0:0:
64,0,175920,1,0,1:0:0:0:
320,0,175920,1,0,1:0:0:0:
448,0,175997,1,0,1:0:0:0:
64,0,176074,1,0,1:0:0:0:
192,0,176074,1,0,1:0:0:0:
448,0,176151,1,0,1:0:0:0:
192,0,176228,1,0,1:0:0:0:
320,0,176228,1,0,1:0:0:0:
64,0,176305,1,0,1:0:0:0:
320,0,176382,1,0,1:0:0:0:
448,0,176382,1,0,1:0:0:0:
64,0,176459,1,0,1:0:0:0:
192,0,176459,1,0,1:0:0:0:
320,0,176536,1,0,1:0:0:0:
448,0,176536,1,0,1:0:0:0:
64,0,176613,1,0,1:0:0:0:
192,0,176613,1,0,1:0:0:0:
320,0,176690,1,0,1:0:0:0:
448,0,176690,1,0,1:0:0:0:
64,0,176767,1,0,1:0:0:0:
192,0,176767,1,0,1:0:0:0:
320,0,176844,1,0,1:0:0:0:
448,0,176844,1,0,1:0:0:0:
64,0,176920,1,0,1:0:0:0:
192,0,176920,1,0,1:0:0:0:
320,0,176997,1,0,1:0:0:0:
448,0,176997,1,0,1:0:0:0:
64,0,177074,1,0,1:0:0:0:
192,0,177074,1,0,1:0:0:0:
320,0,177151,1,0,1:0:0:0:
448,0,177151,1,0,1:0:0:0:
64,0,177228,1,0,1:0:0:0:
192,0,177228,1,0,1:0:0:0:
320,0,177305,1,0,1:0:0:0:
448,0,177305,1,0,1:0:0:0:
64,0,177382,1,0,1:0:0:0:
192,0,177382,1,0,1:0:0:0:
320,0,177459,1,0,1:0:0:0:
448,0,177459,1,0,1:0:0:0:
192,0,177536,1,0,1:0:0:0:
64,0,177613,1,0,1:0:0:0:
320,0,177613,1,0,1:0:0:0:
448,0,177613,1,0,1:0:0:0:
192,0,177690,1,0,1:0:0:0:
320,0,177767,1,0,1:0:0:0:
448,0,177767,1,0,1:0:0:0:
64,0,177844,1,0,1:0:0:0:
192,0,177844,1,0,1:0:0:0:
320,0,177920,1,0,1:0:0:0:
448,0,177920,1,0,1:0:0:0:
192,0,177997,1,0,1:0:0:0:
320,0,178074,1,0,1:0:0:0:
448,0,178074,1,0,1:0:0:0:
64,0,178151,1,0,1:0:0:0:
192,0,178151,1,0,1:0:0:0:
320,0,178228,1,0,1:0:0:0:
448,0,178228,1,0,1:0:0:0:
64,0,178305,1,0,1:0:0:0:
192,0,178305,1,0,1:0:0:0:
320,0,178382,1,0,1:0:0:0:
64,0,178459,1,0,1:0:0:0:
448,0,178459,1,0,1:0:0:0:
192,0,178536,1,0,1:0:0:0:
320,0,178536,1,0,1:0:0:0:
448,0,178613,1,0,1:0:0:0:
64,0,178690,1,0,1:0:0:0:
320,0,178690,1,0,1:0:0:0:
192,0,178767,1,0,1:0:0:0:
448,0,178767,1,0,1:0:0:0:
64,0,178844,1,0,1:0:0:0:
320,0,178844,1,0,1:0:0:0:
192,0,178920,1,0,1:0:0:0:
320,0,178997,1,0,1:0:0:0:
448,0,178997,1,0,1:0:0:0:
64,0,179074,1,0,1:0:0:0:
192,0,179074,1,0,1:0:0:0:
448,0,179151,1,0,1:0:0:0:
320,0,179228,1,0,1:0:0:0:
64,0,179305,1,0,1:0:0:0:
192,0,179305,1,0,1:0:0:0:
320,0,179382,1,0,1:0:0:0:
448,0,179382,1,0,1:0:0:0:
64,0,179459,1,0,1:0:0:0:
192,0,179459,1,0,1:0:0:0:
320,0,179536,1,0,1:0:0:0:
448,0,179536,1,0,1:0:0:0:
192,0,179613,1,0,1:0:0:0:
64,0,179690,1,0,1:0:0:0:
448,0,179690,1,0,1:0:0:0:
192,0,179767,1,0,1:0:0:0:
320,0,179767,1,0,1:0:0:0:
64,0,179844,1,0,1:0:0:0:
448,0,179920,1,0,1:0:0:0:
64,0,179997,1,0,1:0:0:0:
192,0,179997,1,0,1:0:0:0:
320,0,180074,1,0,1:0:0:0:
448,0,180074,1,0,1:0:0:0:
192,0,180151,1,0,1:0:0:0:
320,0,180228,1,0,1:0:0:0:
448,0,180228,1,0,1:0:0:0:
64,0,180305,1,0,1:0:0:0:
192,0,180305,1,0,1:0:0:0:
320,0,180382,1,0,1:0:0:0:
448,0,180382,1,0,1:0:0:0:
192,0,180459,1,0,1:0:0:0:
320,0,180536,1,0,1:0:0:0:
448,0,180536,1,0,1:0:0:0:
64,0,180613,1,0,1:0:0:0:
192,0,180613,1,0,1:0:0:0:
320,0,180690,1,0,1:0:0:0:
448,0,180690,1,0,1:0:0:0:
64,0,180767,1,0,1:0:0:0:
192,0,180767,1,0,1:0:0:0:
320,0,180844,1,0,1:0:0:0:
64,0,180920,1,0,1:0:0:0:
448,0,180920,1,0,1:0:0:0:
192,0,180997,1,0,1:0:0:0:
320,0,180997,1,0,1:0:0:0:
448,0,181074,1,0,1:0:0:0:
64,0,181151,1,0,1:0:0:0:
320,0,181151,1,0,1:0:0:0:
192,0,181228,1,0,1:0:0:0:
448,0,181228,1,0,1:0:0:0:
64,0,181305,1,0,1:0:0:0:
320,0,181305,1,0,1:0:0:0:
192,0,181382,1,0,1:0:0:0:
320,0,181459,1,0,1:0:0:0:
448,0,181459,1,0,1:0:0:0:
64,0,181536,1,0,1:0:0:0:
192,0,181536,1,0,1:0:0:0:
448,0,181613,1,0,1:0:0:0:
320,0,181690,1,0,1:0:0:0:
64,0,181767,1,0,1:0:0:0:
192,0,181767,1,0,1:0:0:0:
320,0,181844,1,0,1:0:0:0:
448,0,181844,1,0,1:0:0:0:
64,0,181920,1,0,1:0:0:0:
192,0,181920,1,0,1:0:0:0:
320,0,181997,1,0,1:0:0:0:
448,0,181997,1,0,1:0:0:0:
192,0,182074,1,0,1:0:0:0:
64,0,182151,1,0,1:0:0:0:
448,0,182151,1,0,1:0:0:0:
192,0,182228,1,0,1:0:0:0:
320,0,182228,1,0,1:0:0:0:
448,0,182305,1,0,1:0:0:0:
64,0,182382,1,0,1:0:0:0:
192,0,182459,1,0,1:0:0:0:
448,0,182459,1,0,1:0:0:0:
64,0,182536,1,0,1:0:0:0:
320,0,182536,1,0,1:0:0:0:
448,0,182613,1,0,1:0:0:0:
64,0,182690,1,0,1:0:0:0:
192,0,182690,1,0,1:0:0:0:
320,0,182767,1,0,1:0:0:0:
448,0,182767,1,0,1:0:0:0:
64,0,182844,1,0,1:0:0:0:
192,0,182844,1,0,1:0:0:0:
320,0,182920,1,0,1:0:0:0:
64,0,182997,1,0,1:0:0:0:
192,0,182997,1,0,1:0:0:0:
320,0,183074,1,0,1:0:0:0:
448,0,183074,1,0,1:0:0:0:
64,0,183151,1,0,1:0:0:0:
192,0,183151,1,0,1:0:0:0:
320,0,183228,1,0,1:0:0:0:
448,0,183228,1,0,1:0:0:0:
192,0,183305,1,0,1:0:0:0:
64,0,183382,1,0,1:0:0:0:
448,0,183382,1,0,1:0:0:0:
192,0,183459,1,0,1:0:0:0:
320,0,183459,1,0,1:0:0:0:
64,0,183536,1,0,1:0:0:0:
192,0,183613,1,0,1:0:0:0:
448,0,183613,1,0,1:0:0:0:
64,0,183690,1,0,1:0:0:0:
320,0,183690,1,0,1:0:0:0:
192,0,183767,1,0,1:0:0:0:
448,0,183767,1,0,1:0:0:0:
320,0,183844,1,0,1:0:0:0:
64,0,183920,1,0,1:0:0:0:
192,0,183920,1,0,1:0:0:0:
320,0,183997,1,0,1:0:0:0:
448,0,183997,1,0,1:0:0:0:
64,0,184074,1,0,1:0:0:0:
320,0,184151,1,0,1:0:0:0:
64,0,184228,1,0,1:0:0:0:
192,0,184228,1,0,1:0:0:0:
320,0,184305,1,0,1:0:0:0:
448,0,184305,1,0,1:0:0:0:
64,0,184382,1,0,1:0:0:0:
192,0,184382,1,0,1:0:0:0:
320,0,184459,1,0,1:0:0:0:
448,0,184459,1,0,1:0:0:0:
192,0,184536,1,0,1:0:0:0:
64,0,184613,1,0,1:0:0:0:
448,0,184613,1,0,1:0:0:0:
192,0,184690,1,0,1:0:0:0:
320,0,184690,1,0,1:0:0:0:
448,0,184767,1,0,1:0:0:0:
320,0,184844,1,0,1:0:0:0:
192,0,184920,1,0,1:0:0:0:
448,0,184920,1,0,1:0:0:0:
64,0,184997,1,0,1:0:0:0:
320,0,184997,1,0,1:0:0:0:
448,0,185074,1,0,1:0:0:0:
64,0,185151,1,0,1:0:0:0:
192,0,185151,1,0,1:0:0:0:
320,0,185228,1,0,1:0:0:0:
448,0,185228,1,0,1:0:0:0:
64,0,185305,1,0,1:0:0:0:
192,0,185305,1,0,1:0:0:0:
320,0,185382,1,0,1:0:0:0:
64,0,185459,1,0,1:0:0:0:
192,0,185459,1,0,1:0:0:0:
320,0,185536,1,0,1:0:0:0:
448,0,185536,1,0,1:0:0:0:
64,0,185613,1,0,1:0:0:0:
192,0,185613,1,0,1:0:0:0:
320,0,185690,1,0,1:0:0:0:
448,0,185690,1,0,1:0:0:0:
192,0,185767,1,0,1:0:0:0:
64,0,185844,1,0,1:0:0:0:
320,0,185844,1,0,1:0:0:0:
192,0,185920,1,0,1:0:0:0:
448,0,185920,1,0,1:0:0:0:
64,0,185997,1,0,1:0:0:0:
192,0,186074,1,0,1:0:0:0:
448,0,186074,1,0,1:0:0:0:
64,0,186151,1,0,1:0:0:0:
320,0,186151,1,0,1:0:0:0:
192,0,186228,1,0,1:0:0:0:
448,0,186228,1,0,1:0:0:0:
320,0,186305,1,0,1:0:0:0:
64,0,186382,1,0,1:0:0:0:
192,0,186382,1,0,1:0:0:0:
320,0,186459,1,0,1:0:0:0:
448,0,186459,1,0,1:0:0:0:
64,0,186536,1,0,1:0:0:0:
320,0,186613,1,0,1:0:0:0:
64,0,186690,1,0,1:0:0:0:
192,0,186690,1,0,1:0:0:0:
320,0,186767,1,0,1:0:0:0:
448,0,186767,1,0,1:0:0:0:
64,0,186844,1,0,1:0:0:0:
192,0,186844,1,0,1:0:0:0:
320,0,186920,1,0,1:0:0:0:
448,0,186920,1,0,1:0:0:0:
192,0,186997,1,0,1:0:0:0:
64,0,187074,1,0,1:0:0:0:
192,0,187151,1,0,1:0:0:0:
320,0,187151,1,0,1:0:0:0:
448,0,187151,1,0,1:0:0:0:
64,0,187228,1,0,1:0:0:0:
192,0,187305,1,0,1:0:0:0:
320,0,187305,1,0,1:0:0:0:
448,0,187305,1,0,1:0:0:0:
64,0,187382,1,0,1:0:0:0:
192,0,187459,1,0,1:0:0:0:
320,0,187459,1,0,1:0:0:0:
448,0,187459,1,0,1:0:0:0:
64,0,187536,1,0,1:0:0:0:
192,0,187613,1,0,1:0:0:0:
320,0,187613,1,0,1:0:0:0:
64,0,187690,1,0,1:0:0:0:
448,0,187690,1,0,1:0:0:0:
192,0,187767,1,0,1:0:0:0:
320,0,187767,1,0,1:0:0:0:
448,0,187844,1,0,1:0:0:0:
64,0,187920,1,0,1:0:0:0:
192,0,187920,1,0,1:0:0:0:
320,0,187997,1,0,1:0:0:0:
448,0,187997,1,0,1:0:0:0:
64,0,188074,1,0,1:0:0:0:
192,0,188074,1,0,1:0:0:0:
320,0,188151,1,0,1:0:0:0:
448,0,188151,1,0,1:0:0:0:
64,0,188228,1,0,1:0:0:0:
192,0,188305,1,0,1:0:0:0:
448,0,188305,1,0,1:0:0:0:
64,0,188382,1,0,1:0:0:0:
320,0,188382,1,0,1:0:0:0:
448,0,188459,1,0,1:0:0:0:
64,0,188536,1,0,1:0:0:0:
192,0,188536,1,0,1:0:0:0:
320,0,188613,1,0,1:0:0:0:
448,0,188613,1,0,1:0:0:0:
64,0,188690,1,0,1:0:0:0:
192,0,188690,1,0,1:0:0:0:
320,0,188767,1,0,1:0:0:0:
448,0,188767,1,0,1:0:0:0:
64,0,188844,1,0,1:0:0:0:
192,0,188844,1,0,1:0:0:0:
320,0,188920,1,0,1:0:0:0:
448,0,188920,1,0,1:0:0:0:
64,0,188997,1,0,1:0:0:0:
192,0,188997,1,0,1:0:0:0:
320,0,189074,1,0,1:0:0:0:
448,0,189074,1,0,1:0:0:0:
64,0,189151,1,0,1:0:0:0:
192,0,189151,1,0,1:0:0:0:
320,0,189228,1,0,1:0:0:0:
64,0,189305,1,0,1:0:0:0:
448,0,189305,1,0,1:0:0:0:
320,0,189382,1,0,1:0:0:0:
64,0,189459,1,0,1:0:0:0:
448,0,189459,1,0,1:0:0:0:
320,0,189536,1,0,1:0:0:0:
64,0,189613,1,0,1:0:0:0:
192,0,189613,1,0,1:0:0:0:
448,0,189613,1,0,1:0:0:0:
320,0,189690,1,0,1:0:0:0:
448,0,189767,1,0,1:0:0:0:
64,0,189844,1,0,1:0:0:0:
192,0,189920,1,0,1:0:0:0:
320,0,189920,1,0,1:0:0:0:
448,0,189920,1,0,1:0:0:0:
64,0,189997,1,0,1:0:0:0:
320,0,190074,1,0,1:0:0:0:
448,0,190074,1,0,1:0:0:0:
64,0,190151,1,0,1:0:0:0:
192,0,190151,1,0,1:0:0:0:
320,0,190228,1,0,1:0:0:0:
448,0,190228,1,0,1:0:0:0:
64,0,190305,1,0,1:0:0:0:
320,0,190382,1,0,1:0:0:0:
448,0,190382,1,0,1:0:0:0:
64,0,190459,1,0,1:0:0:0:
192,0,190459,1,0,1:0:0:0:
320,0,190536,1,0,1:0:0:0:
448,0,190536,1,0,1:0:0:0:
64,0,190613,1,0,1:0:0:0:
192,0,190613,1,0,1:0:0:0:
320,0,190690,1,0,1:0:0:0:
64,0,190767,1,0,1:0:0:0:
448,0,190767,1,0,1:0:0:0:
192,0,190844,1,0,1:0:0:0:
320,0,190844,1,0,1:0:0:0:
448,0,190920,1,0,1:0:0:0:
64,0,190997,1,0,1:0:0:0:
320,0,190997,1,0,1:0:0:0:
448,0,191074,1,0,1:0:0:0:
64,0,191151,1,0,1:0:0:0:
192,0,191151,1,0,1:0:0:0:
320,0,191151,1,0,1:0:0:0:
448,0,191228,1,0,1:0:0:0:
192,0,191305,1,0,1:0:0:0:
320,0,191305,1,0,1:0:0:0:
64,0,191382,1,0,1:0:0:0:
192,0,191459,1,0,1:0:0:0:
448,0,191459,1,0,1:0:0:0:
64,0,191536,1,0,1:0:0:0:
320,0,191613,1,0,1:0:0:0:
448,0,191613,1,0,1:0:0:0:
64,0,191690,1,0,1:0:0:0:
192,0,191690,1,0,1:0:0:0:
320,0,191767,1,0,1:0:0:0:
448,0,191767,1,0,1:0:0:0:
64,0,191844,1,0,1:0:0:0:
192,0,191844,1,0,1:0:0:0:
320,0,191920,1,0,1:0:0:0:
448,0,191920,1,0,1:0:0:0:
64,0,191997,1,0,1:0:0:0:
192,0,191997,1,0,1:0:0:0:
320,0,192074,1,0,1:0:0:0:
448,0,192074,1,0,1:0:0:0:
64,0,192151,1,0,1:0:0:0:
192,0,192151,1,0,1:0:0:0:
320,0,192228,1,0,1:0:0:0:
448,0,192228,1,0,1:0:0:0:
192,0,192305,1,0,1:0:0:0:
64,0,192382,1,0,1:0:0:0:
320,0,192382,1,0,1:0:0:0:
448,0,192382,1,0,1:0:0:0:
192,0,192459,1,0,1:0:0:0:
64,0,192536,1,0,1:0:0:0:
448,0,192536,1,0,1:0:0:0:
192,0,192613,1,0,1:0:0:0:
320,0,192613,1,0,1:0:0:0:
64,0,192690,1,0,1:0:0:0:
448,0,192690,1,0,1:0:0:0:
192,0,192767,1,0,1:0:0:0:
320,0,192844,1,0,1:0:0:0:
448,0,192844,1,0,1:0:0:0:
64,0,192920,1,0,1:0:0:0:
192,0,192920,1,0,1:0:0:0:
320,0,192997,1,0,1:0:0:0:
448,0,192997,1,0,1:0:0:0:
64,0,193074,1,0,1:0:0:0:
192,0,193074,1,0,1:0:0:0:
320,0,193151,1,0,1:0:0:0:
64,0,193228,1,0,1:0:0:0:
448,0,193228,1,0,1:0:0:0:
192,0,193305,1,0,1:0:0:0:
320,0,193305,1,0,1:0:0:0:
448,0,193382,1,0,1:0:0:0:
64,0,193459,1,0,1:0:0:0:
320,0,193459,1,0,1:0:0:0:
192,0,193536,1,0,1:0:0:0:
64,0,193613,1,0,1:0:0:0:
320,0,193613,1,0,1:0:0:0:
448,0,193613,1,0,1:0:0:0:
192,0,193690,1,0,1:0:0:0:
320,0,193767,1,0,1:0:0:0:
448,0,193767,1,0,1:0:0:0:
64,0,193844,1,0,1:0:0:0:
192,0,193844,1,0,1:0:0:0:
320,0,193920,1,0,1:0:0:0:
448,0,193997,1,0,1:0:0:0:
64,0,194074,1,0,1:0:0:0:
192,0,194074,1,0,1:0:0:0:
320,0,194151,1,0,1:0:0:0:
448,0,194151,1,0,1:0:0:0:
64,0,194228,1,0,1:0:0:0:
192,0,194305,1,0,1:0:0:0:
320,0,194382,1,0,1:0:0:0:
448,0,194382,1,0,1:0:0:0:
64,0,194459,1,0,1:0:0:0:
192,0,194459,1,0,1:0:0:0:
448,0,194536,1,0,1:0:0:0:
320,0,194613,1,0,1:0:0:0:
64,0,194690,1,0,1:0:0:0:
192,0,194690,1,0,1:0:0:0:
320,0,194767,1,0,1:0:0:0:
64,0,194844,1,0,1:0:0:0:
192,0,194844,1,0,1:0:0:0:
448,0,194844,1,0,1:0:0:0:
320,0,194920,1,0,1:0:0:0:
64,0,194997,1,0,1:0:0:0:
192,0,194997,1,0,1:0:0:0:
448,0,194997,1,0,1:0:0:0:
320,0,195074,1,0,1:0:0:0:
64,0,195151,1,0,1:0:0:0:
192,0,195151,1,0,1:0:0:0:
448,0,195151,1,0,1:0:0:0:
320,0,195228,1,0,1:0:0:0:
64,0,195305,1,0,1:0:0:0:
192,0,195305,1,0,1:0:0:0:
448,0,195305,1,0,1:0:0:0:
320,0,195382,1,0,1:0:0:0:
64,0,195459,1,0,1:0:0:0:
192,0,195459,1,0,1:0:0:0:
448,0,195459,1,0,1:0:0:0:
320,0,195536,1,0,1:0:0:0:
64,0,195613,1,0,1:0:0:0:
192,0,195613,1,0,1:0:0:0:
448,0,195613,1,0,1:0:0:0:
320,0,195690,1,0,1:0:0:0:
64,0,195767,1,0,1:0:0:0:
192,0,195767,1,0,1:0:0:0:
448,0,195767,1,0,1:0:0:0:
320,0,195844,1,0,1:0:0:0:
64,0,195920,1,0,1:0:0:0:
192,0,195920,1,0,1:0:0:0:
448,0,195920,1,0,1:0:0:0:
320,0,195997,1,0,1:0:0:0:
64,0,196074,1,0,1:0:0:0:
192,0,196074,1,0,1:0:0:0:
448,0,196074,1,0,1:0:0:0:
320,0,196151,1,0,1:0:0:0:
64,0,196228,1,0,1:0:0:0:
320,0,196305,1,0,1:0:0:0:
448,0,196305,1,0,1:0:0:0:
64,0,196382,1,0,1:0:0:0:
192,0,196382,1,0,1:0:0:0:
320,0,196459,1,0,1:0:0:0:
448,0,196536,1,0,1:0:0:0:
192,0,196613,1,0,1:0:0:0:
64,0,196690,1,0,1:0:0:0:
320,0,196690,1,0,1:0:0:0:
448,0,196690,1,0,1:0:0:0:
192,0,196767,1,0,1:0:0:0:
64,0,196844,1,0,1:0:0:0:
320,0,196844,1,0,1:0:0:0:
448,0,196844,1,0,1:0:0:0:
192,0,196920,1,0,1:0:0:0:
64,0,196997,1,0,1:0:0:0:
320,0,196997,1,0,1:0:0:0:
448,0,196997,1,0,1:0:0:0:
192,0,197074,1,0,1:0:0:0:
448,0,197151,1,0,1:0:0:0:
64,0,197228,1,0,1:0:0:0:
192,0,197228,1,0,1:0:0:0:
320,0,197305,1,0,1:0:0:0:
448,0,197305,128,0,199792:0:0:0:0:
64,0,199792,1,0,1:0:0:0:
192,0,199792,1,0,1:0:0:0:
192,0,199969,1,0,1:0:0:0:
320,0,199969,1,0,1:0:0:0:
320,0,200147,1,0,1:0:0:0:
448,0,200147,1,0,1:0:0:0:
320,0,200324,1,0,1:0:0:0:
192,0,200502,1,0,1:0:0:0:
320,0,200679,1,0,1:0:0:0:
448,0,200679,128,0,200857:0:0:0:0:
64,0,201035,1,0,1:0:0:0:
448,0,201035,1,0,1:0:0:0:
192,0,201212,1,0,1:0:0:0:
320,0,201212,1,0,1:0:0:0:
64,0,201390,1,0,1:0:0:0:
448,0,201390,1,0,1:0:0:0:
320,0,201567,1,0,1:0:0:0:
448,0,201567,1,0,1:0:0:0:
320,0,201745,1,0,1:0:0:0:
448,0,201923,1,0,1:0:0:0:
64,0,202100,1,0,1:0:0:0:
192,0,202100,128,0,202278:0:0:0:0:
64,0,202810,1,0,1:0:0:0:
192,0,202810,1,0,1:0:0:0:
192,0,202988,1,0,1:0:0:0:
320,0,202988,1,0,1:0:0:0:
320,0,203166,1,0,1:0:0:0:
448,0,203343,1,0,1:0:0:0:
64,0,203521,1,0,1:0:0:0:
192,0,203521,128,0,203698:0:0:0:0:
320,0,204053,1,0,1:0:0:0:
448,0,204053,1,0,1:0:0:0:
192,0,204409,1,0,1:0:0:0:
320,0,204409,1,0,1:0:0:0:
320,0,204586,1,0,1:0:0:0:
448,0,204764,1,0,1:0:0:0:
64,0,204941,1,0,1:0:0:0:
192,0,204941,128,0,205119:0:0:0:0:
64,0,205652,1,0,1:0:0:0:
192,0,205652,1,0,1:0:0:0:
192,0,205829,1,0,1:0:0:0:
320,0,205829,1,0,1:0:0:0:
320,0,206007,1,0,1:0:0:0:
448,0,206184,1,0,1:0:0:0:
64,0,206362,1,0,1:0:0:0:
192,0,206362,128,0,206540:0:0:0:0:
320,0,206540,1,0,1:0:0:0:
448,0,206540,1,0,1:0:0:0:
64,0,206715,1,0,1:0:0:0:
448,0,206715,1,0,1:0:0:0:
64,0,207072,1,0,1:0:0:0:
192,0,207072,1,0,1:0:0:0:
320,0,207250,1,0,1:0:0:0:
320,0,207427,1,0,1:0:0:0:
448,0,207605,1,0,1:0:0:0:
192,0,207783,128,0,207960:0:0:0:0:
320,0,207960,1,0,1:0:0:0:
448,0,207960,1,0,1:0:0:0:
192,0,208315,1,0,1:0:0:0:
320,0,208315,1,0,1:0:0:0:
64,0,208670,1,0,1:0:0:0:
192,0,208670,1,0,1:0:0:0:
320,0,208848,1,0,1:0:0:0:
320,0,209026,1,0,1:0:0:0:
64,0,209203,1,0,1:0:0:0:
448,0,209203,128,0,209381:0:0:0:0:
320,0,209736,1,0,1:0:0:0:
448,0,209736,1,0,1:0:0:0:
64,0,210091,1,0,1:0:0:0:
192,0,210091,1,0,1:0:0:0:
320,0,210267,1,0,1:0:0:0:
320,0,210446,1,0,1:0:0:0:
448,0,210624,128,0,210801:0:0:0:0:
64,0,211157,1,0,1:0:0:0:
192,0,211157,1,0,1:0:0:0:
192,0,211334,1,0,1:0:0:0:
320,0,211334,1,0,1:0:0:0:
320,0,211510,1,0,1:0:0:0:
448,0,211510,1,0,1:0:0:0:
320,0,211689,1,0,1:0:0:0:
448,0,211867,1,0,1:0:0:0:
192,0,212044,128,0,212222:0:0:0:0:
320,0,212044,1,0,1:0:0:0:
64,0,212400,1,0,1:0:0:0:
448,0,212400,1,0,1:0:0:0:
192,0,212577,1,0,1:0:0:0:
320,0,212577,1,0,1:0:0:0:
64,0,212755,1,0,1:0:0:0:
448,0,212755,1,0,1:0:0:0:
320,0,212932,1,0,1:0:0:0:
448,0,212932,1,0,1:0:0:0:
320,0,213110,1,0,1:0:0:0:
448,0,213287,1,0,1:0:0:0:
64,0,213465,1,0,1:0:0:0:
192,0,213465,128,0,213643:0:0:0:0:
64,0,214175,1,0,1:0:0:0:
192,0,214175,1,0,1:0:0:0:
192,0,214353,1,0,1:0:0:0:
320,0,214353,1,0,1:0:0:0:
320,0,214531,1,0,1:0:0:0:
448,0,214708,1,0,1:0:0:0:
64,0,214886,1,0,1:0:0:0:
192,0,214886,128,0,215063:0:0:0:0:
320,0,215418,1,0,1:0:0:0:
448,0,215418,1,0,1:0:0:0:
64,0,215774,1,0,1:0:0:0:
320,0,215774,1,0,1:0:0:0:
320,0,215951,1,0,1:0:0:0:
448,0,216129,1,0,1:0:0:0:
320,0,216306,1,0,1:0:0:0:
192,0,216306,128,0,216484:0:0:0:0:
64,0,217017,1,0,1:0:0:0:
192,0,217017,1,0,1:0:0:0:
192,0,217194,1,0,1:0:0:0:
320,0,217194,1,0,1:0:0:0:
320,0,217372,1,0,1:0:0:0:
448,0,217549,1,0,1:0:0:0:
64,0,217727,128,0,217905:0:0:0:0:
192,0,217727,1,0,1:0:0:0:
192,0,217905,1,0,1:0:0:0:
320,0,217905,1,0,1:0:0:0:
320,0,218082,1,0,1:0:0:0:
448,0,218082,1,0,1:0:0:0:
64,0,218437,1,0,1:0:0:0:
192,0,218437,1,0,1:0:0:0:
320,0,218613,1,0,1:0:0:0:
320,0,218792,1,0,1:0:0:0:
64,0,218970,1,0,1:0:0:0:
448,0,218970,1,0,1:0:0:0:
192,0,219148,128,0,219325:0:0:0:0:
320,0,219325,1,0,1:0:0:0:
448,0,219325,1,0,1:0:0:0:
192,0,219680,1,0,1:0:0:0:
320,0,219680,1,0,1:0:0:0:
64,0,220035,1,0,1:0:0:0:
192,0,220035,1,0,1:0:0:0:
320,0,220213,1,0,1:0:0:0:
320,0,220391,1,0,1:0:0:0:
64,0,220568,1,0,1:0:0:0:
448,0,220568,128,0,222522:0:0:0:0:
64,0,222877,128,0,223587:0:0:0:0:
192,0,222877,1,0,1:0:0:0:
192,0,223587,128,0,224323:0:0:0:0:
320,0,223587,1,0,1:0:0:0:
320,0,224323,1,0,1:0:0:0:
448,0,224323,128,0,225018:0:0:0:0:
320,0,224500,1,0,1:0:0:0:
64,0,224678,1,0,1:0:0:0:
192,0,224855,1,0,1:0:0:0:
64,0,225180,1,0,1:0:0:0:
192,0,225180,1,0,1:0:0:0:
192,0,225355,1,0,1:0:0:0:
320,0,225355,1,0,1:0:0:0:
320,0,225530,1,0,1:0:0:0:
448,0,225530,1,0,1:0:0:0:
64,0,225743,128,0,226785:0:0:0:0:
320,0,225743,1,0,1:0:0:0:
320,0,225921,1,0,1:0:0:0:
448,0,226099,1,0,1:0:0:0:
192,0,226276,1,0,1:0:0:0:
64,0,226951,1,0,1:0:0:0:
192,0,226951,1,0,1:0:0:0:
192,0,227163,128,0,227696:0:0:0:0:
320,0,227163,1,0,1:0:0:0:
320,0,227341,1,0,1:0:0:0:
64,0,227517,1,0,1:0:0:0:
320,0,227696,1,0,1:0:0:0:
448,0,227696,128,0,228049:0:0:0:0:
192,0,228229,128,0,228584:0:0:0:0:
320,0,228229,1,0,1:0:0:0:
64,0,228584,128,0,228939:0:0:0:0:
320,0,228584,1,0,1:0:0:0:
320,0,228761,1,0,1:0:0:0:
448,0,228939,1,0,1:0:0:0:
192,0,229116,128,0,229629:0:0:0:0:
320,0,229116,1,0,1:0:0:0:
64,0,229796,1,0,1:0:0:0:
192,0,229796,1,0,1:0:0:0:
64,0,230003,128,0,230359:0:0:0:0:
320,0,230003,1,0,1:0:0:0:
320,0,230181,1,0,1:0:0:0:
448,0,230359,1,0,1:0:0:0:
64,0,230536,1,0,1:0:0:0:
192,0,230536,1,0,1:0:0:0:
192,0,230714,1,0,1:0:0:0:
320,0,230714,1,0,1:0:0:0:
192,0,230891,1,0,1:0:0:0:
448,0,230891,128,0,231246:0:0:0:0:
64,0,231246,128,0,231779:0:0:0:0:
192,0,231246,1,0,1:0:0:0:
320,0,231424,1,0,1:0:0:0:
320,0,231601,1,0,1:0:0:0:
448,0,231779,1,0,1:0:0:0:
320,0,231956,1,0,1:0:0:0:
64,0,232106,128,0,232457:0:0:0:0:
192,0,232106,1,0,1:0:0:0:
192,0,232457,1,0,1:0:0:0:
448,0,232457,128,0,232839:0:0:0:0:
64,0,232839,128,0,233199:0:0:0:0:
320,0,232839,1,0,1:0:0:0:
320,0,233019,1,0,1:0:0:0:
448,0,233199,1,0,1:0:0:0:
64,0,233378,1,0,1:0:0:0:
192,0,233378,128,0,233894:0:0:0:0:
320,0,233894,1,0,1:0:0:0:
448,0,233894,128,0,234229:0:0:0:0:
192,0,234229,1,0,1:0:0:0:
320,0,234229,1,0,1:0:0:0:
64,0,234406,1,0,1:0:0:0:
192,0,234495,1,0,1:0:0:0:
64,0,234583,1,0,1:0:0:0:
320,0,234583,1,0,1:0:0:0:
448,0,234761,1,0,1:0:0:0:
320,0,234849,1,0,1:0:0:0:
192,0,234938,1,0,1:0:0:0:
448,0,234938,1,0,1:0:0:0:
320,0,235116,1,0,1:0:0:0:
192,0,235204,1,0,1:0:0:0:
64,0,235293,1,0,1:0:0:0:
448,0,235293,1,0,1:0:0:0:
320,0,235382,1,0,1:0:0:0:
64,0,235470,1,0,1:0:0:0:
192,0,235470,1,0,1:0:0:0:
320,0,235559,1,0,1:0:0:0:
64,0,235648,1,0,1:0:0:0:
192,0,235648,1,0,1:0:0:0:
448,0,235648,1,0,1:0:0:0:
320,0,235725,1,0,1:0:0:0:
448,0,235802,1,0,1:0:0:0:
320,0,235879,1,0,1:0:0:0:
64,0,235956,1,0,1:0:0:0:
192,0,236033,1,0,1:0:0:0:
320,0,236110,1,0,1:0:0:0:
192,0,236187,1,0,1:0:0:0:
448,0,236264,1,0,1:0:0:0:
320,0,236341,1,0,1:0:0:0:
64,0,236418,1,0,1:0:0:0:
448,0,236418,1,0,1:0:0:0:
320,0,236495,1,0,1:0:0:0:
64,0,236572,1,0,1:0:0:0:
192,0,236572,1,0,1:0:0:0:
448,0,236648,1,0,1:0:0:0:
192,0,236725,1,0,1:0:0:0:
320,0,236725,1,0,1:0:0:0:
448,0,236802,1,0,1:0:0:0:
64,0,236879,1,0,1:0:0:0:
192,0,236879,1,0,1:0:0:0:
320,0,236879,1,0,1:0:0:0:
448,0,236956,1,0,1:0:0:0:
64,0,237033,1,0,1:0:0:0:
192,0,237110,1,0,1:0:0:0:
320,0,237187,1,0,1:0:0:0:
64,0,237264,1,0,1:0:0:0:
192,0,237341,1,0,1:0:0:0:
64,0,237418,1,0,1:0:0:0:
448,0,237495,1,0,1:0:0:0:
320,0,237572,1,0,1:0:0:0:
192,0,237648,1,0,1:0:0:0:
448,0,237725,1,0,1:0:0:0:
64,0,237802,1,0,1:0:0:0:
320,0,237879,1,0,1:0:0:0:
192,0,237956,1,0,1:0:0:0:
448,0,237956,1,0,1:0:0:0:
64,0,238033,1,0,1:0:0:0:
192,0,238110,1,0,1:0:0:0:
320,0,238110,1,0,1:0:0:0:
448,0,238110,1,0,1:0:0:0:
64,0,238187,1,0,1:0:0:0:
320,0,238264,1,0,1:0:0:0:
448,0,238341,1,0,1:0:0:0:
64,0,238418,1,0,1:0:0:0:
320,0,238495,1,0,1:0:0:0:
64,0,238572,1,0,1:0:0:0:
192,0,238572,1,0,1:0:0:0:
448,0,238648,1,0,1:0:0:0:
320,0,238725,1,0,1:0:0:0:
64,0,238802,1,0,1:0:0:0:
192,0,238879,1,0,1:0:0:0:
448,0,238956,1,0,1:0:0:0:
192,0,239033,1,0,1:0:0:0:
320,0,239033,1,0,1:0:0:0:
64,0,239110,1,0,1:0:0:0:
320,0,239187,1,0,1:0:0:0:
192,0,239264,1,0,1:0:0:0:
64,0,239341,1,0,1:0:0:0:
320,0,239341,1,0,1:0:0:0:
448,0,239341,1,0,1:0:0:0:
192,0,239418,1,0,1:0:0:0:
320,0,239495,1,0,1:0:0:0:
64,0,239572,1,0,1:0:0:0:
192,0,239648,1,0,1:0:0:0:
320,0,239725,1,0,1:0:0:0:
64,0,239802,1,0,1:0:0:0:
448,0,239802,1,0,1:0:0:0:
320,0,239879,1,0,1:0:0:0:
64,0,239956,1,0,1:0:0:0:
192,0,239956,1,0,1:0:0:0:
448,0,239956,1,0,1:0:0:0:
320,0,240033,1,0,1:0:0:0:
192,0,240110,1,0,1:0:0:0:
448,0,240187,1,0,1:0:0:0:
64,0,240264,1,0,1:0:0:0:
192,0,240264,1,0,1:0:0:0:
448,0,240341,1,0,1:0:0:0:
64,0,240418,1,0,1:0:0:0:
192,0,240418,1,0,1:0:0:0:
448,0,240495,1,0,1:0:0:0:
64,0,240572,1,0,1:0:0:0:
192,0,240572,1,0,1:0:0:0:
320,0,240572,1,0,1:0:0:0:
448,0,240648,1,0,1:0:0:0:
64,0,240725,1,0,1:0:0:0:
192,0,240725,1,0,1:0:0:0:
320,0,240802,1,0,1:0:0:0:
64,0,240879,1,0,1:0:0:0:
448,0,240879,1,0,1:0:0:0:
192,0,240956,1,0,1:0:0:0:
320,0,241033,1,0,1:0:0:0:
448,0,241033,1,0,1:0:0:0:
192,0,241110,1,0,1:0:0:0:
64,0,241187,1,0,1:0:0:0:
448,0,241187,1,0,1:0:0:0:
320,0,241264,1,0,1:0:0:0:
64,0,241341,1,0,1:0:0:0:
192,0,241341,1,0,1:0:0:0:
448,0,241418,1,0,1:0:0:0:
192,0,241495,1,0,1:0:0:0:
320,0,241495,1,0,1:0:0:0:
64,0,241572,1,0,1:0:0:0:
320,0,241648,1,0,1:0:0:0:
448,0,241648,1,0,1:0:0:0:
192,0,241725,1,0,1:0:0:0:
64,0,241802,1,0,1:0:0:0:
320,0,241802,1,0,1:0:0:0:
448,0,241802,1,0,1:0:0:0:
192,0,241879,1,0,1:0:0:0:
64,0,241956,1,0,1:0:0:0:
320,0,241956,1,0,1:0:0:0:
448,0,242033,1,0,1:0:0:0:
192,0,242110,1,0,1:0:0:0:
320,0,242110,1,0,1:0:0:0:
448,0,242187,1,0,1:0:0:0:
64,0,242264,1,0,1:0:0:0:
192,0,242264,1,0,1:0:0:0:
320,0,242341,1,0,1:0:0:0:
64,0,242418,1,0,1:0:0:0:
448,0,242418,1,0,1:0:0:0:
320,0,242495,1,0,1:0:0:0:
64,0,242572,1,0,1:0:0:0:
448,0,242572,1,0,1:0:0:0:
192,0,242648,1,0,1:0:0:0:
320,0,242725,1,0,1:0:0:0:
448,0,242725,1,0,1:0:0:0:
192,0,242802,1,0,1:0:0:0:
64,0,242879,1,0,1:0:0:0:
448,0,242879,1,0,1:0:0:0:
320,0,242956,1,0,1:0:0:0:
64,0,243033,1,0,1:0:0:0:
192,0,243033,1,0,1:0:0:0:
448,0,243033,1,0,1:0:0:0:
320,0,243110,1,0,1:0:0:0:
64,0,243187,1,0,1:0:0:0:
192,0,243187,1,0,1:0:0:0:
320,0,243264,1,0,1:0:0:0:
448,0,243264,1,0,1:0:0:0:
64,0,243341,1,0,1:0:0:0:
192,0,243341,1,0,1:0:0:0:
320,0,243418,1,0,1:0:0:0:
448,0,243418,1,0,1:0:0:0:
64,0,243495,1,0,1:0:0:0:
192,0,243495,1,0,1:0:0:0:
320,0,243572,1,0,1:0:0:0:
64,0,243648,1,0,1:0:0:0:
192,0,243648,1,0,1:0:0:0:
448,0,243648,1,0,1:0:0:0:
320,0,243725,1,0,1:0:0:0:
64,0,243802,1,0,1:0:0:0:
192,0,243802,1,0,1:0:0:0:
320,0,243879,1,0,1:0:0:0:
448,0,243879,1,0,1:0:0:0:
64,0,243956,1,0,1:0:0:0:
192,0,243956,1,0,1:0:0:0:
320,0,244033,1,0,1:0:0:0:
448,0,244033,1,0,1:0:0:0:
64,0,244110,1,0,1:0:0:0:
192,0,244110,1,0,1:0:0:0:
448,0,244187,1,0,1:0:0:0:
64,0,244264,1,0,1:0:0:0:
192,0,244264,1,0,1:0:0:0:
320,0,244264,1,0,1:0:0:0:
448,0,244341,1,0,1:0:0:0:
64,0,244418,1,0,1:0:0:0:
192,0,244418,1,0,1:0:0:0:
320,0,244495,1,0,1:0:0:0:
64,0,244572,1,0,1:0:0:0:
192,0,244572,1,0,1:0:0:0:
448,0,244572,1,0,1:0:0:0:
320,0,244648,1,0,1:0:0:0:
64,0,244725,1,0,1:0:0:0:
192,0,244725,1,0,1:0:0:0:
448,0,244802,1,0,1:0:0:0:
64,0,244879,1,0,1:0:0:0:
192,0,244879,1,0,1:0:0:0:
320,0,244879,1,0,1:0:0:0:
448,0,244956,1,0,1:0:0:0:
64,0,245033,1,0,1:0:0:0:
192,0,245033,1,0,1:0:0:0:
320,0,245110,1,0,1:0:0:0:
448,0,245110,1,0,1:0:0:0:
64,0,245187,1,0,1:0:0:0:
192,0,245187,1,0,1:0:0:0:
320,0,245264,1,0,1:0:0:0:
448,0,245264,1,0,1:0:0:0:
64,0,245341,1,0,1:0:0:0:
192,0,245341,1,0,1:0:0:0:
320,0,245418,1,0,1:0:0:0:
448,0,245418,1,0,1:0:0:0:
64,0,245495,1,0,1:0:0:0:
192,0,245495,1,0,1:0:0:0:
448,0,245725,1,0,1:0:0:0:
320,0,245956,1,0,1:0:0:0:
64,0,246418,1,0,1:0:0:0:
192,0,246418,1,0,1:0:0:0:
320,0,246418,1,0,1:0:0:0:
448,0,246418,1,0,1:0:0:0:
64,0,246572,1,0,1:0:0:0:
192,0,246572,1,0,1:0:0:0:
320,0,246572,1,0,1:0:0:0:
448,0,246572,1,0,1:0:0:0:
64,0,246725,1,0,1:0:0:0:
320,0,246725,1,0,1:0:0:0:
448,0,246725,1,0,1:0:0:0:
192,0,246802,1,0,1:0:0:0:
64,0,246879,1,0,1:0:0:0:
320,0,246879,1,0,1:0:0:0:
448,0,246956,1,0,1:0:0:0:
64,0,247033,1,0,1:0:0:0:
320,0,247033,1,0,1:0:0:0:
192,0,247110,1,0,1:0:0:0:
448,0,247110,1,0,1:0:0:0:
64,0,247187,1,0,1:0:0:0:
320,0,247187,1,0,1:0:0:0:
448,0,247264,1,0,1:0:0:0:
64,0,247341,1,0,1:0:0:0:
192,0,247341,1,0,1:0:0:0:
320,0,247418,1,0,1:0:0:0:
448,0,247418,1,0,1:0:0:0:
64,0,247495,1,0,1:0:0:0:
192,0,247495,1,0,1:0:0:0:
448,0,247572,1,0,1:0:0:0:
64,0,247648,1,0,1:0:0:0:
192,0,247648,1,0,1:0:0:0:
320,0,247648,1,0,1:0:0:0:
448,0,247725,1,0,1:0:0:0:
64,0,247802,1,0,1:0:0:0:
192,0,247802,1,0,1:0:0:0:
320,0,247802,1,0,1:0:0:0:
448,0,247879,1,0,1:0:0:0:
64,0,247956,1,0,1:0:0:0:
192,0,247956,1,0,1:0:0:0:
320,0,247956,1,0,1:0:0:0:
448,0,248033,1,0,1:0:0:0:
192,0,248110,1,0,1:0:0:0:
320,0,248110,1,0,1:0:0:0:
64,0,248187,1,0,1:0:0:0:
320,0,248264,1,0,1:0:0:0:
448,0,248264,1,0,1:0:0:0:
64,0,248341,1,0,1:0:0:0:
192,0,248341,1,0,1:0:0:0:
320,0,248418,1,0,1:0:0:0:
448,0,248418,1,0,1:0:0:0:
64,0,248495,1,0,1:0:0:0:
192,0,248572,1,0,1:0:0:0:
320,0,248572,1,0,1:0:0:0:
64,0,248648,1,0,1:0:0:0:
448,0,248648,1,0,1:0:0:0:
192,0,248725,1,0,1:0:0:0:
320,0,248725,1,0,1:0:0:0:
64,0,248802,1,0,1:0:0:0:
320,0,248879,1,0,1:0:0:0:
448,0,248879,1,0,1:0:0:0:
192,0,248956,1,0,1:0:0:0:
64,0,249033,1,0,1:0:0:0:
320,0,249033,1,0,1:0:0:0:
448,0,249033,1,0,1:0:0:0:
192,0,249110,1,0,1:0:0:0:
64,0,249187,1,0,1:0:0:0:
320,0,249187,1,0,1:0:0:0:
448,0,249187,1,0,1:0:0:0:
192,0,249264,1,0,1:0:0:0:
320,0,249341,1,0,1:0:0:0:
448,0,249341,1,0,1:0:0:0:
64,0,249418,1,0,1:0:0:0:
192,0,249495,1,0,1:0:0:0:
448,0,249495,1,0,1:0:0:0:
320,0,249572,1,0,1:0:0:0:
64,0,249648,1,0,1:0:0:0:
192,0,249648,1,0,1:0:0:0:
448,0,249648,1,0,1:0:0:0:
320,0,249725,1,0,1:0:0:0:
64,0,249802,1,0,1:0:0:0:
448,0,249802,1,0,1:0:0:0:
192,0,249879,1,0,1:0:0:0:
320,0,249879,1,0,1:0:0:0:
64,0,249956,1,0,1:0:0:0:
448,0,249956,1,0,1:0:0:0:
192,0,250033,1,0,1:0:0:0:
64,0,250110,1,0,1:0:0:0:
320,0,250110,1,0,1:0:0:0:
448,0,250110,1,0,1:0:0:0:
192,0,250187,1,0,1:0:0:0:
64,0,250264,1,0,1:0:0:0:
320,0,250264,1,0,1:0:0:0:
448,0,250341,1,0,1:0:0:0:
64,0,250418,1,0,1:0:0:0:
192,0,250418,1,0,1:0:0:0:
320,0,250418,1,0,1:0:0:0:
448,0,250495,1,0,1:0:0:0:
64,0,250572,1,0,1:0:0:0:
192,0,250572,1,0,1:0:0:0:
320,0,250648,1,0,1:0:0:0:
64,0,250725,1,0,1:0:0:0:
192,0,250725,1,0,1:0:0:0:
320,0,250802,1,0,1:0:0:0:
448,0,250802,1,0,1:0:0:0:
64,0,250879,1,0,1:0:0:0:
192,0,250879,1,0,1:0:0:0:
320,0,250956,1,0,1:0:0:0:
64,0,251033,1,0,1:0:0:0:
192,0,251033,1,0,1:0:0:0:
320,0,251110,1,0,1:0:0:0:
448,0,251110,1,0,1:0:0:0:
64,0,251187,1,0,1:0:0:0:
192,0,251187,1,0,1:0:0:0:
320,0,251264,1,0,1:0:0:0:
64,0,251341,1,0,1:0:0:0:
192,0,251341,1,0,1:0:0:0:
448,0,251341,1,0,1:0:0:0:
320,0,251418,1,0,1:0:0:0:
64,0,251495,1,0,1:0:0:0:
192,0,251495,1,0,1:0:0:0:
448,0,251495,1,0,1:0:0:0:
320,0,251572,1,0,1:0:0:0:
64,0,251648,1,0,1:0:0:0:
192,0,251648,1,0,1:0:0:0:
448,0,251648,1,0,1:0:0:0:
320,0,251725,1,0,1:0:0:0:
64,0,251802,1,0,1:0:0:0:
448,0,251802,1,0,1:0:0:0:
320,0,251879,1,0,1:0:0:0:
64,0,251956,1,0,1:0:0:0:
192,0,251956,1,0,1:0:0:0:
320,0,252033,1,0,1:0:0:0:
64,0,252110,1,0,1:0:0:0:
192,0,252110,1,0,1:0:0:0:
448,0,252110,1,0,1:0:0:0:
320,0,252187,1,0,1:0:0:0:
64,0,252264,1,0,1:0:0:0:
192,0,252264,1,0,1:0:0:0:
448,0,252264,1,0,1:0:0:0:
320,0,252341,1,0,1:0:0:0:
64,0,252418,1,0,1:0:0:0:
192,0,252418,1,0,1:0:0:0:
448,0,252418,1,0,1:0:0:0:
320,0,252495,1,0,1:0:0:0:
192,0,252572,1,0,1:0:0:0:
448,0,252572,1,0,1:0:0:0:
64,0,252648,1,0,1:0:0:0:
192,0,252725,1,0,1:0:0:0:
320,0,252725,1,0,1:0:0:0:
448,0,252725,1,0,1:0:0:0:
64,0,252802,1,0,1:0:0:0:
320,0,252879,1,0,1:0:0:0:
448,0,252879,1,0,1:0:0:0:
192,0,252956,1,0,1:0:0:0:
64,0,253033,1,0,1:0:0:0:
448,0,253033,1,0,1:0:0:0:
320,0,253110,1,0,1:0:0:0:
64,0,253187,1,0,1:0:0:0:
192,0,253187,1,0,1:0:0:0:
448,0,253187,1,0,1:0:0:0:
320,0,253264,1,0,1:0:0:0:
192,0,253341,1,0,1:0:0:0:
448,0,253341,1,0,1:0:0:0:
64,0,253418,1,0,1:0:0:0:
192,0,253495,1,0,1:0:0:0:
320,0,253495,1,0,1:0:0:0:
448,0,253495,1,0,1:0:0:0:
64,0,253572,1,0,1:0:0:0:
320,0,253648,1,0,1:0:0:0:
448,0,253648,1,0,1:0:0:0:
192,0,253725,1,0,1:0:0:0:
64,0,253802,1,0,1:0:0:0:
320,0,253802,1,0,1:0:0:0:
448,0,253802,1,0,1:0:0:0:
192,0,253879,1,0,1:0:0:0:
64,0,253956,1,0,1:0:0:0:
448,0,253956,1,0,1:0:0:0:
320,0,254033,1,0,1:0:0:0:
64,0,254110,1,0,1:0:0:0:
192,0,254110,1,0,1:0:0:0:
448,0,254110,1,0,1:0:0:0:
320,0,254187,1,0,1:0:0:0:
192,0,254264,1,0,1:0:0:0:
448,0,254264,1,0,1:0:0:0:
64,0,254341,1,0,1:0:0:0:
320,0,254418,1,0,1:0:0:0:
448,0,254418,1,0,1:0:0:0:
192,0,254495,1,0,1:0:0:0:
64,0,254572,1,0,1:0:0:0:
320,0,254572,1,0,1:0:0:0:
448,0,254572,1,0,1:0:0:0:
192,0,254648,1,0,1:0:0:0:
320,0,254725,1,0,1:0:0:0:
448,0,254725,1,0,1:0:0:0:
64,0,254802,1,0,1:0:0:0:
192,0,254802,1,0,1:0:0:0:
320,0,254879,1,0,1:0:0:0:
448,0,254879,1,0,1:0:0:0:
64,0,254956,1,0,1:0:0:0:
192,0,255033,1,0,1:0:0:0:
320,0,255033,1,0,1:0:0:0:
448,0,255033,1,0,1:0:0:0:
64,0,255110,1,0,1:0:0:0:
192,0,255187,1,0,1:0:0:0:
320,0,255187,1,0,1:0:0:0:
448,0,255264,1,0,1:0:0:0:
64,0,255341,1,0,1:0:0:0:
192,0,255341,1,0,1:0:0:0:
320,0,255341,1,0,1:0:0:0:
448,0,255418,1,0,1:0:0:0:
64,0,255495,1,0,1:0:0:0:
192,0,255495,1,0,1:0:0:0:
320,0,255572,1,0,1:0:0:0:
448,0,255572,1,0,1:0:0:0:
64,0,255648,1,0,1:0:0:0:
192,0,255648,1,0,1:0:0:0:
320,0,255725,1,0,1:0:0:0:
448,0,255725,1,0,1:0:0:0:
64,0,255802,1,0,1:0:0:0:
192,0,255802,1,0,1:0:0:0:
448,0,255879,1,0,1:0:0:0:
64,0,255956,1,0,1:0:0:0:
192,0,255956,1,0,1:0:0:0:
320,0,255956,1,0,1:0:0:0:
448,0,256033,1,0,1:0:0:0:
64,0,256110,1,0,1:0:0:0:
320,0,256110,1,0,1:0:0:0:
192,0,256187,1,0,1:0:0:0:
64,0,256264,1,0,1:0:0:0:
320,0,256264,1,0,1:0:0:0:
448,0,256264,1,0,1:0:0:0:
192,0,256341,1,0,1:0:0:0:
64,0,256418,1,0,1:0:0:0:
320,0,256418,1,0,1:0:0:0:
448,0,256418,1,0,1:0:0:0:
192,0,256495,1,0,1:0:0:0:
64,0,256572,1,0,1:0:0:0:
320,0,256572,1,0,1:0:0:0:
448,0,256572,1,0,1:0:0:0:
192,0,256648,1,0,1:0:0:0:
64,0,256725,1,0,1:0:0:0:
320,0,256725,1,0,1:0:0:0:
448,0,256802,1,0,1:0:0:0:
64,0,256879,1,0,1:0:0:0:
320,0,256879,1,0,1:0:0:0:
192,0,256956,1,0,1:0:0:0:
448,0,256956,1,0,1:0:0:0:
64,0,257033,1,0,1:0:0:0:
320,0,257033,1,0,1:0:0:0:
448,0,257110,1,0,1:0:0:0:
64,0,257187,1,0,1:0:0:0:
192,0,257187,1,0,1:0:0:0:
448,0,257264,1,0,1:0:0:0:
64,0,257341,1,0,1:0:0:0:
192,0,257341,1,0,1:0:0:0:
320,0,257341,1,0,1:0:0:0:
448,0,257418,1,0,1:0:0:0:
64,0,257495,1,0,1:0:0:0:
192,0,257495,1,0,1:0:0:0:
320,0,257495,1,0,1:0:0:0:
448,0,257572,1,0,1:0:0:0:
64,0,257648,1,0,1:0:0:0:
192,0,257648,1,0,1:0:0:0:
320,0,257648,1,0,1:0:0:0:
448,0,257725,1,0,1:0:0:0:
64,0,257802,1,0,1:0:0:0:
192,0,257802,1,0,1:0:0:0:
320,0,257802,1,0,1:0:0:0:
448,0,257879,1,0,1:0:0:0:
192,0,257956,1,0,1:0:0:0:
320,0,257956,1,0,1:0:0:0:
64,0,258033,1,0,1:0:0:0:
192,0,258110,1,0,1:0:0:0:
320,0,258110,1,0,1:0:0:0:
448,0,258110,1,0,1:0:0:0:
64,0,258187,1,0,1:0:0:0:
320,0,258264,1,0,1:0:0:0:
448,0,258264,1,0,1:0:0:0:
64,0,258341,1,0,1:0:0:0:
192,0,258341,1,0,1:0:0:0:
320,0,258418,1,0,1:0:0:0:
448,0,258418,1,0,1:0:0:0:
64,0,258495,1,0,1:0:0:0:
192,0,258572,1,0,1:0:0:0:
320,0,258572,1,0,1:0:0:0:
64,0,258648,1,0,1:0:0:0:
320,0,258725,1,0,1:0:0:0:
448,0,258725,1,0,1:0:0:0:
192,0,258802,1,0,1:0:0:0:
64,0,258879,1,0,1:0:0:0:
320,0,258879,1,0,1:0:0:0:
448,0,258879,1,0,1:0:0:0:
192,0,258956,1,0,1:0:0:0:
64,0,259033,1,0,1:0:0:0:
320,0,259033,1,0,1:0:0:0:
448,0,259033,1,0,1:0:0:0:
192,0,259110,1,0,1:0:0:0:
64,0,259187,1,0,1:0:0:0:
448,0,259187,1,0,1:0:0:0:
320,0,259264,1,0,1:0:0:0:
64,0,259341,1,0,1:0:0:0:
192,0,259341,1,0,1:0:0:0:
448,0,259418,1,0,1:0:0:0:
64,0,259495,1,0,1:0:0:0:
192,0,259495,1,0,1:0:0:0:
320,0,259495,1,0,1:0:0:0:
448,0,259572,1,0,1:0:0:0:
64,0,259648,1,0,1:0:0:0:
192,0,259648,1,0,1:0:0:0:
320,0,259725,1,0,1:0:0:0:
192,0,259802,1,0,1:0:0:0:
448,0,259802,1,0,1:0:0:0:
64,0,259879,1,0,1:0:0:0:
192,0,259956,1,0,1:0:0:0:
320,0,259956,1,0,1:0:0:0:
448,0,259956,1,0,1:0:0:0:
64,0,260033,1,0,1:0:0:0:
192,0,260110,1,0,1:0:0:0:
320,0,260110,1,0,1:0:0:0:
448,0,260187,1,0,1:0:0:0:
64,0,260264,1,0,1:0:0:0:
192,0,260264,1,0,1:0:0:0:
320,0,260264,1,0,1:0:0:0:
448,0,260341,1,0,1:0:0:0:
64,0,260418,1,0,1:0:0:0:
192,0,260418,1,0,1:0:0:0:
320,0,260495,1,0,1:0:0:0:
64,0,260572,1,0,1:0:0:0:
192,0,260572,1,0,1:0:0:0:
320,0,260648,1,0,1:0:0:0:
64,0,260725,1,0,1:0:0:0:
192,0,260725,1,0,1:0:0:0:
448,0,260725,1,0,1:0:0:0:
320,0,260802,1,0,1:0:0:0:
64,0,260879,1,0,1:0:0:0:
192,0,260879,1,0,1:0:0:0:
448,0,260879,1,0,1:0:0:0:
320,0,260956,1,0,1:0:0:0:
192,0,261033,1,0,1:0:0:0:
448,0,261033,1,0,1:0:0:0:
64,0,261110,1,0,1:0:0:0:
320,0,261187,1,0,1:0:0:0:
448,0,261187,1,0,1:0:0:0:
64,0,261264,1,0,1:0:0:0:
192,0,261341,1,0,1:0:0:0:
320,0,261341,1,0,1:0:0:0:
448,0,261341,1,0,1:0:0:0:
64,0,261418,1,0,1:0:0:0:
192,0,261495,1,0,1:0:0:0:
320,0,261495,1,0,1:0:0:0:
448,0,261495,1,0,1:0:0:0:
64,0,261572,1,0,1:0:0:0:
320,0,261648,1,0,1:0:0:0:
448,0,261648,1,0,1:0:0:0:
192,0,261725,1,0,1:0:0:0:
320,0,261802,1,0,1:0:0:0:
448,0,261802,1,0,1:0:0:0:
192,0,261879,1,0,1:0:0:0:
64,0,261956,1,0,1:0:0:0:
320,0,261956,1,0,1:0:0:0:
448,0,261956,1,0,1:0:0:0:
192,0,262033,1,0,1:0:0:0:
64,0,262110,1,0,1:0:0:0:
320,0,262110,1,0,1:0:0:0:
448,0,262110,1,0,1:0:0:0:
192,0,262187,1,0,1:0:0:0:
64,0,262264,1,0,1:0:0:0:
320,0,262264,1,0,1:0:0:0:
448,0,262264,1,0,1:0:0:0:
192,0,262341,1,0,1:0:0:0:
320,0,262418,1,0,1:0:0:0:
448,0,262418,1,0,1:0:0:0:
64,0,262495,1,0,1:0:0:0:
192,0,262572,1,0,1:0:0:0:
320,0,262572,1,0,1:0:0:0:
448,0,262572,1,0,1:0:0:0:
64,0,262648,1,0,1:0:0:0:
320,0,262725,1,0,1:0:0:0:
448,0,262725,1,0,1:0:0:0:
192,0,262802,1,0,1:0:0:0:
64,0,262879,1,0,1:0:0:0:
448,0,262879,1,0,1:0:0:0:
320,0,262956,1,0,1:0:0:0:
64,0,263033,1,0,1:0:0:0:
192,0,263033,1,0,1:0:0:0:
448,0,263033,1,0,1:0:0:0:
320,0,263110,1,0,1:0:0:0:
64,0,263187,1,0,1:0:0:0:
192,0,263187,1,0,1:0:0:0:
320,0,263264,1,0,1:0:0:0:
64,0,263341,1,0,1:0:0:0:
192,0,263341,1,0,1:0:0:0:
448,0,263341,1,0,1:0:0:0:
320,0,263418,1,0,1:0:0:0:
64,0,263495,1,0,1:0:0:0:
448,0,263495,1,0,1:0:0:0:
192,0,263572,1,0,1:0:0:0:
64,0,263648,1,0,1:0:0:0:
320,0,263648,1,0,1:0:0:0:
448,0,263648,1,0,1:0:0:0:
192,0,263725,1,0,1:0:0:0:
320,0,263802,1,0,1:0:0:0:
448,0,263802,1,0,1:0:0:0:
192,0,263879,1,0,1:0:0:0:
64,0,263956,1,0,1:0:0:0:
320,0,263956,1,0,1:0:0:0:
448,0,263956,1,0,1:0:0:0:
192,0,264033,1,0,1:0:0:0:
64,0,264110,1,0,1:0:0:0:
320,0,264110,1,0,1:0:0:0:
448,0,264187,1,0,1:0:0:0:
64,0,264264,1,0,1:0:0:0:
320,0,264264,1,0,1:0:0:0:
192,0,264341,1,0,1:0:0:0:
64,0,264418,1,0,1:0:0:0:
320,0,264418,1,0,1:0:0:0:
448,0,264418,1,0,1:0:0:0:
192,0,264495,1,0,1:0:0:0:
64,0,264572,1,0,1:0:0:0:
320,0,264572,1,0,1:0:0:0:
448,0,264572,1,0,1:0:0:0:
192,0,264648,1,0,1:0:0:0:
320,0,264725,1,0,1:0:0:0:
448,0,264725,1,0,1:0:0:0:
64,0,264802,1,0,1:0:0:0:
192,0,264879,1,0,1:0:0:0:
320,0,264879,1,0,1:0:0:0:
448,0,264879,1,0,1:0:0:0:
64,0,264956,1,0,1:0:0:0:
192,0,265033,1,0,1:0:0:0:
320,0,265033,1,0,1:0:0:0:
448,0,265110,1,0,1:0:0:0:
64,0,265187,1,0,1:0:0:0:
192,0,265187,1,0,1:0:0:0:
320,0,265187,1,0,1:0:0:0:
448,0,265264,1,0,1:0:0:0:
64,0,265341,1,0,1:0:0:0:
192,0,265341,1,0,1:0:0:0:
320,0,265418,1,0,1:0:0:0:
64,0,265495,1,0,1:0:0:0:
192,0,265495,1,0,1:0:0:0:
320,0,265572,1,0,1:0:0:0:
64,0,265648,1,0,1:0:0:0:
192,0,265648,1,0,1:0:0:0:
320,0,265725,1,0,1:0:0:0:
192,0,265802,1,0,1:0:0:0:
448,0,265802,1,0,1:0:0:0:
64,0,265879,1,0,1:0:0:0:
320,0,265956,1,0,1:0:0:0:
448,0,265956,1,0,1:0:0:0:
192,0,266033,1,0,1:0:0:0:
64,0,266110,1,0,1:0:0:0:
320,0,266110,1,0,1:0:0:0:
448,0,266110,1,0,1:0:0:0:
192,0,266187,1,0,1:0:0:0:
64,0,266264,1,0,1:0:0:0:
320,0,266264,1,0,1:0:0:0:
448,0,266264,1,0,1:0:0:0:
192,0,266341,1,0,1:0:0:0:
64,0,266418,1,0,1:0:0:0:
320,0,266418,1,0,1:0:0:0:
448,0,266418,1,0,1:0:0:0:
192,0,266495,1,0,1:0:0:0:
64,0,266572,1,0,1:0:0:0:
320,0,266572,1,0,1:0:0:0:
448,0,266648,1,0,1:0:0:0:
64,0,266725,1,0,1:0:0:0:
320,0,266725,1,0,1:0:0:0:
192,0,266802,1,0,1:0:0:0:
448,0,266802,1,0,1:0:0:0:
64,0,266879,1,0,1:0:0:0:
320,0,266879,1,0,1:0:0:0:
448,0,266956,1,0,1:0:0:0:
64,0,267033,1,0,1:0:0:0:
192,0,267033,1,0,1:0:0:0:
320,0,267110,1,0,1:0:0:0:
448,0,267110,1,0,1:0:0:0:
64,0,267187,1,0,1:0:0:0:
192,0,267187,1,0,1:0:0:0:
448,0,267264,1,0,1:0:0:0:
64,0,267341,1,0,1:0:0:0:
192,0,267341,1,0,1:0:0:0:
320,0,267341,1,0,1:0:0:0:
448,0,267418,1,0,1:0:0:0:
64,0,267495,1,0,1:0:0:0:
192,0,267495,1,0,1:0:0:0:
320,0,267495,1,0,1:0:0:0:
448,0,267572,1,0,1:0:0:0:
64,0,267648,1,0,1:0:0:0:
192,0,267648,1,0,1:0:0:0:
320,0,267648,1,0,1:0:0:0:
448,0,267725,1,0,1:0:0:0:
64,0,267802,1,0,1:0:0:0:
320,0,267802,1,0,1:0:0:0:
192,0,267879,1,0,1:0:0:0:
64,0,267956,1,0,1:0:0:0:
320,0,267956,1,0,1:0:0:0:
192,0,268033,1,0,1:0:0:0:
448,0,268033,1,0,1:0:0:0:
64,0,268110,1,0,1:0:0:0:
320,0,268110,1,0,1:0:0:0:
192,0,268187,1,0,1:0:0:0:
64,0,268264,1,0,1:0:0:0:
448,0,268264,1,0,1:0:0:0:
192,0,268341,1,0,1:0:0:0:
320,0,268341,1,0,1:0:0:0:
64,0,268418,1,0,1:0:0:0:
448,0,268418,1,0,1:0:0:0:
192,0,268495,1,0,1:0:0:0:
64,0,268572,1,0,1:0:0:0:
320,0,268572,1,0,1:0:0:0:
448,0,268648,1,0,1:0:0:0:
64,0,268725,1,0,1:0:0:0:
192,0,268725,1,0,1:0:0:0:
320,0,268725,1,0,1:0:0:0:
448,0,268802,1,0,1:0:0:0:
64,0,268879,1,0,1:0:0:0:
192,0,268879,1,0,1:0:0:0:
320,0,268879,1,0,1:0:0:0:
448,0,268956,1,0,1:0:0:0:
64,0,269033,1,0,1:0:0:0:
320,0,269033,1,0,1:0:0:0:
192,0,269110,1,0,1:0:0:0:
320,0,269187,1,0,1:0:0:0:
448,0,269187,1,0,1:0:0:0:
64,0,269264,1,0,1:0:0:0:
192,0,269341,1,0,1:0:0:0:
320,0,269341,1,0,1:0:0:0:
448,0,269341,1,0,1:0:0:0:
64,0,269418,1,0,1:0:0:0:
192,0,269495,1,0,1:0:0:0:
320,0,269495,1,0,1:0:0:0:
64,0,269572,1,0,1:0:0:0:
448,0,269572,1,0,1:0:0:0:
192,0,269648,1,0,1:0:0:0:
320,0,269648,1,0,1:0:0:0:
448,0,269725,1,0,1:0:0:0:
64,0,269802,1,0,1:0:0:0:
192,0,269802,1,0,1:0:0:0:
320,0,269802,1,0,1:0:0:0:
448,0,269879,1,0,1:0:0:0:
64,0,269956,1,0,1:0:0:0:
192,0,269956,1,0,1:0:0:0:
320,0,270033,1,0,1:0:0:0:
64,0,270110,1,0,1:0:0:0:
192,0,270110,1,0,1:0:0:0:
448,0,270110,1,0,1:0:0:0:
320,0,270187,1,0,1:0:0:0:
192,0,270264,1,0,1:0:0:0:
448,0,270264,1,0,1:0:0:0:
64,0,270341,1,0,1:0:0:0:
192,0,270418,1,0,1:0:0:0:
448,0,270418,1,0,1:0:0:0:
64,0,270495,1,0,1:0:0:0:
320,0,270495,1,0,1:0:0:0:
192,0,270572,1,0,1:0:0:0:
448,0,270572,1,0,1:0:0:0:
64,0,270648,1,0,1:0:0:0:
192,0,270725,1,0,1:0:0:0:
448,0,270725,1,0,1:0:0:0:
64,0,270802,1,0,1:0:0:0:
320,0,270802,1,0,1:0:0:0:
192,0,270879,1,0,1:0:0:0:
448,0,270879,1,0,1:0:0:0:
64,0,270956,1,0,1:0:0:0:
192,0,271033,1,0,1:0:0:0:
320,0,271033,1,0,1:0:0:0:
448,0,271033,1,0,1:0:0:0:
64,0,271110,1,0,1:0:0:0:
192,0,271187,1,0,1:0:0:0:
320,0,271187,1,0,1:0:0:0:
448,0,271187,1,0,1:0:0:0:
64,0,271264,1,0,1:0:0:0:
192,0,271341,1,0,1:0:0:0:
320,0,271341,1,0,1:0:0:0:
448,0,271341,1,0,1:0:0:0:
64,0,271418,1,0,1:0:0:0:
192,0,271495,1,0,1:0:0:0:
320,0,271495,1,0,1:0:0:0:
64,0,271572,1,0,1:0:0:0:
192,0,271648,1,0,1:0:0:0:
448,0,271648,1,0,1:0:0:0:
64,0,271725,1,0,1:0:0:0:
192,0,271802,1,0,1:0:0:0:
320,0,271802,1,0,1:0:0:0:
448,0,271802,1,0,1:0:0:0:
64,0,271879,1,0,1:0:0:0:
192,0,271956,1,0,1:0:0:0:
320,0,271956,1,0,1:0:0:0:
448,0,271956,1,0,1:0:0:0:
64,0,272033,1,0,1:0:0:0:
192,0,272110,1,0,1:0:0:0:
320,0,272110,1,0,1:0:0:0:
448,0,272110,1,0,1:0:0:0:
64,0,272187,1,0,1:0:0:0:
320,0,272264,1,0,1:0:0:0:
448,0,272264,1,0,1:0:0:0:
192,0,272341,1,0,1:0:0:0:
64,0,272418,1,0,1:0:0:0:
320,0,272418,1,0,1:0:0:0:
448,0,272418,1,0,1:0:0:0:
192,0,272495,1,0,1:0:0:0:
64,0,272572,1,0,1:0:0:0:
320,0,272572,1,0,1:0:0:0:
448,0,272648,1,0,1:0:0:0:
192,0,272725,1,0,1:0:0:0:
320,0,272725,1,0,1:0:0:0:
64,0,272802,1,0,1:0:0:0:
192,0,272879,1,0,1:0:0:0:
320,0,272879,1,0,1:0:0:0:
448,0,272879,1,0,1:0:0:0:
64,0,272956,1,0,1:0:0:0:
320,0,273033,1,0,1:0:0:0:
448,0,273033,1,0,1:0:0:0:
192,0,273110,1,0,1:0:0:0:
64,0,273187,1,0,1:0:0:0:
320,0,273187,1,0,1:0:0:0:
448,0,273187,1,0,1:0:0:0:
192,0,273264,1,0,1:0:0:0:
64,0,273341,1,0,1:0:0:0:
320,0,273341,1,0,1:0:0:0:
448,0,273418,1,0,1:0:0:0:
64,0,273495,1,0,1:0:0:0:
192,0,273495,1,0,1:0:0:0:
320,0,273495,1,0,1:0:0:0:
448,0,273572,1,0,1:0:0:0:
64,0,273648,1,0,1:0:0:0:
320,0,273648,1,0,1:0:0:0:
192,0,273725,1,0,1:0:0:0:
64,0,273802,1,0,1:0:0:0:
320,0,273802,1,0,1:0:0:0:
448,0,273802,1,0,1:0:0:0:
192,0,273879,1,0,1:0:0:0:
64,0,273956,1,0,1:0:0:0:
320,0,273956,1,0,1:0:0:0:
448,0,274033,1,0,1:0:0:0:
64,0,274110,1,0,1:0:0:0:
192,0,274110,1,0,1:0:0:0:
320,0,274187,1,0,1:0:0:0:
64,0,274264,1,0,1:0:0:0:
192,0,274264,1,0,1:0:0:0:
448,0,274264,1,0,1:0:0:0:
320,0,274341,1,0,1:0:0:0:
64,0,274418,1,0,1:0:0:0:
192,0,274418,1,0,1:0:0:0:
320,0,274495,1,0,1:0:0:0:
448,0,274495,1,0,1:0:0:0:
64,0,274572,1,0,1:0:0:0:
192,0,274572,1,0,1:0:0:0:
448,0,274648,1,0,1:0:0:0:
64,0,274725,1,0,1:0:0:0:
192,0,274725,1,0,1:0:0:0:
320,0,274725,1,0,1:0:0:0:
448,0,274802,1,0,1:0:0:0:
192,0,274879,1,0,1:0:0:0:
320,0,274879,1,0,1:0:0:0:
64,0,274956,1,0,1:0:0:0:
192,0,275033,1,0,1:0:0:0:
320,0,275033,1,0,1:0:0:0:
448,0,275033,1,0,1:0:0:0:
64,0,275110,1,0,1:0:0:0:
320,0,275187,1,0,1:0:0:0:
448,0,275187,1,0,1:0:0:0:
64,0,275264,1,0,1:0:0:0:
192,0,275264,1,0,1:0:0:0:
320,0,275341,1,0,1:0:0:0:
448,0,275341,1,0,1:0:0:0:
64,0,275418,1,0,1:0:0:0:
192,0,275418,1,0,1:0:0:0:
320,0,275495,1,0,1:0:0:0:
448,0,275495,1,0,1:0:0:0:
64,0,275572,1,0,1:0:0:0:
192,0,275648,1,0,1:0:0:0:
320,0,275648,1,0,1:0:0:0:
448,0,275648,1,0,1:0:0:0:
64,0,275725,1,0,1:0:0:0:
192,0,275802,1,0,1:0:0:0:
448,0,275802,1,0,1:0:0:0:
320,0,275879,1,0,1:0:0:0:
64,0,275956,1,0,1:0:0:0:
192,0,275956,1,0,1:0:0:0:
448,0,275956,1,0,1:0:0:0:
320,0,276033,1,0,1:0:0:0:
64,0,276110,1,0,1:0:0:0:
192,0,276110,1,0,1:0:0:0:
448,0,276110,1,0,1:0:0:0:
320,0,276187,1,0,1:0:0:0:
64,0,276264,1,0,1:0:0:0:
192,0,276264,1,0,1:0:0:0:
448,0,276264,1,0,1:0:0:0:
320,0,276341,1,0,1:0:0:0:
192,0,276418,1,0,1:0:0:0:
64,0,276495,1,0,1:0:0:0:
192,0,276572,1,0,1:0:0:0:
448,0,276572,1,0,1:0:0:0:
320,0,276648,1,0,1:0:0:0:
192,0,276725,1,0,1:0:0:0:
64,0,276802,1,0,1:0:0:0:
320,0,276879,1,0,1:0:0:0:
64,0,276956,1,0,1:0:0:0:
320,0,277033,1,0,1:0:0:0:
448,0,277033,1,0,1:0:0:0:
64,0,277110,1,0,1:0:0:0:
192,0,277187,1,0,1:0:0:0:
320,0,277187,1,0,1:0:0:0:
64,0,277264,1,0,1:0:0:0:
320,0,277341,1,0,1:0:0:0:
448,0,277341,1,0,1:0:0:0:
64,0,277418,1,0,1:0:0:0:
192,0,277495,1,0,1:0:0:0:
320,0,277495,1,0,1:0:0:0:
64,0,277572,1,0,1:0:0:0:
192,0,277648,1,0,1:0:0:0:
448,0,277725,1,0,1:0:0:0:
192,0,277802,1,0,1:0:0:0:
320,0,277802,1,0,1:0:0:0:
64,0,277879,1,0,1:0:0:0:
192,0,277956,1,0,1:0:0:0:
448,0,278033,1,0,1:0:0:0:
192,0,278110,1,0,1:0:0:0:
320,0,278110,1,0,1:0:0:0:
64,0,278187,1,0,1:0:0:0:
192,0,278264,1,0,1:0:0:0:
448,0,278341,1,0,1:0:0:0:
64,0,278418,1,0,1:0:0:0:
192,0,278418,1,0,1:0:0:0:
320,0,278495,1,0,1:0:0:0:
192,0,278572,1,0,1:0:0:0:
448,0,278572,1,0,1:0:0:0:
320,0,278648,1,0,1:0:0:0:
64,0,278725,1,0,1:0:0:0:
192,0,278725,1,0,1:0:0:0:
320,0,278802,1,0,1:0:0:0:
192,0,278879,1,0,1:0:0:0:
448,0,278956,1,0,1:0:0:0:
64,0,279033,1,0,1:0:0:0:
192,0,279110,1,0,1:0:0:0:
320,0,279187,1,0,1:0:0:0:
448,0,279187,1,0,1:0:0:0:
192,0,279264,1,0,1:0:0:0:
64,0,279341,1,0,1:0:0:0:
320,0,279418,1,0,1:0:0:0:
192,0,279495,1,0,1:0:0:0:
448,0,279572,1,0,1:0:0:0:
64,0,279648,1,0,1:0:0:0:
192,0,279648,1,0,1:0:0:0:
448,0,279725,1,0,1:0:0:0:
320,0,279802,1,0,1:0:0:0:
192,0,279879,1,0,1:0:0:0:
320,0,279956,1,0,1:0:0:0:
448,0,279956,1,0,1:0:0:0:
64,0,280033,1,0,1:0:0:0:
320,0,280110,1,0,1:0:0:0:
64,0,280187,1,0,1:0:0:0:
448,0,280264,1,0,1:0:0:0:
192,0,280341,1,0,1:0:0:0:
64,0,280418,1,0,1:0:0:0:
448,0,280418,1,0,1:0:0:0:
192,0,280495,1,0,1:0:0:0:
320,0,280572,1,0,1:0:0:0:
448,0,280648,1,0,1:0:0:0:
192,0,280725,1,0,1:0:0:0:
448,0,280802,1,0,1:0:0:0:
64,0,280879,1,0,1:0:0:0:
448,0,280956,1,0,1:0:0:0:
64,0,281033,1,0,1:0:0:0:
192,0,281033,1,0,1:0:0:0:
448,0,281110,1,0,1:0:0:0:
64,0,281187,1,0,1:0:0:0:
192,0,281187,1,0,1:0:0:0:
320,0,281187,1,0,1:0:0:0:
448,0,281264,1,0,1:0:0:0:
192,0,281341,1,0,1:0:0:0:
64,0,281418,1,0,1:0:0:0:
320,0,281495,1,0,1:0:0:0:
448,0,281572,1,0,1:0:0:0:
64,0,281648,1,0,1:0:0:0:
192,0,281648,1,0,1:0:0:0:
448,0,281725,1,0,1:0:0:0:
64,0,281802,1,0,1:0:0:0:
192,0,281802,1,0,1:0:0:0:
448,0,281879,1,0,1:0:0:0:
64,0,281956,1,0,1:0:0:0:
320,0,281956,1,0,1:0:0:0:
192,0,282033,1,0,1:0:0:0:
320,0,282110,1,0,1:0:0:0:
448,0,282187,1,0,1:0:0:0:
64,0,282264,1,0,1:0:0:0:
192,0,282264,1,0,1:0:0:0:
448,0,282341,1,0,1:0:0:0:
64,0,282418,1,0,1:0:0:0:
192,0,282418,1,0,1:0:0:0:
320,0,282418,1,0,1:0:0:0:
448,0,282495,1,0,1:0:0:0:
320,0,282572,1,0,1:0:0:0:
192,0,282648,1,0,1:0:0:0:
64,0,282725,1,0,1:0:0:0:
448,0,282725,1,0,1:0:0:0:
192,0,282802,1,0,1:0:0:0:
320,0,282879,1,0,1:0:0:0:
448,0,282956,1,0,1:0:0:0:
64,0,283033,1,0,1:0:0:0:
192,0,283033,1,0,1:0:0:0:
320,0,283033,1,0,1:0:0:0:
448,0,283110,1,0,1:0:0:0:
192,0,283187,1,0,1:0:0:0:
320,0,283264,1,0,1:0:0:0:
64,0,283341,1,0,1:0:0:0:
192,0,283341,1,0,1:0:0:0:
448,0,283341,1,0,1:0:0:0:
320,0,283418,1,0,1:0:0:0:
64,0,283495,1,0,1:0:0:0:
192,0,283495,1,0,1:0:0:0:
320,0,283572,1,0,1:0:0:0:
64,0,283648,1,0,1:0:0:0:
192,0,283648,1,0,1:0:0:0:
448,0,283648,1,0,1:0:0:0:
320,0,283725,1,0,1:0:0:0:
64,0,283802,1,0,1:0:0:0:
192,0,283802,1,0,1:0:0:0:
448,0,283879,1,0,1:0:0:0:
192,0,283956,1,0,1:0:0:0:
320,0,283956,1,0,1:0:0:0:
64,0,284033,1,0,1:0:0:0:
320,0,284110,1,0,1:0:0:0:
448,0,284110,1,0,1:0:0:0:
192,0,284187,1,0,1:0:0:0:
64,0,284264,1,0,1:0:0:0:
320,0,284264,1,0,1:0:0:0:
448,0,284264,1,0,1:0:0:0:
192,0,284341,1,0,1:0:0:0:
64,0,284418,1,0,1:0:0:0:
320,0,284418,1,0,1:0:0:0:
448,0,284495,1,0,1:0:0:0:
64,0,284572,1,0,1:0:0:0:
192,0,284572,1,0,1:0:0:0:
448,0,284648,1,0,1:0:0:0:
192,0,284725,1,0,1:0:0:0:
320,0,284725,1,0,1:0:0:0:
64,0,284802,1,0,1:0:0:0:
320,0,284879,1,0,1:0:0:0:
448,0,284879,1,0,1:0:0:0:
64,0,284956,1,0,1:0:0:0:
192,0,284956,1,0,1:0:0:0:
320,0,285033,1,0,1:0:0:0:
448,0,285033,1,0,1:0:0:0:
64,0,285110,1,0,1:0:0:0:
192,0,285110,1,0,1:0:0:0:
320,0,285187,1,0,1:0:0:0:
448,0,285187,1,0,1:0:0:0:
64,0,285264,1,0,1:0:0:0:
192,0,285264,1,0,1:0:0:0:
320,0,285341,1,0,1:0:0:0:
448,0,285341,1,0,1:0:0:0:
64,0,285418,1,0,1:0:0:0:
192,0,285418,1,0,1:0:0:0:
320,0,285495,1,0,1:0:0:0:
448,0,285495,1,0,1:0:0:0:
64,0,285572,1,0,1:0:0:0:
192,0,285572,1,0,1:0:0:0:
320,0,285648,1,0,1:0:0:0:
448,0,285648,1,0,1:0:0:0:
64,0,285725,1,0,1:0:0:0:
192,0,285725,1,0,1:0:0:0:
320,0,285802,1,0,1:0:0:0:
448,0,285802,1,0,1:0:0:0:
64,0,285879,1,0,1:0:0:0:
192,0,285879,1,0,1:0:0:0:
320,0,285956,1,0,1:0:0:0:
448,0,285956,1,0,1:0:0:0:
192,0,286033,1,0,1:0:0:0:
64,0,286110,1,0,1:0:0:0:
320,0,286110,1,0,1:0:0:0:
448,0,286110,1,0,1:0:0:0:
192,0,286187,1,0,1:0:0:0:
320,0,286264,1,0,1:0:0:0:
448,0,286264,1,0,1:0:0:0:
64,0,286341,1,0,1:0:0:0:
192,0,286341,1,0,1:0:0:0:
320,0,286418,1,0,1:0:0:0:
448,0,286418,1,0,1:0:0:0:
192,0,286495,1,0,1:0:0:0:
320,0,286572,1,0,1:0:0:0:
448,0,286572,1,0,1:0:0:0:
64,0,286648,1,0,1:0:0:0:
192,0,286648,1,0,1:0:0:0:
320,0,286725,1,0,1:0:0:0:
448,0,286725,1,0,1:0:0:0:
64,0,286802,1,0,1:0:0:0:
192,0,286802,1,0,1:0:0:0:
320,0,286879,1,0,1:0:0:0:
64,0,286956,1,0,1:0:0:0:
448,0,286956,1,0,1:0:0:0:
192,0,287033,1,0,1:0:0:0:
320,0,287033,1,0,1:0:0:0:
448,0,287110,1,0,1:0:0:0:
64,0,287187,1,0,1:0:0:0:
320,0,287187,1,0,1:0:0:0:
192,0,287264,1,0,1:0:0:0:
448,0,287264,1,0,1:0:0:0:
64,0,287341,1,0,1:0:0:0:
320,0,287341,1,0,1:0:0:0:
192,0,287418,1,0,1:0:0:0:
320,0,287495,1,0,1:0:0:0:
448,0,287495,1,0,1:0:0:0:
64,0,287572,1,0,1:0:0:0:
192,0,287572,1,0,1:0:0:0:
448,0,287648,1,0,1:0:0:0:
320,0,287725,1,0,1:0:0:0:
64,0,287802,1,0,1:0:0:0:
192,0,287802,1,0,1:0:0:0:
320,0,287879,1,0,1:0:0:0:
448,0,287879,1,0,1:0:0:0:
64,0,287956,1,0,1:0:0:0:
192,0,287956,1,0,1:0:0:0:
320,0,288033,1,0,1:0:0:0:
448,0,288033,1,0,1:0:0:0:
192,0,288110,1,0,1:0:0:0:
64,0,288187,1,0,1:0:0:0:
448,0,288187,1,0,1:0:0:0:
192,0,288264,1,0,1:0:0:0:
320,0,288264,1,0,1:0:0:0:
64,0,288341,1,0,1:0:0:0:
448,0,288418,1,0,1:0:0:0:
64,0,288495,1,0,1:0:0:0:
192,0,288495,1,0,1:0:0:0:
320,0,288572,1,0,1:0:0:0:
448,0,288572,1,0,1:0:0:0:
192,0,288648,1,0,1:0:0:0:
320,0,288725,1,0,1:0:0:0:
448,0,288725,1,0,1:0:0:0:
64,0,288802,1,0,1:0:0:0:
192,0,288802,1,0,1:0:0:0:
320,0,288879,1,0,1:0:0:0:
448,0,288879,1,0,1:0:0:0:
192,0,288956,1,0,1:0:0:0:
320,0,289033,1,0,1:0:0:0:
448,0,289033,1,0,1:0:0:0:
64,0,289110,1,0,1:0:0:0:
192,0,289110,1,0,1:0:0:0:
320,0,289187,1,0,1:0:0:0:
448,0,289187,1,0,1:0:0:0:
64,0,289264,1,0,1:0:0:0:
192,0,289264,1,0,1:0:0:0:
320,0,289341,1,0,1:0:0:0:
64,0,289418,1,0,1:0:0:0:
448,0,289418,1,0,1:0:0:0:
192,0,289495,1,0,1:0:0:0:
320,0,289495,1,0,1:0:0:0:
448,0,289572,1,0,1:0:0:0:
64,0,289648,1,0,1:0:0:0:
320,0,289648,1,0,1:0:0:0:
192,0,289725,1,0,1:0:0:0:
448,0,289725,1,0,1:0:0:0:
64,0,289802,1,0,1:0:0:0:
320,0,289802,1,0,1:0:0:0:
192,0,289879,1,0,1:0:0:0:
320,0,289956,1,0,1:0:0:0:
448,0,289956,1,0,1:0:0:0:
64,0,290033,1,0,1:0:0:0:
192,0,290033,1,0,1:0:0:0:
448,0,290110,1,0,1:0:0:0:
320,0,290187,1,0,1:0:0:0:
64,0,290264,1,0,1:0:0:0:
192,0,290264,1,0,1:0:0:0:
320,0,290341,1,0,1:0:0:0:
448,0,290341,1,0,1:0:0:0:
64,0,290418,1,0,1:0:0:0:
192,0,290418,1,0,1:0:0:0:
320,0,290495,1,0,1:0:0:0:
448,0,290495,1,0,1:0:0:0:
192,0,290572,1,0,1:0:0:0:
64,0,290648,1,0,1:0:0:0:
448,0,290648,1,0,1:0:0:0:
192,0,290725,1,0,1:0:0:0:
320,0,290725,1,0,1:0:0:0:
448,0,290802,1,0,1:0:0:0:
64,0,290879,1,0,1:0:0:0:
192,0,290956,1,0,1:0:0:0:
448,0,290956,1,0,1:0:0:0:
64,0,291033,1,0,1:0:0:0:
320,0,291033,1,0,1:0:0:0:
448,0,291110,1,0,1:0:0:0:
64,0,291187,1,0,1:0:0:0:
192,0,291187,1,0,1:0:0:0:
320,0,291264,1,0,1:0:0:0:
448,0,291264,1,0,1:0:0:0:
64,0,291341,1,0,1:0:0:0:
192,0,291341,1,0,1:0:0:0:
320,0,291418,1,0,1:0:0:0:
64,0,291495,1,0,1:0:0:0:
192,0,291495,1,0,1:0:0:0:
320,0,291572,1,0,1:0:0:0:
448,0,291572,1,0,1:0:0:0:
64,0,291648,1,0,1:0:0:0:
192,0,291648,1,0,1:0:0:0:
320,0,291725,1,0,1:0:0:0:
448,0,291725,1,0,1:0:0:0:
192,0,291802,1,0,1:0:0:0:
64,0,291879,1,0,1:0:0:0:
448,0,291879,1,0,1:0:0:0:
192,0,291956,1,0,1:0:0:0:
320,0,291956,1,0,1:0:0:0:
64,0,292033,1,0,1:0:0:0:
192,0,292110,1,0,1:0:0:0:
448,0,292110,1,0,1:0:0:0:
64,0,292187,1,0,1:0:0:0:
320,0,292187,1,0,1:0:0:0:
192,0,292264,1,0,1:0:0:0:
448,0,292264,1,0,1:0:0:0:
320,0,292341,1,0,1:0:0:0:
64,0,292418,1,0,1:0:0:0:
192,0,292418,1,0,1:0:0:0:
320,0,292495,1,0,1:0:0:0:
448,0,292495,1,0,1:0:0:0:
64,0,292572,1,0,1:0:0:0:
320,0,292648,1,0,1:0:0:0:
64,0,292725,1,0,1:0:0:0:
192,0,292725,1,0,1:0:0:0:
320,0,292802,1,0,1:0:0:0:
448,0,292802,1,0,1:0:0:0:
64,0,292879,1,0,1:0:0:0:
192,0,292879,1,0,1:0:0:0:
320,0,292956,1,0,1:0:0:0:
448,0,292956,1,0,1:0:0:0:
192,0,293033,1,0,1:0:0:0:
64,0,293110,1,0,1:0:0:0:
448,0,293110,1,0,1:0:0:0:
192,0,293187,1,0,1:0:0:0:
320,0,293187,1,0,1:0:0:0:
448,0,293264,1,0,1:0:0:0:
320,0,293341,1,0,1:0:0:0:
192,0,293418,1,0,1:0:0:0:
448,0,293418,1,0,1:0:0:0:
64,0,293495,1,0,1:0:0:0:
320,0,293495,1,0,1:0:0:0:
448,0,293572,1,0,1:0:0:0:
64,0,293648,1,0,1:0:0:0:
192,0,293648,1,0,1:0:0:0:
320,0,293725,1,0,1:0:0:0:
448,0,293725,1,0,1:0:0:0:
64,0,293802,1,0,1:0:0:0:
192,0,293802,1,0,1:0:0:0:
320,0,293879,1,0,1:0:0:0:
64,0,293956,1,0,1:0:0:0:
192,0,293956,1,0,1:0:0:0:
320,0,294033,1,0,1:0:0:0:
448,0,294033,1,0,1:0:0:0:
64,0,294110,1,0,1:0:0:0:
192,0,294110,1,0,1:0:0:0:
320,0,294187,1,0,1:0:0:0:
448,0,294187,1,0,1:0:0:0:
192,0,294264,1,0,1:0:0:0:
64,0,294341,1,0,1:0:0:0:
320,0,294341,1,0,1:0:0:0:
192,0,294418,1,0,1:0:0:0:
448,0,294418,1,0,1:0:0:0:
64,0,294495,1,0,1:0:0:0:
192,0,294572,1,0,1:0:0:0:
448,0,294572,1,0,1:0:0:0:
64,0,294648,1,0,1:0:0:0:
320,0,294648,1,0,1:0:0:0:
192,0,294725,1,0,1:0:0:0:
448,0,294725,1,0,1:0:0:0:
320,0,294802,1,0,1:0:0:0:
64,0,294879,1,0,1:0:0:0:
192,0,294879,1,0,1:0:0:0:
320,0,294956,1,0,1:0:0:0:
448,0,294956,1,0,1:0:0:0:
64,0,295033,1,0,1:0:0:0:
320,0,295110,1,0,1:0:0:0:
64,0,295187,1,0,1:0:0:0:
192,0,295187,1,0,1:0:0:0:
320,0,295264,1,0,1:0:0:0:
448,0,295264,1,0,1:0:0:0:
64,0,295341,1,0,1:0:0:0:
192,0,295341,1,0,1:0:0:0:
320,0,295418,1,0,1:0:0:0:
448,0,295418,1,0,1:0:0:0:
192,0,295495,1,0,1:0:0:0:
64,0,295572,1,0,1:0:0:0:
192,0,295648,1,0,1:0:0:0:
320,0,295648,1,0,1:0:0:0:
448,0,295648,1,0,1:0:0:0:
64,0,295725,1,0,1:0:0:0:
192,0,295802,1,0,1:0:0:0:
320,0,295802,1,0,1:0:0:0:
448,0,295802,1,0,1:0:0:0:
64,0,295879,1,0,1:0:0:0:
192,0,295956,1,0,1:0:0:0:
320,0,295956,1,0,1:0:0:0:
448,0,295956,1,0,1:0:0:0:
64,0,296033,1,0,1:0:0:0:
192,0,296110,1,0,1:0:0:0:
320,0,296187,1,0,1:0:0:0:
64,0,296264,1,0,1:0:0:0:
192,0,296264,1,0,1:0:0:0:
448,0,296341,1,0,1:0:0:0:
192,0,296418,1,0,1:0:0:0:
320,0,296495,1,0,1:0:0:0:
64,0,296572,1,0,1:0:0:0:
448,0,296572,1,0,1:0:0:0:
192,0,296648,1,0,1:0:0:0:
320,0,296725,1,0,1:0:0:0:
192,0,296802,1,0,1:0:0:0:
64,0,296879,1,0,1:0:0:0:
448,0,296879,1,0,1:0:0:0:
320,0,296956,1,0,1:0:0:0:
192,0,297033,1,0,1:0:0:0:
64,0,297110,1,0,1:0:0:0:
320,0,297187,1,0,1:0:0:0:
448,0,297187,1,0,1:0:0:0:
192,0,297264,1,0,1:0:0:0:
320,0,297341,1,0,1:0:0:0:
448,0,297418,1,0,1:0:0:0:
64,0,297495,1,0,1:0:0:0:
192,0,297495,1,0,1:0:0:0:
320,0,297572,1,0,1:0:0:0:
448,0,297648,1,0,1:0:0:0:
320,0,297725,1,0,1:0:0:0:
64,0,297802,1,0,1:0:0:0:
192,0,297802,1,0,1:0:0:0:
448,0,297879,1,0,1:0:0:0:
320,0,297956,1,0,1:0:0:0:
448,0,298033,1,0,1:0:0:0:
64,0,298110,1,0,1:0:0:0:
192,0,298110,1,0,1:0:0:0:
320,0,298187,1,0,1:0:0:0:
192,0,298264,1,0,1:0:0:0:
64,0,298341,1,0,1:0:0:0:
192,0,298418,1,0,1:0:0:0:
448,0,298418,1,0,1:0:0:0:
64,0,298495,1,0,1:0:0:0:
192,0,298572,1,0,1:0:0:0:
64,0,298648,1,0,1:0:0:0:
320,0,298725,1,0,1:0:0:0:
448,0,298725,1,0,1:0:0:0:
192,0,298802,1,0,1:0:0:0:
448,0,298879,1,0,1:0:0:0:
320,0,298956,1,0,1:0:0:0:
192,0,299033,1,0,1:0:0:0:
448,0,299033,1,0,1:0:0:0:
64,0,299110,1,0,1:0:0:0:
320,0,299187,1,0,1:0:0:0:
192,0,299264,1,0,1:0:0:0:
64,0,299341,1,0,1:0:0:0:
448,0,299341,1,0,1:0:0:0:
320,0,299418,1,0,1:0:0:0:
448,0,299495,1,0,1:0:0:0:
64,0,299572,1,0,1:0:0:0:
192,0,299648,1,0,1:0:0:0:
320,0,299648,1,0,1:0:0:0:
448,0,299725,1,0,1:0:0:0:
64,0,299802,1,0,1:0:0:0:
320,0,299879,1,0,1:0:0:0:
64,0,299956,1,0,1:0:0:0:
192,0,299956,1,0,1:0:0:0:
448,0,300033,1,0,1:0:0:0:
192,0,300110,1,0,1:0:0:0:
320,0,300187,1,0,1:0:0:0:
64,0,300264,1,0,1:0:0:0:
448,0,300264,1,0,1:0:0:0:
192,0,300341,1,0,1:0:0:0:
320,0,300418,1,0,1:0:0:0:
192,0,300495,1,0,1:0:0:0:
64,0,300572,1,0,1:0:0:0:
448,0,300572,1,0,1:0:0:0:
320,0,300648,1,0,1:0:0:0:
192,0,300725,1,0,1:0:0:0:
64,0,300802,1,0,1:0:0:0:
320,0,300879,1,0,1:0:0:0:
448,0,300879,1,0,1:0:0:0:
192,0,300956,1,0,1:0:0:0:
320,0,301033,1,0,1:0:0:0:
448,0,301110,1,0,1:0:0:0:
64,0,301187,1,0,1:0:0:0:
192,0,301187,1,0,1:0:0:0:
320,0,301264,1,0,1:0:0:0:
448,0,301341,1,0,1:0:0:0:
320,0,301418,1,0,1:0:0:0:
64,0,301495,1,0,1:0:0:0:
192,0,301495,1,0,1:0:0:0:
448,0,301572,1,0,1:0:0:0:
320,0,301648,1,0,1:0:0:0:
448,0,301725,1,0,1:0:0:0:
64,0,301802,1,0,1:0:0:0:
192,0,301802,1,0,1:0:0:0:
320,0,301879,1,0,1:0:0:0:
192,0,301956,1,0,1:0:0:0:
64,0,302033,1,0,1:0:0:0:
192,0,302110,1,0,1:0:0:0:
448,0,302110,1,0,1:0:0:0:
64,0,302187,1,0,1:0:0:0:
192,0,302264,1,0,1:0:0:0:
64,0,302341,1,0,1:0:0:0:
320,0,302418,1,0,1:0:0:0:
448,0,302418,1,0,1:0:0:0:
192,0,302495,1,0,1:0:0:0:
448,0,302572,1,0,1:0:0:0:
320,0,302648,1,0,1:0:0:0:
192,0,302725,1,0,1:0:0:0:
448,0,302725,1,0,1:0:0:0:
64,0,302802,1,0,1:0:0:0:
320,0,302879,1,0,1:0:0:0:
192,0,302956,1,0,1:0:0:0:
64,0,303033,1,0,1:0:0:0:
448,0,303033,1,0,1:0:0:0:
320,0,303110,1,0,1:0:0:0:
448,0,303187,1,0,1:0:0:0:
64,0,303264,1,0,1:0:0:0:
192,0,303341,1,0,1:0:0:0:
320,0,303341,1,0,1:0:0:0:
448,0,303418,1,0,1:0:0:0:
64,0,303495,1,0,1:0:0:0:
448,0,303572,1,0,1:0:0:0:
64,0,303648,1,0,1:0:0:0:
320,0,303648,1,0,1:0:0:0:
192,0,303725,1,0,1:0:0:0:
64,0,303802,1,0,1:0:0:0:
448,0,303879,1,0,1:0:0:0:
192,0,303956,1,0,1:0:0:0:
320,0,303956,1,0,1:0:0:0:
64,0,304033,1,0,1:0:0:0:
448,0,304110,1,0,1:0:0:0:
64,0,304187,1,0,1:0:0:0:
192,0,304264,1,0,1:0:0:0:
320,0,304264,1,0,1:0:0:0:
448,0,304341,1,0,1:0:0:0:
64,0,304418,1,0,1:0:0:0:
320,0,304495,1,0,1:0:0:0:
192,0,304572,1,0,1:0:0:0:
448,0,304572,1,0,1:0:0:0:
64,0,304648,1,0,1:0:0:0:
448,0,304725,1,0,1:0:0:0:
192,0,304802,1,0,1:0:0:0:
64,0,304879,1,0,1:0:0:0:
320,0,304879,1,0,1:0:0:0:
448,0,304956,1,0,1:0:0:0:
192,0,305033,1,0,1:0:0:0:
448,0,305110,1,0,1:0:0:0:
64,0,305187,1,0,1:0:0:0:
320,0,305187,1,0,1:0:0:0:
192,0,305264,1,0,1:0:0:0:
448,0,305341,1,0,1:0:0:0:
320,0,305418,1,0,1:0:0:0:
64,0,305495,1,0,1:0:0:0:
192,0,305495,1,0,1:0:0:0:
448,0,305572,1,0,1:0:0:0:
64,0,305648,1,0,1:0:0:0:
192,0,305648,1,0,1:0:0:0:
448,0,305725,1,0,1:0:0:0:
64,0,305802,1,0,1:0:0:0:
192,0,305802,1,0,1:0:0:0:
320,0,305802,1,0,1:0:0:0:
448,0,305879,1,0,1:0:0:0:
320,0,305956,1,0,1:0:0:0:
64,0,306110,1,0,1:0:0:0:
192,0,306110,1,0,1:0:0:0:
448,0,306187,1,0,1:0:0:0:
192,0,306264,1,0,1:0:0:0:
320,0,306418,1,0,1:0:0:0:
448,0,306418,1,0,1:0:0:0:
64,0,306495,1,0,1:0:0:0:
192,0,306572,1,0,1:0:0:0:
64,0,306725,1,0,1:0:0:0:
448,0,306725,1,0,1:0:0:0:
192,0,306802,1,0,1:0:0:0:
320,0,306879,1,0,1:0:0:0:
320,0,307033,1,0,1:0:0:0:
448,0,307033,1,0,1:0:0:0:
64,0,307110,1,0,1:0:0:0:
192,0,307187,1,0,1:0:0:0:
64,0,307341,1,0,1:0:0:0:
448,0,307341,1,0,1:0:0:0:
320,0,307418,1,0,1:0:0:0:
448,0,307495,1,0,1:0:0:0:
64,0,307648,1,0,1:0:0:0:
192,0,307648,1,0,1:0:0:0:
320,0,307725,1,0,1:0:0:0:
64,0,307802,1,0,1:0:0:0:
320,0,307956,1,0,1:0:0:0:
448,0,307956,1,0,1:0:0:0:
192,0,308033,1,0,1:0:0:0:
320,0,308110,1,0,1:0:0:0:
448,0,308110,1,0,1:0:0:0:
64,0,308264,1,0,1:0:0:0:
192,0,308264,1,0,1:0:0:0:
448,0,308264,1,0,1:0:0:0:
320,0,308341,1,0,1:0:0:0:
448,0,308418,1,0,1:0:0:0:
192,0,308495,1,0,1:0:0:0:
64,0,308572,1,0,1:0:0:0:
320,0,308572,1,0,1:0:0:0:
448,0,308648,1,0,1:0:0:0:
192,0,308725,1,0,1:0:0:0:
320,0,308802,1,0,1:0:0:0:
64,0,308879,1,0,1:0:0:0:
448,0,308879,1,0,1:0:0:0:
192,0,308956,1,0,1:0:0:0:
320,0,309033,1,0,1:0:0:0:
448,0,309110,1,0,1:0:0:0:
64,0,309187,1,0,1:0:0:0:
192,0,309187,1,0,1:0:0:0:
320,0,309264,1,0,1:0:0:0:
448,0,309341,1,0,1:0:0:0:
192,0,309418,1,0,1:0:0:0:
64,0,309495,1,0,1:0:0:0:
320,0,309495,1,0,1:0:0:0:
448,0,309572,1,0,1:0:0:0:
192,0,309648,1,0,1:0:0:0:
320,0,309725,1,0,1:0:0:0:
64,0,309802,1,0,1:0:0:0:
448,0,309802,1,0,1:0:0:0:
192,0,309879,1,0,1:0:0:0:
320,0,309956,1,0,1:0:0:0:
448,0,310033,1,0,1:0:0:0:
64,0,310110,1,0,1:0:0:0:
192,0,310110,1,0,1:0:0:0:
320,0,310187,1,0,1:0:0:0:
448,0,310264,1,0,1:0:0:0:
192,0,310341,1,0,1:0:0:0:
64,0,310418,1,0,1:0:0:0:
320,0,310418,1,0,1:0:0:0:
448,0,310495,1,0,1:0:0:0:
64,0,310572,1,0,1:0:0:0:
320,0,310572,1,0,1:0:0:0:
192,0,310648,1,0,1:0:0:0:
64,0,310725,1,0,1:0:0:0:
320,0,310725,1,0,1:0:0:0:
448,0,310725,1,0,1:0:0:0:
192,0,310802,1,0,1:0:0:0:
320,0,310879,1,0,1:0:0:0:
448,0,310956,1,0,1:0:0:0:
64,0,311033,1,0,1:0:0:0:
192,0,311033,1,0,1:0:0:0:
320,0,311110,1,0,1:0:0:0:
448,0,311187,1,0,1:0:0:0:
192,0,311264,1,0,1:0:0:0:
64,0,311341,1,0,1:0:0:0:
320,0,311341,1,0,1:0:0:0:
448,0,311418,1,0,1:0:0:0:
192,0,311495,1,0,1:0:0:0:
320,0,311572,1,0,1:0:0:0:
64,0,311648,1,0,1:0:0:0:
448,0,311648,1,0,1:0:0:0:
192,0,311725,1,0,1:0:0:0:
64,0,311802,1,0,1:0:0:0:
320,0,311802,1,0,1:0:0:0:
448,0,311879,1,0,1:0:0:0:
64,0,311956,1,0,1:0:0:0:
192,0,311956,1,0,1:0:0:0:
320,0,311956,1,0,1:0:0:0:
448,0,312033,1,0,1:0:0:0:
320,0,312110,1,0,1:0:0:0:
192,0,312187,1,0,1:0:0:0:
64,0,312264,1,0,1:0:0:0:
320,0,312264,1,0,1:0:0:0:
448,0,312341,1,0,1:0:0:0:
320,0,312418,1,0,1:0:0:0:
192,0,312495,1,0,1:0:0:0:
64,0,312572,1,0,1:0:0:0:
320,0,312572,1,0,1:0:0:0:
448,0,312648,1,0,1:0:0:0:
320,0,312725,1,0,1:0:0:0:
192,0,312802,1,0,1:0:0:0:
64,0,312879,1,0,1:0:0:0:
320,0,312879,1,0,1:0:0:0:
192,0,312956,1,0,1:0:0:0:
320,0,313033,1,0,1:0:0:0:
448,0,313033,1,0,1:0:0:0:
192,0,313110,1,0,1:0:0:0:
64,0,313187,1,0,1:0:0:0:
320,0,313187,1,0,1:0:0:0:
448,0,313187,1,0,1:0:0:0:
192,0,313264,1,0,1:0:0:0:
448,0,313341,1,0,1:0:0:0:
64,0,313418,1,0,1:0:0:0:
320,0,313495,1,0,1:0:0:0:
448,0,313495,1,0,1:0:0:0:
192,0,313571,1,0,1:0:0:0:
320,0,313648,1,0,1:0:0:0:
448,0,313648,1,0,1:0:0:0:
64,0,313725,1,0,1:0:0:0:
192,0,313802,1,0,1:0:0:0:
320,0,313802,1,0,1:0:0:0:
448,0,313802,1,0,1:0:0:0:
64,0,313879,1,0,1:0:0:0:
192,0,313956,1,0,1:0:0:0:
320,0,314033,1,0,1:0:0:0:
64,0,314110,1,0,1:0:0:0:
192,0,314110,1,0,1:0:0:0:
320,0,314187,1,0,1:0:0:0:
64,0,314264,1,0,1:0:0:0:
448,0,314264,1,0,1:0:0:0:
192,0,314341,1,0,1:0:0:0:
64,0,314418,1,0,1:0:0:0:
320,0,314418,1,0,1:0:0:0:
448,0,314418,1,0,1:0:0:0:
192,0,314495,1,0,1:0:0:0:
320,0,314571,1,0,1:0:0:0:
448,0,314571,1,0,1:0:0:0:
192,0,314648,1,0,1:0:0:0:
64,0,314725,1,0,1:0:0:0:
320,0,314725,1,0,1:0:0:0:
448,0,314725,1,0,1:0:0:0:
192,0,314802,1,0,1:0:0:0:
64,0,314879,1,0,1:0:0:0:
448,0,314879,1,0,1:0:0:0:
320,0,314956,1,0,1:0:0:0:
64,0,315033,1,0,1:0:0:0:
192,0,315033,1,0,1:0:0:0:
448,0,315033,1,0,1:0:0:0:
320,0,315110,1,0,1:0:0:0:
64,0,315187,1,0,1:0:0:0:
192,0,315187,1,0,1:0:0:0:
448,0,315264,1,0,1:0:0:0:
64,0,315341,1,0,1:0:0:0:
192,0,315341,1,0,1:0:0:0:
320,0,315341,1,0,1:0:0:0:
64,0,315495,1,0,1:0:0:0:
192,0,315495,1,0,1:0:0:0:
320,0,315495,1,0,1:0:0:0:
448,0,315495,1,0,1:0:0:0:
64,0,315648,128,0,316110:0:0:0:0:
192,0,315648,128,0,316110:0:0:0:0:
320,0,315648,128,0,316110:0:0:0:0:
448,0,315648,128,0,316110:0:0:0:0:
