osu file format v14

[General]
AudioFilename: Rm9yZXZlcndlY2FubWFrZWl0IQ==_Forever we can make it!.ogg
AudioLeadIn: 1500
PreviewTime: 139000
Countdown: 0
SampleSet: None
StackLeniency: 0.7
Mode: 3
LetterboxInBreaks: 0
SpecialStyle: 0
WidescreenStoryboard: 0

[Editor]
DistanceSpacing: 0.8
BeatDivisor: 4
GridSize: 16
TimelineZoom: 1.4

[Metadata]
Title:Jumpstream Of Fighters Vol. 1B
TitleUnicode:Jumpstream Of Fighters Vol. 1B
Artist:Various Artists
ArtistUnicode:Various Artists
Creator:Leo137
Version:DJ Sa9 feat. YURiE - forever we can make it! [Leo137 24]
Source:
Tags:jsof stepmania Blaziken blazziken_old Akuma123 touhou bms trance 東方Project U2 Remixed by rider Missing Banquet DJ Sa9 feat. YURiE forever we can make it! THYME M.Iz 駆け抜けるアニソンメドレーⅤ Kakenukeru Anime Song Medley V Anison 5 M.I. Aカップ三兄弟 I Want You (USAMIMIX) Lin-G honey princess LOVE☆BEAM (orange summer mix) Love*Beam Love Beam Getty vs. DJ DiA Ops Code Rapture Marc-André Hamelin Circus Galop Marc-Andre サーカス・ギャロップ ZUN Remixed by rider Glantz sun3 Mission Complete BACO Love & Justice and
BeatmapID:4236894
BeatmapSetID:796826

[Difficulty]
HPDrainRate:8
CircleSize:4
OverallDifficulty:8
ApproachRate:9
SliderMultiplier:1.4
SliderTickRate:1

[Events]
//Background and Video events
0,0,"Rm9yZXZlcndlY2FubWFrZWl0IQ==_bg.jpg",0,0
//Break Periods
//Storyboard Layer 0 (Background)
//Storyboard Layer 1 (Fail)
//Storyboard Layer 2 (Pass)
//Storyboard Layer 3 (Foreground)
//Storyboard Layer 4 (Overlay)
//Storyboard Sound Samples

[TimingPoints]
53,300,4,1,0,15,1,0

[HitObjects]
64,0,53,5,0,1:0:0:0:
448,0,53,1,0,1:0:0:0:
192,0,53,1,0,1:0:0:0:
192,0,203,1,0,1:0:0:0:
448,0,353,1,0,1:0:0:0:
320,0,353,1,0,1:0:0:0:
192,0,503,1,0,1:0:0:0:
448,0,653,1,0,1:0:0:0:
64,0,653,1,0,1:0:0:0:
192,0,803,1,0,1:0:0:0:
64,0,803,1,0,1:0:0:0:
448,0,953,1,0,1:0:0:0:
320,0,953,1,0,1:0:0:0:
320,0,1103,1,0,1:0:0:0:
192,0,1103,1,0,1:0:0:0:
192,0,1253,1,0,1:0:0:0:
64,0,1253,1,0,1:0:0:0:
320,0,1403,1,0,1:0:0:0:
192,0,1403,1,0,1:0:0:0:
448,0,1553,1,0,1:0:0:0:
320,0,1703,1,0,1:0:0:0:
192,0,1703,1,0,1:0:0:0:
320,0,1853,1,0,1:0:0:0:
192,0,2003,1,0,1:0:0:0:
64,0,2003,1,0,1:0:0:0:
448,0,2153,1,0,1:0:0:0:
320,0,2153,1,0,1:0:0:0:
320,0,2303,1,0,1:0:0:0:
448,0,2453,1,0,1:0:0:0:
64,0,2453,1,0,1:0:0:0:
192,0,2603,1,0,1:0:0:0:
448,0,2753,1,0,1:0:0:0:
320,0,2753,1,0,1:0:0:0:
320,0,2903,1,0,1:0:0:0:
192,0,2903,1,0,1:0:0:0:
192,0,3053,1,0,1:0:0:0:
64,0,3053,1,0,1:0:0:0:
448,0,3203,1,0,1:0:0:0:
320,0,3203,1,0,1:0:0:0:
192,0,3353,1,0,1:0:0:0:
448,0,3503,1,0,1:0:0:0:
320,0,3503,1,0,1:0:0:0:
192,0,3653,1,0,1:0:0:0:
64,0,3653,1,0,1:0:0:0:
320,0,3803,1,0,1:0:0:0:
192,0,3953,1,0,1:0:0:0:
64,0,3953,1,0,1:0:0:0:
320,0,4103,1,0,1:0:0:0:
192,0,4253,1,0,1:0:0:0:
64,0,4253,1,0,1:0:0:0:
320,0,4403,1,0,1:0:0:0:
192,0,4553,1,0,1:0:0:0:
64,0,4553,1,0,1:0:0:0:
192,0,4703,1,0,1:0:0:0:
64,0,4703,1,0,1:0:0:0:
448,0,4853,1,0,1:0:0:0:
64,0,4853,1,0,1:0:0:0:
448,0,5003,1,0,1:0:0:0:
192,0,5153,1,0,1:0:0:0:
64,0,5153,1,0,1:0:0:0:
320,0,5303,1,0,1:0:0:0:
192,0,5303,1,0,1:0:0:0:
320,0,5453,1,0,1:0:0:0:
192,0,5453,1,0,1:0:0:0:
448,0,5603,1,0,1:0:0:0:
320,0,5603,1,0,1:0:0:0:
448,0,5753,1,0,1:0:0:0:
64,0,5753,1,0,1:0:0:0:
192,0,5903,1,0,1:0:0:0:
64,0,5903,1,0,1:0:0:0:
448,0,6053,1,0,1:0:0:0:
64,0,6053,1,0,1:0:0:0:
448,0,6203,1,0,1:0:0:0:
320,0,6203,1,0,1:0:0:0:
320,0,6353,1,0,1:0:0:0:
192,0,6503,1,0,1:0:0:0:
64,0,6503,1,0,1:0:0:0:
64,0,6653,1,0,1:0:0:0:
448,0,6803,1,0,1:0:0:0:
320,0,6803,1,0,1:0:0:0:
320,0,6953,1,0,1:0:0:0:
192,0,6953,1,0,1:0:0:0:
320,0,7103,1,0,1:0:0:0:
192,0,7103,1,0,1:0:0:0:
448,0,7253,1,0,1:0:0:0:
192,0,7253,1,0,1:0:0:0:
320,0,7403,1,0,1:0:0:0:
192,0,7553,1,0,1:0:0:0:
64,0,7553,1,0,1:0:0:0:
320,0,7703,1,0,1:0:0:0:
192,0,7703,1,0,1:0:0:0:
448,0,7853,1,0,1:0:0:0:
320,0,7853,1,0,1:0:0:0:
448,0,8003,1,0,1:0:0:0:
320,0,8003,1,0,1:0:0:0:
192,0,8153,1,0,1:0:0:0:
320,0,8303,1,0,1:0:0:0:
64,0,8303,1,0,1:0:0:0:
64,0,8453,1,0,1:0:0:0:
320,0,8603,1,0,1:0:0:0:
64,0,8603,1,0,1:0:0:0:
448,0,8753,1,0,1:0:0:0:
320,0,8753,1,0,1:0:0:0:
192,0,8903,1,0,1:0:0:0:
448,0,9053,1,0,1:0:0:0:
320,0,9053,1,0,1:0:0:0:
448,0,9203,1,0,1:0:0:0:
64,0,9203,1,0,1:0:0:0:
448,0,9353,1,0,1:0:0:0:
320,0,9353,1,0,1:0:0:0:
448,0,9503,1,0,1:0:0:0:
64,0,9503,1,0,1:0:0:0:
448,0,9653,1,0,1:0:0:0:
320,0,9653,1,0,1:0:0:0:
320,0,9803,1,0,1:0:0:0:
192,0,9953,1,0,1:0:0:0:
64,0,9953,1,0,1:0:0:0:
448,0,10103,1,0,1:0:0:0:
320,0,10103,1,0,1:0:0:0:
192,0,10253,1,0,1:0:0:0:
448,0,10403,1,0,1:0:0:0:
64,0,10403,1,0,1:0:0:0:
320,0,10553,1,0,1:0:0:0:
192,0,10703,1,0,1:0:0:0:
64,0,10703,1,0,1:0:0:0:
320,0,10853,1,0,1:0:0:0:
192,0,10853,1,0,1:0:0:0:
448,0,11003,1,0,1:0:0:0:
320,0,11003,1,0,1:0:0:0:
64,0,11153,1,0,1:0:0:0:
448,0,11303,1,0,1:0:0:0:
192,0,11303,1,0,1:0:0:0:
320,0,11453,1,0,1:0:0:0:
192,0,11603,1,0,1:0:0:0:
64,0,11603,1,0,1:0:0:0:
448,0,11753,1,0,1:0:0:0:
64,0,11753,1,0,1:0:0:0:
448,0,11903,1,0,1:0:0:0:
320,0,11903,1,0,1:0:0:0:
448,0,12053,1,0,1:0:0:0:
320,0,12053,1,0,1:0:0:0:
448,0,12203,1,0,1:0:0:0:
320,0,12203,1,0,1:0:0:0:
192,0,12353,1,0,1:0:0:0:
320,0,12503,1,0,1:0:0:0:
64,0,12503,1,0,1:0:0:0:
448,0,12653,1,0,1:0:0:0:
320,0,12653,1,0,1:0:0:0:
448,0,12803,1,0,1:0:0:0:
320,0,12803,1,0,1:0:0:0:
192,0,12953,1,0,1:0:0:0:
448,0,13103,1,0,1:0:0:0:
64,0,13103,1,0,1:0:0:0:
448,0,13253,1,0,1:0:0:0:
320,0,13253,1,0,1:0:0:0:
320,0,13403,1,0,1:0:0:0:
448,0,13553,1,0,1:0:0:0:
192,0,13553,1,0,1:0:0:0:
192,0,13703,1,0,1:0:0:0:
448,0,13853,1,0,1:0:0:0:
320,0,13853,1,0,1:0:0:0:
320,0,14003,1,0,1:0:0:0:
64,0,14003,1,0,1:0:0:0:
448,0,14153,1,0,1:0:0:0:
64,0,14153,1,0,1:0:0:0:
448,0,14303,1,0,1:0:0:0:
320,0,14303,1,0,1:0:0:0:
192,0,14378,1,0,1:0:0:0:
448,0,14453,1,0,1:0:0:0:
320,0,14453,1,0,1:0:0:0:
192,0,14528,1,0,1:0:0:0:
320,0,14603,1,0,1:0:0:0:
192,0,14678,1,0,1:0:0:0:
320,0,14753,1,0,1:0:0:0:
64,0,14753,1,0,1:0:0:0:
192,0,14828,1,0,1:0:0:0:
320,0,14903,1,0,1:0:0:0:
192,0,14978,1,0,1:0:0:0:
448,0,15053,1,0,1:0:0:0:
320,0,15053,1,0,1:0:0:0:
192,0,15128,1,0,1:0:0:0:
320,0,15203,1,0,1:0:0:0:
192,0,15278,1,0,1:0:0:0:
320,0,15353,1,0,1:0:0:0:
64,0,15353,1,0,1:0:0:0:
192,0,15428,1,0,1:0:0:0:
320,0,15503,1,0,1:0:0:0:
448,0,15578,1,0,1:0:0:0:
192,0,15653,1,0,1:0:0:0:
64,0,15653,1,0,1:0:0:0:
320,0,15728,1,0,1:0:0:0:
192,0,15803,1,0,1:0:0:0:
320,0,15878,1,0,1:0:0:0:
448,0,15953,1,0,1:0:0:0:
192,0,15953,1,0,1:0:0:0:
320,0,16028,1,0,1:0:0:0:
192,0,16103,1,0,1:0:0:0:
320,0,16178,1,0,1:0:0:0:
192,0,16253,1,0,1:0:0:0:
64,0,16253,1,0,1:0:0:0:
320,0,16328,1,0,1:0:0:0:
192,0,16403,1,0,1:0:0:0:
320,0,16478,1,0,1:0:0:0:
448,0,16553,1,0,1:0:0:0:
192,0,16553,1,0,1:0:0:0:
64,0,16703,1,0,1:0:0:0:
448,0,16853,1,0,1:0:0:0:
320,0,16853,1,0,1:0:0:0:
192,0,16928,1,0,1:0:0:0:
320,0,17003,1,0,1:0:0:0:
192,0,17078,1,0,1:0:0:0:
320,0,17153,1,0,1:0:0:0:
64,0,17153,1,0,1:0:0:0:
192,0,17228,1,0,1:0:0:0:
320,0,17303,1,0,1:0:0:0:
192,0,17378,1,0,1:0:0:0:
448,0,17453,1,0,1:0:0:0:
320,0,17453,1,0,1:0:0:0:
192,0,17528,1,0,1:0:0:0:
320,0,17603,1,0,1:0:0:0:
192,0,17678,1,0,1:0:0:0:
320,0,17753,1,0,1:0:0:0:
64,0,17753,1,0,1:0:0:0:
192,0,17828,1,0,1:0:0:0:
320,0,17903,1,0,1:0:0:0:
448,0,17978,1,0,1:0:0:0:
192,0,18053,1,0,1:0:0:0:
64,0,18053,1,0,1:0:0:0:
448,0,18203,1,0,1:0:0:0:
320,0,18278,1,0,1:0:0:0:
448,0,18353,1,0,1:0:0:0:
192,0,18503,1,0,1:0:0:0:
320,0,18578,1,0,1:0:0:0:
448,0,18653,1,0,1:0:0:0:
192,0,18803,1,0,1:0:0:0:
320,0,18878,1,0,1:0:0:0:
192,0,18953,1,0,1:0:0:0:
320,0,19028,1,0,1:0:0:0:
192,0,19103,1,0,1:0:0:0:
320,0,19178,1,0,1:0:0:0:
448,0,19253,1,0,1:0:0:0:
192,0,19253,1,0,1:0:0:0:
64,0,19253,1,0,1:0:0:0:
320,0,19328,1,0,1:0:0:0:
192,0,19403,1,0,1:0:0:0:
448,0,19478,1,0,1:0:0:0:
192,0,19553,1,0,1:0:0:0:
64,0,19553,1,0,1:0:0:0:
320,0,19628,1,0,1:0:0:0:
192,0,19703,1,0,1:0:0:0:
320,0,19778,1,0,1:0:0:0:
448,0,19853,1,0,1:0:0:0:
64,0,19853,1,0,1:0:0:0:
192,0,19928,1,0,1:0:0:0:
448,0,20003,1,0,1:0:0:0:
192,0,20078,1,0,1:0:0:0:
320,0,20153,1,0,1:0:0:0:
64,0,20153,1,0,1:0:0:0:
448,0,20228,1,0,1:0:0:0:
320,0,20303,1,0,1:0:0:0:
64,0,20303,1,0,1:0:0:0:
192,0,20378,1,0,1:0:0:0:
448,0,20453,1,0,1:0:0:0:
320,0,20453,1,0,1:0:0:0:
192,0,20528,1,0,1:0:0:0:
448,0,20603,1,0,1:0:0:0:
64,0,20603,1,0,1:0:0:0:
320,0,20678,1,0,1:0:0:0:
192,0,20753,1,0,1:0:0:0:
64,0,20828,1,0,1:0:0:0:
448,0,20903,1,0,1:0:0:0:
320,0,20903,1,0,1:0:0:0:
192,0,20978,1,0,1:0:0:0:
320,0,21053,1,0,1:0:0:0:
192,0,21128,1,0,1:0:0:0:
448,0,21203,1,0,1:0:0:0:
64,0,21203,1,0,1:0:0:0:
320,0,21278,1,0,1:0:0:0:
192,0,21353,1,0,1:0:0:0:
64,0,21353,1,0,1:0:0:0:
448,0,21428,1,0,1:0:0:0:
320,0,21503,1,0,1:0:0:0:
64,0,21503,1,0,1:0:0:0:
192,0,21578,1,0,1:0:0:0:
448,0,21653,1,0,1:0:0:0:
320,0,21653,1,0,1:0:0:0:
192,0,21728,1,0,1:0:0:0:
320,0,21803,1,0,1:0:0:0:
448,0,21878,1,0,1:0:0:0:
192,0,21953,1,0,1:0:0:0:
64,0,21953,1,0,1:0:0:0:
320,0,22028,1,0,1:0:0:0:
192,0,22103,1,0,1:0:0:0:
64,0,22103,1,0,1:0:0:0:
320,0,22178,1,0,1:0:0:0:
448,0,22253,1,0,1:0:0:0:
64,0,22253,1,0,1:0:0:0:
192,0,22328,1,0,1:0:0:0:
448,0,22403,1,0,1:0:0:0:
320,0,22403,1,0,1:0:0:0:
64,0,22478,1,0,1:0:0:0:
192,0,22553,1,0,1:0:0:0:
64,0,22628,1,0,1:0:0:0:
448,0,22703,1,0,1:0:0:0:
320,0,22703,1,0,1:0:0:0:
192,0,22778,1,0,1:0:0:0:
448,0,22853,1,0,1:0:0:0:
64,0,22853,1,0,1:0:0:0:
192,0,22928,1,0,1:0:0:0:
320,0,23003,1,0,1:0:0:0:
448,0,23078,1,0,1:0:0:0:
320,0,23153,1,0,1:0:0:0:
64,0,23153,1,0,1:0:0:0:
192,0,23228,1,0,1:0:0:0:
320,0,23303,1,0,1:0:0:0:
192,0,23378,1,0,1:0:0:0:
320,0,23453,1,0,1:0:0:0:
64,0,23453,1,0,1:0:0:0:
448,0,23528,1,0,1:0:0:0:
192,0,23603,1,0,1:0:0:0:
320,0,23678,1,0,1:0:0:0:
448,0,23753,1,0,1:0:0:0:
64,0,23753,1,0,1:0:0:0:
320,0,23828,1,0,1:0:0:0:
448,0,23903,1,0,1:0:0:0:
64,0,23903,1,0,1:0:0:0:
320,0,23978,1,0,1:0:0:0:
448,0,24053,1,0,1:0:0:0:
64,0,24053,1,0,1:0:0:0:
320,0,24128,1,0,1:0:0:0:
192,0,24203,1,0,1:0:0:0:
64,0,24278,1,0,1:0:0:0:
448,0,24353,1,0,1:0:0:0:
320,0,24353,1,0,1:0:0:0:
192,0,24428,1,0,1:0:0:0:
320,0,24503,1,0,1:0:0:0:
64,0,24503,1,0,1:0:0:0:
192,0,24578,1,0,1:0:0:0:
320,0,24653,1,0,1:0:0:0:
448,0,24728,1,0,1:0:0:0:
192,0,24803,1,0,1:0:0:0:
64,0,24803,1,0,1:0:0:0:
320,0,24878,1,0,1:0:0:0:
448,0,24953,1,0,1:0:0:0:
192,0,24953,1,0,1:0:0:0:
320,0,25028,1,0,1:0:0:0:
192,0,25103,1,0,1:0:0:0:
64,0,25103,1,0,1:0:0:0:
320,0,25178,1,0,1:0:0:0:
448,0,25253,1,0,1:0:0:0:
64,0,25253,1,0,1:0:0:0:
192,0,25328,1,0,1:0:0:0:
448,0,25403,1,0,1:0:0:0:
64,0,25403,1,0,1:0:0:0:
192,0,25478,1,0,1:0:0:0:
320,0,25553,1,0,1:0:0:0:
64,0,25628,1,0,1:0:0:0:
448,0,25703,1,0,1:0:0:0:
320,0,25703,1,0,1:0:0:0:
192,0,25778,1,0,1:0:0:0:
64,0,25853,1,0,1:0:0:0:
192,0,25928,1,0,1:0:0:0:
448,0,26003,1,0,1:0:0:0:
320,0,26003,1,0,1:0:0:0:
64,0,26078,1,0,1:0:0:0:
320,0,26153,1,0,1:0:0:0:
192,0,26153,1,0,1:0:0:0:
64,0,26228,1,0,1:0:0:0:
320,0,26303,1,0,1:0:0:0:
192,0,26303,1,0,1:0:0:0:
448,0,26378,1,0,1:0:0:0:
320,0,26453,1,0,1:0:0:0:
64,0,26453,1,0,1:0:0:0:
448,0,26528,1,0,1:0:0:0:
192,0,26603,1,0,1:0:0:0:
64,0,26603,1,0,1:0:0:0:
320,0,26678,1,0,1:0:0:0:
192,0,26753,1,0,1:0:0:0:
64,0,26753,1,0,1:0:0:0:
320,0,26828,1,0,1:0:0:0:
192,0,26903,1,0,1:0:0:0:
64,0,26903,1,0,1:0:0:0:
448,0,26978,1,0,1:0:0:0:
320,0,27053,1,0,1:0:0:0:
64,0,27053,1,0,1:0:0:0:
192,0,27128,1,0,1:0:0:0:
448,0,27203,1,0,1:0:0:0:
320,0,27203,1,0,1:0:0:0:
64,0,27278,1,0,1:0:0:0:
192,0,27353,1,0,1:0:0:0:
64,0,27428,1,0,1:0:0:0:
448,0,27503,1,0,1:0:0:0:
320,0,27503,1,0,1:0:0:0:
192,0,27578,1,0,1:0:0:0:
448,0,27653,1,0,1:0:0:0:
64,0,27653,1,0,1:0:0:0:
192,0,27728,1,0,1:0:0:0:
448,0,27803,1,0,1:0:0:0:
320,0,27878,1,0,1:0:0:0:
448,0,27953,1,0,1:0:0:0:
64,0,27953,1,0,1:0:0:0:
320,0,28028,1,0,1:0:0:0:
192,0,28103,1,0,1:0:0:0:
448,0,28178,1,0,1:0:0:0:
192,0,28253,1,0,1:0:0:0:
64,0,28253,1,0,1:0:0:0:
320,0,28328,1,0,1:0:0:0:
192,0,28403,1,0,1:0:0:0:
64,0,28403,1,0,1:0:0:0:
320,0,28478,1,0,1:0:0:0:
192,0,28553,1,0,1:0:0:0:
64,0,28553,1,0,1:0:0:0:
320,0,28628,1,0,1:0:0:0:
192,0,28703,1,0,1:0:0:0:
64,0,28703,1,0,1:0:0:0:
320,0,28778,1,0,1:0:0:0:
448,0,28853,1,0,1:0:0:0:
192,0,28853,1,0,1:0:0:0:
64,0,28853,1,0,1:0:0:0:
320,0,28928,1,0,1:0:0:0:
192,0,29003,1,0,1:0:0:0:
64,0,29078,1,0,1:0:0:0:
448,0,29153,1,0,1:0:0:0:
320,0,29153,1,0,1:0:0:0:
64,0,29228,1,0,1:0:0:0:
320,0,29303,1,0,1:0:0:0:
192,0,29303,1,0,1:0:0:0:
448,0,29378,1,0,1:0:0:0:
64,0,29453,1,0,1:0:0:0:
320,0,29528,1,0,1:0:0:0:
192,0,29603,1,0,1:0:0:0:
64,0,29603,1,0,1:0:0:0:
320,0,29678,1,0,1:0:0:0:
448,0,29753,1,0,1:0:0:0:
192,0,29753,1,0,1:0:0:0:
320,0,29828,1,0,1:0:0:0:
448,0,29903,1,0,1:0:0:0:
192,0,29903,1,0,1:0:0:0:
64,0,29978,1,0,1:0:0:0:
448,0,30053,1,0,1:0:0:0:
320,0,30053,1,0,1:0:0:0:
192,0,30128,1,0,1:0:0:0:
448,0,30203,1,0,1:0:0:0:
64,0,30203,1,0,1:0:0:0:
192,0,30278,1,0,1:0:0:0:
320,0,30353,1,0,1:0:0:0:
64,0,30428,1,0,1:0:0:0:
448,0,30503,1,0,1:0:0:0:
320,0,30503,1,0,1:0:0:0:
192,0,30578,1,0,1:0:0:0:
64,0,30653,1,0,1:0:0:0:
192,0,30728,1,0,1:0:0:0:
448,0,30803,1,0,1:0:0:0:
320,0,30803,1,0,1:0:0:0:
192,0,30878,1,0,1:0:0:0:
448,0,30953,1,0,1:0:0:0:
64,0,30953,1,0,1:0:0:0:
320,0,31028,1,0,1:0:0:0:
192,0,31103,1,0,1:0:0:0:
64,0,31103,1,0,1:0:0:0:
320,0,31178,1,0,1:0:0:0:
448,0,31253,1,0,1:0:0:0:
64,0,31253,1,0,1:0:0:0:
320,0,31328,1,0,1:0:0:0:
192,0,31403,1,0,1:0:0:0:
448,0,31478,1,0,1:0:0:0:
320,0,31553,1,0,1:0:0:0:
64,0,31553,1,0,1:0:0:0:
192,0,31628,1,0,1:0:0:0:
320,0,31703,1,0,1:0:0:0:
64,0,31703,1,0,1:0:0:0:
192,0,31778,1,0,1:0:0:0:
448,0,31853,1,0,1:0:0:0:
192,0,31928,1,0,1:0:0:0:
448,0,32003,1,0,1:0:0:0:
320,0,32003,1,0,1:0:0:0:
64,0,32078,1,0,1:0:0:0:
320,0,32153,1,0,1:0:0:0:
192,0,32153,1,0,1:0:0:0:
448,0,32228,1,0,1:0:0:0:
192,0,32303,1,0,1:0:0:0:
64,0,32303,1,0,1:0:0:0:
320,0,32378,1,0,1:0:0:0:
448,0,32453,1,0,1:0:0:0:
64,0,32453,1,0,1:0:0:0:
192,0,32528,1,0,1:0:0:0:
320,0,32603,1,0,1:0:0:0:
192,0,32678,1,0,1:0:0:0:
448,0,32753,1,0,1:0:0:0:
320,0,32753,1,0,1:0:0:0:
64,0,32828,1,0,1:0:0:0:
320,0,32903,1,0,1:0:0:0:
192,0,32903,1,0,1:0:0:0:
448,0,32978,1,0,1:0:0:0:
192,0,33053,1,0,1:0:0:0:
64,0,33053,1,0,1:0:0:0:
320,0,33128,1,0,1:0:0:0:
448,0,33203,1,0,1:0:0:0:
64,0,33203,1,0,1:0:0:0:
320,0,33278,1,0,1:0:0:0:
448,0,33353,1,0,1:0:0:0:
192,0,33353,1,0,1:0:0:0:
64,0,33428,1,0,1:0:0:0:
448,0,33503,1,0,1:0:0:0:
320,0,33503,1,0,1:0:0:0:
192,0,33578,1,0,1:0:0:0:
448,0,33653,1,0,1:0:0:0:
320,0,33653,1,0,1:0:0:0:
192,0,33728,1,0,1:0:0:0:
320,0,33803,1,0,1:0:0:0:
192,0,33878,1,0,1:0:0:0:
320,0,33953,1,0,1:0:0:0:
192,0,34028,1,0,1:0:0:0:
320,0,34103,1,0,1:0:0:0:
192,0,34178,1,0,1:0:0:0:
320,0,34253,1,0,1:0:0:0:
192,0,34328,1,0,1:0:0:0:
320,0,34403,1,0,1:0:0:0:
192,0,34478,1,0,1:0:0:0:
320,0,34553,1,0,1:0:0:0:
192,0,34628,1,0,1:0:0:0:
320,0,34703,1,0,1:0:0:0:
192,0,34778,1,0,1:0:0:0:
320,0,34853,1,0,1:0:0:0:
192,0,34928,1,0,1:0:0:0:
320,0,35003,1,0,1:0:0:0:
192,0,35078,1,0,1:0:0:0:
320,0,35153,1,0,1:0:0:0:
192,0,35228,1,0,1:0:0:0:
320,0,35303,1,0,1:0:0:0:
192,0,35378,1,0,1:0:0:0:
320,0,35453,1,0,1:0:0:0:
192,0,35528,1,0,1:0:0:0:
320,0,35603,1,0,1:0:0:0:
192,0,35678,1,0,1:0:0:0:
320,0,35753,1,0,1:0:0:0:
64,0,35903,1,0,1:0:0:0:
192,0,36053,1,0,1:0:0:0:
320,0,36128,1,0,1:0:0:0:
192,0,36203,1,0,1:0:0:0:
320,0,36278,1,0,1:0:0:0:
192,0,36353,1,0,1:0:0:0:
320,0,36428,1,0,1:0:0:0:
192,0,36503,1,0,1:0:0:0:
320,0,36578,1,0,1:0:0:0:
192,0,36653,1,0,1:0:0:0:
320,0,36728,1,0,1:0:0:0:
192,0,36803,1,0,1:0:0:0:
320,0,36878,1,0,1:0:0:0:
192,0,36953,1,0,1:0:0:0:
320,0,37028,1,0,1:0:0:0:
192,0,37103,1,0,1:0:0:0:
320,0,37178,1,0,1:0:0:0:
192,0,37253,1,0,1:0:0:0:
448,0,37403,1,0,1:0:0:0:
320,0,37553,1,0,1:0:0:0:
192,0,37703,1,0,1:0:0:0:
320,0,37778,1,0,1:0:0:0:
192,0,37853,1,0,1:0:0:0:
448,0,38003,1,0,1:0:0:0:
320,0,38003,1,0,1:0:0:0:
192,0,38078,1,0,1:0:0:0:
64,0,38078,1,0,1:0:0:0:
320,0,38153,1,0,1:0:0:0:
448,0,38228,1,0,1:0:0:0:
192,0,38303,1,0,1:0:0:0:
64,0,38303,1,0,1:0:0:0:
320,0,38378,1,0,1:0:0:0:
448,0,38453,1,0,1:0:0:0:
192,0,38453,1,0,1:0:0:0:
64,0,38453,1,0,1:0:0:0:
320,0,38603,1,0,1:0:0:0:
64,0,38678,1,0,1:0:0:0:
448,0,38753,1,0,1:0:0:0:
320,0,38753,1,0,1:0:0:0:
192,0,38753,1,0,1:0:0:0:
64,0,38903,1,0,1:0:0:0:
192,0,38978,1,0,1:0:0:0:
64,0,39053,1,0,1:0:0:0:
448,0,39203,1,0,1:0:0:0:
320,0,39203,1,0,1:0:0:0:
64,0,39278,1,0,1:0:0:0:
320,0,39353,1,0,1:0:0:0:
192,0,39353,1,0,1:0:0:0:
448,0,39428,1,0,1:0:0:0:
192,0,39503,1,0,1:0:0:0:
64,0,39503,1,0,1:0:0:0:
320,0,39578,1,0,1:0:0:0:
448,0,39653,1,0,1:0:0:0:
64,0,39653,1,0,1:0:0:0:
448,0,39803,1,0,1:0:0:0:
64,0,39803,1,0,1:0:0:0:
448,0,39953,1,0,1:0:0:0:
320,0,39953,1,0,1:0:0:0:
64,0,39953,1,0,1:0:0:0:
192,0,40103,1,0,1:0:0:0:
320,0,40178,1,0,1:0:0:0:
192,0,40253,1,0,1:0:0:0:
320,0,40403,1,0,1:0:0:0:
64,0,40403,1,0,1:0:0:0:
192,0,40478,1,0,1:0:0:0:
448,0,40553,1,0,1:0:0:0:
320,0,40553,1,0,1:0:0:0:
192,0,40628,1,0,1:0:0:0:
448,0,40703,1,0,1:0:0:0:
320,0,40703,1,0,1:0:0:0:
64,0,40778,1,0,1:0:0:0:
448,0,40853,1,0,1:0:0:0:
320,0,40853,1,0,1:0:0:0:
192,0,40853,1,0,1:0:0:0:
64,0,40928,1,0,1:0:0:0:
192,0,41003,1,0,1:0:0:0:
320,0,41078,1,0,1:0:0:0:
192,0,41153,1,0,1:0:0:0:
64,0,41153,1,0,1:0:0:0:
320,0,41228,1,0,1:0:0:0:
192,0,41303,1,0,1:0:0:0:
448,0,41378,1,0,1:0:0:0:
320,0,41453,1,0,1:0:0:0:
64,0,41453,1,0,1:0:0:0:
192,0,41528,1,0,1:0:0:0:
320,0,41603,1,0,1:0:0:0:
192,0,41678,1,0,1:0:0:0:
448,0,41753,1,0,1:0:0:0:
320,0,41753,1,0,1:0:0:0:
64,0,41828,1,0,1:0:0:0:
448,0,41903,1,0,1:0:0:0:
192,0,41903,1,0,1:0:0:0:
320,0,41978,1,0,1:0:0:0:
448,0,42053,1,0,1:0:0:0:
192,0,42053,1,0,1:0:0:0:
64,0,42053,1,0,1:0:0:0:
320,0,42128,1,0,1:0:0:0:
192,0,42203,1,0,1:0:0:0:
64,0,42278,1,0,1:0:0:0:
448,0,42353,1,0,1:0:0:0:
320,0,42353,1,0,1:0:0:0:
192,0,42428,1,0,1:0:0:0:
448,0,42503,1,0,1:0:0:0:
320,0,42503,1,0,1:0:0:0:
192,0,42578,1,0,1:0:0:0:
448,0,42653,1,0,1:0:0:0:
320,0,42653,1,0,1:0:0:0:
64,0,42653,1,0,1:0:0:0:
192,0,42728,1,0,1:0:0:0:
320,0,42803,1,0,1:0:0:0:
64,0,42803,1,0,1:0:0:0:
448,0,42878,1,0,1:0:0:0:
192,0,42953,1,0,1:0:0:0:
64,0,42953,1,0,1:0:0:0:
320,0,43028,1,0,1:0:0:0:
192,0,43103,1,0,1:0:0:0:
64,0,43103,1,0,1:0:0:0:
320,0,43178,1,0,1:0:0:0:
448,0,43253,1,0,1:0:0:0:
64,0,43253,1,0,1:0:0:0:
448,0,43403,1,0,1:0:0:0:
64,0,43403,1,0,1:0:0:0:
448,0,43553,1,0,1:0:0:0:
320,0,43553,1,0,1:0:0:0:
64,0,43553,1,0,1:0:0:0:
192,0,43703,1,0,1:0:0:0:
320,0,43778,1,0,1:0:0:0:
448,0,43853,1,0,1:0:0:0:
192,0,44003,1,0,1:0:0:0:
64,0,44003,1,0,1:0:0:0:
448,0,44078,1,0,1:0:0:0:
320,0,44153,1,0,1:0:0:0:
192,0,44153,1,0,1:0:0:0:
64,0,44228,1,0,1:0:0:0:
448,0,44303,1,0,1:0:0:0:
320,0,44303,1,0,1:0:0:0:
64,0,44378,1,0,1:0:0:0:
448,0,44453,1,0,1:0:0:0:
192,0,44453,1,0,1:0:0:0:
448,0,44603,1,0,1:0:0:0:
192,0,44603,1,0,1:0:0:0:
448,0,44753,1,0,1:0:0:0:
192,0,44753,1,0,1:0:0:0:
64,0,44753,1,0,1:0:0:0:
320,0,44903,1,0,1:0:0:0:
192,0,44978,1,0,1:0:0:0:
64,0,45053,1,0,1:0:0:0:
448,0,45203,1,0,1:0:0:0:
192,0,45203,1,0,1:0:0:0:
320,0,45278,1,0,1:0:0:0:
448,0,45353,1,0,1:0:0:0:
64,0,45353,1,0,1:0:0:0:
320,0,45428,1,0,1:0:0:0:
192,0,45503,1,0,1:0:0:0:
64,0,45503,1,0,1:0:0:0:
320,0,45578,1,0,1:0:0:0:
448,0,45653,1,0,1:0:0:0:
192,0,45653,1,0,1:0:0:0:
64,0,45653,1,0,1:0:0:0:
320,0,45728,1,0,1:0:0:0:
192,0,45803,1,0,1:0:0:0:
448,0,45878,1,0,1:0:0:0:
320,0,45953,1,0,1:0:0:0:
64,0,45953,1,0,1:0:0:0:
192,0,46028,1,0,1:0:0:0:
320,0,46103,1,0,1:0:0:0:
192,0,46178,1,0,1:0:0:0:
448,0,46253,1,0,1:0:0:0:
320,0,46253,1,0,1:0:0:0:
64,0,46328,1,0,1:0:0:0:
192,0,46403,1,0,1:0:0:0:
320,0,46478,1,0,1:0:0:0:
192,0,46553,1,0,1:0:0:0:
64,0,46553,1,0,1:0:0:0:
320,0,46628,1,0,1:0:0:0:
448,0,46703,1,0,1:0:0:0:
64,0,46703,1,0,1:0:0:0:
192,0,46778,1,0,1:0:0:0:
448,0,46853,1,0,1:0:0:0:
320,0,46853,1,0,1:0:0:0:
64,0,46853,1,0,1:0:0:0:
320,0,47003,1,0,1:0:0:0:
192,0,47003,1,0,1:0:0:0:
192,0,47153,1,0,1:0:0:0:
448,0,47303,1,0,1:0:0:0:
320,0,47303,1,0,1:0:0:0:
448,0,47453,1,0,1:0:0:0:
192,0,47453,1,0,1:0:0:0:
64,0,47453,1,0,1:0:0:0:
448,0,47603,1,0,1:0:0:0:
320,0,47603,1,0,1:0:0:0:
192,0,47753,1,0,1:0:0:0:
64,0,47753,1,0,1:0:0:0:
320,0,47903,1,0,1:0:0:0:
192,0,47903,1,0,1:0:0:0:
448,0,48053,1,0,1:0:0:0:
320,0,48053,1,0,1:0:0:0:
448,0,48203,1,0,1:0:0:0:
320,0,48203,1,0,1:0:0:0:
448,0,48353,1,0,1:0:0:0:
192,0,48353,1,0,1:0:0:0:
64,0,48353,1,0,1:0:0:0:
320,0,48503,1,0,1:0:0:0:
192,0,48578,1,0,1:0:0:0:
64,0,48653,1,0,1:0:0:0:
192,0,48803,1,0,1:0:0:0:
64,0,48803,1,0,1:0:0:0:
320,0,48878,1,0,1:0:0:0:
192,0,48953,1,0,1:0:0:0:
64,0,48953,1,0,1:0:0:0:
448,0,49028,1,0,1:0:0:0:
320,0,49103,1,0,1:0:0:0:
192,0,49103,1,0,1:0:0:0:
64,0,49178,1,0,1:0:0:0:
448,0,49253,1,0,1:0:0:0:
320,0,49253,1,0,1:0:0:0:
448,0,49403,1,0,1:0:0:0:
320,0,49403,1,0,1:0:0:0:
448,0,49553,1,0,1:0:0:0:
192,0,49553,1,0,1:0:0:0:
64,0,49553,1,0,1:0:0:0:
320,0,49703,1,0,1:0:0:0:
192,0,49703,1,0,1:0:0:0:
448,0,49778,1,0,1:0:0:0:
64,0,49853,1,0,1:0:0:0:
320,0,50003,1,0,1:0:0:0:
192,0,50003,1,0,1:0:0:0:
448,0,50078,1,0,1:0:0:0:
64,0,50153,1,0,1:0:0:0:
192,0,50228,1,0,1:0:0:0:
448,0,50303,1,0,1:0:0:0:
320,0,50303,1,0,1:0:0:0:
192,0,50378,1,0,1:0:0:0:
448,0,50453,1,0,1:0:0:0:
320,0,50453,1,0,1:0:0:0:
64,0,50453,1,0,1:0:0:0:
192,0,50528,1,0,1:0:0:0:
320,0,50603,1,0,1:0:0:0:
448,0,50678,1,0,1:0:0:0:
192,0,50753,1,0,1:0:0:0:
64,0,50753,1,0,1:0:0:0:
320,0,50828,1,0,1:0:0:0:
192,0,50903,1,0,1:0:0:0:
320,0,50978,1,0,1:0:0:0:
448,0,51053,1,0,1:0:0:0:
64,0,51053,1,0,1:0:0:0:
192,0,51128,1,0,1:0:0:0:
320,0,51203,1,0,1:0:0:0:
192,0,51278,1,0,1:0:0:0:
448,0,51353,1,0,1:0:0:0:
64,0,51353,1,0,1:0:0:0:
320,0,51428,1,0,1:0:0:0:
448,0,51503,1,0,1:0:0:0:
192,0,51578,1,0,1:0:0:0:
448,0,51653,1,0,1:0:0:0:
320,0,51653,1,0,1:0:0:0:
192,0,51728,1,0,1:0:0:0:
320,0,51803,1,0,1:0:0:0:
64,0,51878,1,0,1:0:0:0:
448,0,51953,1,0,1:0:0:0:
192,0,51953,1,0,1:0:0:0:
320,0,52028,1,0,1:0:0:0:
192,0,52103,1,0,1:0:0:0:
64,0,52103,1,0,1:0:0:0:
320,0,52178,1,0,1:0:0:0:
64,0,52253,1,0,1:0:0:0:
192,0,52328,1,0,1:0:0:0:
448,0,52403,1,0,1:0:0:0:
320,0,52403,1,0,1:0:0:0:
192,0,52478,1,0,1:0:0:0:
448,0,52553,1,0,1:0:0:0:
320,0,52553,1,0,1:0:0:0:
64,0,52628,1,0,1:0:0:0:
320,0,52703,1,0,1:0:0:0:
192,0,52703,1,0,1:0:0:0:
448,0,52778,1,0,1:0:0:0:
192,0,52853,1,0,1:0:0:0:
64,0,52853,1,0,1:0:0:0:
320,0,52928,1,0,1:0:0:0:
192,0,53003,1,0,1:0:0:0:
64,0,53003,1,0,1:0:0:0:
320,0,53078,1,0,1:0:0:0:
192,0,53153,1,0,1:0:0:0:
64,0,53153,1,0,1:0:0:0:
320,0,53228,1,0,1:0:0:0:
192,0,53303,1,0,1:0:0:0:
64,0,53303,1,0,1:0:0:0:
320,0,53378,1,0,1:0:0:0:
448,0,53453,1,0,1:0:0:0:
64,0,53453,1,0,1:0:0:0:
192,0,53528,1,0,1:0:0:0:
448,0,53603,1,0,1:0:0:0:
320,0,53603,1,0,1:0:0:0:
192,0,53678,1,0,1:0:0:0:
448,0,53753,1,0,1:0:0:0:
320,0,53753,1,0,1:0:0:0:
192,0,53828,1,0,1:0:0:0:
448,0,53903,1,0,1:0:0:0:
320,0,53903,1,0,1:0:0:0:
192,0,53978,1,0,1:0:0:0:
448,0,54053,1,0,1:0:0:0:
64,0,54053,1,0,1:0:0:0:
320,0,54128,1,0,1:0:0:0:
192,0,54203,1,0,1:0:0:0:
64,0,54203,1,0,1:0:0:0:
320,0,54278,1,0,1:0:0:0:
448,0,54353,1,0,1:0:0:0:
64,0,54353,1,0,1:0:0:0:
192,0,54428,1,0,1:0:0:0:
448,0,54503,1,0,1:0:0:0:
320,0,54503,1,0,1:0:0:0:
64,0,54578,1,0,1:0:0:0:
448,0,54653,1,0,1:0:0:0:
320,0,54653,1,0,1:0:0:0:
192,0,54728,1,0,1:0:0:0:
448,0,54803,1,0,1:0:0:0:
64,0,54803,1,0,1:0:0:0:
192,0,54878,1,0,1:0:0:0:
320,0,54953,1,0,1:0:0:0:
64,0,55028,1,0,1:0:0:0:
192,0,55103,1,0,1:0:0:0:
64,0,55178,1,0,1:0:0:0:
448,0,55253,1,0,1:0:0:0:
320,0,55253,1,0,1:0:0:0:
192,0,55328,1,0,1:0:0:0:
64,0,55328,1,0,1:0:0:0:
448,0,55403,1,0,1:0:0:0:
320,0,55403,1,0,1:0:0:0:
192,0,55478,1,0,1:0:0:0:
64,0,55478,1,0,1:0:0:0:
448,0,55553,1,0,1:0:0:0:
320,0,55553,1,0,1:0:0:0:
192,0,55628,1,0,1:0:0:0:
64,0,55628,1,0,1:0:0:0:
448,0,55703,1,0,1:0:0:0:
320,0,55703,1,0,1:0:0:0:
192,0,55778,1,0,1:0:0:0:
64,0,55778,1,0,1:0:0:0:
448,0,55853,1,0,1:0:0:0:
320,0,55853,1,0,1:0:0:0:
192,0,55928,1,0,1:0:0:0:
64,0,55928,1,0,1:0:0:0:
448,0,56003,1,0,1:0:0:0:
320,0,56003,1,0,1:0:0:0:
192,0,56078,1,0,1:0:0:0:
64,0,56078,1,0,1:0:0:0:
448,0,56153,1,0,1:0:0:0:
320,0,56153,1,0,1:0:0:0:
192,0,56228,1,0,1:0:0:0:
64,0,56228,1,0,1:0:0:0:
448,0,56303,1,0,1:0:0:0:
320,0,56303,1,0,1:0:0:0:
192,0,56378,1,0,1:0:0:0:
448,0,56453,1,0,1:0:0:0:
320,0,56453,1,0,1:0:0:0:
64,0,56453,1,0,1:0:0:0:
192,0,56603,1,0,1:0:0:0:
320,0,56753,1,0,1:0:0:0:
192,0,56903,1,0,1:0:0:0:
448,0,57053,1,0,1:0:0:0:
320,0,57203,1,0,1:0:0:0:
192,0,57278,1,0,1:0:0:0:
320,0,57353,1,0,1:0:0:0:
192,0,57428,1,0,1:0:0:0:
320,0,57503,1,0,1:0:0:0:
192,0,57578,1,0,1:0:0:0:
448,0,57653,1,0,1:0:0:0:
320,0,57653,1,0,1:0:0:0:
64,0,57653,1,0,1:0:0:0:
192,0,57803,1,0,1:0:0:0:
320,0,57953,1,0,1:0:0:0:
192,0,58103,1,0,1:0:0:0:
448,0,58253,1,0,1:0:0:0:
192,0,58253,1,0,1:0:0:0:
64,0,58253,1,0,1:0:0:0:
64,0,58403,1,0,1:0:0:0:
192,0,58553,1,0,1:0:0:0:
320,0,58703,1,0,1:0:0:0:
320,0,58853,1,0,1:0:0:0:
192,0,58853,1,0,1:0:0:0:
64,0,58853,1,0,1:0:0:0:
320,0,59003,1,0,1:0:0:0:
192,0,59153,1,0,1:0:0:0:
64,0,59303,1,0,1:0:0:0:
448,0,59453,1,0,1:0:0:0:
320,0,59453,1,0,1:0:0:0:
64,0,59453,1,0,1:0:0:0:
64,0,59603,1,0,1:0:0:0:
192,0,59753,1,0,1:0:0:0:
448,0,59903,1,0,1:0:0:0:
448,0,60053,1,0,1:0:0:0:
192,0,60053,1,0,1:0:0:0:
64,0,60053,1,0,1:0:0:0:
448,0,60203,1,0,1:0:0:0:
320,0,60353,1,0,1:0:0:0:
192,0,60353,1,0,1:0:0:0:
192,0,60503,1,0,1:0:0:0:
448,0,60653,1,0,1:0:0:0:
320,0,60653,1,0,1:0:0:0:
64,0,60653,1,0,1:0:0:0:
192,0,60803,1,0,1:0:0:0:
448,0,60953,1,0,1:0:0:0:
64,0,60953,1,0,1:0:0:0:
192,0,61103,1,0,1:0:0:0:
320,0,61253,1,0,1:0:0:0:
192,0,61253,1,0,1:0:0:0:
64,0,61253,1,0,1:0:0:0:
192,0,61403,1,0,1:0:0:0:
320,0,61553,1,0,1:0:0:0:
448,0,61703,1,0,1:0:0:0:
448,0,61853,1,0,1:0:0:0:
320,0,61853,1,0,1:0:0:0:
64,0,61853,1,0,1:0:0:0:
448,0,62003,1,0,1:0:0:0:
320,0,62153,1,0,1:0:0:0:
192,0,62303,1,0,1:0:0:0:
448,0,62453,1,0,1:0:0:0:
192,0,62453,1,0,1:0:0:0:
64,0,62453,1,0,1:0:0:0:
320,0,62603,1,0,1:0:0:0:
192,0,62753,1,0,1:0:0:0:
320,0,62903,1,0,1:0:0:0:
448,0,63053,1,0,1:0:0:0:
192,0,63053,1,0,1:0:0:0:
64,0,63053,1,0,1:0:0:0:
320,0,63203,1,0,1:0:0:0:
192,0,63353,1,0,1:0:0:0:
64,0,63503,1,0,1:0:0:0:
448,0,63653,1,0,1:0:0:0:
320,0,63653,1,0,1:0:0:0:
64,0,63653,1,0,1:0:0:0:
192,0,63803,1,0,1:0:0:0:
320,0,63953,1,0,1:0:0:0:
448,0,64103,1,0,1:0:0:0:
320,0,64253,1,0,1:0:0:0:
192,0,64253,1,0,1:0:0:0:
64,0,64253,1,0,1:0:0:0:
448,0,64403,1,0,1:0:0:0:
320,0,64553,1,0,1:0:0:0:
192,0,64703,1,0,1:0:0:0:
448,0,64853,1,0,1:0:0:0:
320,0,64853,1,0,1:0:0:0:
64,0,64853,1,0,1:0:0:0:
320,0,65003,1,0,1:0:0:0:
192,0,65153,1,0,1:0:0:0:
64,0,65153,1,0,1:0:0:0:
64,0,65303,1,0,1:0:0:0:
448,0,65453,1,0,1:0:0:0:
320,0,65453,1,0,1:0:0:0:
192,0,65453,1,0,1:0:0:0:
320,0,65603,1,0,1:0:0:0:
192,0,65753,1,0,1:0:0:0:
64,0,65753,1,0,1:0:0:0:
64,0,65903,1,0,1:0:0:0:
320,0,66053,1,0,1:0:0:0:
192,0,66128,1,0,1:0:0:0:
448,0,66203,1,0,1:0:0:0:
320,0,66353,1,0,1:0:0:0:
192,0,66503,1,0,1:0:0:0:
64,0,66653,1,0,1:0:0:0:
448,0,66803,1,0,1:0:0:0:
320,0,66953,1,0,1:0:0:0:
448,0,67103,1,0,1:0:0:0:
448,0,67253,1,0,1:0:0:0:
192,0,67253,1,0,1:0:0:0:
64,0,67253,1,0,1:0:0:0:
320,0,67403,1,0,1:0:0:0:
192,0,67553,1,0,1:0:0:0:
320,0,67703,1,0,1:0:0:0:
448,0,67853,1,0,1:0:0:0:
192,0,67853,1,0,1:0:0:0:
64,0,67853,1,0,1:0:0:0:
192,0,68003,1,0,1:0:0:0:
320,0,68153,1,0,1:0:0:0:
448,0,68303,1,0,1:0:0:0:
448,0,68453,1,0,1:0:0:0:
192,0,68453,1,0,1:0:0:0:
64,0,68453,1,0,1:0:0:0:
192,0,68603,1,0,1:0:0:0:
320,0,68753,1,0,1:0:0:0:
64,0,68903,1,0,1:0:0:0:
192,0,68978,1,0,1:0:0:0:
448,0,69053,1,0,1:0:0:0:
320,0,69053,1,0,1:0:0:0:
64,0,69053,1,0,1:0:0:0:
192,0,69203,1,0,1:0:0:0:
320,0,69353,1,0,1:0:0:0:
320,0,69503,1,0,1:0:0:0:
448,0,69653,1,0,1:0:0:0:
192,0,69653,1,0,1:0:0:0:
64,0,69653,1,0,1:0:0:0:
320,0,69803,1,0,1:0:0:0:
448,0,69953,1,0,1:0:0:0:
64,0,69953,1,0,1:0:0:0:
192,0,70103,1,0,1:0:0:0:
448,0,70253,1,0,1:0:0:0:
320,0,70253,1,0,1:0:0:0:
64,0,70253,1,0,1:0:0:0:
192,0,70403,1,0,1:0:0:0:
448,0,70553,1,0,1:0:0:0:
320,0,70553,1,0,1:0:0:0:
192,0,70703,1,0,1:0:0:0:
448,0,70853,1,0,1:0:0:0:
320,0,70853,1,0,1:0:0:0:
64,0,70853,1,0,1:0:0:0:
192,0,71003,1,0,1:0:0:0:
320,0,71153,1,0,1:0:0:0:
192,0,71303,1,0,1:0:0:0:
320,0,71378,1,0,1:0:0:0:
448,0,71453,1,0,1:0:0:0:
192,0,71603,1,0,1:0:0:0:
64,0,71603,1,0,1:0:0:0:
192,0,71753,1,0,1:0:0:0:
448,0,71903,1,0,1:0:0:0:
320,0,71903,1,0,1:0:0:0:
448,0,72053,1,0,1:0:0:0:
320,0,72053,1,0,1:0:0:0:
64,0,72053,1,0,1:0:0:0:
192,0,72203,1,0,1:0:0:0:
448,0,72278,1,0,1:0:0:0:
64,0,72278,1,0,1:0:0:0:
192,0,72353,1,0,1:0:0:0:
448,0,72503,1,0,1:0:0:0:
64,0,72503,1,0,1:0:0:0:
448,0,72653,1,0,1:0:0:0:
192,0,72653,1,0,1:0:0:0:
64,0,72653,1,0,1:0:0:0:
320,0,72803,1,0,1:0:0:0:
448,0,72878,1,0,1:0:0:0:
64,0,72878,1,0,1:0:0:0:
320,0,72953,1,0,1:0:0:0:
192,0,73103,1,0,1:0:0:0:
64,0,73103,1,0,1:0:0:0:
320,0,73253,1,0,1:0:0:0:
192,0,73253,1,0,1:0:0:0:
64,0,73253,1,0,1:0:0:0:
448,0,73403,1,0,1:0:0:0:
192,0,73478,1,0,1:0:0:0:
64,0,73478,1,0,1:0:0:0:
448,0,73553,1,0,1:0:0:0:
192,0,73703,1,0,1:0:0:0:
64,0,73703,1,0,1:0:0:0:
448,0,73853,1,0,1:0:0:0:
320,0,73853,1,0,1:0:0:0:
64,0,73853,1,0,1:0:0:0:
192,0,74003,1,0,1:0:0:0:
448,0,74078,1,0,1:0:0:0:
64,0,74078,1,0,1:0:0:0:
192,0,74153,1,0,1:0:0:0:
448,0,74303,1,0,1:0:0:0:
64,0,74303,1,0,1:0:0:0:
192,0,74378,1,0,1:0:0:0:
320,0,74453,1,0,1:0:0:0:
192,0,74528,1,0,1:0:0:0:
320,0,74603,1,0,1:0:0:0:
192,0,74678,1,0,1:0:0:0:
448,0,74753,1,0,1:0:0:0:
320,0,74753,1,0,1:0:0:0:
64,0,74753,1,0,1:0:0:0:
192,0,74828,1,0,1:0:0:0:
320,0,74903,1,0,1:0:0:0:
448,0,74978,1,0,1:0:0:0:
192,0,75053,1,0,1:0:0:0:
320,0,75128,1,0,1:0:0:0:
192,0,75203,1,0,1:0:0:0:
320,0,75278,1,0,1:0:0:0:
192,0,75353,1,0,1:0:0:0:
320,0,75428,1,0,1:0:0:0:
192,0,75503,1,0,1:0:0:0:
320,0,75578,1,0,1:0:0:0:
64,0,75653,1,0,1:0:0:0:
448,0,75728,1,0,1:0:0:0:
192,0,75803,1,0,1:0:0:0:
64,0,75878,1,0,1:0:0:0:
320,0,75953,1,0,1:0:0:0:
192,0,76028,1,0,1:0:0:0:
320,0,76103,1,0,1:0:0:0:
192,0,76178,1,0,1:0:0:0:
320,0,76253,1,0,1:0:0:0:
192,0,76328,1,0,1:0:0:0:
448,0,76403,1,0,1:0:0:0:
320,0,76403,1,0,1:0:0:0:
192,0,76478,1,0,1:0:0:0:
64,0,76478,1,0,1:0:0:0:
448,0,76553,1,0,1:0:0:0:
320,0,76553,1,0,1:0:0:0:
192,0,76628,1,0,1:0:0:0:
64,0,76628,1,0,1:0:0:0:
448,0,76703,1,0,1:0:0:0:
320,0,76703,1,0,1:0:0:0:
192,0,76778,1,0,1:0:0:0:
448,0,76853,1,0,1:0:0:0:
320,0,76853,1,0,1:0:0:0:
64,0,76853,1,0,1:0:0:0:
192,0,76928,1,0,1:0:0:0:
320,0,77003,1,0,1:0:0:0:
64,0,77003,1,0,1:0:0:0:
448,0,77078,1,0,1:0:0:0:
192,0,77153,1,0,1:0:0:0:
64,0,77153,1,0,1:0:0:0:
320,0,77228,1,0,1:0:0:0:
448,0,77303,1,0,1:0:0:0:
64,0,77303,1,0,1:0:0:0:
320,0,77378,1,0,1:0:0:0:
192,0,77378,1,0,1:0:0:0:
448,0,77453,1,0,1:0:0:0:
64,0,77453,1,0,1:0:0:0:
192,0,77528,1,0,1:0:0:0:
320,0,77603,1,0,1:0:0:0:
64,0,77603,1,0,1:0:0:0:
192,0,77678,1,0,1:0:0:0:
448,0,77753,1,0,1:0:0:0:
320,0,77753,1,0,1:0:0:0:
64,0,77828,1,0,1:0:0:0:
320,0,77903,1,0,1:0:0:0:
192,0,77903,1,0,1:0:0:0:
64,0,77978,1,0,1:0:0:0:
448,0,78053,1,0,1:0:0:0:
320,0,78053,1,0,1:0:0:0:
192,0,78128,1,0,1:0:0:0:
448,0,78203,1,0,1:0:0:0:
64,0,78203,1,0,1:0:0:0:
320,0,78278,1,0,1:0:0:0:
192,0,78353,1,0,1:0:0:0:
64,0,78353,1,0,1:0:0:0:
320,0,78428,1,0,1:0:0:0:
448,0,78503,1,0,1:0:0:0:
64,0,78503,1,0,1:0:0:0:
320,0,78578,1,0,1:0:0:0:
192,0,78578,1,0,1:0:0:0:
448,0,78653,1,0,1:0:0:0:
64,0,78653,1,0,1:0:0:0:
320,0,78728,1,0,1:0:0:0:
192,0,78803,1,0,1:0:0:0:
64,0,78803,1,0,1:0:0:0:
320,0,78878,1,0,1:0:0:0:
448,0,78953,1,0,1:0:0:0:
192,0,78953,1,0,1:0:0:0:
320,0,79028,1,0,1:0:0:0:
192,0,79103,1,0,1:0:0:0:
64,0,79103,1,0,1:0:0:0:
320,0,79178,1,0,1:0:0:0:
448,0,79253,1,0,1:0:0:0:
64,0,79253,1,0,1:0:0:0:
192,0,79328,1,0,1:0:0:0:
448,0,79403,1,0,1:0:0:0:
320,0,79403,1,0,1:0:0:0:
192,0,79478,1,0,1:0:0:0:
448,0,79553,1,0,1:0:0:0:
64,0,79553,1,0,1:0:0:0:
320,0,79628,1,0,1:0:0:0:
192,0,79703,1,0,1:0:0:0:
64,0,79703,1,0,1:0:0:0:
448,0,79778,1,0,1:0:0:0:
320,0,79778,1,0,1:0:0:0:
192,0,79853,1,0,1:0:0:0:
64,0,79853,1,0,1:0:0:0:
320,0,79928,1,0,1:0:0:0:
448,0,80003,1,0,1:0:0:0:
64,0,80003,1,0,1:0:0:0:
192,0,80078,1,0,1:0:0:0:
448,0,80153,1,0,1:0:0:0:
320,0,80153,1,0,1:0:0:0:
192,0,80228,1,0,1:0:0:0:
448,0,80303,1,0,1:0:0:0:
64,0,80303,1,0,1:0:0:0:
320,0,80378,1,0,1:0:0:0:
192,0,80453,1,0,1:0:0:0:
64,0,80453,1,0,1:0:0:0:
448,0,80528,1,0,1:0:0:0:
320,0,80603,1,0,1:0:0:0:
192,0,80603,1,0,1:0:0:0:
64,0,80678,1,0,1:0:0:0:
448,0,80753,1,0,1:0:0:0:
320,0,80753,1,0,1:0:0:0:
192,0,80828,1,0,1:0:0:0:
448,0,80903,1,0,1:0:0:0:
64,0,80903,1,0,1:0:0:0:
320,0,80978,1,0,1:0:0:0:
192,0,80978,1,0,1:0:0:0:
448,0,81053,1,0,1:0:0:0:
64,0,81053,1,0,1:0:0:0:
192,0,81128,1,0,1:0:0:0:
448,0,81203,1,0,1:0:0:0:
64,0,81203,1,0,1:0:0:0:
192,0,81278,1,0,1:0:0:0:
448,0,81353,1,0,1:0:0:0:
320,0,81353,1,0,1:0:0:0:
192,0,81428,1,0,1:0:0:0:
448,0,81503,1,0,1:0:0:0:
64,0,81503,1,0,1:0:0:0:
320,0,81578,1,0,1:0:0:0:
192,0,81653,1,0,1:0:0:0:
64,0,81653,1,0,1:0:0:0:
448,0,81728,1,0,1:0:0:0:
320,0,81803,1,0,1:0:0:0:
192,0,81803,1,0,1:0:0:0:
64,0,81878,1,0,1:0:0:0:
448,0,81953,1,0,1:0:0:0:
320,0,81953,1,0,1:0:0:0:
192,0,82028,1,0,1:0:0:0:
448,0,82103,1,0,1:0:0:0:
64,0,82103,1,0,1:0:0:0:
320,0,82178,1,0,1:0:0:0:
192,0,82178,1,0,1:0:0:0:
448,0,82253,1,0,1:0:0:0:
64,0,82253,1,0,1:0:0:0:
320,0,82328,1,0,1:0:0:0:
192,0,82403,1,0,1:0:0:0:
64,0,82403,1,0,1:0:0:0:
448,0,82478,1,0,1:0:0:0:
320,0,82553,1,0,1:0:0:0:
192,0,82553,1,0,1:0:0:0:
64,0,82628,1,0,1:0:0:0:
448,0,82703,1,0,1:0:0:0:
320,0,82703,1,0,1:0:0:0:
192,0,82778,1,0,1:0:0:0:
448,0,82853,1,0,1:0:0:0:
64,0,82853,1,0,1:0:0:0:
320,0,82928,1,0,1:0:0:0:
192,0,83003,1,0,1:0:0:0:
64,0,83003,1,0,1:0:0:0:
448,0,83078,1,0,1:0:0:0:
320,0,83153,1,0,1:0:0:0:
192,0,83153,1,0,1:0:0:0:
64,0,83228,1,0,1:0:0:0:
448,0,83303,1,0,1:0:0:0:
320,0,83303,1,0,1:0:0:0:
192,0,83378,1,0,1:0:0:0:
64,0,83378,1,0,1:0:0:0:
448,0,83453,1,0,1:0:0:0:
320,0,83453,1,0,1:0:0:0:
192,0,83528,1,0,1:0:0:0:
448,0,83603,1,0,1:0:0:0:
64,0,83603,1,0,1:0:0:0:
320,0,83678,1,0,1:0:0:0:
192,0,83753,1,0,1:0:0:0:
64,0,83753,1,0,1:0:0:0:
320,0,83828,1,0,1:0:0:0:
448,0,83903,1,0,1:0:0:0:
64,0,83903,1,0,1:0:0:0:
192,0,83978,1,0,1:0:0:0:
448,0,84053,1,0,1:0:0:0:
320,0,84053,1,0,1:0:0:0:
64,0,84128,1,0,1:0:0:0:
320,0,84203,1,0,1:0:0:0:
192,0,84203,1,0,1:0:0:0:
64,0,84278,1,0,1:0:0:0:
448,0,84353,1,0,1:0:0:0:
320,0,84353,1,0,1:0:0:0:
192,0,84428,1,0,1:0:0:0:
448,0,84503,1,0,1:0:0:0:
64,0,84503,1,0,1:0:0:0:
320,0,84578,1,0,1:0:0:0:
192,0,84578,1,0,1:0:0:0:
448,0,84653,1,0,1:0:0:0:
64,0,84653,1,0,1:0:0:0:
320,0,84728,1,0,1:0:0:0:
192,0,84803,1,0,1:0:0:0:
64,0,84803,1,0,1:0:0:0:
448,0,84878,1,0,1:0:0:0:
320,0,84953,1,0,1:0:0:0:
192,0,84953,1,0,1:0:0:0:
448,0,85028,1,0,1:0:0:0:
192,0,85103,1,0,1:0:0:0:
64,0,85103,1,0,1:0:0:0:
320,0,85178,1,0,1:0:0:0:
448,0,85253,1,0,1:0:0:0:
64,0,85253,1,0,1:0:0:0:
192,0,85328,1,0,1:0:0:0:
448,0,85403,1,0,1:0:0:0:
320,0,85403,1,0,1:0:0:0:
192,0,85478,1,0,1:0:0:0:
448,0,85553,1,0,1:0:0:0:
64,0,85553,1,0,1:0:0:0:
320,0,85628,1,0,1:0:0:0:
192,0,85703,1,0,1:0:0:0:
64,0,85703,1,0,1:0:0:0:
448,0,85778,1,0,1:0:0:0:
320,0,85778,1,0,1:0:0:0:
192,0,85853,1,0,1:0:0:0:
64,0,85853,1,0,1:0:0:0:
320,0,85928,1,0,1:0:0:0:
192,0,86003,1,0,1:0:0:0:
64,0,86003,1,0,1:0:0:0:
320,0,86078,1,0,1:0:0:0:
192,0,86153,1,0,1:0:0:0:
64,0,86153,1,0,1:0:0:0:
320,0,86228,1,0,1:0:0:0:
192,0,86303,1,0,1:0:0:0:
64,0,86303,1,0,1:0:0:0:
320,0,86378,1,0,1:0:0:0:
448,0,86453,1,0,1:0:0:0:
64,0,86453,1,0,1:0:0:0:
320,0,86528,1,0,1:0:0:0:
448,0,86603,1,0,1:0:0:0:
192,0,86603,1,0,1:0:0:0:
64,0,86678,1,0,1:0:0:0:
448,0,86753,1,0,1:0:0:0:
320,0,86753,1,0,1:0:0:0:
192,0,86828,1,0,1:0:0:0:
448,0,86903,1,0,1:0:0:0:
64,0,86903,1,0,1:0:0:0:
320,0,86978,1,0,1:0:0:0:
192,0,86978,1,0,1:0:0:0:
448,0,87053,1,0,1:0:0:0:
64,0,87053,1,0,1:0:0:0:
320,0,87128,1,0,1:0:0:0:
448,0,87203,1,0,1:0:0:0:
192,0,87203,1,0,1:0:0:0:
320,0,87278,1,0,1:0:0:0:
192,0,87353,1,0,1:0:0:0:
64,0,87353,1,0,1:0:0:0:
448,0,87428,1,0,1:0:0:0:
320,0,87503,1,0,1:0:0:0:
192,0,87503,1,0,1:0:0:0:
448,0,87578,1,0,1:0:0:0:
192,0,87653,1,0,1:0:0:0:
64,0,87653,1,0,1:0:0:0:
320,0,87728,1,0,1:0:0:0:
448,0,87803,1,0,1:0:0:0:
64,0,87803,1,0,1:0:0:0:
192,0,87878,1,0,1:0:0:0:
448,0,87953,1,0,1:0:0:0:
320,0,87953,1,0,1:0:0:0:
192,0,88028,1,0,1:0:0:0:
448,0,88103,1,0,1:0:0:0:
64,0,88103,1,0,1:0:0:0:
320,0,88178,1,0,1:0:0:0:
192,0,88178,1,0,1:0:0:0:
448,0,88253,1,0,1:0:0:0:
64,0,88253,1,0,1:0:0:0:
192,0,88328,1,0,1:0:0:0:
448,0,88403,1,0,1:0:0:0:
320,0,88403,1,0,1:0:0:0:
192,0,88478,1,0,1:0:0:0:
320,0,88553,1,0,1:0:0:0:
64,0,88553,1,0,1:0:0:0:
192,0,88628,1,0,1:0:0:0:
448,0,88703,1,0,1:0:0:0:
320,0,88703,1,0,1:0:0:0:
192,0,88778,1,0,1:0:0:0:
448,0,88853,1,0,1:0:0:0:
64,0,88853,1,0,1:0:0:0:
320,0,88928,1,0,1:0:0:0:
192,0,89003,1,0,1:0:0:0:
64,0,89003,1,0,1:0:0:0:
320,0,89078,1,0,1:0:0:0:
448,0,89153,1,0,1:0:0:0:
64,0,89153,1,0,1:0:0:0:
192,0,89228,1,0,1:0:0:0:
448,0,89303,1,0,1:0:0:0:
320,0,89303,1,0,1:0:0:0:
192,0,89378,1,0,1:0:0:0:
64,0,89378,1,0,1:0:0:0:
448,0,89453,1,0,1:0:0:0:
320,0,89453,1,0,1:0:0:0:
192,0,89528,1,0,1:0:0:0:
448,0,89603,1,0,1:0:0:0:
64,0,89603,1,0,1:0:0:0:
320,0,89678,1,0,1:0:0:0:
192,0,89753,1,0,1:0:0:0:
64,0,89753,1,0,1:0:0:0:
320,0,89828,1,0,1:0:0:0:
448,0,89903,1,0,1:0:0:0:
64,0,89903,1,0,1:0:0:0:
192,0,89978,1,0,1:0:0:0:
448,0,90053,1,0,1:0:0:0:
320,0,90053,1,0,1:0:0:0:
64,0,90128,1,0,1:0:0:0:
320,0,90203,1,0,1:0:0:0:
192,0,90203,1,0,1:0:0:0:
448,0,90278,1,0,1:0:0:0:
192,0,90353,1,0,1:0:0:0:
64,0,90353,1,0,1:0:0:0:
320,0,90428,1,0,1:0:0:0:
448,0,90503,1,0,1:0:0:0:
64,0,90503,1,0,1:0:0:0:
320,0,90578,1,0,1:0:0:0:
192,0,90578,1,0,1:0:0:0:
448,0,90653,1,0,1:0:0:0:
64,0,90653,1,0,1:0:0:0:
320,0,90728,1,0,1:0:0:0:
448,0,90803,1,0,1:0:0:0:
64,0,90803,1,0,1:0:0:0:
320,0,90878,1,0,1:0:0:0:
192,0,90953,1,0,1:0:0:0:
64,0,90953,1,0,1:0:0:0:
320,0,91028,1,0,1:0:0:0:
448,0,91103,1,0,1:0:0:0:
64,0,91103,1,0,1:0:0:0:
192,0,91178,1,0,1:0:0:0:
448,0,91253,1,0,1:0:0:0:
320,0,91253,1,0,1:0:0:0:
64,0,91328,1,0,1:0:0:0:
320,0,91403,1,0,1:0:0:0:
192,0,91403,1,0,1:0:0:0:
448,0,91478,1,0,1:0:0:0:
192,0,91553,1,0,1:0:0:0:
64,0,91553,1,0,1:0:0:0:
320,0,91628,1,0,1:0:0:0:
448,0,91703,1,0,1:0:0:0:
64,0,91703,1,0,1:0:0:0:
320,0,91778,1,0,1:0:0:0:
192,0,91778,1,0,1:0:0:0:
448,0,91853,1,0,1:0:0:0:
64,0,91853,1,0,1:0:0:0:
192,0,91928,1,0,1:0:0:0:
448,0,92003,1,0,1:0:0:0:
320,0,92003,1,0,1:0:0:0:
192,0,92078,1,0,1:0:0:0:
448,0,92153,1,0,1:0:0:0:
64,0,92153,1,0,1:0:0:0:
320,0,92228,1,0,1:0:0:0:
448,0,92303,1,0,1:0:0:0:
64,0,92303,1,0,1:0:0:0:
192,0,92378,1,0,1:0:0:0:
448,0,92453,1,0,1:0:0:0:
320,0,92453,1,0,1:0:0:0:
192,0,92528,1,0,1:0:0:0:
448,0,92603,1,0,1:0:0:0:
320,0,92603,1,0,1:0:0:0:
192,0,92678,1,0,1:0:0:0:
448,0,92753,1,0,1:0:0:0:
320,0,92753,1,0,1:0:0:0:
192,0,92828,1,0,1:0:0:0:
448,0,92903,1,0,1:0:0:0:
64,0,92903,1,0,1:0:0:0:
320,0,92978,1,0,1:0:0:0:
192,0,92978,1,0,1:0:0:0:
448,0,93053,1,0,1:0:0:0:
64,0,93053,1,0,1:0:0:0:
192,0,93128,1,0,1:0:0:0:
448,0,93203,1,0,1:0:0:0:
320,0,93203,1,0,1:0:0:0:
192,0,93278,1,0,1:0:0:0:
448,0,93353,1,0,1:0:0:0:
320,0,93353,1,0,1:0:0:0:
448,0,93503,1,0,1:0:0:0:
64,0,93503,1,0,1:0:0:0:
192,0,93653,1,0,1:0:0:0:
64,0,93653,1,0,1:0:0:0:
320,0,93728,1,0,1:0:0:0:
448,0,93803,1,0,1:0:0:0:
192,0,93803,1,0,1:0:0:0:
320,0,93878,1,0,1:0:0:0:
192,0,93953,1,0,1:0:0:0:
64,0,93953,1,0,1:0:0:0:
320,0,94028,1,0,1:0:0:0:
192,0,94103,1,0,1:0:0:0:
64,0,94103,1,0,1:0:0:0:
448,0,94178,1,0,1:0:0:0:
320,0,94178,1,0,1:0:0:0:
192,0,94253,1,0,1:0:0:0:
64,0,94253,1,0,1:0:0:0:
320,0,94328,1,0,1:0:0:0:
448,0,94403,1,0,1:0:0:0:
64,0,94403,1,0,1:0:0:0:
320,0,94478,1,0,1:0:0:0:
192,0,94553,1,0,1:0:0:0:
64,0,94553,1,0,1:0:0:0:
320,0,94628,1,0,1:0:0:0:
448,0,94703,1,0,1:0:0:0:
64,0,94703,1,0,1:0:0:0:
320,0,94778,1,0,1:0:0:0:
192,0,94853,1,0,1:0:0:0:
64,0,94853,1,0,1:0:0:0:
320,0,95003,1,0,1:0:0:0:
192,0,95003,1,0,1:0:0:0:
448,0,95153,1,0,1:0:0:0:
64,0,95153,1,0,1:0:0:0:
448,0,95303,1,0,1:0:0:0:
320,0,95303,1,0,1:0:0:0:
192,0,95378,1,0,1:0:0:0:
64,0,95378,1,0,1:0:0:0:
448,0,95453,1,0,1:0:0:0:
320,0,95453,1,0,1:0:0:0:
448,0,95603,1,0,1:0:0:0:
320,0,95603,1,0,1:0:0:0:
192,0,95678,1,0,1:0:0:0:
448,0,95753,1,0,1:0:0:0:
320,0,95753,1,0,1:0:0:0:
192,0,95828,1,0,1:0:0:0:
448,0,95903,1,0,1:0:0:0:
320,0,95903,1,0,1:0:0:0:
192,0,95978,1,0,1:0:0:0:
448,0,96053,1,0,1:0:0:0:
320,0,96053,1,0,1:0:0:0:
64,0,96053,1,0,1:0:0:0:
192,0,96203,1,0,1:0:0:0:
192,0,96503,1,0,1:0:0:0:
64,0,96503,1,0,1:0:0:0:
192,0,96803,1,0,1:0:0:0:
192,0,97103,1,0,1:0:0:0:
448,0,97253,1,0,1:0:0:0:
320,0,97253,1,0,1:0:0:0:
192,0,97403,1,0,1:0:0:0:
192,0,97703,1,0,1:0:0:0:
64,0,97703,1,0,1:0:0:0:
192,0,98003,1,0,1:0:0:0:
448,0,98153,1,0,1:0:0:0:
320,0,98228,1,0,1:0:0:0:
448,0,98303,1,0,1:0:0:0:
192,0,98303,1,0,1:0:0:0:
64,0,98303,1,0,1:0:0:0:
320,0,98378,1,0,1:0:0:0:
448,0,98453,1,0,1:0:0:0:
192,0,98453,1,0,1:0:0:0:
64,0,98453,1,0,1:0:0:0:
320,0,98528,1,0,1:0:0:0:
192,0,98603,1,0,1:0:0:0:
320,0,98678,1,0,1:0:0:0:
192,0,98753,1,0,1:0:0:0:
320,0,98828,1,0,1:0:0:0:
192,0,98903,1,0,1:0:0:0:
64,0,98903,1,0,1:0:0:0:
320,0,98978,1,0,1:0:0:0:
192,0,99053,1,0,1:0:0:0:
320,0,99128,1,0,1:0:0:0:
192,0,99203,1,0,1:0:0:0:
320,0,99278,1,0,1:0:0:0:
192,0,99353,1,0,1:0:0:0:
320,0,99428,1,0,1:0:0:0:
192,0,99503,1,0,1:0:0:0:
320,0,99578,1,0,1:0:0:0:
192,0,99653,1,0,1:0:0:0:
64,0,99653,1,0,1:0:0:0:
320,0,99728,1,0,1:0:0:0:
192,0,99803,1,0,1:0:0:0:
320,0,99878,1,0,1:0:0:0:
192,0,99953,1,0,1:0:0:0:
320,0,100028,1,0,1:0:0:0:
192,0,100103,1,0,1:0:0:0:
64,0,100103,1,0,1:0:0:0:
320,0,100178,1,0,1:0:0:0:
192,0,100253,1,0,1:0:0:0:
320,0,100328,1,0,1:0:0:0:
192,0,100403,1,0,1:0:0:0:
320,0,100478,1,0,1:0:0:0:
64,0,100553,1,0,1:0:0:0:
192,0,100628,1,0,1:0:0:0:
320,0,100703,1,0,1:0:0:0:
448,0,100778,1,0,1:0:0:0:
320,0,100853,1,0,1:0:0:0:
192,0,100853,1,0,1:0:0:0:
64,0,100853,1,0,1:0:0:0:
448,0,100928,1,0,1:0:0:0:
320,0,101003,1,0,1:0:0:0:
64,0,101078,1,0,1:0:0:0:
448,0,101153,1,0,1:0:0:0:
320,0,101153,1,0,1:0:0:0:
192,0,101228,1,0,1:0:0:0:
448,0,101303,1,0,1:0:0:0:
320,0,101303,1,0,1:0:0:0:
192,0,101378,1,0,1:0:0:0:
448,0,101453,1,0,1:0:0:0:
64,0,101453,1,0,1:0:0:0:
320,0,101528,1,0,1:0:0:0:
192,0,101603,1,0,1:0:0:0:
64,0,101603,1,0,1:0:0:0:
320,0,101678,1,0,1:0:0:0:
448,0,101753,1,0,1:0:0:0:
192,0,101753,1,0,1:0:0:0:
64,0,101828,1,0,1:0:0:0:
448,0,101903,1,0,1:0:0:0:
192,0,101903,1,0,1:0:0:0:
320,0,101978,1,0,1:0:0:0:
192,0,102053,1,0,1:0:0:0:
64,0,102053,1,0,1:0:0:0:
320,0,102128,1,0,1:0:0:0:
448,0,102203,1,0,1:0:0:0:
64,0,102203,1,0,1:0:0:0:
192,0,102278,1,0,1:0:0:0:
320,0,102353,1,0,1:0:0:0:
448,0,102428,1,0,1:0:0:0:
192,0,102503,1,0,1:0:0:0:
64,0,102503,1,0,1:0:0:0:
320,0,102578,1,0,1:0:0:0:
192,0,102653,1,0,1:0:0:0:
320,0,102728,1,0,1:0:0:0:
448,0,102803,1,0,1:0:0:0:
64,0,102803,1,0,1:0:0:0:
192,0,102878,1,0,1:0:0:0:
448,0,102953,1,0,1:0:0:0:
320,0,102953,1,0,1:0:0:0:
64,0,103028,1,0,1:0:0:0:
448,0,103103,1,0,1:0:0:0:
192,0,103103,1,0,1:0:0:0:
320,0,103178,1,0,1:0:0:0:
192,0,103253,1,0,1:0:0:0:
64,0,103253,1,0,1:0:0:0:
320,0,103328,1,0,1:0:0:0:
448,0,103403,1,0,1:0:0:0:
192,0,103403,1,0,1:0:0:0:
64,0,103478,1,0,1:0:0:0:
448,0,103553,1,0,1:0:0:0:
320,0,103553,1,0,1:0:0:0:
192,0,103628,1,0,1:0:0:0:
448,0,103703,1,0,1:0:0:0:
320,0,103703,1,0,1:0:0:0:
192,0,103778,1,0,1:0:0:0:
448,0,103853,1,0,1:0:0:0:
64,0,103853,1,0,1:0:0:0:
320,0,103928,1,0,1:0:0:0:
192,0,104003,1,0,1:0:0:0:
64,0,104003,1,0,1:0:0:0:
448,0,104078,1,0,1:0:0:0:
320,0,104153,1,0,1:0:0:0:
448,0,104228,1,0,1:0:0:0:
192,0,104303,1,0,1:0:0:0:
64,0,104303,1,0,1:0:0:0:
320,0,104378,1,0,1:0:0:0:
448,0,104453,1,0,1:0:0:0:
64,0,104453,1,0,1:0:0:0:
320,0,104528,1,0,1:0:0:0:
192,0,104603,1,0,1:0:0:0:
64,0,104678,1,0,1:0:0:0:
448,0,104753,1,0,1:0:0:0:
192,0,104753,1,0,1:0:0:0:
320,0,104828,1,0,1:0:0:0:
192,0,104903,1,0,1:0:0:0:
320,0,104978,1,0,1:0:0:0:
448,0,105053,1,0,1:0:0:0:
192,0,105053,1,0,1:0:0:0:
64,0,105128,1,0,1:0:0:0:
320,0,105203,1,0,1:0:0:0:
192,0,105278,1,0,1:0:0:0:
448,0,105353,1,0,1:0:0:0:
64,0,105353,1,0,1:0:0:0:
192,0,105428,1,0,1:0:0:0:
448,0,105503,1,0,1:0:0:0:
64,0,105503,1,0,1:0:0:0:
192,0,105578,1,0,1:0:0:0:
448,0,105653,1,0,1:0:0:0:
64,0,105653,1,0,1:0:0:0:
192,0,105728,1,0,1:0:0:0:
320,0,105803,1,0,1:0:0:0:
448,0,105878,1,0,1:0:0:0:
192,0,105953,1,0,1:0:0:0:
64,0,105953,1,0,1:0:0:0:
320,0,106028,1,0,1:0:0:0:
448,0,106103,1,0,1:0:0:0:
192,0,106103,1,0,1:0:0:0:
320,0,106178,1,0,1:0:0:0:
192,0,106253,1,0,1:0:0:0:
64,0,106328,1,0,1:0:0:0:
448,0,106403,1,0,1:0:0:0:
320,0,106403,1,0,1:0:0:0:
192,0,106478,1,0,1:0:0:0:
320,0,106553,1,0,1:0:0:0:
64,0,106553,1,0,1:0:0:0:
192,0,106628,1,0,1:0:0:0:
448,0,106703,1,0,1:0:0:0:
320,0,106703,1,0,1:0:0:0:
192,0,106778,1,0,1:0:0:0:
448,0,106853,1,0,1:0:0:0:
64,0,106853,1,0,1:0:0:0:
320,0,106928,1,0,1:0:0:0:
448,0,107003,1,0,1:0:0:0:
64,0,107003,1,0,1:0:0:0:
320,0,107078,1,0,1:0:0:0:
192,0,107153,1,0,1:0:0:0:
448,0,107228,1,0,1:0:0:0:
192,0,107303,1,0,1:0:0:0:
64,0,107303,1,0,1:0:0:0:
320,0,107378,1,0,1:0:0:0:
448,0,107453,1,0,1:0:0:0:
320,0,107528,1,0,1:0:0:0:
192,0,107603,1,0,1:0:0:0:
64,0,107603,1,0,1:0:0:0:
448,0,107678,1,0,1:0:0:0:
320,0,107753,1,0,1:0:0:0:
192,0,107753,1,0,1:0:0:0:
448,0,107828,1,0,1:0:0:0:
320,0,107903,1,0,1:0:0:0:
192,0,107903,1,0,1:0:0:0:
64,0,107978,1,0,1:0:0:0:
448,0,108053,1,0,1:0:0:0:
192,0,108053,1,0,1:0:0:0:
64,0,108128,1,0,1:0:0:0:
448,0,108203,1,0,1:0:0:0:
320,0,108203,1,0,1:0:0:0:
192,0,108278,1,0,1:0:0:0:
448,0,108353,1,0,1:0:0:0:
320,0,108353,1,0,1:0:0:0:
192,0,108428,1,0,1:0:0:0:
448,0,108503,1,0,1:0:0:0:
320,0,108503,1,0,1:0:0:0:
64,0,108578,1,0,1:0:0:0:
448,0,108653,1,0,1:0:0:0:
192,0,108653,1,0,1:0:0:0:
320,0,108728,1,0,1:0:0:0:
192,0,108803,1,0,1:0:0:0:
64,0,108803,1,0,1:0:0:0:
448,0,108878,1,0,1:0:0:0:
320,0,108953,1,0,1:0:0:0:
448,0,109028,1,0,1:0:0:0:
192,0,109103,1,0,1:0:0:0:
64,0,109103,1,0,1:0:0:0:
320,0,109178,1,0,1:0:0:0:
448,0,109253,1,0,1:0:0:0:
64,0,109253,1,0,1:0:0:0:
320,0,109328,1,0,1:0:0:0:
64,0,109403,1,0,1:0:0:0:
192,0,109478,1,0,1:0:0:0:
448,0,109553,1,0,1:0:0:0:
64,0,109553,1,0,1:0:0:0:
192,0,109628,1,0,1:0:0:0:
320,0,109703,1,0,1:0:0:0:
64,0,109778,1,0,1:0:0:0:
448,0,109853,1,0,1:0:0:0:
320,0,109853,1,0,1:0:0:0:
192,0,109928,1,0,1:0:0:0:
448,0,110003,1,0,1:0:0:0:
320,0,110003,1,0,1:0:0:0:
192,0,110078,1,0,1:0:0:0:
448,0,110153,1,0,1:0:0:0:
320,0,110153,1,0,1:0:0:0:
192,0,110228,1,0,1:0:0:0:
448,0,110303,1,0,1:0:0:0:
320,0,110303,1,0,1:0:0:0:
192,0,110378,1,0,1:0:0:0:
448,0,110453,1,0,1:0:0:0:
320,0,110453,1,0,1:0:0:0:
64,0,110453,1,0,1:0:0:0:
192,0,110528,1,0,1:0:0:0:
320,0,110603,1,0,1:0:0:0:
448,0,110678,1,0,1:0:0:0:
192,0,110753,1,0,1:0:0:0:
64,0,110753,1,0,1:0:0:0:
448,0,110828,1,0,1:0:0:0:
320,0,110903,1,0,1:0:0:0:
192,0,110903,1,0,1:0:0:0:
64,0,110978,1,0,1:0:0:0:
448,0,111053,1,0,1:0:0:0:
192,0,111128,1,0,1:0:0:0:
448,0,111203,1,0,1:0:0:0:
320,0,111203,1,0,1:0:0:0:
192,0,111278,1,0,1:0:0:0:
320,0,111353,1,0,1:0:0:0:
64,0,111353,1,0,1:0:0:0:
192,0,111428,1,0,1:0:0:0:
320,0,111503,1,0,1:0:0:0:
64,0,111503,1,0,1:0:0:0:
448,0,111578,1,0,1:0:0:0:
192,0,111653,1,0,1:0:0:0:
64,0,111653,1,0,1:0:0:0:
320,0,111728,1,0,1:0:0:0:
448,0,111803,1,0,1:0:0:0:
64,0,111803,1,0,1:0:0:0:
320,0,111878,1,0,1:0:0:0:
192,0,111953,1,0,1:0:0:0:
448,0,112028,1,0,1:0:0:0:
192,0,112103,1,0,1:0:0:0:
64,0,112103,1,0,1:0:0:0:
320,0,112178,1,0,1:0:0:0:
448,0,112253,1,0,1:0:0:0:
320,0,112328,1,0,1:0:0:0:
192,0,112403,1,0,1:0:0:0:
64,0,112403,1,0,1:0:0:0:
320,0,112478,1,0,1:0:0:0:
448,0,112553,1,0,1:0:0:0:
64,0,112553,1,0,1:0:0:0:
192,0,112628,1,0,1:0:0:0:
448,0,112703,1,0,1:0:0:0:
320,0,112703,1,0,1:0:0:0:
192,0,112778,1,0,1:0:0:0:
448,0,112853,1,0,1:0:0:0:
64,0,112853,1,0,1:0:0:0:
192,0,112928,1,0,1:0:0:0:
320,0,113003,1,0,1:0:0:0:
64,0,113078,1,0,1:0:0:0:
448,0,113153,1,0,1:0:0:0:
192,0,113153,1,0,1:0:0:0:
320,0,113228,1,0,1:0:0:0:
448,0,113303,1,0,1:0:0:0:
192,0,113303,1,0,1:0:0:0:
320,0,113378,1,0,1:0:0:0:
64,0,113453,1,0,1:0:0:0:
320,0,113528,1,0,1:0:0:0:
192,0,113603,1,0,1:0:0:0:
64,0,113603,1,0,1:0:0:0:
448,0,113678,1,0,1:0:0:0:
320,0,113753,1,0,1:0:0:0:
192,0,113753,1,0,1:0:0:0:
64,0,113828,1,0,1:0:0:0:
448,0,113903,1,0,1:0:0:0:
320,0,113903,1,0,1:0:0:0:
192,0,113978,1,0,1:0:0:0:
448,0,114053,1,0,1:0:0:0:
64,0,114053,1,0,1:0:0:0:
320,0,114128,1,0,1:0:0:0:
192,0,114203,1,0,1:0:0:0:
320,0,114278,1,0,1:0:0:0:
192,0,114353,1,0,1:0:0:0:
64,0,114353,1,0,1:0:0:0:
448,0,114428,1,0,1:0:0:0:
320,0,114503,1,0,1:0:0:0:
192,0,114503,1,0,1:0:0:0:
64,0,114578,1,0,1:0:0:0:
448,0,114653,1,0,1:0:0:0:
320,0,114653,1,0,1:0:0:0:
192,0,114728,1,0,1:0:0:0:
448,0,114803,1,0,1:0:0:0:
64,0,114803,1,0,1:0:0:0:
192,0,114878,1,0,1:0:0:0:
320,0,114953,1,0,1:0:0:0:
64,0,114953,1,0,1:0:0:0:
448,0,115028,1,0,1:0:0:0:
192,0,115103,1,0,1:0:0:0:
64,0,115103,1,0,1:0:0:0:
320,0,115178,1,0,1:0:0:0:
192,0,115253,1,0,1:0:0:0:
64,0,115253,1,0,1:0:0:0:
320,0,115328,1,0,1:0:0:0:
192,0,115403,1,0,1:0:0:0:
320,0,115478,1,0,1:0:0:0:
192,0,115553,1,0,1:0:0:0:
64,0,115553,1,0,1:0:0:0:
320,0,115628,1,0,1:0:0:0:
192,0,115703,1,0,1:0:0:0:
320,0,115778,1,0,1:0:0:0:
192,0,115853,1,0,1:0:0:0:
320,0,115928,1,0,1:0:0:0:
192,0,116003,1,0,1:0:0:0:
320,0,116078,1,0,1:0:0:0:
192,0,116153,1,0,1:0:0:0:
320,0,116228,1,0,1:0:0:0:
192,0,116303,1,0,1:0:0:0:
320,0,116378,1,0,1:0:0:0:
192,0,116453,1,0,1:0:0:0:
320,0,116528,1,0,1:0:0:0:
192,0,116603,1,0,1:0:0:0:
320,0,116678,1,0,1:0:0:0:
192,0,116753,1,0,1:0:0:0:
320,0,116828,1,0,1:0:0:0:
192,0,116903,1,0,1:0:0:0:
320,0,116978,1,0,1:0:0:0:
192,0,117053,1,0,1:0:0:0:
320,0,117128,1,0,1:0:0:0:
192,0,117203,1,0,1:0:0:0:
320,0,117278,1,0,1:0:0:0:
192,0,117353,1,0,1:0:0:0:
448,0,117503,1,0,1:0:0:0:
320,0,117653,1,0,1:0:0:0:
192,0,117728,1,0,1:0:0:0:
320,0,117803,1,0,1:0:0:0:
192,0,117878,1,0,1:0:0:0:
320,0,117953,1,0,1:0:0:0:
192,0,118028,1,0,1:0:0:0:
320,0,118103,1,0,1:0:0:0:
192,0,118178,1,0,1:0:0:0:
320,0,118253,1,0,1:0:0:0:
192,0,118328,1,0,1:0:0:0:
320,0,118403,1,0,1:0:0:0:
192,0,118478,1,0,1:0:0:0:
320,0,118553,1,0,1:0:0:0:
192,0,118628,1,0,1:0:0:0:
320,0,118703,1,0,1:0:0:0:
192,0,118778,1,0,1:0:0:0:
320,0,118853,1,0,1:0:0:0:
64,0,119003,1,0,1:0:0:0:
192,0,119153,1,0,1:0:0:0:
320,0,119303,1,0,1:0:0:0:
192,0,119378,1,0,1:0:0:0:
320,0,119453,1,0,1:0:0:0:
192,0,119603,1,0,1:0:0:0:
64,0,119603,1,0,1:0:0:0:
448,0,119678,1,0,1:0:0:0:
320,0,119678,1,0,1:0:0:0:
192,0,119753,1,0,1:0:0:0:
64,0,119828,1,0,1:0:0:0:
448,0,119903,1,0,1:0:0:0:
320,0,119903,1,0,1:0:0:0:
192,0,119978,1,0,1:0:0:0:
448,0,120053,1,0,1:0:0:0:
320,0,120053,1,0,1:0:0:0:
64,0,120053,1,0,1:0:0:0:
64,0,120203,1,0,1:0:0:0:
448,0,120278,1,0,1:0:0:0:
320,0,120353,1,0,1:0:0:0:
192,0,120353,1,0,1:0:0:0:
64,0,120428,1,0,1:0:0:0:
448,0,120503,1,0,1:0:0:0:
320,0,120578,1,0,1:0:0:0:
448,0,120653,1,0,1:0:0:0:
192,0,120803,1,0,1:0:0:0:
64,0,120803,1,0,1:0:0:0:
448,0,120878,1,0,1:0:0:0:
320,0,120953,1,0,1:0:0:0:
192,0,120953,1,0,1:0:0:0:
64,0,121028,1,0,1:0:0:0:
320,0,121103,1,0,1:0:0:0:
192,0,121178,1,0,1:0:0:0:
448,0,121253,1,0,1:0:0:0:
64,0,121253,1,0,1:0:0:0:
448,0,121403,1,0,1:0:0:0:
320,0,121478,1,0,1:0:0:0:
192,0,121553,1,0,1:0:0:0:
64,0,121553,1,0,1:0:0:0:
448,0,121628,1,0,1:0:0:0:
320,0,121703,1,0,1:0:0:0:
192,0,121778,1,0,1:0:0:0:
320,0,121853,1,0,1:0:0:0:
448,0,122003,1,0,1:0:0:0:
192,0,122003,1,0,1:0:0:0:
320,0,122078,1,0,1:0:0:0:
192,0,122153,1,0,1:0:0:0:
64,0,122153,1,0,1:0:0:0:
320,0,122228,1,0,1:0:0:0:
192,0,122303,1,0,1:0:0:0:
448,0,122378,1,0,1:0:0:0:
320,0,122453,1,0,1:0:0:0:
64,0,122453,1,0,1:0:0:0:
320,0,122603,1,0,1:0:0:0:
192,0,122678,1,0,1:0:0:0:
448,0,122753,1,0,1:0:0:0:
64,0,122753,1,0,1:0:0:0:
192,0,122828,1,0,1:0:0:0:
64,0,122903,1,0,1:0:0:0:
192,0,122978,1,0,1:0:0:0:
448,0,123053,1,0,1:0:0:0:
320,0,123053,1,0,1:0:0:0:
320,0,123203,1,0,1:0:0:0:
192,0,123278,1,0,1:0:0:0:
448,0,123353,1,0,1:0:0:0:
64,0,123353,1,0,1:0:0:0:
320,0,123428,1,0,1:0:0:0:
64,0,123503,1,0,1:0:0:0:
192,0,123578,1,0,1:0:0:0:
448,0,123653,1,0,1:0:0:0:
320,0,123653,1,0,1:0:0:0:
448,0,123803,1,0,1:0:0:0:
320,0,123803,1,0,1:0:0:0:
64,0,123878,1,0,1:0:0:0:
192,0,123953,1,0,1:0:0:0:
64,0,124028,1,0,1:0:0:0:
448,0,124103,1,0,1:0:0:0:
192,0,124103,1,0,1:0:0:0:
320,0,124178,1,0,1:0:0:0:
64,0,124253,1,0,1:0:0:0:
320,0,124328,1,0,1:0:0:0:
192,0,124403,1,0,1:0:0:0:
64,0,124403,1,0,1:0:0:0:
320,0,124478,1,0,1:0:0:0:
192,0,124553,1,0,1:0:0:0:
64,0,124553,1,0,1:0:0:0:
320,0,124628,1,0,1:0:0:0:
448,0,124703,1,0,1:0:0:0:
192,0,124703,1,0,1:0:0:0:
320,0,124778,1,0,1:0:0:0:
448,0,124853,1,0,1:0:0:0:
64,0,124853,1,0,1:0:0:0:
448,0,125003,1,0,1:0:0:0:
320,0,125078,1,0,1:0:0:0:
192,0,125153,1,0,1:0:0:0:
64,0,125153,1,0,1:0:0:0:
448,0,125228,1,0,1:0:0:0:
192,0,125303,1,0,1:0:0:0:
320,0,125378,1,0,1:0:0:0:
448,0,125453,1,0,1:0:0:0:
192,0,125603,1,0,1:0:0:0:
64,0,125603,1,0,1:0:0:0:
448,0,125678,1,0,1:0:0:0:
320,0,125753,1,0,1:0:0:0:
192,0,125753,1,0,1:0:0:0:
64,0,125828,1,0,1:0:0:0:
320,0,125903,1,0,1:0:0:0:
192,0,125978,1,0,1:0:0:0:
448,0,126053,1,0,1:0:0:0:
64,0,126053,1,0,1:0:0:0:
448,0,126203,1,0,1:0:0:0:
192,0,126278,1,0,1:0:0:0:
320,0,126353,1,0,1:0:0:0:
64,0,126353,1,0,1:0:0:0:
192,0,126428,1,0,1:0:0:0:
64,0,126503,1,0,1:0:0:0:
320,0,126578,1,0,1:0:0:0:
448,0,126653,1,0,1:0:0:0:
448,0,126803,1,0,1:0:0:0:
320,0,126803,1,0,1:0:0:0:
192,0,126878,1,0,1:0:0:0:
448,0,126953,1,0,1:0:0:0:
64,0,126953,1,0,1:0:0:0:
320,0,127028,1,0,1:0:0:0:
64,0,127103,1,0,1:0:0:0:
320,0,127178,1,0,1:0:0:0:
448,0,127253,1,0,1:0:0:0:
192,0,127253,1,0,1:0:0:0:
320,0,127328,1,0,1:0:0:0:
192,0,127403,1,0,1:0:0:0:
320,0,127478,1,0,1:0:0:0:
448,0,127553,1,0,1:0:0:0:
64,0,127553,1,0,1:0:0:0:
192,0,127628,1,0,1:0:0:0:
64,0,127703,1,0,1:0:0:0:
320,0,127778,1,0,1:0:0:0:
448,0,127853,1,0,1:0:0:0:
192,0,127853,1,0,1:0:0:0:
320,0,127928,1,0,1:0:0:0:
192,0,128003,1,0,1:0:0:0:
64,0,128078,1,0,1:0:0:0:
448,0,128153,1,0,1:0:0:0:
320,0,128153,1,0,1:0:0:0:
192,0,128228,1,0,1:0:0:0:
448,0,128303,1,0,1:0:0:0:
64,0,128303,1,0,1:0:0:0:
192,0,128378,1,0,1:0:0:0:
448,0,128453,1,0,1:0:0:0:
320,0,128453,1,0,1:0:0:0:
64,0,128453,1,0,1:0:0:0:
64,0,128603,1,0,1:0:0:0:
448,0,128753,1,0,1:0:0:0:
320,0,128903,1,0,1:0:0:0:
192,0,128903,1,0,1:0:0:0:
448,0,129053,1,0,1:0:0:0:
320,0,129053,1,0,1:0:0:0:
64,0,129053,1,0,1:0:0:0:
192,0,129203,1,0,1:0:0:0:
64,0,129203,1,0,1:0:0:0:
320,0,129353,1,0,1:0:0:0:
192,0,129353,1,0,1:0:0:0:
192,0,129503,1,0,1:0:0:0:
64,0,129503,1,0,1:0:0:0:
448,0,129653,1,0,1:0:0:0:
64,0,129653,1,0,1:0:0:0:
448,0,129803,1,0,1:0:0:0:
192,0,129878,1,0,1:0:0:0:
320,0,129953,1,0,1:0:0:0:
64,0,129953,1,0,1:0:0:0:
192,0,130028,1,0,1:0:0:0:
320,0,130103,1,0,1:0:0:0:
448,0,130178,1,0,1:0:0:0:
192,0,130253,1,0,1:0:0:0:
448,0,130403,1,0,1:0:0:0:
320,0,130403,1,0,1:0:0:0:
192,0,130478,1,0,1:0:0:0:
448,0,130553,1,0,1:0:0:0:
64,0,130553,1,0,1:0:0:0:
320,0,130628,1,0,1:0:0:0:
64,0,130703,1,0,1:0:0:0:
448,0,130778,1,0,1:0:0:0:
320,0,130853,1,0,1:0:0:0:
192,0,130853,1,0,1:0:0:0:
192,0,131003,1,0,1:0:0:0:
64,0,131078,1,0,1:0:0:0:
448,0,131153,1,0,1:0:0:0:
320,0,131153,1,0,1:0:0:0:
192,0,131228,1,0,1:0:0:0:
448,0,131303,1,0,1:0:0:0:
64,0,131303,1,0,1:0:0:0:
192,0,131378,1,0,1:0:0:0:
320,0,131453,1,0,1:0:0:0:
192,0,131603,1,0,1:0:0:0:
64,0,131603,1,0,1:0:0:0:
320,0,131678,1,0,1:0:0:0:
192,0,131753,1,0,1:0:0:0:
320,0,131828,1,0,1:0:0:0:
64,0,131903,1,0,1:0:0:0:
192,0,131978,1,0,1:0:0:0:
448,0,132053,1,0,1:0:0:0:
320,0,132053,1,0,1:0:0:0:
448,0,132203,1,0,1:0:0:0:
320,0,132278,1,0,1:0:0:0:
192,0,132353,1,0,1:0:0:0:
64,0,132353,1,0,1:0:0:0:
320,0,132428,1,0,1:0:0:0:
64,0,132503,1,0,1:0:0:0:
192,0,132578,1,0,1:0:0:0:
448,0,132653,1,0,1:0:0:0:
320,0,132653,1,0,1:0:0:0:
192,0,132728,1,0,1:0:0:0:
448,0,132803,1,0,1:0:0:0:
320,0,132878,1,0,1:0:0:0:
448,0,132953,1,0,1:0:0:0:
64,0,132953,1,0,1:0:0:0:
320,0,133028,1,0,1:0:0:0:
192,0,133103,1,0,1:0:0:0:
64,0,133103,1,0,1:0:0:0:
320,0,133178,1,0,1:0:0:0:
192,0,133253,1,0,1:0:0:0:
64,0,133253,1,0,1:0:0:0:
448,0,133328,1,0,1:0:0:0:
320,0,133403,1,0,1:0:0:0:
192,0,133478,1,0,1:0:0:0:
448,0,133553,1,0,1:0:0:0:
320,0,133553,1,0,1:0:0:0:
192,0,133628,1,0,1:0:0:0:
448,0,133703,1,0,1:0:0:0:
320,0,133703,1,0,1:0:0:0:
192,0,133778,1,0,1:0:0:0:
64,0,133853,1,0,1:0:0:0:
320,0,133928,1,0,1:0:0:0:
448,0,134003,1,0,1:0:0:0:
64,0,134003,1,0,1:0:0:0:
320,0,134078,1,0,1:0:0:0:
192,0,134153,1,0,1:0:0:0:
64,0,134153,1,0,1:0:0:0:
320,0,134228,1,0,1:0:0:0:
192,0,134303,1,0,1:0:0:0:
64,0,134303,1,0,1:0:0:0:
320,0,134378,1,0,1:0:0:0:
192,0,134453,1,0,1:0:0:0:
64,0,134453,1,0,1:0:0:0:
320,0,134603,1,0,1:0:0:0:
192,0,134603,1,0,1:0:0:0:
448,0,134753,1,0,1:0:0:0:
320,0,134753,1,0,1:0:0:0:
448,0,134903,1,0,1:0:0:0:
320,0,134903,1,0,1:0:0:0:
192,0,135053,1,0,1:0:0:0:
64,0,135053,1,0,1:0:0:0:
320,0,135203,1,0,1:0:0:0:
192,0,135203,1,0,1:0:0:0:
448,0,135353,1,0,1:0:0:0:
320,0,135353,1,0,1:0:0:0:
448,0,135503,1,0,1:0:0:0:
320,0,135503,1,0,1:0:0:0:
192,0,135653,1,0,1:0:0:0:
64,0,135653,1,0,1:0:0:0:
320,0,135803,1,0,1:0:0:0:
192,0,135803,1,0,1:0:0:0:
448,0,135953,1,0,1:0:0:0:
64,0,135953,1,0,1:0:0:0:
448,0,136103,1,0,1:0:0:0:
64,0,136103,1,0,1:0:0:0:
320,0,136253,1,0,1:0:0:0:
448,0,136403,1,0,1:0:0:0:
64,0,136403,1,0,1:0:0:0:
448,0,136553,1,0,1:0:0:0:
64,0,136553,1,0,1:0:0:0:
320,0,136703,1,0,1:0:0:0:
192,0,136853,1,0,1:0:0:0:
64,0,136853,1,0,1:0:0:0:
448,0,136928,1,0,1:0:0:0:
320,0,136928,1,0,1:0:0:0:
192,0,137003,1,0,1:0:0:0:
64,0,137003,1,0,1:0:0:0:
448,0,137078,1,0,1:0:0:0:
320,0,137078,1,0,1:0:0:0:
192,0,137153,1,0,1:0:0:0:
64,0,137153,1,0,1:0:0:0:
448,0,137228,1,0,1:0:0:0:
320,0,137228,1,0,1:0:0:0:
192,0,137303,1,0,1:0:0:0:
64,0,137303,1,0,1:0:0:0:
448,0,137378,1,0,1:0:0:0:
320,0,137378,1,0,1:0:0:0:
192,0,137453,1,0,1:0:0:0:
64,0,137453,1,0,1:0:0:0:
448,0,137528,1,0,1:0:0:0:
320,0,137528,1,0,1:0:0:0:
192,0,137603,1,0,1:0:0:0:
64,0,137603,1,0,1:0:0:0:
448,0,137678,1,0,1:0:0:0:
320,0,137678,1,0,1:0:0:0:
192,0,137753,1,0,1:0:0:0:
64,0,137753,1,0,1:0:0:0:
448,0,137828,1,0,1:0:0:0:
320,0,137828,1,0,1:0:0:0:
192,0,137903,1,0,1:0:0:0:
64,0,137903,1,0,1:0:0:0:
320,0,137978,1,0,1:0:0:0:
448,0,138053,1,0,1:0:0:0:
192,0,138053,1,0,1:0:0:0:
64,0,138053,1,0,1:0:0:0:
448,0,138353,1,0,1:0:0:0:
192,0,138353,1,0,1:0:0:0:
448,0,138503,1,0,1:0:0:0:
192,0,138503,1,0,1:0:0:0:
64,0,138653,1,0,1:0:0:0:
192,0,138803,1,0,1:0:0:0:
320,0,138878,1,0,1:0:0:0:
192,0,138953,1,0,1:0:0:0:
320,0,139028,1,0,1:0:0:0:
192,0,139103,1,0,1:0:0:0:
320,0,139178,1,0,1:0:0:0:
448,0,139253,1,0,1:0:0:0:
192,0,139253,1,0,1:0:0:0:
64,0,139253,1,0,1:0:0:0:
320,0,139328,1,0,1:0:0:0:
448,0,139403,1,0,1:0:0:0:
320,0,139478,1,0,1:0:0:0:
192,0,139553,1,0,1:0:0:0:
64,0,139553,1,0,1:0:0:0:
448,0,139628,1,0,1:0:0:0:
320,0,139703,1,0,1:0:0:0:
192,0,139778,1,0,1:0:0:0:
320,0,139853,1,0,1:0:0:0:
64,0,139853,1,0,1:0:0:0:
448,0,139928,1,0,1:0:0:0:
192,0,140003,1,0,1:0:0:0:
448,0,140078,1,0,1:0:0:0:
320,0,140153,1,0,1:0:0:0:
64,0,140153,1,0,1:0:0:0:
192,0,140228,1,0,1:0:0:0:
320,0,140303,1,0,1:0:0:0:
64,0,140378,1,0,1:0:0:0:
448,0,140453,1,0,1:0:0:0:
192,0,140453,1,0,1:0:0:0:
320,0,140528,1,0,1:0:0:0:
64,0,140603,1,0,1:0:0:0:
320,0,140678,1,0,1:0:0:0:
448,0,140753,1,0,1:0:0:0:
192,0,140753,1,0,1:0:0:0:
64,0,140828,1,0,1:0:0:0:
320,0,140903,1,0,1:0:0:0:
448,0,140978,1,0,1:0:0:0:
192,0,141053,1,0,1:0:0:0:
64,0,141053,1,0,1:0:0:0:
320,0,141128,1,0,1:0:0:0:
448,0,141203,1,0,1:0:0:0:
320,0,141278,1,0,1:0:0:0:
192,0,141353,1,0,1:0:0:0:
64,0,141353,1,0,1:0:0:0:
448,0,141428,1,0,1:0:0:0:
320,0,141503,1,0,1:0:0:0:
192,0,141578,1,0,1:0:0:0:
448,0,141653,1,0,1:0:0:0:
320,0,141653,1,0,1:0:0:0:
64,0,141728,1,0,1:0:0:0:
192,0,141803,1,0,1:0:0:0:
64,0,141878,1,0,1:0:0:0:
320,0,141953,1,0,1:0:0:0:
192,0,141953,1,0,1:0:0:0:
448,0,142028,1,0,1:0:0:0:
320,0,142103,1,0,1:0:0:0:
448,0,142178,1,0,1:0:0:0:
192,0,142253,1,0,1:0:0:0:
64,0,142253,1,0,1:0:0:0:
320,0,142328,1,0,1:0:0:0:
192,0,142403,1,0,1:0:0:0:
320,0,142478,1,0,1:0:0:0:
448,0,142553,1,0,1:0:0:0:
64,0,142553,1,0,1:0:0:0:
192,0,142628,1,0,1:0:0:0:
320,0,142703,1,0,1:0:0:0:
64,0,142778,1,0,1:0:0:0:
448,0,142853,1,0,1:0:0:0:
320,0,142853,1,0,1:0:0:0:
192,0,142928,1,0,1:0:0:0:
448,0,143003,1,0,1:0:0:0:
64,0,143003,1,0,1:0:0:0:
192,0,143078,1,0,1:0:0:0:
448,0,143153,1,0,1:0:0:0:
320,0,143153,1,0,1:0:0:0:
192,0,143228,1,0,1:0:0:0:
448,0,143303,1,0,1:0:0:0:
64,0,143303,1,0,1:0:0:0:
320,0,143378,1,0,1:0:0:0:
192,0,143378,1,0,1:0:0:0:
448,0,143453,1,0,1:0:0:0:
64,0,143453,1,0,1:0:0:0:
320,0,143528,1,0,1:0:0:0:
192,0,143603,1,0,1:0:0:0:
64,0,143603,1,0,1:0:0:0:
448,0,143678,1,0,1:0:0:0:
320,0,143753,1,0,1:0:0:0:
192,0,143753,1,0,1:0:0:0:
64,0,143828,1,0,1:0:0:0:
448,0,143903,1,0,1:0:0:0:
320,0,143903,1,0,1:0:0:0:
192,0,143978,1,0,1:0:0:0:
448,0,144053,1,0,1:0:0:0:
64,0,144053,1,0,1:0:0:0:
320,0,144128,1,0,1:0:0:0:
192,0,144203,1,0,1:0:0:0:
320,0,144278,1,0,1:0:0:0:
448,0,144353,1,0,1:0:0:0:
64,0,144353,1,0,1:0:0:0:
192,0,144428,1,0,1:0:0:0:
320,0,144503,1,0,1:0:0:0:
64,0,144578,1,0,1:0:0:0:
448,0,144653,1,0,1:0:0:0:
320,0,144653,1,0,1:0:0:0:
192,0,144728,1,0,1:0:0:0:
64,0,144803,1,0,1:0:0:0:
192,0,144878,1,0,1:0:0:0:
448,0,144953,1,0,1:0:0:0:
320,0,144953,1,0,1:0:0:0:
64,0,145028,1,0,1:0:0:0:
192,0,145103,1,0,1:0:0:0:
64,0,145178,1,0,1:0:0:0:
320,0,145253,1,0,1:0:0:0:
192,0,145253,1,0,1:0:0:0:
448,0,145328,1,0,1:0:0:0:
64,0,145403,1,0,1:0:0:0:
448,0,145478,1,0,1:0:0:0:
320,0,145553,1,0,1:0:0:0:
192,0,145553,1,0,1:0:0:0:
64,0,145628,1,0,1:0:0:0:
448,0,145703,1,0,1:0:0:0:
320,0,145778,1,0,1:0:0:0:
192,0,145853,1,0,1:0:0:0:
64,0,145853,1,0,1:0:0:0:
448,0,145928,1,0,1:0:0:0:
320,0,146003,1,0,1:0:0:0:
448,0,146078,1,0,1:0:0:0:
192,0,146153,1,0,1:0:0:0:
64,0,146153,1,0,1:0:0:0:
320,0,146228,1,0,1:0:0:0:
192,0,146303,1,0,1:0:0:0:
64,0,146378,1,0,1:0:0:0:
448,0,146453,1,0,1:0:0:0:
320,0,146453,1,0,1:0:0:0:
64,0,146528,1,0,1:0:0:0:
192,0,146603,1,0,1:0:0:0:
64,0,146678,1,0,1:0:0:0:
320,0,146753,1,0,1:0:0:0:
192,0,146753,1,0,1:0:0:0:
448,0,146828,1,0,1:0:0:0:
320,0,146903,1,0,1:0:0:0:
192,0,146978,1,0,1:0:0:0:
448,0,147053,1,0,1:0:0:0:
64,0,147053,1,0,1:0:0:0:
320,0,147128,1,0,1:0:0:0:
192,0,147203,1,0,1:0:0:0:
448,0,147278,1,0,1:0:0:0:
320,0,147353,1,0,1:0:0:0:
64,0,147353,1,0,1:0:0:0:
192,0,147428,1,0,1:0:0:0:
320,0,147503,1,0,1:0:0:0:
448,0,147578,1,0,1:0:0:0:
192,0,147653,1,0,1:0:0:0:
64,0,147653,1,0,1:0:0:0:
320,0,147728,1,0,1:0:0:0:
448,0,147803,1,0,1:0:0:0:
320,0,147878,1,0,1:0:0:0:
192,0,147953,1,0,1:0:0:0:
64,0,147953,1,0,1:0:0:0:
448,0,148028,1,0,1:0:0:0:
320,0,148103,1,0,1:0:0:0:
64,0,148178,1,0,1:0:0:0:
448,0,148253,1,0,1:0:0:0:
320,0,148253,1,0,1:0:0:0:
192,0,148328,1,0,1:0:0:0:
448,0,148403,1,0,1:0:0:0:
320,0,148403,1,0,1:0:0:0:
192,0,148478,1,0,1:0:0:0:
448,0,148553,1,0,1:0:0:0:
320,0,148553,1,0,1:0:0:0:
192,0,148628,1,0,1:0:0:0:
448,0,148703,1,0,1:0:0:0:
320,0,148703,1,0,1:0:0:0:
192,0,148778,1,0,1:0:0:0:
448,0,148853,1,0,1:0:0:0:
320,0,148853,1,0,1:0:0:0:
64,0,148928,1,0,1:0:0:0:
192,0,149003,1,0,1:0:0:0:
64,0,149078,1,0,1:0:0:0:
448,0,149153,1,0,1:0:0:0:
320,0,149153,1,0,1:0:0:0:
192,0,149228,1,0,1:0:0:0:
64,0,149303,1,0,1:0:0:0:
448,0,149378,1,0,1:0:0:0:
320,0,149453,1,0,1:0:0:0:
192,0,149453,1,0,1:0:0:0:
64,0,149528,1,0,1:0:0:0:
448,0,149603,1,0,1:0:0:0:
64,0,149678,1,0,1:0:0:0:
320,0,149753,1,0,1:0:0:0:
192,0,149753,1,0,1:0:0:0:
448,0,149828,1,0,1:0:0:0:
320,0,149903,1,0,1:0:0:0:
192,0,149978,1,0,1:0:0:0:
448,0,150053,1,0,1:0:0:0:
64,0,150053,1,0,1:0:0:0:
320,0,150128,1,0,1:0:0:0:
192,0,150203,1,0,1:0:0:0:
320,0,150278,1,0,1:0:0:0:
448,0,150353,1,0,1:0:0:0:
64,0,150353,1,0,1:0:0:0:
192,0,150428,1,0,1:0:0:0:
320,0,150503,1,0,1:0:0:0:
448,0,150578,1,0,1:0:0:0:
192,0,150653,1,0,1:0:0:0:
64,0,150653,1,0,1:0:0:0:
320,0,150728,1,0,1:0:0:0:
448,0,150803,1,0,1:0:0:0:
320,0,150878,1,0,1:0:0:0:
192,0,150953,1,0,1:0:0:0:
64,0,150953,1,0,1:0:0:0:
448,0,151028,1,0,1:0:0:0:
320,0,151103,1,0,1:0:0:0:
192,0,151178,1,0,1:0:0:0:
448,0,151253,1,0,1:0:0:0:
64,0,151253,1,0,1:0:0:0:
320,0,151328,1,0,1:0:0:0:
192,0,151403,1,0,1:0:0:0:
64,0,151478,1,0,1:0:0:0:
448,0,151553,1,0,1:0:0:0:
320,0,151553,1,0,1:0:0:0:
64,0,151628,1,0,1:0:0:0:
192,0,151703,1,0,1:0:0:0:
64,0,151778,1,0,1:0:0:0:
320,0,151853,1,0,1:0:0:0:
192,0,151853,1,0,1:0:0:0:
448,0,151928,1,0,1:0:0:0:
320,0,152003,1,0,1:0:0:0:
448,0,152078,1,0,1:0:0:0:
192,0,152153,1,0,1:0:0:0:
64,0,152153,1,0,1:0:0:0:
320,0,152228,1,0,1:0:0:0:
192,0,152303,1,0,1:0:0:0:
64,0,152378,1,0,1:0:0:0:
448,0,152453,1,0,1:0:0:0:
320,0,152453,1,0,1:0:0:0:
192,0,152528,1,0,1:0:0:0:
320,0,152603,1,0,1:0:0:0:
64,0,152603,1,0,1:0:0:0:
192,0,152678,1,0,1:0:0:0:
448,0,152753,1,0,1:0:0:0:
320,0,152753,1,0,1:0:0:0:
192,0,152828,1,0,1:0:0:0:
448,0,152903,1,0,1:0:0:0:
64,0,152903,1,0,1:0:0:0:
320,0,152978,1,0,1:0:0:0:
192,0,152978,1,0,1:0:0:0:
448,0,153053,1,0,1:0:0:0:
64,0,153053,1,0,1:0:0:0:
320,0,153128,1,0,1:0:0:0:
192,0,153203,1,0,1:0:0:0:
64,0,153203,1,0,1:0:0:0:
320,0,153278,1,0,1:0:0:0:
448,0,153353,1,0,1:0:0:0:
192,0,153353,1,0,1:0:0:0:
320,0,153428,1,0,1:0:0:0:
448,0,153503,1,0,1:0:0:0:
64,0,153503,1,0,1:0:0:0:
192,0,153578,1,0,1:0:0:0:
448,0,153653,1,0,1:0:0:0:
64,0,153653,1,0,1:0:0:0:
320,0,153728,1,0,1:0:0:0:
192,0,153803,1,0,1:0:0:0:
64,0,153878,1,0,1:0:0:0:
448,0,153953,1,0,1:0:0:0:
320,0,153953,1,0,1:0:0:0:
192,0,154028,1,0,1:0:0:0:
320,0,154103,1,0,1:0:0:0:
448,0,154178,1,0,1:0:0:0:
192,0,154253,1,0,1:0:0:0:
64,0,154253,1,0,1:0:0:0:
320,0,154328,1,0,1:0:0:0:
448,0,154403,1,0,1:0:0:0:
320,0,154478,1,0,1:0:0:0:
192,0,154553,1,0,1:0:0:0:
64,0,154553,1,0,1:0:0:0:
448,0,154628,1,0,1:0:0:0:
320,0,154703,1,0,1:0:0:0:
64,0,154778,1,0,1:0:0:0:
320,0,154853,1,0,1:0:0:0:
192,0,154853,1,0,1:0:0:0:
64,0,154928,1,0,1:0:0:0:
192,0,155003,1,0,1:0:0:0:
448,0,155078,1,0,1:0:0:0:
320,0,155153,1,0,1:0:0:0:
192,0,155153,1,0,1:0:0:0:
64,0,155228,1,0,1:0:0:0:
192,0,155303,1,0,1:0:0:0:
64,0,155378,1,0,1:0:0:0:
448,0,155453,1,0,1:0:0:0:
320,0,155453,1,0,1:0:0:0:
192,0,155528,1,0,1:0:0:0:
64,0,155603,1,0,1:0:0:0:
192,0,155678,1,0,1:0:0:0:
448,0,155753,1,0,1:0:0:0:
320,0,155753,1,0,1:0:0:0:
64,0,155828,1,0,1:0:0:0:
192,0,155903,1,0,1:0:0:0:
448,0,155978,1,0,1:0:0:0:
320,0,156053,1,0,1:0:0:0:
192,0,156053,1,0,1:0:0:0:
448,0,156128,1,0,1:0:0:0:
64,0,156203,1,0,1:0:0:0:
448,0,156278,1,0,1:0:0:0:
320,0,156353,1,0,1:0:0:0:
192,0,156353,1,0,1:0:0:0:
64,0,156428,1,0,1:0:0:0:
320,0,156503,1,0,1:0:0:0:
448,0,156578,1,0,1:0:0:0:
192,0,156653,1,0,1:0:0:0:
64,0,156653,1,0,1:0:0:0:
320,0,156728,1,0,1:0:0:0:
448,0,156803,1,0,1:0:0:0:
320,0,156878,1,0,1:0:0:0:
192,0,156953,1,0,1:0:0:0:
64,0,156953,1,0,1:0:0:0:
448,0,157028,1,0,1:0:0:0:
320,0,157103,1,0,1:0:0:0:
192,0,157178,1,0,1:0:0:0:
448,0,157253,1,0,1:0:0:0:
320,0,157253,1,0,1:0:0:0:
64,0,157253,1,0,1:0:0:0:
192,0,157403,1,0,1:0:0:0:
448,0,157553,1,0,1:0:0:0:
320,0,157703,1,0,1:0:0:0:
192,0,157703,1,0,1:0:0:0:
448,0,157778,1,0,1:0:0:0:
64,0,157853,1,0,1:0:0:0:
320,0,158003,1,0,1:0:0:0:
192,0,158153,1,0,1:0:0:0:
64,0,158153,1,0,1:0:0:0:
448,0,158303,1,0,1:0:0:0:
320,0,158303,1,0,1:0:0:0:
192,0,158378,1,0,1:0:0:0:
448,0,158453,1,0,1:0:0:0:
320,0,158453,1,0,1:0:0:0:
64,0,158453,1,0,1:0:0:0:
192,0,158528,1,0,1:0:0:0:
64,0,158603,1,0,1:0:0:0:
192,0,158678,1,0,1:0:0:0:
448,0,158753,1,0,1:0:0:0:
320,0,158753,1,0,1:0:0:0:
64,0,158828,1,0,1:0:0:0:
192,0,158903,1,0,1:0:0:0:
320,0,158978,1,0,1:0:0:0:
448,0,159053,1,0,1:0:0:0:
192,0,159053,1,0,1:0:0:0:
64,0,159128,1,0,1:0:0:0:
320,0,159203,1,0,1:0:0:0:
64,0,159278,1,0,1:0:0:0:
448,0,159353,1,0,1:0:0:0:
192,0,159353,1,0,1:0:0:0:
320,0,159428,1,0,1:0:0:0:
192,0,159503,1,0,1:0:0:0:
448,0,159578,1,0,1:0:0:0:
320,0,159653,1,0,1:0:0:0:
64,0,159653,1,0,1:0:0:0:
192,0,159728,1,0,1:0:0:0:
448,0,159803,1,0,1:0:0:0:
192,0,159878,1,0,1:0:0:0:
320,0,159953,1,0,1:0:0:0:
64,0,159953,1,0,1:0:0:0:
448,0,160028,1,0,1:0:0:0:
192,0,160103,1,0,1:0:0:0:
64,0,160178,1,0,1:0:0:0:
448,0,160253,1,0,1:0:0:0:
320,0,160253,1,0,1:0:0:0:
192,0,160328,1,0,1:0:0:0:
64,0,160403,1,0,1:0:0:0:
192,0,160478,1,0,1:0:0:0:
448,0,160553,1,0,1:0:0:0:
320,0,160553,1,0,1:0:0:0:
64,0,160628,1,0,1:0:0:0:
192,0,160703,1,0,1:0:0:0:
320,0,160778,1,0,1:0:0:0:
192,0,160853,1,0,1:0:0:0:
64,0,160853,1,0,1:0:0:0:
448,0,160928,1,0,1:0:0:0:
320,0,161003,1,0,1:0:0:0:
64,0,161078,1,0,1:0:0:0:
320,0,161153,1,0,1:0:0:0:
192,0,161153,1,0,1:0:0:0:
448,0,161228,1,0,1:0:0:0:
64,0,161303,1,0,1:0:0:0:
192,0,161378,1,0,1:0:0:0:
448,0,161453,1,0,1:0:0:0:
320,0,161453,1,0,1:0:0:0:
64,0,161528,1,0,1:0:0:0:
192,0,161603,1,0,1:0:0:0:
320,0,161678,1,0,1:0:0:0:
448,0,161753,1,0,1:0:0:0:
64,0,161753,1,0,1:0:0:0:
320,0,161828,1,0,1:0:0:0:
192,0,161903,1,0,1:0:0:0:
320,0,161978,1,0,1:0:0:0:
192,0,162053,1,0,1:0:0:0:
64,0,162053,1,0,1:0:0:0:
320,0,162128,1,0,1:0:0:0:
448,0,162203,1,0,1:0:0:0:
64,0,162203,1,0,1:0:0:0:
192,0,162278,1,0,1:0:0:0:
320,0,162353,1,0,1:0:0:0:
64,0,162353,1,0,1:0:0:0:
192,0,162428,1,0,1:0:0:0:
448,0,162503,1,0,1:0:0:0:
64,0,162503,1,0,1:0:0:0:
320,0,162578,1,0,1:0:0:0:
192,0,162578,1,0,1:0:0:0:
448,0,162653,1,0,1:0:0:0:
64,0,162653,1,0,1:0:0:0:
192,0,162728,1,0,1:0:0:0:
448,0,162803,1,0,1:0:0:0:
320,0,162803,1,0,1:0:0:0:
64,0,162878,1,0,1:0:0:0:
320,0,162953,1,0,1:0:0:0:
192,0,162953,1,0,1:0:0:0:
448,0,163028,1,0,1:0:0:0:
192,0,163103,1,0,1:0:0:0:
64,0,163103,1,0,1:0:0:0:
320,0,163178,1,0,1:0:0:0:
448,0,163253,1,0,1:0:0:0:
64,0,163253,1,0,1:0:0:0:
320,0,163328,1,0,1:0:0:0:
448,0,163403,1,0,1:0:0:0:
192,0,163478,1,0,1:0:0:0:
448,0,163553,1,0,1:0:0:0:
64,0,163553,1,0,1:0:0:0:
192,0,163628,1,0,1:0:0:0:
320,0,163703,1,0,1:0:0:0:
448,0,163778,1,0,1:0:0:0:
192,0,163853,1,0,1:0:0:0:
64,0,163853,1,0,1:0:0:0:
320,0,163928,1,0,1:0:0:0:
448,0,164003,1,0,1:0:0:0:
320,0,164078,1,0,1:0:0:0:
192,0,164153,1,0,1:0:0:0:
64,0,164153,1,0,1:0:0:0:
448,0,164228,1,0,1:0:0:0:
320,0,164303,1,0,1:0:0:0:
64,0,164378,1,0,1:0:0:0:
320,0,164453,1,0,1:0:0:0:
192,0,164453,1,0,1:0:0:0:
64,0,164528,1,0,1:0:0:0:
192,0,164603,1,0,1:0:0:0:
448,0,164678,1,0,1:0:0:0:
320,0,164753,1,0,1:0:0:0:
192,0,164753,1,0,1:0:0:0:
448,0,164828,1,0,1:0:0:0:
64,0,164903,1,0,1:0:0:0:
192,0,164978,1,0,1:0:0:0:
448,0,165053,1,0,1:0:0:0:
320,0,165053,1,0,1:0:0:0:
64,0,165128,1,0,1:0:0:0:
192,0,165203,1,0,1:0:0:0:
64,0,165278,1,0,1:0:0:0:
448,0,165353,1,0,1:0:0:0:
320,0,165353,1,0,1:0:0:0:
192,0,165428,1,0,1:0:0:0:
320,0,165503,1,0,1:0:0:0:
448,0,165578,1,0,1:0:0:0:
192,0,165653,1,0,1:0:0:0:
64,0,165653,1,0,1:0:0:0:
320,0,165728,1,0,1:0:0:0:
448,0,165803,1,0,1:0:0:0:
64,0,165803,1,0,1:0:0:0:
192,0,165878,1,0,1:0:0:0:
448,0,165953,1,0,1:0:0:0:
320,0,165953,1,0,1:0:0:0:
192,0,166028,1,0,1:0:0:0:
448,0,166103,1,0,1:0:0:0:
64,0,166103,1,0,1:0:0:0:
320,0,166178,1,0,1:0:0:0:
192,0,166178,1,0,1:0:0:0:
448,0,166253,1,0,1:0:0:0:
64,0,166253,1,0,1:0:0:0:
320,0,166328,1,0,1:0:0:0:
192,0,166403,1,0,1:0:0:0:
64,0,166403,1,0,1:0:0:0:
320,0,166478,1,0,1:0:0:0:
448,0,166553,1,0,1:0:0:0:
192,0,166553,1,0,1:0:0:0:
64,0,166628,1,0,1:0:0:0:
448,0,166703,1,0,1:0:0:0:
320,0,166703,1,0,1:0:0:0:
64,0,166778,1,0,1:0:0:0:
448,0,166853,1,0,1:0:0:0:
320,0,166853,1,0,1:0:0:0:
192,0,166928,1,0,1:0:0:0:
64,0,167003,1,0,1:0:0:0:
192,0,167078,1,0,1:0:0:0:
448,0,167153,1,0,1:0:0:0:
320,0,167153,1,0,1:0:0:0:
64,0,167228,1,0,1:0:0:0:
192,0,167303,1,0,1:0:0:0:
448,0,167378,1,0,1:0:0:0:
192,0,167453,1,0,1:0:0:0:
64,0,167453,1,0,1:0:0:0:
320,0,167528,1,0,1:0:0:0:
192,0,167603,1,0,1:0:0:0:
64,0,167603,1,0,1:0:0:0:
320,0,167678,1,0,1:0:0:0:
192,0,167753,1,0,1:0:0:0:
64,0,167753,1,0,1:0:0:0:
320,0,167828,1,0,1:0:0:0:
192,0,167903,1,0,1:0:0:0:
64,0,167903,1,0,1:0:0:0:
320,0,167978,1,0,1:0:0:0:
192,0,168053,1,0,1:0:0:0:
64,0,168053,1,0,1:0:0:0:
448,0,168128,1,0,1:0:0:0:
320,0,168203,1,0,1:0:0:0:
448,0,168278,1,0,1:0:0:0:
192,0,168353,1,0,1:0:0:0:
64,0,168353,1,0,1:0:0:0:
320,0,168428,1,0,1:0:0:0:
448,0,168503,1,0,1:0:0:0:
64,0,168578,1,0,1:0:0:0:
320,0,168653,1,0,1:0:0:0:
192,0,168653,1,0,1:0:0:0:
448,0,168728,1,0,1:0:0:0:
64,0,168803,1,0,1:0:0:0:
448,0,168878,1,0,1:0:0:0:
320,0,168953,1,0,1:0:0:0:
192,0,168953,1,0,1:0:0:0:
64,0,169028,1,0,1:0:0:0:
192,0,169103,1,0,1:0:0:0:
320,0,169178,1,0,1:0:0:0:
448,0,169253,1,0,1:0:0:0:
64,0,169253,1,0,1:0:0:0:
192,0,169328,1,0,1:0:0:0:
320,0,169403,1,0,1:0:0:0:
192,0,169478,1,0,1:0:0:0:
448,0,169553,1,0,1:0:0:0:
64,0,169553,1,0,1:0:0:0:
320,0,169628,1,0,1:0:0:0:
192,0,169703,1,0,1:0:0:0:
64,0,169778,1,0,1:0:0:0:
448,0,169853,1,0,1:0:0:0:
320,0,169853,1,0,1:0:0:0:
192,0,169928,1,0,1:0:0:0:
64,0,170003,1,0,1:0:0:0:
192,0,170078,1,0,1:0:0:0:
448,0,170153,1,0,1:0:0:0:
320,0,170153,1,0,1:0:0:0:
64,0,170228,1,0,1:0:0:0:
192,0,170303,1,0,1:0:0:0:
320,0,170378,1,0,1:0:0:0:
448,0,170453,1,0,1:0:0:0:
64,0,170453,1,0,1:0:0:0:
192,0,170528,1,0,1:0:0:0:
320,0,170603,1,0,1:0:0:0:
448,0,170678,1,0,1:0:0:0:
192,0,170753,1,0,1:0:0:0:
64,0,170753,1,0,1:0:0:0:
448,0,170828,1,0,1:0:0:0:
320,0,170903,1,0,1:0:0:0:
448,0,170978,1,0,1:0:0:0:
320,0,171053,1,0,1:0:0:0:
192,0,171053,1,0,1:0:0:0:
64,0,171128,1,0,1:0:0:0:
192,0,171203,1,0,1:0:0:0:
64,0,171278,1,0,1:0:0:0:
448,0,171353,1,0,1:0:0:0:
320,0,171353,1,0,1:0:0:0:
64,0,171428,1,0,1:0:0:0:
192,0,171503,1,0,1:0:0:0:
320,0,171578,1,0,1:0:0:0:
192,0,171653,1,0,1:0:0:0:
64,0,171653,1,0,1:0:0:0:
320,0,171728,1,0,1:0:0:0:
448,0,171803,1,0,1:0:0:0:
192,0,171803,1,0,1:0:0:0:
320,0,171878,1,0,1:0:0:0:
448,0,171953,1,0,1:0:0:0:
64,0,171953,1,0,1:0:0:0:
192,0,172028,1,0,1:0:0:0:
448,0,172103,1,0,1:0:0:0:
64,0,172103,1,0,1:0:0:0:
320,0,172178,1,0,1:0:0:0:
192,0,172178,1,0,1:0:0:0:
448,0,172253,1,0,1:0:0:0:
64,0,172253,1,0,1:0:0:0:
192,0,172328,1,0,1:0:0:0:
448,0,172403,1,0,1:0:0:0:
320,0,172403,1,0,1:0:0:0:
64,0,172478,1,0,1:0:0:0:
320,0,172553,1,0,1:0:0:0:
192,0,172553,1,0,1:0:0:0:
64,0,172628,1,0,1:0:0:0:
448,0,172703,1,0,1:0:0:0:
320,0,172703,1,0,1:0:0:0:
192,0,172778,1,0,1:0:0:0:
448,0,172853,1,0,1:0:0:0:
64,0,172853,1,0,1:0:0:0:
320,0,172928,1,0,1:0:0:0:
192,0,173003,1,0,1:0:0:0:
320,0,173078,1,0,1:0:0:0:
448,0,173153,1,0,1:0:0:0:
64,0,173153,1,0,1:0:0:0:
320,0,173228,1,0,1:0:0:0:
192,0,173303,1,0,1:0:0:0:
64,0,173378,1,0,1:0:0:0:
448,0,173453,1,0,1:0:0:0:
320,0,173453,1,0,1:0:0:0:
192,0,173528,1,0,1:0:0:0:
64,0,173603,1,0,1:0:0:0:
192,0,173678,1,0,1:0:0:0:
448,0,173753,1,0,1:0:0:0:
320,0,173753,1,0,1:0:0:0:
64,0,173828,1,0,1:0:0:0:
192,0,173903,1,0,1:0:0:0:
448,0,173978,1,0,1:0:0:0:
320,0,174053,1,0,1:0:0:0:
192,0,174053,1,0,1:0:0:0:
64,0,174128,1,0,1:0:0:0:
192,0,174203,1,0,1:0:0:0:
448,0,174278,1,0,1:0:0:0:
320,0,174353,1,0,1:0:0:0:
192,0,174353,1,0,1:0:0:0:
448,0,174428,1,0,1:0:0:0:
320,0,174503,1,0,1:0:0:0:
448,0,174578,1,0,1:0:0:0:
192,0,174653,1,0,1:0:0:0:
64,0,174653,1,0,1:0:0:0:
320,0,174728,1,0,1:0:0:0:
448,0,174803,1,0,1:0:0:0:
320,0,174878,1,0,1:0:0:0:
192,0,174953,1,0,1:0:0:0:
64,0,174953,1,0,1:0:0:0:
448,0,175028,1,0,1:0:0:0:
320,0,175103,1,0,1:0:0:0:
64,0,175178,1,0,1:0:0:0:
320,0,175253,1,0,1:0:0:0:
192,0,175253,1,0,1:0:0:0:
448,0,175328,1,0,1:0:0:0:
192,0,175403,1,0,1:0:0:0:
64,0,175478,1,0,1:0:0:0:
320,0,175553,1,0,1:0:0:0:
192,0,175553,1,0,1:0:0:0:
448,0,175628,1,0,1:0:0:0:
64,0,175703,1,0,1:0:0:0:
192,0,175778,1,0,1:0:0:0:
448,0,175853,1,0,1:0:0:0:
320,0,175853,1,0,1:0:0:0:
64,0,175928,1,0,1:0:0:0:
192,0,176003,1,0,1:0:0:0:
64,0,176078,1,0,1:0:0:0:
448,0,176153,1,0,1:0:0:0:
320,0,176153,1,0,1:0:0:0:
192,0,176228,1,0,1:0:0:0:
320,0,176303,1,0,1:0:0:0:
192,0,176378,1,0,1:0:0:0:
448,0,176453,1,0,1:0:0:0:
64,0,176453,1,0,1:0:0:0:
192,0,176603,1,0,1:0:0:0:
64,0,176753,1,0,1:0:0:0:
320,0,176903,1,0,1:0:0:0:
448,0,176978,1,0,1:0:0:0:
192,0,177053,1,0,1:0:0:0:
448,0,177203,1,0,1:0:0:0:
320,0,177203,1,0,1:0:0:0:
192,0,177278,1,0,1:0:0:0:
448,0,177353,1,0,1:0:0:0:
320,0,177353,1,0,1:0:0:0:
192,0,177428,1,0,1:0:0:0:
448,0,177503,1,0,1:0:0:0:
320,0,177503,1,0,1:0:0:0:
192,0,177578,1,0,1:0:0:0:
448,0,177653,1,0,1:0:0:0:
320,0,177653,1,0,1:0:0:0:
64,0,177653,1,0,1:0:0:0:
192,0,177803,1,0,1:0:0:0:
320,0,177878,1,0,1:0:0:0:
64,0,178028,1,0,1:0:0:0:
192,0,178103,1,0,1:0:0:0:
64,0,178178,1,0,1:0:0:0:
320,0,178253,1,0,1:0:0:0:
192,0,178253,1,0,1:0:0:0:
64,0,178403,1,0,1:0:0:0:
448,0,178478,1,0,1:0:0:0:
192,0,178628,1,0,1:0:0:0:
64,0,178703,1,0,1:0:0:0:
192,0,178778,1,0,1:0:0:0:
448,0,178853,1,0,1:0:0:0:
320,0,178853,1,0,1:0:0:0:
192,0,179003,1,0,1:0:0:0:
320,0,179078,1,0,1:0:0:0:
64,0,179228,1,0,1:0:0:0:
320,0,179303,1,0,1:0:0:0:
192,0,179378,1,0,1:0:0:0:
448,0,179453,1,0,1:0:0:0:
64,0,179453,1,0,1:0:0:0:
192,0,179603,1,0,1:0:0:0:
64,0,179753,1,0,1:0:0:0:
192,0,179828,1,0,1:0:0:0:
320,0,179903,1,0,1:0:0:0:
448,0,179978,1,0,1:0:0:0:
192,0,180053,1,0,1:0:0:0:
64,0,180053,1,0,1:0:0:0:
320,0,180203,1,0,1:0:0:0:
192,0,180353,1,0,1:0:0:0:
320,0,180503,1,0,1:0:0:0:
192,0,180653,1,0,1:0:0:0:
64,0,180653,1,0,1:0:0:0:
320,0,180803,1,0,1:0:0:0:
192,0,180953,1,0,1:0:0:0:
320,0,181103,1,0,1:0:0:0:
448,0,181253,1,0,1:0:0:0:
192,0,181253,1,0,1:0:0:0:
320,0,181403,1,0,1:0:0:0:
192,0,181553,1,0,1:0:0:0:
64,0,181553,1,0,1:0:0:0:
320,0,181703,1,0,1:0:0:0:
192,0,181703,1,0,1:0:0:0:
320,0,181853,1,0,1:0:0:0:
192,0,182003,1,0,1:0:0:0:
64,0,182003,1,0,1:0:0:0:
192,0,182153,1,0,1:0:0:0:
448,0,182303,1,0,1:0:0:0:
448,0,182453,1,0,1:0:0:0:
320,0,182453,1,0,1:0:0:0:
64,0,182453,1,0,1:0:0:0:
64,0,182603,1,0,1:0:0:0:
192,0,182753,1,0,1:0:0:0:
320,0,182903,1,0,1:0:0:0:
320,0,183053,1,0,1:0:0:0:
192,0,183053,1,0,1:0:0:0:
64,0,183053,1,0,1:0:0:0:
320,0,183203,1,0,1:0:0:0:
192,0,183353,1,0,1:0:0:0:
64,0,183503,1,0,1:0:0:0:
448,0,183653,1,0,1:0:0:0:
320,0,183653,1,0,1:0:0:0:
192,0,183653,1,0,1:0:0:0:
64,0,183803,1,0,1:0:0:0:
192,0,183953,1,0,1:0:0:0:
320,0,184103,1,0,1:0:0:0:
448,0,184253,1,0,1:0:0:0:
192,0,184253,1,0,1:0:0:0:
64,0,184253,1,0,1:0:0:0:
320,0,184403,1,0,1:0:0:0:
192,0,184553,1,0,1:0:0:0:
320,0,184703,1,0,1:0:0:0:
320,0,184853,1,0,1:0:0:0:
192,0,184853,1,0,1:0:0:0:
64,0,184853,1,0,1:0:0:0:
192,0,185003,1,0,1:0:0:0:
448,0,185153,1,0,1:0:0:0:
320,0,185153,1,0,1:0:0:0:
192,0,185303,1,0,1:0:0:0:
448,0,185453,1,0,1:0:0:0:
320,0,185453,1,0,1:0:0:0:
64,0,185453,1,0,1:0:0:0:
192,0,185603,1,0,1:0:0:0:
448,0,185753,1,0,1:0:0:0:
320,0,185753,1,0,1:0:0:0:
320,0,185903,1,0,1:0:0:0:
448,0,186053,1,0,1:0:0:0:
192,0,186053,1,0,1:0:0:0:
64,0,186053,1,0,1:0:0:0:
192,0,186203,1,0,1:0:0:0:
320,0,186353,1,0,1:0:0:0:
448,0,186503,1,0,1:0:0:0:
448,0,186653,1,0,1:0:0:0:
320,0,186653,1,0,1:0:0:0:
64,0,186653,1,0,1:0:0:0:
64,0,186803,1,0,1:0:0:0:
192,0,186953,1,0,1:0:0:0:
320,0,187103,1,0,1:0:0:0:
448,0,187178,1,0,1:0:0:0:
320,0,187253,1,0,1:0:0:0:
192,0,187253,1,0,1:0:0:0:
64,0,187253,1,0,1:0:0:0:
448,0,187403,1,0,1:0:0:0:
320,0,187553,1,0,1:0:0:0:
64,0,187703,1,0,1:0:0:0:
192,0,187778,1,0,1:0:0:0:
448,0,187853,1,0,1:0:0:0:
320,0,187853,1,0,1:0:0:0:
64,0,187853,1,0,1:0:0:0:
192,0,188003,1,0,1:0:0:0:
320,0,188153,1,0,1:0:0:0:
64,0,188303,1,0,1:0:0:0:
448,0,188453,1,0,1:0:0:0:
320,0,188453,1,0,1:0:0:0:
192,0,188453,1,0,1:0:0:0:
64,0,188603,1,0,1:0:0:0:
192,0,188753,1,0,1:0:0:0:
320,0,188903,1,0,1:0:0:0:
448,0,188978,1,0,1:0:0:0:
320,0,189053,1,0,1:0:0:0:
192,0,189053,1,0,1:0:0:0:
64,0,189053,1,0,1:0:0:0:
448,0,189203,1,0,1:0:0:0:
320,0,189353,1,0,1:0:0:0:
192,0,189503,1,0,1:0:0:0:
448,0,189653,1,0,1:0:0:0:
320,0,189653,1,0,1:0:0:0:
64,0,189653,1,0,1:0:0:0:
192,0,189728,1,0,1:0:0:0:
320,0,189803,1,0,1:0:0:0:
192,0,189878,1,0,1:0:0:0:
448,0,189953,1,0,1:0:0:0:
320,0,189953,1,0,1:0:0:0:
64,0,189953,1,0,1:0:0:0:
192,0,190028,1,0,1:0:0:0:
320,0,190103,1,0,1:0:0:0:
192,0,190178,1,0,1:0:0:0:
448,0,190253,1,0,1:0:0:0:
320,0,190253,1,0,1:0:0:0:
64,0,190253,1,0,1:0:0:0:
192,0,190328,1,0,1:0:0:0:
320,0,190403,1,0,1:0:0:0:
192,0,190478,1,0,1:0:0:0:
448,0,190553,1,0,1:0:0:0:
320,0,190553,1,0,1:0:0:0:
64,0,190553,1,0,1:0:0:0:
192,0,190628,1,0,1:0:0:0:
320,0,190703,1,0,1:0:0:0:
192,0,190778,1,0,1:0:0:0:
448,0,190853,1,0,1:0:0:0:
320,0,190853,1,0,1:0:0:0:
64,0,190853,1,0,1:0:0:0:
192,0,190928,1,0,1:0:0:0:
320,0,191003,1,0,1:0:0:0:
192,0,191078,1,0,1:0:0:0:
448,0,191153,1,0,1:0:0:0:
320,0,191153,1,0,1:0:0:0:
64,0,191153,1,0,1:0:0:0:
192,0,191228,1,0,1:0:0:0:
320,0,191303,1,0,1:0:0:0:
448,0,191378,1,0,1:0:0:0:
320,0,191453,128,0,191603:0:0:0:0:
192,0,191453,128,0,191603:0:0:0:0:
64,0,191453,128,0,191603:0:0:0:0:
448,0,192053,1,0,1:0:0:0:
192,0,192053,1,0,1:0:0:0:
64,0,192053,1,0,1:0:0:0:
320,0,192128,1,0,1:0:0:0:
192,0,192203,1,0,1:0:0:0:
64,0,192203,1,0,1:0:0:0:
320,0,192278,1,0,1:0:0:0:
192,0,192353,1,0,1:0:0:0:
64,0,192353,1,0,1:0:0:0:
448,0,192428,1,0,1:0:0:0:
192,0,192503,1,0,1:0:0:0:
64,0,192503,1,0,1:0:0:0:
320,0,192578,1,0,1:0:0:0:
448,0,192653,1,0,1:0:0:0:
64,0,192653,1,0,1:0:0:0:
192,0,192728,1,0,1:0:0:0:
448,0,192803,1,0,1:0:0:0:
320,0,192803,1,0,1:0:0:0:
192,0,192878,1,0,1:0:0:0:
448,0,192953,1,0,1:0:0:0:
320,0,192953,1,0,1:0:0:0:
192,0,193028,1,0,1:0:0:0:
448,0,193103,1,0,1:0:0:0:
320,0,193103,1,0,1:0:0:0:
192,0,193178,1,0,1:0:0:0:
320,0,193253,1,0,1:0:0:0:
64,0,193253,1,0,1:0:0:0:
448,0,193328,1,0,1:0:0:0:
192,0,193403,1,0,1:0:0:0:
64,0,193403,1,0,1:0:0:0:
320,0,193478,1,0,1:0:0:0:
192,0,193553,1,0,1:0:0:0:
64,0,193553,1,0,1:0:0:0:
320,0,193628,1,0,1:0:0:0:
192,0,193703,1,0,1:0:0:0:
64,0,193703,1,0,1:0:0:0:
320,0,193778,1,0,1:0:0:0:
448,0,193853,1,0,1:0:0:0:
64,0,193853,1,0,1:0:0:0:
192,0,193928,1,0,1:0:0:0:
448,0,194003,1,0,1:0:0:0:
320,0,194003,1,0,1:0:0:0:
64,0,194078,1,0,1:0:0:0:
448,0,194153,1,0,1:0:0:0:
320,0,194153,1,0,1:0:0:0:
192,0,194228,1,0,1:0:0:0:
448,0,194303,1,0,1:0:0:0:
320,0,194303,1,0,1:0:0:0:
192,0,194378,1,0,1:0:0:0:
320,0,194453,1,0,1:0:0:0:
64,0,194453,1,0,1:0:0:0:
192,0,194528,1,0,1:0:0:0:
320,0,194603,1,0,1:0:0:0:
64,0,194603,1,0,1:0:0:0:
448,0,194678,1,0,1:0:0:0:
320,0,194753,1,0,1:0:0:0:
192,0,194753,1,0,1:0:0:0:
448,0,194828,1,0,1:0:0:0:
320,0,194903,1,0,1:0:0:0:
192,0,194903,1,0,1:0:0:0:
64,0,194978,1,0,1:0:0:0:
448,0,195053,1,0,1:0:0:0:
320,0,195053,1,0,1:0:0:0:
192,0,195128,1,0,1:0:0:0:
448,0,195203,1,0,1:0:0:0:
320,0,195203,1,0,1:0:0:0:
192,0,195278,1,0,1:0:0:0:
448,0,195353,1,0,1:0:0:0:
64,0,195353,1,0,1:0:0:0:
320,0,195428,1,0,1:0:0:0:
448,0,195503,1,0,1:0:0:0:
64,0,195503,1,0,1:0:0:0:
320,0,195578,1,0,1:0:0:0:
192,0,195653,1,0,1:0:0:0:
64,0,195653,1,0,1:0:0:0:
448,0,195728,1,0,1:0:0:0:
320,0,195803,1,0,1:0:0:0:
192,0,195803,1,0,1:0:0:0:
64,0,195878,1,0,1:0:0:0:
448,0,195953,1,0,1:0:0:0:
320,0,195953,1,0,1:0:0:0:
192,0,196028,1,0,1:0:0:0:
448,0,196103,1,0,1:0:0:0:
64,0,196103,1,0,1:0:0:0:
320,0,196178,1,0,1:0:0:0:
192,0,196178,1,0,1:0:0:0:
448,0,196253,1,0,1:0:0:0:
64,0,196253,1,0,1:0:0:0:
192,0,196328,1,0,1:0:0:0:
448,0,196403,1,0,1:0:0:0:
320,0,196403,1,0,1:0:0:0:
64,0,196478,1,0,1:0:0:0:
448,0,196553,1,0,1:0:0:0:
320,0,196553,1,0,1:0:0:0:
192,0,196628,1,0,1:0:0:0:
448,0,196703,1,0,1:0:0:0:
320,0,196703,1,0,1:0:0:0:
192,0,196778,1,0,1:0:0:0:
448,0,196853,1,0,1:0:0:0:
64,0,196853,1,0,1:0:0:0:
320,0,196928,1,0,1:0:0:0:
192,0,197003,1,0,1:0:0:0:
64,0,197003,1,0,1:0:0:0:
320,0,197078,1,0,1:0:0:0:
192,0,197153,1,0,1:0:0:0:
64,0,197153,1,0,1:0:0:0:
320,0,197228,1,0,1:0:0:0:
192,0,197303,1,0,1:0:0:0:
64,0,197303,1,0,1:0:0:0:
320,0,197378,1,0,1:0:0:0:
448,0,197453,1,0,1:0:0:0:
64,0,197453,1,0,1:0:0:0:
192,0,197528,1,0,1:0:0:0:
448,0,197603,1,0,1:0:0:0:
320,0,197603,1,0,1:0:0:0:
64,0,197678,1,0,1:0:0:0:
448,0,197753,1,0,1:0:0:0:
320,0,197753,1,0,1:0:0:0:
192,0,197828,1,0,1:0:0:0:
448,0,197903,1,0,1:0:0:0:
320,0,197903,1,0,1:0:0:0:
192,0,197978,1,0,1:0:0:0:
448,0,198053,1,0,1:0:0:0:
64,0,198053,1,0,1:0:0:0:
192,0,198128,1,0,1:0:0:0:
320,0,198203,1,0,1:0:0:0:
64,0,198203,1,0,1:0:0:0:
448,0,198278,1,0,1:0:0:0:
320,0,198353,1,0,1:0:0:0:
64,0,198353,1,0,1:0:0:0:
192,0,198428,1,0,1:0:0:0:
320,0,198503,1,0,1:0:0:0:
64,0,198503,1,0,1:0:0:0:
448,0,198578,1,0,1:0:0:0:
192,0,198653,1,0,1:0:0:0:
64,0,198653,1,0,1:0:0:0:
320,0,198728,1,0,1:0:0:0:
192,0,198803,1,0,1:0:0:0:
64,0,198803,1,0,1:0:0:0:
320,0,198878,1,0,1:0:0:0:
192,0,198953,1,0,1:0:0:0:
64,0,198953,1,0,1:0:0:0:
320,0,199028,1,0,1:0:0:0:
448,0,199103,1,0,1:0:0:0:
64,0,199103,1,0,1:0:0:0:
192,0,199178,1,0,1:0:0:0:
320,0,199253,1,0,1:0:0:0:
448,0,199328,1,0,1:0:0:0:
192,0,199403,1,0,1:0:0:0:
320,0,199478,1,0,1:0:0:0:
448,0,199553,1,0,1:0:0:0:
64,0,199553,1,0,1:0:0:0:
192,0,199628,1,0,1:0:0:0:
448,0,199703,1,0,1:0:0:0:
64,0,199703,1,0,1:0:0:0:
320,0,199778,1,0,1:0:0:0:
192,0,199853,1,0,1:0:0:0:
64,0,199853,1,0,1:0:0:0:
448,0,199928,1,0,1:0:0:0:
320,0,200003,1,0,1:0:0:0:
448,0,200078,1,0,1:0:0:0:
192,0,200153,1,0,1:0:0:0:
64,0,200153,1,0,1:0:0:0:
320,0,200228,1,0,1:0:0:0:
192,0,200303,1,0,1:0:0:0:
64,0,200303,1,0,1:0:0:0:
448,0,200378,1,0,1:0:0:0:
320,0,200378,1,0,1:0:0:0:
192,0,200453,1,0,1:0:0:0:
64,0,200453,1,0,1:0:0:0:
320,0,200603,1,0,1:0:0:0:
192,0,200753,1,0,1:0:0:0:
64,0,200753,1,0,1:0:0:0:
320,0,200903,1,0,1:0:0:0:
448,0,200978,1,0,1:0:0:0:
192,0,201053,1,0,1:0:0:0:
448,0,201203,1,0,1:0:0:0:
320,0,201203,1,0,1:0:0:0:
448,0,201353,1,0,1:0:0:0:
192,0,201503,1,0,1:0:0:0:
64,0,201503,1,0,1:0:0:0:
320,0,201578,1,0,1:0:0:0:
448,0,201653,1,0,1:0:0:0:
192,0,201653,1,0,1:0:0:0:
64,0,201653,1,0,1:0:0:0:
320,0,201728,1,0,1:0:0:0:
192,0,201803,1,0,1:0:0:0:
64,0,201803,1,0,1:0:0:0:
320,0,201878,1,0,1:0:0:0:
192,0,201953,1,0,1:0:0:0:
64,0,201953,1,0,1:0:0:0:
448,0,202028,1,0,1:0:0:0:
192,0,202103,1,0,1:0:0:0:
64,0,202103,1,0,1:0:0:0:
320,0,202178,1,0,1:0:0:0:
448,0,202253,1,0,1:0:0:0:
64,0,202253,1,0,1:0:0:0:
192,0,202328,1,0,1:0:0:0:
448,0,202403,1,0,1:0:0:0:
320,0,202403,1,0,1:0:0:0:
192,0,202478,1,0,1:0:0:0:
448,0,202553,1,0,1:0:0:0:
320,0,202553,1,0,1:0:0:0:
192,0,202628,1,0,1:0:0:0:
448,0,202703,1,0,1:0:0:0:
320,0,202703,1,0,1:0:0:0:
64,0,202778,1,0,1:0:0:0:
448,0,202853,1,0,1:0:0:0:
192,0,202853,1,0,1:0:0:0:
64,0,202928,1,0,1:0:0:0:
320,0,203003,1,0,1:0:0:0:
192,0,203003,1,0,1:0:0:0:
64,0,203078,1,0,1:0:0:0:
320,0,203153,1,0,1:0:0:0:
192,0,203153,1,0,1:0:0:0:
448,0,203228,1,0,1:0:0:0:
320,0,203303,1,0,1:0:0:0:
192,0,203303,1,0,1:0:0:0:
448,0,203378,1,0,1:0:0:0:
192,0,203453,1,0,1:0:0:0:
64,0,203453,1,0,1:0:0:0:
320,0,203528,1,0,1:0:0:0:
192,0,203603,1,0,1:0:0:0:
64,0,203603,1,0,1:0:0:0:
320,0,203678,1,0,1:0:0:0:
192,0,203753,1,0,1:0:0:0:
64,0,203753,1,0,1:0:0:0:
320,0,203828,1,0,1:0:0:0:
192,0,203903,1,0,1:0:0:0:
64,0,203903,1,0,1:0:0:0:
320,0,203978,1,0,1:0:0:0:
448,0,204053,1,0,1:0:0:0:
64,0,204053,1,0,1:0:0:0:
192,0,204128,1,0,1:0:0:0:
448,0,204203,1,0,1:0:0:0:
64,0,204203,1,0,1:0:0:0:
192,0,204278,1,0,1:0:0:0:
448,0,204353,1,0,1:0:0:0:
320,0,204353,1,0,1:0:0:0:
192,0,204428,1,0,1:0:0:0:
448,0,204503,1,0,1:0:0:0:
320,0,204503,1,0,1:0:0:0:
192,0,204578,1,0,1:0:0:0:
320,0,204653,1,0,1:0:0:0:
64,0,204653,1,0,1:0:0:0:
448,0,204728,1,0,1:0:0:0:
320,0,204803,1,0,1:0:0:0:
64,0,204803,1,0,1:0:0:0:
448,0,204878,1,0,1:0:0:0:
192,0,204953,1,0,1:0:0:0:
64,0,204953,1,0,1:0:0:0:
320,0,205028,1,0,1:0:0:0:
192,0,205103,1,0,1:0:0:0:
64,0,205103,1,0,1:0:0:0:
320,0,205178,1,0,1:0:0:0:
448,0,205253,1,0,1:0:0:0:
64,0,205253,1,0,1:0:0:0:
192,0,205328,1,0,1:0:0:0:
448,0,205403,1,0,1:0:0:0:
320,0,205403,1,0,1:0:0:0:
192,0,205478,1,0,1:0:0:0:
448,0,205553,1,0,1:0:0:0:
64,0,205553,1,0,1:0:0:0:
320,0,205628,1,0,1:0:0:0:
192,0,205703,1,0,1:0:0:0:
64,0,205703,1,0,1:0:0:0:
448,0,205778,1,0,1:0:0:0:
320,0,205778,1,0,1:0:0:0:
192,0,205853,1,0,1:0:0:0:
64,0,205853,1,0,1:0:0:0:
320,0,205928,1,0,1:0:0:0:
448,0,206003,1,0,1:0:0:0:
64,0,206003,1,0,1:0:0:0:
192,0,206078,1,0,1:0:0:0:
448,0,206153,1,0,1:0:0:0:
320,0,206153,1,0,1:0:0:0:
192,0,206228,1,0,1:0:0:0:
448,0,206303,1,0,1:0:0:0:
64,0,206303,1,0,1:0:0:0:
320,0,206378,1,0,1:0:0:0:
192,0,206453,1,0,1:0:0:0:
64,0,206453,1,0,1:0:0:0:
320,0,206528,1,0,1:0:0:0:
192,0,206603,1,0,1:0:0:0:
64,0,206603,1,0,1:0:0:0:
320,0,206678,1,0,1:0:0:0:
192,0,206753,1,0,1:0:0:0:
64,0,206753,1,0,1:0:0:0:
448,0,206828,1,0,1:0:0:0:
192,0,206903,1,0,1:0:0:0:
64,0,206903,1,0,1:0:0:0:
320,0,206978,1,0,1:0:0:0:
448,0,207053,1,0,1:0:0:0:
64,0,207053,1,0,1:0:0:0:
192,0,207128,1,0,1:0:0:0:
448,0,207203,1,0,1:0:0:0:
320,0,207203,1,0,1:0:0:0:
192,0,207278,1,0,1:0:0:0:
448,0,207353,1,0,1:0:0:0:
320,0,207353,1,0,1:0:0:0:
192,0,207428,1,0,1:0:0:0:
448,0,207503,1,0,1:0:0:0:
320,0,207503,1,0,1:0:0:0:
64,0,207578,1,0,1:0:0:0:
320,0,207653,1,0,1:0:0:0:
192,0,207653,1,0,1:0:0:0:
64,0,207728,1,0,1:0:0:0:
320,0,207803,1,0,1:0:0:0:
192,0,207803,1,0,1:0:0:0:
64,0,207878,1,0,1:0:0:0:
320,0,207953,1,0,1:0:0:0:
192,0,207953,1,0,1:0:0:0:
448,0,208028,1,0,1:0:0:0:
320,0,208103,1,0,1:0:0:0:
192,0,208103,1,0,1:0:0:0:
448,0,208178,1,0,1:0:0:0:
320,0,208253,1,0,1:0:0:0:
64,0,208253,1,0,1:0:0:0:
448,0,208328,1,0,1:0:0:0:
192,0,208403,1,0,1:0:0:0:
64,0,208403,1,0,1:0:0:0:
320,0,208478,1,0,1:0:0:0:
192,0,208553,1,0,1:0:0:0:
64,0,208553,1,0,1:0:0:0:
320,0,208628,1,0,1:0:0:0:
192,0,208703,1,0,1:0:0:0:
64,0,208703,1,0,1:0:0:0:
448,0,208778,1,0,1:0:0:0:
320,0,208853,1,0,1:0:0:0:
64,0,208853,1,0,1:0:0:0:
192,0,208928,1,0,1:0:0:0:
320,0,209003,1,0,1:0:0:0:
64,0,209003,1,0,1:0:0:0:
192,0,209078,1,0,1:0:0:0:
448,0,209153,1,0,1:0:0:0:
320,0,209153,1,0,1:0:0:0:
64,0,209228,1,0,1:0:0:0:
448,0,209303,1,0,1:0:0:0:
320,0,209303,1,0,1:0:0:0:
192,0,209378,1,0,1:0:0:0:
448,0,209453,1,0,1:0:0:0:
64,0,209453,1,0,1:0:0:0:
192,0,209528,1,0,1:0:0:0:
448,0,209603,1,0,1:0:0:0:
64,0,209603,1,0,1:0:0:0:
320,0,209678,1,0,1:0:0:0:
192,0,209753,1,0,1:0:0:0:
64,0,209753,1,0,1:0:0:0:
448,0,209828,1,0,1:0:0:0:
192,0,209903,1,0,1:0:0:0:
64,0,209903,1,0,1:0:0:0:
320,0,209978,1,0,1:0:0:0:
448,0,210053,1,0,1:0:0:0:
64,0,210053,1,0,1:0:0:0:
192,0,210128,1,0,1:0:0:0:
448,0,210203,1,0,1:0:0:0:
320,0,210203,1,0,1:0:0:0:
192,0,210278,1,0,1:0:0:0:
448,0,210353,1,0,1:0:0:0:
64,0,210353,1,0,1:0:0:0:
320,0,210428,1,0,1:0:0:0:
192,0,210503,1,0,1:0:0:0:
64,0,210503,1,0,1:0:0:0:
448,0,210578,1,0,1:0:0:0:
320,0,210578,1,0,1:0:0:0:
192,0,210653,1,0,1:0:0:0:
64,0,210653,1,0,1:0:0:0:
320,0,210728,1,0,1:0:0:0:
192,0,210803,1,0,1:0:0:0:
64,0,210803,1,0,1:0:0:0:
448,0,210878,1,0,1:0:0:0:
192,0,210953,1,0,1:0:0:0:
64,0,210953,1,0,1:0:0:0:
320,0,211028,1,0,1:0:0:0:
192,0,211103,1,0,1:0:0:0:
64,0,211103,1,0,1:0:0:0:
320,0,211178,1,0,1:0:0:0:
448,0,211253,1,0,1:0:0:0:
64,0,211253,1,0,1:0:0:0:
192,0,211328,1,0,1:0:0:0:
448,0,211403,1,0,1:0:0:0:
320,0,211403,1,0,1:0:0:0:
64,0,211478,1,0,1:0:0:0:
448,0,211553,1,0,1:0:0:0:
320,0,211553,1,0,1:0:0:0:
192,0,211628,1,0,1:0:0:0:
448,0,211703,1,0,1:0:0:0:
320,0,211703,1,0,1:0:0:0:
64,0,211778,1,0,1:0:0:0:
320,0,211853,1,0,1:0:0:0:
192,0,211853,1,0,1:0:0:0:
64,0,211928,1,0,1:0:0:0:
320,0,212003,1,0,1:0:0:0:
192,0,212003,1,0,1:0:0:0:
64,0,212078,1,0,1:0:0:0:
320,0,212153,1,0,1:0:0:0:
192,0,212153,1,0,1:0:0:0:
448,0,212228,1,0,1:0:0:0:
320,0,212303,1,0,1:0:0:0:
192,0,212303,1,0,1:0:0:0:
448,0,212378,1,0,1:0:0:0:
320,0,212453,1,0,1:0:0:0:
64,0,212453,1,0,1:0:0:0:
448,0,212528,1,0,1:0:0:0:
320,0,212603,1,0,1:0:0:0:
64,0,212603,1,0,1:0:0:0:
192,0,212678,1,0,1:0:0:0:
320,0,212753,1,0,1:0:0:0:
64,0,212753,1,0,1:0:0:0:
192,0,212828,1,0,1:0:0:0:
320,0,212903,1,0,1:0:0:0:
64,0,212903,1,0,1:0:0:0:
448,0,212978,1,0,1:0:0:0:
192,0,213053,1,0,1:0:0:0:
64,0,213053,1,0,1:0:0:0:
448,0,213128,1,0,1:0:0:0:
192,0,213203,1,0,1:0:0:0:
64,0,213203,1,0,1:0:0:0:
320,0,213278,1,0,1:0:0:0:
192,0,213353,1,0,1:0:0:0:
64,0,213353,1,0,1:0:0:0:
320,0,213428,1,0,1:0:0:0:
192,0,213503,1,0,1:0:0:0:
64,0,213503,1,0,1:0:0:0:
320,0,213578,1,0,1:0:0:0:
448,0,213653,1,0,1:0:0:0:
64,0,213653,1,0,1:0:0:0:
192,0,213728,1,0,1:0:0:0:
448,0,213803,1,0,1:0:0:0:
64,0,213803,1,0,1:0:0:0:
192,0,213878,1,0,1:0:0:0:
448,0,213953,1,0,1:0:0:0:
320,0,213953,1,0,1:0:0:0:
192,0,214028,1,0,1:0:0:0:
448,0,214103,1,0,1:0:0:0:
320,0,214103,1,0,1:0:0:0:
64,0,214178,1,0,1:0:0:0:
320,0,214253,1,0,1:0:0:0:
192,0,214253,1,0,1:0:0:0:
448,0,214328,1,0,1:0:0:0:
320,0,214403,1,0,1:0:0:0:
192,0,214403,1,0,1:0:0:0:
448,0,214478,1,0,1:0:0:0:
192,0,214553,1,0,1:0:0:0:
64,0,214553,1,0,1:0:0:0:
320,0,214628,1,0,1:0:0:0:
192,0,214703,1,0,1:0:0:0:
64,0,214703,1,0,1:0:0:0:
320,0,214778,1,0,1:0:0:0:
448,0,214853,1,0,1:0:0:0:
64,0,214853,1,0,1:0:0:0:
320,0,214928,1,0,1:0:0:0:
192,0,215003,1,0,1:0:0:0:
64,0,215003,1,0,1:0:0:0:
320,0,215078,1,0,1:0:0:0:
448,0,215153,1,0,1:0:0:0:
64,0,215153,1,0,1:0:0:0:
192,0,215228,1,0,1:0:0:0:
448,0,215303,1,0,1:0:0:0:
320,0,215303,1,0,1:0:0:0:
192,0,215378,1,0,1:0:0:0:
64,0,215378,1,0,1:0:0:0:
448,0,215453,1,0,1:0:0:0:
320,0,215453,1,0,1:0:0:0:
192,0,215528,1,0,1:0:0:0:
448,0,215603,1,0,1:0:0:0:
64,0,215603,1,0,1:0:0:0:
320,0,215678,1,0,1:0:0:0:
192,0,215753,1,0,1:0:0:0:
64,0,215753,1,0,1:0:0:0:
320,0,215828,1,0,1:0:0:0:
448,0,215903,1,0,1:0:0:0:
64,0,215903,1,0,1:0:0:0:
192,0,215978,1,0,1:0:0:0:
448,0,216053,1,0,1:0:0:0:
320,0,216053,1,0,1:0:0:0:
64,0,216128,1,0,1:0:0:0:
448,0,216203,1,0,1:0:0:0:
320,0,216203,1,0,1:0:0:0:
192,0,216278,1,0,1:0:0:0:
448,0,216353,1,0,1:0:0:0:
320,0,216353,1,0,1:0:0:0:
192,0,216428,1,0,1:0:0:0:
448,0,216503,1,0,1:0:0:0:
320,0,216503,1,0,1:0:0:0:
192,0,216578,1,0,1:0:0:0:
448,0,216653,1,0,1:0:0:0:
64,0,216653,1,0,1:0:0:0:
192,0,216728,1,0,1:0:0:0:
448,0,216803,1,0,1:0:0:0:
320,0,216803,1,0,1:0:0:0:
64,0,216878,1,0,1:0:0:0:
448,0,216953,1,0,1:0:0:0:
320,0,216953,1,0,1:0:0:0:
192,0,217028,1,0,1:0:0:0:
448,0,217103,1,0,1:0:0:0:
320,0,217103,1,0,1:0:0:0:
192,0,217178,1,0,1:0:0:0:
448,0,217253,1,0,1:0:0:0:
64,0,217253,1,0,1:0:0:0:
192,0,217328,1,0,1:0:0:0:
448,0,217403,1,0,1:0:0:0:
320,0,217403,1,0,1:0:0:0:
64,0,217478,1,0,1:0:0:0:
448,0,217553,1,0,1:0:0:0:
320,0,217553,1,0,1:0:0:0:
192,0,217628,1,0,1:0:0:0:
448,0,217703,1,0,1:0:0:0:
320,0,217703,1,0,1:0:0:0:
192,0,217778,1,0,1:0:0:0:
448,0,217853,1,0,1:0:0:0:
64,0,217853,1,0,1:0:0:0:
192,0,217928,1,0,1:0:0:0:
448,0,218003,1,0,1:0:0:0:
320,0,218003,1,0,1:0:0:0:
64,0,218078,1,0,1:0:0:0:
448,0,218153,1,0,1:0:0:0:
320,0,218153,1,0,1:0:0:0:
192,0,218303,1,0,1:0:0:0:
64,0,218303,1,0,1:0:0:0:
320,0,218378,1,0,1:0:0:0:
192,0,218453,1,0,1:0:0:0:
320,0,218528,1,0,1:0:0:0:
192,0,218603,1,0,1:0:0:0:
320,0,218678,1,0,1:0:0:0:
448,0,218753,1,0,1:0:0:0:
64,0,218753,1,0,1:0:0:0:
192,0,218828,1,0,1:0:0:0:
320,0,218903,1,0,1:0:0:0:
192,0,218978,1,0,1:0:0:0:
320,0,219053,1,0,1:0:0:0:
192,0,219128,1,0,1:0:0:0:
320,0,219203,1,0,1:0:0:0:
192,0,219278,1,0,1:0:0:0:
320,0,219353,1,0,1:0:0:0:
192,0,219428,1,0,1:0:0:0:
320,0,219503,1,0,1:0:0:0:
64,0,219578,1,0,1:0:0:0:
448,0,219653,1,0,1:0:0:0:
320,0,219653,1,0,1:0:0:0:
192,0,219803,1,0,1:0:0:0:
320,0,219953,1,0,1:0:0:0:
192,0,220103,1,0,1:0:0:0:
64,0,220103,1,0,1:0:0:0:
448,0,220178,1,0,1:0:0:0:
320,0,220253,1,0,1:0:0:0:
192,0,220403,1,0,1:0:0:0:
320,0,220478,1,0,1:0:0:0:
192,0,220553,1,0,1:0:0:0:
320,0,220628,1,0,1:0:0:0:
192,0,220703,1,0,1:0:0:0:
320,0,220778,1,0,1:0:0:0:
448,0,220853,128,0,221003:0:0:0:0:
192,0,220853,128,0,221003:0:0:0:0:
64,0,220853,128,0,221003:0:0:0:0:
