osu file format v14

[General]
AudioFilename: audio.mp3
AudioLeadIn: 0
PreviewTime: -1
Countdown: 1
SampleSet: Normal
StackLeniency: 0.7
Mode: 0
LetterboxInBreaks: 0
WidescreenStoryboard: 0

[Editor]
DistanceSpacing: 0.8
BeatDivisor: 4
GridSize: 8
TimelineZoom: 2.3

[Metadata]
Title:Jump Training
TitleUnicode:Jump Training
Artist:Various Artists
ArtistUnicode:Various Artists
Creator:Alex3i2
Version:Triangles
Source:
Tags:xi blue zenith omoi teo araki snow drive black rover season 3 claris hitorigoto
BeatmapID:1873690
BeatmapSetID:896803

[Difficulty]
HPDrainRate:5
CircleSize:4
OverallDifficulty:8.4
ApproachRate:10
SliderMultiplier:1.4
SliderTickRate:1

[Events]
//Background and Video events
0,0,"2f1aa22c6ac993bcc50314c207b4ae0b.jpg",0,0
//Break Periods
2,39058,46466
2,90413,100403
2,120253,133797
2,162094,179321
//Storyboard Layer 0 (Background)
//Storyboard Layer 1 (Fail)
//Storyboard Layer 2 (Pass)
//Storyboard Layer 3 (Foreground)
//Storyboard Sound Samples

[TimingPoints]
6131,363.636363636364,4,1,0,100,1,0
6131,-100,4,1,0,40,0,0
46858,-66.6666666666667,4,1,0,40,0,0
46916,324.324324324324,4,1,0,100,1,0
100853,300,4,1,0,100,1,0
100853,-100,4,1,0,40,0,1
133365,294.117647058824,4,1,0,100,1,0
134247,-100,4,1,0,40,0,0
179771,267.857142857143,4,1,0,100,1,0
187588,-133.333333333333,4,1,0,40,0,0

[HitObjects]
200,269,6131,5,0,0:0:0:0:
256,96,6312,1,0,0:0:0:0:
312,269,6494,1,0,0:0:0:0:
165,162,6676,1,0,0:0:0:0:
346,162,6858,1,0,0:0:0:0:
168,240,7040,5,0,0:0:0:0:
298,101,7221,1,0,0:0:0:0:
275,290,7403,1,0,0:0:0:0:
182,123,7585,1,0,0:0:0:0:
355,204,7767,1,0,0:0:0:0:
146,199,7949,5,0,0:0:0:0:
340,121,8130,1,0,0:0:0:0:
229,298,8312,1,0,0:0:0:0:
214,90,8494,1,0,0:0:0:0:
349,250,8676,1,0,0:0:0:0:
138,146,8858,5,0,0:0:0:0:
378,159,9039,1,0,0:0:0:0:
176,290,9221,1,0,0:0:0:0:
262,65,9403,1,0,0:0:0:0:
324,297,9585,1,0,0:0:0:0:
150,82,9767,5,0,0:0:0:0:
405,218,9948,1,0,0:0:0:0:
119,258,10130,1,0,0:0:0:0:
327,58,10312,1,0,0:0:0:0:
277,342,10494,1,0,0:0:0:0:
194,12,10676,5,0,0:0:0:0:
411,300,10857,1,0,0:0:0:0:
66,195,11039,1,0,0:0:0:0:
407,77,11221,1,0,0:0:0:0:
200,373,11403,1,0,0:0:0:0:
66,185,11585,1,0,0:0:0:0:
405,308,11767,1,0,0:0:0:0:
203,9,11949,1,0,0:0:0:0:
191,370,12131,1,0,0:0:0:0:
413,86,12312,1,0,0:0:0:0:
116,251,12494,5,0,0:0:0:0:
403,226,12676,1,0,0:0:0:0:
156,77,12858,1,0,0:0:0:0:
269,343,13040,1,0,0:0:0:0:
334,62,13221,1,0,0:0:0:0:
171,285,13403,5,0,0:0:0:0:
379,165,13585,1,0,0:0:0:0:
140,140,13767,1,0,0:0:0:0:
319,301,13949,1,0,0:0:0:0:
269,66,14130,1,0,0:0:0:0:
223,297,14312,5,0,0:0:0:0:
343,125,14494,1,0,0:0:0:0:
146,193,14676,1,0,0:0:0:0:
346,255,14858,1,0,0:0:0:0:
220,88,15039,1,0,0:0:0:0:
269,290,15221,5,0,0:0:0:0:
302,103,15403,1,0,0:0:0:0:
166,235,15585,1,0,0:0:0:0:
354,209,15767,1,0,0:0:0:0:
186,120,15948,1,0,0:0:0:0:
307,271,16130,5,0,0:0:0:0:
260,96,16312,1,0,0:0:0:0:
196,266,16494,1,0,0:0:0:0:
348,167,16676,1,0,0:0:0:0:
167,157,16857,1,0,0:0:0:0:
274,160,17040,1,0,0:0:0:0:
219,192,17221,1,0,0:0:0:0:
274,223,17403,1,0,0:0:0:0:
274,160,17585,1,0,0:0:0:0:
274,160,17767,1,0,0:0:0:0:
200,269,17949,1,0,0:0:0:0:
256,96,18130,1,0,0:0:0:0:
312,269,18312,1,0,0:0:0:0:
165,162,18494,1,0,0:0:0:0:
346,162,18676,1,0,0:0:0:0:
168,240,18858,5,0,0:0:0:0:
298,101,19039,1,0,0:0:0:0:
275,290,19221,1,0,0:0:0:0:
182,123,19403,1,0,0:0:0:0:
355,204,19585,1,0,0:0:0:0:
146,199,19767,5,0,0:0:0:0:
340,121,19948,1,0,0:0:0:0:
229,298,20130,1,0,0:0:0:0:
214,90,20312,1,0,0:0:0:0:
349,250,20494,1,0,0:0:0:0:
138,146,20676,5,0,0:0:0:0:
378,159,20857,1,0,0:0:0:0:
176,290,21039,1,0,0:0:0:0:
262,65,21221,1,0,0:0:0:0:
324,297,21403,1,0,0:0:0:0:
150,82,21585,5,0,0:0:0:0:
405,218,21766,1,0,0:0:0:0:
119,258,21948,1,0,0:0:0:0:
327,58,22130,1,0,0:0:0:0:
277,342,22312,1,0,0:0:0:0:
194,12,22494,5,0,0:0:0:0:
411,300,22675,1,0,0:0:0:0:
66,195,22857,1,0,0:0:0:0:
407,77,23039,1,0,0:0:0:0:
200,373,23221,1,0,0:0:0:0:
262,65,23403,1,0,0:0:0:0:
405,308,23585,1,0,0:0:0:0:
120,186,23767,1,0,0:0:0:0:
288,118,23948,1,0,0:0:0:0:
191,271,24130,1,0,0:0:0:0:
179,91,24312,5,0,0:0:0:0:
295,229,24494,1,0,0:0:0:0:
121,143,24676,1,0,0:0:0:0:
311,153,24857,1,0,0:0:0:0:
152,257,25039,1,0,0:0:0:0:
220,79,25221,5,0,0:0:0:0:
269,263,25403,1,0,0:0:0:0:
138,100,25585,1,0,0:0:0:0:
323,198,25766,1,0,0:0:0:0:
116,227,25948,1,0,0:0:0:0:
266,82,26130,5,0,0:0:0:0:
230,288,26312,1,0,0:0:0:0:
173,59,26494,1,0,0:0:0:0:
318,251,26675,1,0,0:0:0:0:
88,181,26857,1,0,0:0:0:0:
315,103,27039,1,0,0:0:0:0:
178,300,27221,1,0,0:0:0:0:
230,28,27403,5,0,0:0:0:0:
290,310,27584,1,0,0:0:0:0:
76,117,27766,1,0,0:0:0:0:
363,147,27948,1,0,0:0:0:0:
113,291,28130,1,0,0:0:0:0:
312,16,28312,5,0,0:0:0:0:
231,368,28493,1,0,0:0:0:0:
90,36,28675,1,0,0:0:0:0:
399,221,28857,1,0,0:0:0:0:
40,253,29039,1,0,0:0:0:0:
98,30,29221,5,0,0:0:0:0:
221,368,29403,1,0,0:0:0:0:
320,22,29585,1,0,0:0:0:0:
36,244,29767,1,0,0:0:0:0:
397,231,29948,1,0,0:0:0:0:
79,110,30130,5,0,0:0:0:0:
283,314,30312,1,0,0:0:0:0:
238,29,30494,1,0,0:0:0:0:
107,286,30676,1,0,0:0:0:0:
364,155,30857,1,0,0:0:0:0:
88,174,31039,5,0,0:0:0:0:
314,257,31221,1,0,0:0:0:0:
180,57,31403,1,0,0:0:0:0:
171,298,31585,1,0,0:0:0:0:
343,125,31767,1,0,0:0:0:0:
223,297,31949,1,0,0:0:0:0:
269,66,32131,1,0,0:0:0:0:
319,301,32312,1,0,0:0:0:0:
140,140,32494,1,0,0:0:0:0:
379,165,32676,1,0,0:0:0:0:
171,285,32858,5,0,0:0:0:0:
334,62,33040,1,0,0:0:0:0:
269,343,33221,1,0,0:0:0:0:
156,77,33403,1,0,0:0:0:0:
403,226,33585,1,0,0:0:0:0:
116,251,33767,5,0,0:0:0:0:
413,86,33949,1,0,0:0:0:0:
191,370,34130,1,0,0:0:0:0:
260,96,34312,1,0,0:0:0:0:
399,281,34494,5,0,0:0:0:0:
132,164,34676,1,0,0:0:0:0:
260,96,34858,1,0,0:0:0:0:
274,223,35040,1,0,0:0:0:0:
219,192,35222,1,0,0:0:0:0:
274,160,35403,1,0,0:0:0:0:
167,157,35586,1,0,0:0:0:0:
348,167,35767,1,0,0:0:0:0:
196,266,35949,1,0,0:0:0:0:
260,96,36131,1,0,0:0:0:0:
307,271,36313,1,0,0:0:0:0:
167,157,36494,1,0,0:0:0:0:
194,12,36676,5,0,0:0:0:0:
411,300,36857,1,0,0:0:0:0:
66,195,37039,1,0,0:0:0:0:
407,77,37221,1,0,0:0:0:0:
200,373,37403,1,0,0:0:0:0:
262,65,37585,1,0,0:0:0:0:
405,308,37767,1,0,0:0:0:0:
120,186,37949,1,0,0:0:0:0:
288,118,38130,1,0,0:0:0:0:
191,271,38312,1,0,0:0:0:0:
179,91,38494,5,0,0:0:0:0:
295,229,38676,1,0,0:0:0:0:
114,178,38858,1,0,0:0:0:0:
237,293,46916,6,0,L|147:204,1,105.000004005432
48,96,47240,1,0,0:0:0:0:
320,42,47564,5,0,0:0:0:0:
237,293,47726,1,0,0:0:0:0:
48,96,47888,1,0,0:0:0:0:
278,30,48051,5,0,0:0:0:0:
263,294,48213,1,0,0:0:0:0:
30,153,48375,1,0,0:0:0:0:
236,30,48537,5,0,0:0:0:0:
290,288,48699,1,0,0:0:0:0:
27,212,48861,1,0,0:0:0:0:
195,40,49024,5,0,0:0:0:0:
313,276,49186,1,0,0:0:0:0:
41,271,49348,1,0,0:0:0:0:
158,61,49510,5,0,0:0:0:0:
333,258,49672,1,0,0:0:0:0:
68,324,49834,1,0,0:0:0:0:
45,259,50159,5,0,0:0:0:0:
299,357,50321,1,0,0:0:0:0:
268,95,50483,1,0,0:0:0:0:
52,199,50645,5,0,0:0:0:0:
272,360,50807,1,0,0:0:0:0:
311,99,50969,1,0,0:0:0:0:
75,144,51132,5,0,0:0:0:0:
246,357,51294,1,0,0:0:0:0:
350,114,51456,1,0,0:0:0:0:
111,96,51618,5,0,0:0:0:0:
221,346,51780,1,0,0:0:0:0:
385,139,51942,1,0,0:0:0:0:
158,61,52105,5,0,0:0:0:0:
200,329,52267,1,0,0:0:0:0:
412,171,52429,1,0,0:0:0:0:
367,190,52753,5,0,0:0:0:0:
249,71,52915,1,0,0:0:0:0:
130,190,53078,1,0,0:0:0:0:
249,309,53240,1,0,0:0:0:0:
357,237,53402,5,0,0:0:0:0:
300,79,53564,1,0,0:0:0:0:
142,136,53727,1,0,0:0:0:0:
200,295,53889,1,0,0:0:0:0:
328,275,54051,5,0,0:3:0:0:
344,108,54213,1,0,0:3:0:0:
176,94,54376,1,0,0:3:0:0:
161,261,54538,1,0,0:3:0:0:
286,298,54699,5,0,0:3:0:0:
371,153,54861,1,0,0:3:0:0:
225,69,55024,1,0,0:3:0:0:
141,215,55186,1,0,0:3:0:0:
242,276,55348,5,0,0:3:0:0:
348,202,55510,1,0,0:3:0:0:
274,96,55673,1,0,0:3:0:0:
167,170,55835,1,0,0:3:0:0:
230,229,55997,5,0,0:3:0:0:
297,217,56159,1,0,0:3:0:0:
286,150,56322,1,0,0:3:0:0:
218,162,56484,1,0,0:3:0:0:
259,189,56645,5,0,0:0:0:0:
259,189,56807,1,0,0:0:0:0:
259,189,56970,1,0,0:0:0:0:
259,189,57132,1,0,0:0:0:0:
275,91,57294,6,0,L|365:180,1,105.000004005432
464,288,57618,1,0,0:0:0:0:
192,342,57942,5,0,0:0:0:0:
275,91,58104,1,0,0:0:0:0:
464,288,58266,1,0,0:0:0:0:
233,353,58429,5,0,0:0:0:0:
248,89,58591,1,0,0:0:0:0:
481,230,58753,1,0,0:0:0:0:
275,353,58915,5,0,0:0:0:0:
221,95,59077,1,0,0:0:0:0:
484,171,59239,1,0,0:0:0:0:
316,343,59402,5,0,0:0:0:0:
198,107,59564,1,0,0:0:0:0:
470,112,59726,1,0,0:0:0:0:
353,322,59888,5,0,0:0:0:0:
178,125,60050,1,0,0:0:0:0:
443,59,60212,1,0,0:0:0:0:
467,125,60537,5,0,0:0:0:0:
213,27,60699,1,0,0:0:0:0:
244,289,60861,1,0,0:0:0:0:
460,185,61023,5,0,0:0:0:0:
240,24,61185,1,0,0:0:0:0:
201,285,61347,1,0,0:0:0:0:
437,240,61510,5,0,0:0:0:0:
266,27,61672,1,0,0:0:0:0:
162,270,61834,1,0,0:0:0:0:
401,288,61996,5,0,0:0:0:0:
291,38,62158,1,0,0:0:0:0:
127,245,62320,1,0,0:0:0:0:
354,323,62483,5,0,0:0:0:0:
312,55,62645,1,0,0:0:0:0:
100,213,62807,1,0,0:0:0:0:
145,194,63131,5,0,0:0:0:0:
263,313,63293,1,0,0:0:0:0:
382,194,63456,1,0,0:0:0:0:
263,75,63618,1,0,0:0:0:0:
154,146,63780,5,0,0:0:0:0:
211,304,63942,1,0,0:0:0:0:
369,247,64105,1,0,0:0:0:0:
311,88,64267,1,0,0:0:0:0:
183,108,64429,5,0,0:3:0:0:
167,275,64591,1,0,0:3:0:0:
335,289,64754,1,0,0:3:0:0:
350,122,64916,1,0,0:3:0:0:
225,85,65077,5,0,0:3:0:0:
140,230,65239,1,0,0:3:0:0:
286,314,65402,1,0,0:3:0:0:
370,168,65564,1,0,0:3:0:0:
276,63,65726,5,0,0:3:0:0:
115,175,65888,1,0,0:3:0:0:
228,336,66051,1,0,0:3:0:0:
389,223,66213,1,0,0:3:0:0:
355,44,66375,5,0,0:3:0:0:
90,89,66537,1,0,0:3:0:0:
137,356,66700,1,0,0:3:0:0:
403,309,66862,1,0,0:3:0:0:
408,100,67024,5,0,0:3:0:0:
149,29,67186,1,0,0:3:0:0:
79,290,67349,1,0,0:3:0:0:
340,360,67511,1,0,0:3:0:0:
418,174,67672,5,0,0:3:0:0:
230,15,67834,1,0,0:3:0:0:
70,205,67997,1,0,0:3:0:0:
260,364,68159,1,0,0:3:0:0:
379,234,68321,5,0,0:3:0:0:
297,54,68483,1,0,0:3:0:0:
117,138,68646,1,0,0:3:0:0:
201,318,68808,1,0,0:3:0:0:
340,273,68970,5,0,0:3:0:0:
341,96,69132,1,0,0:3:0:0:
163,96,69295,1,0,0:3:0:0:
163,274,69457,1,0,0:3:0:0:
298,301,69618,5,0,0:3:0:0:
373,141,69780,1,0,0:3:0:0:
212,65,69943,1,0,0:3:0:0:
137,227,70105,1,0,0:3:0:0:
247,309,70267,5,0,0:3:0:0:
384,195,70429,1,0,0:3:0:0:
269,59,70592,1,0,0:3:0:0:
133,173,70754,1,0,0:3:0:0:
199,294,70915,5,0,0:3:0:0:
370,249,71077,1,0,0:3:0:0:
324,77,71240,1,0,0:3:0:0:
152,123,71402,1,0,0:3:0:0:
160,261,71564,5,0,0:3:0:0:
335,292,71726,1,0,0:3:0:0:
366,117,71889,1,0,0:3:0:0:
191,86,72051,1,0,0:3:0:0:
140,214,72212,5,0,0:3:0:0:
285,316,72374,1,0,0:3:0:0:
387,170,72537,1,0,0:3:0:0:
241,68,72699,1,0,0:3:0:0:
174,251,72861,5,0,0:3:0:0:
324,278,73023,1,0,0:3:0:0:
351,127,73186,1,0,0:3:0:0:
200,101,73348,1,0,0:3:0:0:
156,211,73509,5,0,0:3:0:0:
281,299,73671,1,0,0:3:0:0:
369,173,73834,1,0,0:3:0:0:
243,86,73996,1,0,0:3:0:0:
187,174,74159,5,0,0:3:0:0:
240,267,74321,1,0,0:3:0:0:
333,214,74484,1,0,0:3:0:0:
279,121,74646,1,0,0:3:0:0:
200,147,74807,5,0,0:3:0:0:
209,253,74969,1,0,0:3:0:0:
316,244,75132,1,0,0:3:0:0:
307,137,75294,1,0,0:3:0:0:
195,67,75456,5,0,0:3:0:0:
123,263,75618,1,0,0:3:0:0:
320,335,75781,1,0,0:3:0:0:
391,138,75943,1,0,0:3:0:0:
253,53,76105,5,0,0:3:0:0:
105,200,76267,1,0,0:3:0:0:
253,349,76430,1,0,0:3:0:0:
401,200,76592,1,0,0:3:0:0:
312,65,76753,5,0,0:3:0:0:
115,136,76915,1,0,0:3:0:0:
187,333,77078,1,0,0:3:0:0:
384,261,77240,1,0,0:3:0:0:
125,257,77402,5,0,0:3:0:0:
179,54,77564,1,0,0:3:0:0:
382,109,77727,1,0,0:3:0:0:
327,310,77889,1,0,0:3:0:0:
165,306,78050,5,0,0:3:0:0:
128,99,78212,1,0,0:3:0:0:
335,63,78375,1,0,0:3:0:0:
370,269,78537,1,0,0:3:0:0:
222,334,78699,5,0,0:3:0:0:
101,162,78861,1,0,0:3:0:0:
273,41,79024,1,0,0:3:0:0:
392,213,79186,1,0,0:3:0:0:
270,265,79348,5,0,0:3:0:0:
178,211,79510,1,0,0:3:0:0:
231,118,79673,1,0,0:3:0:0:
323,172,79835,1,0,0:3:0:0:
300,251,79996,5,0,0:3:0:0:
193,242,80158,1,0,0:3:0:0:
203,135,80321,1,0,0:3:0:0:
309,145,80483,1,0,0:3:0:0:
349,242,80646,5,0,0:3:0:0:
205,295,80808,1,0,0:3:0:0:
153,151,80971,1,0,0:3:0:0:
297,99,81133,1,0,0:3:0:0:
362,198,81294,5,0,0:3:0:0:
254,306,81456,1,0,0:3:0:0:
145,198,81619,1,0,0:3:0:0:
254,90,81781,1,0,0:3:0:0:
365,251,81943,5,0,0:3:0:0:
197,311,82105,1,0,0:3:0:0:
136,144,82268,1,0,0:3:0:0:
303,84,82430,1,0,0:3:0:0:
379,199,82591,5,0,0:3:0:0:
253,325,82753,1,0,0:3:0:0:
127,199,82916,1,0,0:3:0:0:
253,74,83078,1,0,0:3:0:0:
371,146,83240,5,0,0:3:0:0:
310,313,83402,1,0,0:3:0:0:
143,252,83565,1,0,0:3:0:0:
204,86,83727,1,0,0:3:0:0:
341,101,83888,5,0,0:3:0:0:
356,279,84050,1,0,0:3:0:0:
179,294,84213,1,0,0:3:0:0:
164,118,84375,1,0,0:3:0:0:
295,74,84537,5,0,0:3:0:0:
384,228,84699,1,0,0:3:0:0:
230,317,84862,1,0,0:3:0:0:
141,163,85024,1,0,0:3:0:0:
241,68,85185,5,0,0:3:0:0:
387,170,85347,1,0,0:3:0:0:
285,316,85510,1,0,0:3:0:0:
140,214,85672,1,0,0:3:0:0:
183,74,85834,5,0,0:3:0:0:
379,108,85996,1,0,0:3:0:0:
344,304,86159,1,0,0:3:0:0:
150,269,86321,1,0,0:3:0:0:
111,96,86483,5,0,0:3:0:0:
351,32,86645,1,0,0:3:0:0:
415,272,86808,1,0,0:3:0:0:
176,335,86970,1,0,0:3:0:0:
69,164,87131,5,0,0:3:0:0:
276,0,87293,1,0,0:3:0:0:
450,197,87456,1,0,0:3:0:0:
243,369,87618,1,0,0:3:0:0:
75,245,87780,5,0,0:3:0:0:
189,0,87942,1,0,0:3:0:0:
434,114,88105,1,0,0:3:0:0:
320,358,88267,1,0,0:3:0:0:
153,283,88429,5,0,0:3:0:0:
153,86,88591,1,0,0:3:0:0:
350,86,88754,1,0,0:3:0:0:
349,282,88916,1,0,0:3:0:0:
209,299,89078,5,0,0:3:0:0:
138,147,89240,1,0,0:3:0:0:
290,75,89403,1,0,0:3:0:0:
360,228,89565,1,0,0:3:0:0:
259,309,89726,5,0,0:3:0:0:
130,200,89888,1,0,0:3:0:0:
238,72,90051,1,0,0:3:0:0:
366,180,90213,1,0,0:3:0:0:
304,88,100853,5,0,0:0:0:0:
192,87,101003,1,0,0:0:0:0:
248,168,101153,1,0,0:0:0:0:
375,90,101303,5,0,0:0:0:0:
237,24,101453,1,0,0:0:0:0:
259,157,101603,1,0,0:0:0:0:
431,144,101753,5,0,0:0:0:0:
318,6,101903,1,0,0:0:0:0:
277,157,102053,1,0,0:0:0:0:
463,227,102203,5,0,0:0:0:0:
412,28,102353,1,0,0:0:0:0:
294,166,102503,1,0,0:0:0:0:
429,312,102653,5,0,0:0:0:0:
467,109,102803,1,0,0:0:0:0:
302,185,102953,1,0,0:0:0:0:
362,374,103103,5,0,0:0:0:0:
232,296,103253,1,0,0:0:0:0:
208,285,103328,1,0,0:0:0:0:
187,270,103403,1,0,0:0:0:0:
170,250,103478,1,0,0:0:0:0:
158,227,103553,1,0,0:0:0:0:
151,203,103628,1,0,0:0:0:0:
149,177,103703,1,0,0:0:0:0:
154,151,103778,1,0,0:0:0:0:
163,127,103853,1,0,0:0:0:0:
178,106,103928,1,0,0:0:0:0:
197,89,104003,1,0,0:0:0:0:
220,76,104078,1,0,0:0:0:0:
244,68,104153,1,0,0:0:0:0:
270,66,104228,1,0,0:0:0:0:
296,70,104303,5,0,0:0:0:0:
320,79,104378,1,0,0:0:0:0:
342,93,104453,1,0,0:0:0:0:
360,112,104528,1,0,0:0:0:0:
384,136,104603,1,0,0:0:0:0:
411,154,104678,1,0,0:0:0:0:
445,152,104753,1,0,0:0:0:0:
474,132,104828,1,0,0:0:0:0:
488,101,104903,1,0,0:0:0:0:
486,66,104978,1,0,0:0:0:0:
466,38,105053,1,0,0:0:0:0:
440,16,105128,1,0,0:0:0:0:
408,1,105203,1,0,0:0:0:0:
373,1,105278,1,0,0:0:0:0:
342,15,105353,1,0,0:0:0:0:
319,42,105428,1,0,0:0:0:0:
310,75,105503,1,0,0:0:0:0:
152,208,105653,5,0,0:0:0:0:
151,320,105803,1,0,0:0:0:0:
232,264,105953,1,0,0:0:0:0:
155,136,106103,5,0,0:0:0:0:
89,274,106253,1,0,0:0:0:0:
222,252,106403,1,0,0:0:0:0:
208,80,106553,5,0,0:0:0:0:
71,193,106703,1,0,0:0:0:0:
222,235,106853,1,0,0:0:0:0:
292,48,107003,5,0,0:0:0:0:
92,99,107153,1,0,0:0:0:0:
230,217,107303,1,0,0:0:0:0:
377,82,107453,5,0,0:0:0:0:
174,45,107603,1,0,0:0:0:0:
249,210,107753,1,0,0:0:0:0:
438,149,107903,5,0,0:0:0:0:
168,136,108053,1,0,0:0:0:0:
147,166,108128,1,0,0:0:0:0:
138,201,108203,1,0,0:0:0:0:
143,237,108278,1,0,0:0:0:0:
161,269,108353,1,0,0:0:0:0:
189,292,108428,1,0,0:0:0:0:
224,304,108503,1,0,0:0:0:0:
264,304,108578,5,0,0:0:0:0:
294,288,108653,1,0,0:0:0:0:
326,298,108728,1,0,0:0:0:0:
341,329,108803,1,0,0:0:0:0:
330,361,108878,1,0,0:0:0:0:
299,375,108953,1,0,0:0:0:0:
264,368,109028,1,0,0:0:0:0:
235,347,109103,1,0,0:0:0:0:
215,319,109178,1,0,0:0:0:0:
207,285,109253,1,0,0:0:0:0:
210,250,109328,1,0,0:0:0:0:
225,219,109403,1,0,0:0:0:0:
250,195,109478,1,0,0:0:0:0:
280,176,109553,5,0,0:0:0:0:
312,164,109628,1,0,0:0:0:0:
336,139,109703,1,0,0:0:0:0:
345,106,109778,1,0,0:0:0:0:
336,72,109853,1,0,0:0:0:0:
313,47,109928,1,0,0:0:0:0:
280,36,110003,1,0,0:0:0:0:
246,42,110078,1,0,0:0:0:0:
219,63,110153,1,0,0:0:0:0:
205,95,110228,1,0,0:0:0:0:
209,129,110303,1,0,0:0:0:0:
216,224,110453,5,0,0:0:0:0:
215,336,110603,1,0,0:0:0:0:
296,280,110753,1,0,0:0:0:0:
219,152,110903,5,0,0:0:0:0:
153,290,111053,1,0,0:0:0:0:
286,268,111203,1,0,0:0:0:0:
272,96,111353,5,0,0:0:0:0:
135,209,111503,1,0,0:0:0:0:
286,251,111653,1,0,0:0:0:0:
356,64,111803,5,0,0:0:0:0:
156,115,111953,1,0,0:0:0:0:
294,233,112103,1,0,0:0:0:0:
441,98,112253,5,0,0:0:0:0:
238,61,112403,1,0,0:0:0:0:
313,226,112553,1,0,0:0:0:0:
502,165,112703,5,0,0:0:0:0:
248,56,112853,5,0,0:0:0:0:
215,42,112928,1,0,0:0:0:0:
178,42,113003,1,0,0:0:0:0:
145,57,113078,1,0,0:0:0:0:
119,83,113153,1,0,0:0:0:0:
106,117,113228,1,0,0:0:0:0:
96,152,113303,1,0,0:0:0:0:
95,187,113378,1,0,0:0:0:0:
114,215,113453,1,0,0:0:0:0:
147,224,113528,1,0,0:0:0:0:
179,211,113603,1,0,0:0:0:0:
196,181,113678,1,0,0:0:0:0:
208,152,113753,1,0,0:0:0:0:
223,149,113828,1,0,0:0:0:0:
237,146,113903,1,0,0:0:0:0:
252,143,113978,1,0,0:0:0:0:
266,139,114053,5,0,0:0:0:0:
280,136,114128,1,0,0:0:0:0:
295,133,114203,1,0,0:0:0:0:
309,130,114278,1,0,0:0:0:0:
323,126,114353,1,0,0:0:0:0:
338,123,114428,1,0,0:0:0:0:
352,120,114503,1,0,0:0:0:0:
366,117,114578,1,0,0:0:0:0:
384,112,114653,1,0,0:0:0:0:
419,109,114728,1,0,0:0:0:0:
452,117,114803,1,0,0:0:0:0:
480,137,114878,1,0,0:0:0:0:
500,165,114953,1,0,0:0:0:0:
508,199,115028,1,0,0:0:0:0:
503,233,115103,1,0,0:0:0:0:
488,264,115178,1,0,0:0:0:0:
467,292,115253,1,0,0:0:0:0:
272,81,115403,5,0,0:0:0:0:
450,184,115553,1,0,0:0:0:0:
214,279,115703,5,0,0:0:0:0:
332,110,115853,1,0,0:0:0:0:
419,296,116003,1,0,0:0:0:0:
171,239,116153,5,0,0:0:0:0:
365,169,116303,1,0,0:0:0:0:
329,371,116453,1,0,0:0:0:0:
157,182,116603,5,0,0:0:0:0:
360,236,116753,1,0,0:0:0:0:
212,383,116903,1,0,0:0:0:0:
181,127,117053,5,0,0:0:0:0:
315,288,117203,1,0,0:0:0:0:
110,324,117353,1,0,0:0:0:0:
231,96,117503,5,0,0:0:0:0:
249,305,117653,1,0,0:0:0:0:
60,217,117803,1,0,0:0:0:0:
290,99,117953,5,0,0:0:0:0:
185,281,118103,1,0,0:0:0:0:
81,100,118253,1,0,0:0:0:0:
337,136,118403,5,0,0:0:0:0:
147,224,118553,5,0,0:0:0:0:
165,17,118703,1,0,0:0:0:0:
400,200,118853,5,0,0:0:0:0:
362,219,118928,1,0,0:0:0:0:
325,239,119003,1,0,0:0:0:0:
288,259,119078,1,0,0:0:0:0:
251,279,119153,1,0,0:0:0:0:
214,299,119228,1,0,0:0:0:0:
177,318,119303,1,0,0:0:0:0:
174,280,119378,1,0,0:0:0:0:
173,238,119453,1,0,0:0:0:0:
171,196,119528,1,0,0:0:0:0:
170,154,119603,1,0,0:0:0:0:
169,112,119678,1,0,0:0:0:0:
176,84,119753,1,0,0:0:0:0:
214,103,119828,1,0,0:0:0:0:
251,121,119903,1,0,0:0:0:0:
289,140,119978,1,0,0:0:0:0:
326,159,120053,1,0,0:0:0:0:
256,315,134247,5,0,0:0:0:0:
256,68,134394,1,0,0:0:0:0:
379,192,134541,1,0,0:0:0:0:
132,191,134688,1,0,0:0:0:0:
224,310,134835,5,0,0:0:0:0:
287,73,134982,1,0,0:0:0:0:
374,223,135129,1,0,0:0:0:0:
137,160,135276,1,0,0:0:0:0:
194,298,135423,5,0,0:0:0:0:
317,85,135570,1,0,0:0:0:0:
362,253,135717,1,0,0:0:0:0:
149,130,135864,1,0,0:0:0:0:
169,278,136012,5,0,0:0:0:0:
342,105,136159,1,0,0:0:0:0:
342,278,136306,1,0,0:0:0:0:
169,105,136453,1,0,0:0:0:0:
149,253,136600,5,0,0:0:0:0:
362,130,136747,1,0,0:0:0:0:
317,298,136894,1,0,0:0:0:0:
194,85,137041,1,0,0:0:0:0:
137,223,137188,5,0,0:0:0:0:
374,160,137335,1,0,0:0:0:0:
287,310,137482,1,0,0:0:0:0:
224,73,137629,1,0,0:0:0:0:
132,192,137776,5,0,0:0:0:0:
379,192,137923,1,0,0:0:0:0:
255,315,138070,1,0,0:0:0:0:
256,68,138217,1,0,0:0:0:0:
137,160,138365,5,0,0:0:0:0:
374,223,138512,1,0,0:0:0:0:
224,310,138659,1,0,0:0:0:0:
220,74,138953,5,0,0:0:0:0:
138,227,139100,1,0,0:0:0:0:
373,156,139247,1,0,0:0:0:0:
321,296,139395,1,0,0:0:0:0:
190,87,139542,5,0,0:0:0:0:
151,257,139689,1,0,0:0:0:0:
360,126,139836,1,0,0:0:0:0:
345,275,139983,1,0,0:0:0:0:
166,108,140130,5,0,0:0:0:0:
172,281,140277,1,0,0:0:0:0:
339,102,140424,1,0,0:0:0:0:
364,249,140571,1,0,0:0:0:0:
147,134,140718,5,0,0:0:0:0:
198,300,140865,1,0,0:0:0:0:
313,83,141012,1,0,0:0:0:0:
375,219,141159,1,0,0:0:0:0:
136,164,141306,5,0,0:0:0:0:
228,311,141453,1,0,0:0:0:0:
283,72,141600,1,0,0:0:0:0:
378,187,141748,1,0,0:0:0:0:
133,196,141895,5,0,0:0:0:0:
260,314,142042,1,0,0:0:0:0:
250,26,142189,1,0,0:0:0:0:
414,143,142336,1,0,0:0:0:0:
97,240,142483,5,0,0:0:0:0:
304,350,142630,1,0,0:0:0:0:
207,33,142777,1,0,0:0:0:0:
396,104,142924,1,0,0:0:0:0:
115,279,143071,5,0,0:0:0:0:
343,332,143218,1,0,0:0:0:0:
168,51,143365,1,0,0:0:0:0:
256,315,143659,5,0,0:0:0:0:
256,68,143806,1,0,0:0:0:0:
379,192,143953,1,0,0:0:0:0:
132,191,144100,1,0,0:0:0:0:
224,310,144247,5,0,0:0:0:0:
287,73,144394,1,0,0:0:0:0:
374,223,144541,1,0,0:0:0:0:
137,160,144688,1,0,0:0:0:0:
194,298,144835,5,0,0:0:0:0:
317,85,144982,1,0,0:0:0:0:
362,253,145129,1,0,0:0:0:0:
149,130,145276,1,0,0:0:0:0:
169,278,145424,5,0,0:0:0:0:
342,105,145571,1,0,0:0:0:0:
342,278,145718,1,0,0:0:0:0:
169,105,145865,1,0,0:0:0:0:
149,253,146012,5,0,0:0:0:0:
362,130,146159,1,0,0:0:0:0:
317,298,146306,1,0,0:0:0:0:
194,85,146453,1,0,0:0:0:0:
137,223,146600,5,0,0:0:0:0:
374,160,146747,1,0,0:0:0:0:
287,310,146894,1,0,0:0:0:0:
224,73,147041,1,0,0:0:0:0:
132,192,147188,5,0,0:0:0:0:
379,192,147335,1,0,0:0:0:0:
255,315,147482,1,0,0:0:0:0:
256,68,147629,1,0,0:0:0:0:
137,160,147777,5,0,0:0:0:0:
374,223,147924,1,0,0:0:0:0:
224,310,148071,1,0,0:0:0:0:
220,74,148365,5,0,0:0:0:0:
138,227,148512,1,0,0:0:0:0:
373,156,148659,1,0,0:0:0:0:
321,296,148807,1,0,0:0:0:0:
190,87,148954,5,0,0:0:0:0:
151,257,149101,1,0,0:0:0:0:
360,126,149248,1,0,0:0:0:0:
345,275,149395,1,0,0:0:0:0:
166,108,149542,5,0,0:0:0:0:
172,281,149689,1,0,0:0:0:0:
339,102,149836,1,0,0:0:0:0:
364,249,149983,1,0,0:0:0:0:
147,134,150130,5,0,0:0:0:0:
198,300,150277,1,0,0:0:0:0:
313,83,150424,1,0,0:0:0:0:
375,219,150571,1,0,0:0:0:0:
136,164,150718,5,0,0:0:0:0:
228,311,150865,1,0,0:0:0:0:
283,72,151012,1,0,0:0:0:0:
378,187,151160,1,0,0:0:0:0:
133,196,151307,5,0,0:0:0:0:
260,314,151454,1,0,0:0:0:0:
250,26,151601,1,0,0:0:0:0:
414,143,151748,1,0,0:0:0:0:
97,240,151895,5,0,0:0:0:0:
304,350,152042,1,0,0:0:0:0:
207,33,152189,1,0,0:0:0:0:
396,104,152336,1,0,0:0:0:0:
115,279,152483,5,0,0:0:0:0:
343,332,152630,1,0,0:0:0:0:
177,113,152776,5,0,0:0:0:0:
153,204,152923,1,0,0:0:0:0:
298,113,153070,5,0,0:0:0:0:
322,204,153217,1,0,0:0:0:0:
134,113,153365,5,0,0:0:0:0:
120,240,153512,1,0,0:0:0:0:
340,113,153659,5,0,0:0:0:0:
352,240,153806,1,0,0:0:0:0:
80,112,153953,5,0,0:0:0:0:
88,280,154100,1,0,0:0:0:0:
392,112,154247,5,0,0:0:0:0:
384,280,154394,1,0,0:0:0:0:
32,112,154541,5,0,0:0:0:0:
56,312,154688,1,0,0:0:0:0:
256,192,154835,5,0,0:0:0:0:
334,113,155129,5,0,0:0:0:0:
358,204,155276,1,0,0:0:0:0:
213,113,155423,5,0,0:0:0:0:
189,204,155570,1,0,0:0:0:0:
377,113,155718,5,0,0:0:0:0:
392,240,155865,1,0,0:0:0:0:
171,113,156012,5,0,0:0:0:0:
160,240,156159,1,0,0:0:0:0:
432,112,156306,5,0,0:0:0:0:
424,280,156453,1,0,0:0:0:0:
120,112,156600,5,0,0:0:0:0:
128,280,156747,1,0,0:0:0:0:
480,112,156894,5,0,0:0:0:0:
456,312,157041,1,0,0:0:0:0:
256,192,157188,5,0,0:0:0:0:
224,152,157482,5,0,0:0:0:0:
314,128,157629,1,0,0:0:0:0:
224,274,157776,5,0,0:0:0:0:
314,298,157923,1,0,0:0:0:0:
224,110,158071,5,0,0:0:0:0:
350,95,158218,1,0,0:0:0:0:
224,316,158365,5,0,0:0:0:0:
350,327,158512,1,0,0:0:0:0:
222,55,158659,5,0,0:0:0:0:
390,63,158806,1,0,0:0:0:0:
222,367,158953,5,0,0:0:0:0:
390,359,159100,1,0,0:0:0:0:
222,7,159247,5,0,0:0:0:0:
422,31,159394,1,0,0:0:0:0:
302,231,159541,5,0,0:0:0:0:
384,216,159835,5,0,0:0:0:0:
293,240,159982,1,0,0:0:0:0:
384,94,160129,5,0,0:0:0:0:
293,70,160276,1,0,0:0:0:0:
384,258,160424,5,0,0:0:0:0:
257,273,160571,1,0,0:0:0:0:
384,52,160718,5,0,0:0:0:0:
257,41,160865,1,0,0:0:0:0:
385,313,161012,5,0,0:0:0:0:
217,305,161159,1,0,0:0:0:0:
385,1,161306,5,0,0:0:0:0:
217,9,161453,1,0,0:0:0:0:
385,361,161600,5,0,0:0:0:0:
185,337,161747,1,0,0:0:0:0:
305,137,161894,5,0,0:0:0:0:
128,48,179771,5,0,0:0:0:0:
111,78,179837,1,0,0:0:0:0:
106,113,179904,1,0,0:0:0:0:
113,147,179971,1,0,0:0:0:0:
131,176,180038,1,0,0:0:0:0:
158,198,180105,1,0,0:0:0:0:
192,209,180172,1,0,0:0:0:0:
226,207,180239,1,0,0:0:0:0:
259,194,180306,1,0,0:0:0:0:
284,171,180373,1,0,0:0:0:0:
300,140,180440,1,0,0:0:0:0:
312,112,180507,1,0,0:0:0:0:
316,77,180573,1,0,0:0:0:0:
319,42,180640,1,0,0:0:0:0:
321,40,180707,1,0,0:0:0:0:
324,75,180774,1,0,0:0:0:0:
329,109,180841,1,0,0:0:0:0:
337,144,180908,1,0,0:0:0:0:
347,177,180975,1,0,0:0:0:0:
362,209,181042,1,0,0:0:0:0:
383,237,181109,1,0,0:0:0:0:
410,258,181176,1,0,0:0:0:0:
444,268,181243,1,0,0:0:0:0:
479,267,181310,1,0,0:0:0:0:
444,268,181378,1,0,0:0:0:0:
409,270,181444,1,0,0:0:0:0:
375,278,181511,1,0,0:0:0:0:
343,293,181578,1,0,0:0:0:0:
315,313,181645,1,0,0:0:0:0:
291,338,181712,1,0,0:0:0:0:
271,368,181779,1,0,0:0:0:0:
240,368,181846,5,0,0:0:0:0:
209,351,181912,1,0,0:0:0:0:
183,327,181979,1,0,0:0:0:0:
163,298,182046,1,0,0:0:0:0:
151,266,182113,1,0,0:0:0:0:
146,231,182180,1,0,0:0:0:0:
150,196,182247,1,0,0:0:0:0:
162,164,182314,1,0,0:0:0:0:
181,134,182381,1,0,0:0:0:0:
207,110,182448,1,0,0:0:0:0:
224,88,182516,5,0,0:0:0:0:
216,56,182582,1,0,0:0:0:0:
186,37,182649,1,0,0:0:0:0:
153,26,182716,1,0,0:0:0:0:
129,44,182783,1,0,0:0:0:0:
111,74,182850,1,0,0:0:0:0:
96,105,182917,1,0,0:0:0:0:
84,138,182984,1,0,0:0:0:0:
77,172,183051,1,0,0:0:0:0:
79,207,183118,1,0,0:0:0:0:
114,206,183185,1,0,0:0:0:0:
149,206,183252,1,0,0:0:0:0:
184,207,183319,1,0,0:0:0:0:
219,211,183386,1,0,0:0:0:0:
253,218,183453,1,0,0:0:0:0:
287,227,183520,1,0,0:0:0:0:
320,239,183587,1,0,0:0:0:0:
351,255,183654,1,0,0:0:0:0:
381,274,183721,1,0,0:0:0:0:
408,296,183788,1,0,0:0:0:0:
344,144,184056,6,0,L|344:96,30,35
432,120,186199,6,0,P|400:56|256:136,2,280
80,32,187538,6,0,L|104:312,1,280
256,258,188342,5,0,0:0:0:0:
256,123,188476,1,0,0:0:0:0:
228,251,188610,5,0,0:0:0:0:
284,129,188744,1,0,0:0:0:0:
205,234,188878,5,0,0:0:0:0:
308,148,189012,1,0,0:0:0:0:
192,209,189146,5,0,0:0:0:0:
322,174,189280,1,0,0:0:0:0:
190,180,189413,5,0,0:0:0:0:
323,203,189547,1,0,0:0:0:0:
201,154,189681,5,0,0:0:0:0:
312,231,189815,1,0,0:0:0:0:
222,134,189949,5,0,0:0:0:0:
290,251,190083,1,0,0:0:0:0:
250,126,190217,5,0,0:0:0:0:
261,260,190351,1,0,0:0:0:0:
278,129,190485,5,0,0:0:0:0:
232,256,190619,1,0,0:0:0:0:
302,145,190753,5,0,0:0:0:0:
207,240,190887,1,0,0:0:0:0:
318,169,191021,5,0,0:0:0:0:
191,215,191155,1,0,0:0:0:0:
321,197,191289,5,0,0:0:0:0:
187,186,191423,1,0,0:0:0:0:
347,245,191556,5,0,0:0:0:0:
161,137,191690,1,0,0:0:0:0:
316,278,191824,5,0,0:0:0:0:
193,102,191958,1,0,0:0:0:0:
274,296,192092,5,0,0:0:0:0:
236,84,192226,1,0,0:0:0:0:
228,294,192360,5,0,0:0:0:0:
284,86,192494,1,0,0:0:0:0:
187,273,192628,5,0,0:0:0:0:
326,108,192762,1,0,0:0:0:0:
159,236,192896,5,0,0:0:0:0:
355,145,193030,1,0,0:0:0:0:
149,192,193164,5,0,0:0:0:0:
365,192,193298,1,0,0:0:0:0:
159,147,193432,5,0,0:0:0:0:
355,238,193566,1,0,0:0:0:0:
187,110,193699,5,0,0:0:0:0:
326,275,193833,1,0,0:0:0:0:
228,89,193967,5,0,0:0:0:0:
284,297,194101,1,0,0:0:0:0:
274,87,194235,5,0,0:0:0:0:
236,299,194369,1,0,0:0:0:0:
316,105,194503,5,0,0:0:0:0:
193,281,194637,1,0,0:0:0:0:
347,138,194771,5,0,0:0:0:0:
161,246,194905,1,0,0:0:0:0:
361,182,195039,5,0,0:0:0:0:
146,201,195173,1,0,0:0:0:0:
355,228,195307,5,0,0:0:0:0:
152,154,195441,1,0,0:0:0:0:
330,266,195575,5,0,0:0:0:0:
178,114,195709,1,0,0:0:0:0:
301,316,195842,5,0,0:0:0:0:
209,63,195976,1,0,0:0:0:0:
244,323,196110,5,0,0:0:0:0:
267,56,196244,1,0,0:0:0:0:
190,306,196378,5,0,0:0:0:0:
324,73,196512,1,0,0:0:0:0:
147,267,196646,5,0,0:0:0:0:
367,113,196780,1,0,0:0:0:0:
95,220,196913,5,0,0:0:0:0:
422,162,197047,1,0,0:0:0:0:
98,149,197181,5,0,0:0:0:0:
419,235,197315,1,0,0:0:0:0:
130,87,197449,5,0,0:0:0:0:
385,300,197583,1,0,0:0:0:0:
186,44,197717,5,0,0:0:0:0:
327,345,197851,1,0,0:0:0:0:
256,28,197985,5,0,0:0:0:0:
255,360,198119,1,0,0:0:0:0:
325,44,198253,5,0,0:0:0:0:
184,345,198387,1,0,0:0:0:0:
381,87,198521,5,0,0:0:0:0:
126,300,198655,1,0,0:0:0:0:
413,149,198789,5,0,0:0:0:0:
92,235,198923,1,0,0:0:0:0:
416,224,199056,5,0,0:0:0:0:
89,162,199190,1,0,0:0:0:0:
389,285,199324,5,0,0:0:0:0:
117,95,199458,1,0,0:0:0:0:
337,333,199592,5,0,0:0:0:0:
171,45,199726,1,0,0:0:0:0:
270,354,199860,5,0,0:0:0:0:
241,23,199994,1,0,0:0:0:0:
200,352,200128,6,0,P|168:296|168:264,3,52.5000020027161
312,32,200663,6,0,P|344:88|344:120,3,52.5000020027161
228,294,201199,5,0,0:0:0:0:
236,84,201333,1,0,0:0:0:0:
274,296,201467,5,0,0:0:0:0:
193,102,201601,1,0,0:0:0:0:
316,278,201735,5,0,0:0:0:0:
161,137,201869,1,0,0:0:0:0:
347,245,202003,5,0,0:0:0:0:
187,186,202136,1,0,0:0:0:0:
321,197,202270,5,0,0:0:0:0:
191,215,202404,1,0,0:0:0:0:
318,169,202538,5,0,0:0:0:0:
207,240,202672,1,0,0:0:0:0:
302,145,202806,5,0,0:0:0:0:
232,256,202940,1,0,0:0:0:0:
278,129,203074,5,0,0:0:0:0:
261,260,203208,1,0,0:0:0:0:
250,126,203342,5,0,0:0:0:0:
290,251,203476,1,0,0:0:0:0:
222,134,203610,5,0,0:0:0:0:
312,231,203744,1,0,0:0:0:0:
201,154,203878,5,0,0:0:0:0:
323,203,204012,1,0,0:0:0:0:
190,180,204146,5,0,0:0:0:0:
322,174,204279,1,0,0:0:0:0:
192,209,204413,5,0,0:0:0:0:
308,148,204547,1,0,0:0:0:0:
205,234,204681,5,0,0:0:0:0:
284,129,204815,1,0,0:0:0:0:
228,251,204949,5,0,0:0:0:0:
256,123,205083,1,0,0:0:0:0:
256,258,205217,5,0,0:0:0:0:
316,278,205485,5,0,0:0:0:0:
193,102,205619,1,0,0:0:0:0:
274,296,205753,5,0,0:0:0:0:
236,84,205887,1,0,0:0:0:0:
228,294,206021,5,0,0:0:0:0:
284,86,206155,1,0,0:0:0:0:
187,273,206289,5,0,0:0:0:0:
326,108,206423,1,0,0:0:0:0:
159,236,206557,5,0,0:0:0:0:
355,145,206691,1,0,0:0:0:0:
149,192,206825,5,0,0:0:0:0:
365,192,206959,1,0,0:0:0:0:
159,147,207093,5,0,0:0:0:0:
355,238,207227,1,0,0:0:0:0:
187,110,207360,5,0,0:0:0:0:
326,275,207494,1,0,0:0:0:0:
228,89,207628,5,0,0:0:0:0:
284,297,207762,1,0,0:0:0:0:
274,87,207896,5,0,0:0:0:0:
236,299,208030,1,0,0:0:0:0:
316,105,208164,5,0,0:0:0:0:
193,281,208298,1,0,0:0:0:0:
347,138,208432,5,0,0:0:0:0:
161,246,208566,1,0,0:0:0:0:
361,182,208700,5,0,0:0:0:0:
146,201,208834,1,0,0:0:0:0:
355,228,208968,5,0,0:0:0:0:
152,154,209102,1,0,0:0:0:0:
330,266,209236,5,0,0:0:0:0:
178,114,209370,1,0,0:0:0:0:
301,316,209503,5,0,0:0:0:0:
209,63,209637,1,0,0:0:0:0:
244,323,209771,5,0,0:0:0:0:
267,56,209905,1,0,0:0:0:0:
190,306,210039,5,0,0:0:0:0:
324,73,210173,1,0,0:0:0:0:
147,267,210307,5,0,0:0:0:0:
367,113,210441,1,0,0:0:0:0:
95,220,210574,5,0,0:0:0:0:
422,162,210708,1,0,0:0:0:0:
98,149,210842,5,0,0:0:0:0:
419,235,210976,1,0,0:0:0:0:
130,87,211110,5,0,0:0:0:0:
385,300,211244,1,0,0:0:0:0:
186,44,211378,5,0,0:0:0:0:
327,345,211512,1,0,0:0:0:0:
256,28,211646,5,0,0:0:0:0:
255,360,211780,1,0,0:0:0:0:
325,44,211914,5,0,0:0:0:0:
184,345,212048,1,0,0:0:0:0:
381,87,212182,5,0,0:0:0:0:
126,300,212316,1,0,0:0:0:0:
413,149,212450,5,0,0:0:0:0:
92,235,212584,1,0,0:0:0:0:
416,224,212717,5,0,0:0:0:0:
89,162,212851,1,0,0:0:0:0:
389,285,212985,5,0,0:0:0:0:
117,95,213119,1,0,0:0:0:0:
337,333,213253,5,0,0:0:0:0:
171,45,213387,1,0,0:0:0:0:
270,354,213521,5,0,0:0:0:0:
241,23,213655,1,0,0:0:0:0:
200,345,213788,5,0,0:0:0:0:
313,33,213922,1,0,0:0:0:0:
136,320,214056,1,0,3:0:0:0:
355,100,214190,1,0,3:0:0:0:
401,344,214324,1,0,3:0:0:0:
96,168,214458,1,0,3:0:0:0:
355,100,214592,1,0,3:0:0:0:
283,355,214726,1,0,3:0:0:0:
121,102,214860,1,0,3:0:0:0:
384,150,214994,1,0,3:0:0:0:
211,351,215128,1,0,3:0:0:0:
176,56,215262,5,0,0:0:0:0:
376,232,215396,1,0,0:0:0:0:
176,56,215529,1,0,0:0:0:0:
360,56,215663,1,0,0:0:0:0:
160,280,215797,1,0,3:0:0:0:
423,260,215931,1,0,3:0:0:0:
271,41,216065,1,0,3:0:0:0:
131,231,216199,1,0,3:0:0:0:
378,324,216333,1,0,3:0:0:0:
333,61,216467,1,0,3:0:0:0:
126,175,216601,1,0,3:0:0:0:
311,363,216735,1,0,3:0:0:0:
381,106,216869,1,0,3:0:0:0:
131,231,217003,5,0,0:0:0:0:
376,368,217137,1,0,0:0:0:0:
131,231,217270,1,0,0:0:0:0:
376,368,217404,1,0,0:0:0:0:
146,122,217538,1,0,3:0:0:0:
233,370,217672,1,0,3:0:0:0:
405,167,217806,1,0,3:0:0:0:
176,24,217940,1,0,3:0:0:0:
143,353,218074,1,0,3:0:0:0:
447,213,218208,1,0,3:0:0:0:
318,169,218342,5,0,0:0:0:0:
191,215,218476,1,0,0:0:0:0:
321,197,218610,5,0,0:0:0:0:
187,186,218744,1,0,0:0:0:0:
347,245,218877,5,0,0:0:0:0:
161,137,219011,1,0,0:0:0:0:
316,278,219145,5,0,0:0:0:0:
193,102,219279,1,0,0:0:0:0:
274,296,219413,5,0,0:0:0:0:
236,84,219547,1,0,0:0:0:0:
228,294,219681,5,0,0:0:0:0:
284,86,219815,1,0,0:0:0:0:
187,273,219949,5,0,0:0:0:0:
326,108,220083,1,0,0:0:0:0:
159,236,220217,5,0,0:0:0:0:
355,145,220351,1,0,0:0:0:0:
149,192,220485,5,0,0:0:0:0:
365,192,220619,1,0,0:0:0:0:
159,147,220753,5,0,0:0:0:0:
355,238,220887,1,0,0:0:0:0:
187,110,221020,5,0,0:0:0:0:
326,275,221154,1,0,0:0:0:0:
228,89,221288,5,0,0:0:0:0:
275,299,221422,1,0,0:0:0:0:
283,89,221556,5,0,0:0:0:0:
