osu file format v14

[General]
AudioFilename: audio.mp3
AudioLeadIn: 0
PreviewTime: 92595
Countdown: 0
SampleSet: None
StackLeniency: 0.7
Mode: 0
LetterboxInBreaks: 0
WidescreenStoryboard: 1

[Editor]
Bookmarks: 26316,56083,86781
DistanceSpacing: 2.1
BeatDivisor: 2
GridSize: 4
TimelineZoom: 2.4

[Metadata]
Title:JuJuTsushi Gachi ver.
TitleUnicode:呪術師ガチver.
Artist:Various Artists
ArtistUnicode:Various Artists
Creator:Chizu-Kun
Version:OY OY OY OY OY OY OY
Source:
Tags:
BeatmapID:2303562
BeatmapSetID:1095092

[Difficulty]
HPDrainRate:5
CircleSize:4
OverallDifficulty:9
ApproachRate:9.5
SliderMultiplier:1.7
SliderTickRate:1

[Events]
//Background and Video events
0,0,"oy oy oy.jpg",0,0
//Break Periods
//Storyboard Layer 0 (Background)
//Storyboard Layer 1 (Fail)
//Storyboard Layer 2 (Pass)
//Storyboard Layer 3 (Foreground)
//Storyboard Layer 4 (Overlay)
//Storyboard Sound Samples

[TimingPoints]
270,232.558139534884,4,2,2,100,1,0
7711,-100,4,2,2,40,0,0
8642,-100,4,2,2,45,0,0
9572,-100,4,2,2,50,0,0
10502,-333.333333333333,4,2,2,55,0,0
11432,-100,4,2,2,60,0,0
26316,-100,4,2,2,70,0,0
39339,-100,4,2,2,80,0,0
40502,-200,4,2,2,20,0,0
40735,-200,4,2,2,40,0,0
40967,-200,4,2,2,60,0,0
41200,-100,4,2,2,60,0,0
56083,-166.666666666667,4,2,2,65,0,0
57014,-100,4,2,2,70,0,0
64456,-100,4,2,2,75,0,0
71897,-100,4,2,2,100,0,1
86665,-100,4,2,2,100,0,0
89572,-200,4,2,2,30,0,0
89804,-166.666666666667,4,2,2,35,0,0
90037,-142.857142857143,4,2,2,40,0,0
90270,-125,4,2,2,45,0,0
90502,-111.111111111111,4,2,2,50,0,0
90735,-100,4,2,2,55,0,0
90967,-90.9090909090909,4,2,2,60,0,0
91200,-83.3333333333333,4,2,2,65,0,0
91432,-83.3333333333333,4,2,2,50,0,0
91549,-83.3333333333333,4,2,2,55,0,0
91665,-83.3333333333333,4,2,2,60,0,0
91781,-83.3333333333333,4,2,2,65,0,0
91897,-83.3333333333333,4,2,2,70,0,0
92014,-83.3333333333333,4,2,2,75,0,0
92130,-83.3333333333333,4,2,2,80,0,0
92246,-83.3333333333333,4,2,2,85,0,0
92363,-83.3333333333333,4,2,2,90,0,0
92595,-200,4,2,2,100,0,0
93293,-100,4,2,2,60,0,0

[Colours]
Combo1 : 255,192,0
Combo2 : 0,202,0
Combo3 : 18,124,255
Combo4 : 242,24,57

[HitObjects]
256,192,2130,12,0,3990,0:0:0:0:
256,192,4049,12,0,5851,0:0:0:0:
256,192,5909,12,0,7595,0:0:0:0:
146,180,7711,6,0,L|135:71,1,85,8|0,0:0|0:0,0:0:0:0:
346,149,7944,1,0,0:0:0:0:
346,149,8060,2,0,L|354:233,1,85,8|0,0:0|0:0,0:0:0:0:
305,340,8293,1,8,0:0:0:0:
433,279,8409,1,8,0:0:0:0:
260,262,8525,1,8,0:0:0:0:
103,197,8642,2,0,B|62:208|62:208|16:235,1,85,4|0,0:0|0:0,0:0:0:0:
272,275,8874,1,0,0:0:0:0:
168,148,8990,2,0,B|131:126|131:126|79:113,1,85,4|0,0:0|0:0,0:0:0:0:
284,286,9222,5,8,0:0:0:0:
220,372,9339,1,8,0:0:0:0:
228,212,9456,1,8,0:0:0:0:
387,319,9572,2,0,P|441:329|485:320,1,85,4|0,0:0|0:0,0:0:0:0:
213,199,9804,1,8,0:0:0:0:
436,253,9921,2,0,P|481:221|506:184,1,85,4|0,0:0|0:0,0:0:0:0:
356,104,10153,1,8,0:0:0:0:
311,281,10270,1,8,0:0:0:0:
417,171,10386,1,8,0:0:0:0:
233,277,10502,6,0,L|136:269,2,76.4999976654053,4|4|4,0:0|0:0|0:0,0:0:0:0:
418,134,11432,6,2,L|289:156,1,85
94,250,11665,2,2,L|223:228,1,85
314,354,11897,6,2,L|292:225,1,85,6|2,0:0|0:0,0:0:0:0:
198,30,12130,2,2,L|220:159,1,85
363,226,12363,5,2,0:0:0:0:
151,162,12479,1,2,0:0:0:0:
228,290,12595,1,2,0:0:0:0:
284,94,12711,1,2,0:0:0:0:
355,244,12828,5,6,0:0:0:0:
157,144,12944,1,2,0:0:0:0:
211,283,13060,1,2,0:0:0:0:
300,100,13176,1,2,0:0:0:0:
369,256,13293,6,2,P|390:296|388:354,1,85
310,312,13525,2,2,P|296:355|254:394,1,85
195,286,13758,6,2,P|155:307|97:305,1,85,6|2,0:0|0:0,0:0:0:0:
139,227,13990,2,2,P|95:213|56:171,1,85
201,59,14223,5,2,0:0:0:0:
160,214,14339,1,2,0:0:0:0:
297,45,14456,5,2,0:0:0:0:
183,204,14572,1,2,0:0:0:0:
373,114,14688,5,6,0:0:0:0:
205,195,14804,1,2,0:0:0:0:
407,215,14921,5,2,0:0:0:0:
227,186,15037,1,2,0:0:0:0:
252,280,15153,6,2,L|268:370,1,85
99,225,15386,2,2,L|84:141,1,85
171,250,15618,6,2,L|187:340,1,85,6|2,0:0|0:0,0:0:0:0:
16,191,15851,2,2,L|1:107,1,85
192,167,16083,5,0,0:0:0:0:
54,291,16200,1,0,0:0:0:0:
289,228,16316,1,0,0:0:0:0:
108,148,16432,1,0,0:0:0:0:
300,233,16549,1,6,0:0:0:0:
214,77,16665,1,2,0:0:0:0:
150,253,16781,1,0,0:0:0:0:
45,81,16897,1,0,0:0:0:0:
265,149,17014,6,0,L|372:153,1,85,2|2,0:0|0:0,0:0:0:0:
449,302,17246,2,0,L|342:298,1,85,2|2,0:0|0:0,0:0:0:0:
247,149,17479,6,0,L|140:153,1,85,6|2,0:0|0:0,0:0:0:0:
63,302,17711,2,0,L|170:298,1,85,2|2,0:0|0:0,0:0:0:0:
308,253,17944,5,0,0:0:0:0:
149,202,18060,1,0,0:0:0:0:
254,342,18176,1,0,0:0:0:0:
251,187,18293,1,0,0:0:0:0:
256,357,18409,1,6,0:0:0:0:
374,228,18525,1,2,0:0:0:0:
366,341,18642,1,0,0:0:0:0:
252,167,18758,1,0,0:0:0:0:
258,371,18874,6,0,P|212:377|164:360,1,85,2|2,0:0|0:0,0:0:0:0:
47,224,19107,2,0,P|93:218|141:235,1,85,2|2,0:0|0:0,0:0:0:0:
254,371,19339,6,2,P|300:377|348:360,1,85,6|2,0:0|0:0,0:0:0:0:
465,224,19572,2,2,P|419:218|371:235,1,85
255,349,19804,5,2,0:0:0:0:
174,216,19921,1,2,0:0:0:0:
255,330,20037,5,2,0:0:0:0:
336,197,20154,1,2,0:0:0:0:
254,306,20270,5,6,0:0:0:0:
173,173,20387,1,2,0:0:0:0:
254,280,20502,5,2,0:0:0:0:
335,147,20619,1,2,0:0:0:0:
437,255,20735,6,2,P|433:305|406:365,1,85
90,337,20967,2,0,P|77:297|75:255,1,85
462,242,21200,6,2,P|458:292|431:352,1,85,6|2,0:0|0:0,0:0:0:0:
66,330,21432,2,0,P|53:289|50:247,1,85,2|2,0:0|0:0,0:0:0:0:
368,188,21665,5,0,0:0:0:0:
140,188,21781,1,0,0:0:0:0:
381,190,21897,5,0,0:0:0:0:
127,188,22013,1,0,0:0:0:0:
393,191,22130,5,6,0:0:0:0:
114,189,22246,1,2,0:0:0:0:
406,192,22363,5,0,0:0:0:0:
100,187,22479,1,0,0:0:0:0:
422,194,22595,6,0,P|432:244|414:304,1,85,2|2,0:0|0:0,0:0:0:0:
90,190,22828,2,0,P|80:140|98:80,1,85,2|2,0:0|0:0,0:0:0:0:
371,310,23060,6,0,P|343:353|288:382,1,85,6|2,0:0|0:0,0:0:0:0:
140,73,23293,2,0,P|168:30|223:1,1,85,2|2,0:0|0:0,0:0:0:0:
254,358,23525,6,2,P|204:368|144:350,1,85
258,26,23758,2,0,P|308:16|368:33,1,85,2|2,0:0|0:0,0:0:0:0:
137,307,23990,6,2,P|94:279|65:224,1,85,6|2,0:0|0:0,0:0:0:0:
374,76,24223,2,0,P|417:104|446:159,1,85,2|2,0:0|0:0,0:0:0:0:
90,190,24456,5,0,0:0:0:0:
422,194,24572,1,0,0:0:0:0:
151,85,24688,5,0,0:0:0:0:
360,298,24804,1,0,0:0:0:0:
257,72,24921,5,6,0:0:0:0:
254,311,25037,1,2,0:0:0:0:
332,117,25153,5,0,0:0:0:0:
179,266,25269,1,0,0:0:0:0:
352,193,25386,6,2,L|453:192,1,85
158,189,25618,2,2,L|57:187,1,85
384,320,25851,6,2,L|323:261,1,85,6|2,0:0|0:0,0:0:0:0:
129,59,26083,2,2,L|188:120,1,85
370,192,26316,6,2,P|422:183|489:200,1,85,6|2,0:0|0:0,0:0:0:0:
392,332,26549,1,2,0:0:0:0:
287,179,26665,2,2,P|310:133|351:115,1,85,2|10,0:0|0:0,0:0:0:0:
400,343,26897,1,2,0:0:0:0:
223,225,27014,2,2,P|206:176|222:134,1,85
344,260,27246,5,6,0:0:0:0:
175,345,27363,1,2,0:0:0:0:
411,351,27479,1,2,0:0:0:0:
226,247,27595,1,2,0:0:0:0:
331,358,27711,1,10,0:0:0:0:
350,182,27828,1,2,0:0:0:0:
248,357,27944,1,2,0:0:0:0:
229,181,28060,1,2,0:0:0:0:
158,307,28176,6,2,L|59:304,1,85,6|2,0:0|0:0,0:0:0:0:
139,182,28409,1,2,0:0:0:0:
293,260,28525,2,2,P|331:258|381:233,1,85,2|10,0:0|0:0,0:0:0:0:
126,172,28758,1,2,0:0:0:0:
316,183,28874,2,2,P|341:154|359:101,1,85
216,124,29107,6,0,L|189:96,8,21.25,6|0|0|0|2|0|0|0|2,0:0|0:0|0:0|0:0|0:0|0:0|0:0|0:0|0:0,0:0:0:0:
223,280,29456,1,2,0:0:0:0:
384,216,29572,1,10,0:0:0:0:
186,156,29688,5,2,0:0:0:0:
244,311,29804,1,2,0:0:0:0:
362,184,29920,1,2,0:0:0:0:
168,195,30037,6,2,P|124:200|78:230,1,85,6|2,0:0|0:0,0:0:0:0:
243,328,30270,1,2,0:0:0:0:
270,208,30386,2,2,L|276:118,1,85,2|10,0:0|0:0,0:0:0:0:
239,344,30618,1,2,0:0:0:0:
347,183,30734,2,2,L|353:93,1,85
418,340,30967,5,6,0:0:0:0:
226,258,31083,1,2,0:0:0:0:
428,210,31200,1,2,0:0:0:0:
163,356,31316,5,2,0:0:0:0:
355,274,31432,1,10,0:0:0:0:
153,226,31549,1,2,0:0:0:0:
324,356,31665,1,2,0:0:0:0:
334,190,31781,1,2,0:0:0:0:
207,289,31897,6,2,P|160:307|101:285,1,85,6|2,0:0|0:0,0:0:0:0:
202,137,32130,1,2,0:0:0:0:
286,274,32246,2,2,P|281:327|250:365,1,85,2|10,0:0|0:0,0:0:0:0:
192,125,32479,1,2,0:0:0:0:
336,206,32595,2,2,P|369:247|374:295,1,85
178,112,32828,5,6,0:0:0:0:
209,278,32944,1,2,0:0:0:0:
334,112,33060,1,2,0:0:0:0:
303,278,33176,1,2,0:0:0:0:
170,104,33293,5,10,0:0:0:0:
204,286,33409,1,2,0:0:0:0:
341,104,33525,1,2,0:0:0:0:
307,286,33641,1,2,0:0:0:0:
157,211,33758,6,2,L|59:210,1,85,6|2,0:0|0:0,0:0:0:0:
273,160,33990,1,2,0:0:0:0:
428,244,34107,2,2,P|452:199|452:150,1,85,2|10,0:0|0:0,0:0:0:0:
269,140,34339,1,2,0:0:0:0:
421,325,34456,2,0,P|473:312|504:275,1,85,2|2,0:0|0:0,0:0:0:0:
300,241,34688,5,6,0:0:0:0:
188,363,34804,1,2,0:0:0:0:
341,314,34921,1,2,0:0:0:0:
170,243,35037,1,2,0:0:0:0:
274,360,35153,1,10,0:0:0:0:
229,181,35270,1,2,0:0:0:0:
123,313,35386,1,2,0:0:0:0:
315,229,35502,1,2,0:0:0:0:
126,179,35618,6,2,P|79:179|31:198,1,85,6|2,0:0|0:0,0:0:0:0:
230,268,35851,1,2,0:0:0:0:
288,101,35967,2,2,P|347:130|378:162,1,85,2|10,0:0|0:0,0:0:0:0:
226,284,36200,1,2,0:0:0:0:
220,49,36316,2,2,P|282:27|326:28,1,85
431,111,36549,6,0,L|467:124,12,21.25,6|0|0|0|2|0|0|0|2|0|0|0|2,0:0|0:0|0:0|0:0|0:0|0:0|0:0|0:0|0:0|0:0|0:0|0:0|0:0,0:0:0:0:
231,159,37014,1,10,0:0:0:0:
410,188,37130,1,2,0:0:0:0:
358,42,37246,1,2,0:0:0:0:
313,219,37363,1,2,0:0:0:0:
217,83,37479,6,0,L|117:75,1,85,4|0,0:0|0:0,0:0:0:0:
229,241,37711,1,2,0:0:0:0:
428,185,37828,2,2,P|447:132|437:90,1,85,2|10,0:0|0:0,0:0:0:0:
214,246,38060,1,2,0:0:0:0:
361,122,38176,2,2,P|336:71|300:48,1,85
297,186,38409,5,6,0:0:0:0:
334,343,38525,1,2,0:0:0:0:
196,245,38642,1,2,0:0:0:0:
374,256,38758,1,2,0:0:0:0:
175,243,38874,1,10,0:0:0:0:
271,98,38990,1,2,0:0:0:0:
447,230,39107,2,2,P|464:171|456:131,1,85
343,47,39339,5,6,0:0:0:0:
376,273,39456,1,6,0:0:0:0:
281,90,39572,5,6,0:0:0:0:
274,327,39689,1,6,0:0:0:0:
217,126,39804,5,6,0:0:0:0:
168,363,39921,1,4,0:0:0:0:
151,160,40037,5,6,0:0:0:0:
37,384,40154,1,6,0:0:0:0:
47,47,40270,5,6,0:0:0:0:
47,47,40502,6,2,B|69:54|69:54|133:49,2,85
89,175,41200,6,2,L|94:270,1,85,10|2,0:0|0:0,0:0:0:0:
313,335,41432,2,2,L|308:250,1,85
161,119,41665,6,2,L|166:214,1,85,6|2,0:0|0:0,0:0:0:0:
385,279,41897,2,2,L|380:194,1,85
240,210,42130,5,10,0:0:0:0:
291,353,42246,1,2,0:0:0:0:
240,210,42363,5,2,0:0:0:0:
291,353,42479,1,2,0:0:0:0:
202,129,42595,5,6,0:0:0:0:
187,280,42711,1,2,0:0:0:0:
202,129,42828,5,2,0:0:0:0:
187,280,42944,1,2,0:0:0:0:
202,129,43060,6,2,L|216:33,1,85,10|2,0:0|0:0,0:0:0:0:
452,286,43293,2,0,L|466:190,1,85,2|2,0:0|0:0,0:0:0:0:
113,168,43525,6,2,L|125:83,1,85,6|2,0:0|0:0,0:0:0:0:
395,225,43758,2,0,L|409:129,1,85,2|2,0:0|0:0,0:0:0:0:
193,267,43990,6,2,P|131:283|83:271,3,85,10|2|0|0,0:0|0:0|0:0|0:0,0:0:0:0:
318,117,44456,2,2,P|358:102|400:103,3,85,6|2|0|0,0:0|0:0|0:0|0:0,0:0:0:0:
127,178,44921,6,2,P|111:138|126:74,1,85,10|2,0:0|0:0,0:0:0:0:
368,243,45153,2,2,P|371:284|355:324,1,85
189,116,45386,6,2,P|205:76|261:41,1,85,6|2,0:0|0:0,0:0:0:0:
288,281,45618,2,2,P|260:313|221:329,1,85
271,129,45851,5,10,0:0:0:0:
430,178,45967,1,2,0:0:0:0:
213,274,46083,1,2,0:0:0:0:
372,323,46200,1,2,0:0:0:0:
205,196,46316,6,0,P|161:213|130:260,1,85,6|2,0:0|0:0,0:0:0:0:
374,241,46549,2,0,P|346:209|307:196,1,85,2|2,0:0|0:0,0:0:0:0:
209,350,46781,5,10,0:0:0:0:
300,272,46897,1,2,0:0:0:0:
209,194,47014,1,0,0:0:0:0:
300,116,47130,1,0,0:0:0:0:
209,38,47246,1,6,0:0:0:0:
300,116,47363,1,2,0:0:0:0:
209,194,47480,1,0,0:0:0:0:
300,272,47596,1,0,0:0:0:0:
209,350,47711,6,0,L|106:349,1,85,10|2,0:0|0:0,0:0:0:0:
63,219,47944,2,0,P|43:182|48:117,1,85,2|2,0:0|0:0,0:0:0:0:
161,29,48176,2,0,P|181:66|176:131,1,85,6|2,0:0|0:0,0:0:0:0:
204,263,48409,2,0,P|258:279|307:262,1,85,2|2,0:0|0:0,0:0:0:0:
361,153,48642,6,2,L|462:151,3,85,10|2|0|0,0:0|0:0|0:0|0:0,0:0:0:0:
138,223,49107,2,2,L|37:225,3,85,6|2|0|0,0:0|0:0|0:0|0:0,0:0:0:0:
327,254,49572,5,10,0:0:0:0:
158,135,49688,1,2,0:0:0:0:
248,355,49804,1,2,0:0:0:0:
264,169,49921,1,2,0:0:0:0:
161,288,50037,1,6,0:0:0:0:
275,156,50153,1,2,0:0:0:0:
328,338,50270,1,2,0:0:0:0:
184,203,50386,1,2,0:0:0:0:
374,227,50502,6,0,P|424:218|457:188,1,85,10|2,0:0|0:0,0:0:0:0:
364,133,50735,2,0,P|393:91|395:47,1,85,2|2,0:0|0:0,0:0:0:0:
291,73,50967,2,0,P|282:24|252:-9,1,85,6|2,0:0|0:0,0:0:0:0:
197,83,51200,2,0,P|155:54|111:52,1,85,2|2,0:0|0:0,0:0:0:0:
61,167,51432,5,10,0:0:0:0:
167,219,51549,1,2,0:0:0:0:
265,256,51665,1,2,0:0:0:0:
366,297,51781,1,2,0:0:0:0:
262,268,51897,1,6,0:0:0:0:
173,206,52014,1,2,0:0:0:0:
53,179,52130,1,2,0:0:0:0:
144,335,52246,1,2,0:0:0:0:
176,190,52363,6,2,L|171:90,1,85,10|2,0:0|0:0,0:0:0:0:
340,105,52595,2,2,L|336:190,1,85
101,230,52828,6,0,L|96:130,1,85,6|2,0:0|0:0,0:0:0:0:
414,157,53060,2,0,L|410:242,1,85,2|2,0:0|0:0,0:0:0:0:
259,353,53293,5,10,0:0:0:0:
406,257,53409,1,2,0:0:0:0:
259,345,53525,1,0,0:0:0:0:
106,257,53642,1,0,0:0:0:0:
259,335,53758,1,6,0:0:0:0:
415,253,53874,1,2,0:0:0:0:
259,326,53990,1,0,0:0:0:0:
96,249,54106,1,0,0:0:0:0:
260,313,54223,6,0,B|308:311|308:311|347:292,1,85,10|2,0:0|0:0,0:0:0:0:
252,71,54456,2,0,B|204:73|204:73|165:92,1,85,2|2,0:0|0:0,0:0:0:0:
344,274,54688,6,0,B|376:239|376:239|391:198,1,85,6|2,0:0|0:0,0:0:0:0:
167,109,54921,2,0,B|135:144|135:144|120:185,1,85,2|2,0:0|0:0,0:0:0:0:
377,188,55153,6,2,B|375:140|375:140|356:101,1,85,10|2,0:0|0:0,0:0:0:0:
135,195,55386,2,2,B|137:244|137:244|156:283,1,85
338,103,55618,5,6,0:0:0:0:
344,274,55735,1,2,0:0:0:0:
166,111,55851,1,0,0:0:0:0:
175,282,55968,1,0,0:0:0:0:
166,111,56083,6,2,B|225:115|252:63|252:63|292:117|357:99,1,203.999993774414
111,173,57014,6,2,B|106:216|106:216|144:183,1,85,6|2,0:0|0:0,0:0:0:0:
156,84,57246,1,0,0:0:0:0:
217,204,57363,1,0,0:0:0:0:
145,77,57479,2,2,P|83:66|41:86,1,85,6|2,0:0|0:0,0:0:0:0:
62,71,57944,6,2,P|86:36|124:17,1,85,6|2,0:0|0:0,0:0:0:0:
231,111,58293,2,2,L|207:212,1,85,6|2,0:0|0:0,0:0:0:0:
111,175,58642,2,2,P|78:171|21:192,1,85,6|2,0:0|0:0,0:0:0:0:
401,173,58874,6,2,B|406:216|406:216|368:183,1,85,6|2,0:0|0:0,0:0:0:0:
356,84,59106,1,0,0:0:0:0:
295,204,59223,1,0,0:0:0:0:
367,77,59339,2,0,P|429:66|471:86,1,85,4|0,0:0|0:0,0:0:0:0:
449,71,59804,6,0,P|425:36|388:17,1,85,4|0,0:0|0:0,0:0:0:0:
281,111,60153,2,0,L|305:212,1,85,4|0,0:0|0:0,0:0:0:0:
401,175,60502,2,0,P|434:171|491:192,1,85,4|0,0:0|0:0,0:0:0:0:
111,211,60735,6,0,B|106:168|106:168|144:201,1,85,4|0,0:0|0:0,0:0:0:0:
156,300,60967,1,0,0:0:0:0:
217,180,61084,1,0,0:0:0:0:
145,307,61200,2,0,P|83:318|41:298,1,85,4|0,0:0|0:0,0:0:0:0:
62,312,61665,6,0,P|86:347|124:367,1,85,4|0,0:0|0:0,0:0:0:0:
231,273,62014,2,0,L|207:172,1,85,4|0,0:0|0:0,0:0:0:0:
111,209,62363,2,0,P|78:213|21:192,1,85,4|0,0:0|0:0,0:0:0:0:
401,211,62595,6,0,B|406:168|406:168|368:201,1,85,4|0,0:0|0:0,0:0:0:0:
356,300,62827,1,0,0:0:0:0:
295,180,62944,1,0,0:0:0:0:
367,307,63060,2,0,P|429:318|471:298,1,85,4|0,0:0|0:0,0:0:0:0:
449,312,63525,6,0,P|425:347|388:367,1,85,4|0,0:0|0:0,0:0:0:0:
281,273,63874,2,0,L|305:172,1,85,4|0,0:0|0:0,0:0:0:0:
401,209,64223,2,0,P|434:213|491:192,1,85,4|0,0:0|0:0,0:0:0:0:
348,81,64456,6,2,P|296:78|260:84,3,85,6|2|2|2,0:0|0:0|0:0|0:0,0:0:0:0:
236,8,64921,2,0,P|194:33|175:72,3,85,6|2|2|2,0:0|0:0|0:0|0:0,0:0:0:0:
183,192,65386,1,6,0:0:0:0:
270,115,65502,1,2,0:0:0:0:
101,159,65618,1,2,0:0:0:0:
271,202,65735,1,6,0:0:0:0:
202,55,65851,1,2,0:0:0:0:
219,261,65967,1,2,0:0:0:0:
159,117,66083,1,6,0:0:0:0:
334,160,66200,1,2,0:0:0:0:
140,255,66316,6,2,P|94:245|57:211,1,85,6|2,0:0|0:0,0:0:0:0:
100,84,66549,2,0,P|131:145|121:192,1,85,2|2,0:0|0:0,0:0:0:0:
230,282,66781,2,0,P|267:224|313:209,1,85,6|2,0:0|0:0,0:0:0:0:
325,64,67014,2,0,P|273:70|237:38,1,85,2|2,0:0|0:0,0:0:0:0:
415,47,67246,5,6,0:0:0:0:
386,205,67363,1,2,0:0:0:0:
478,102,67479,1,2,0:0:0:0:
302,144,67595,1,6,0:0:0:0:
490,184,67711,1,2,0:0:0:0:
282,252,67828,1,2,0:0:0:0:
326,70,67944,1,6,0:0:0:0:
451,253,68060,1,2,0:0:0:0:
283,144,68176,6,2,L|182:139,1,85,6|2,0:0|0:0,0:0:0:0:
121,297,68409,2,2,L|20:292,1,85
452,158,68642,6,2,L|351:153,1,85,6|2,0:0|0:0,0:0:0:0:
290,311,68875,2,2,L|189:306,1,85
119,199,69107,1,6,0:0:0:0:
201,317,69223,1,2,0:0:0:0:
191,130,69339,1,2,0:0:0:0:
124,287,69456,1,6,0:0:0:0:
308,232,69572,2,2,P|356:224|410:247,1,85
438,369,69804,1,6,0:0:0:0:
353,303,69921,1,2,0:0:0:0:
463,188,70037,6,2,L|474:95,1,85,6|2,0:0|0:0,0:0:0:0:
49,188,70270,2,2,L|38:95,1,85
441,203,70502,6,2,L|452:110,1,85,6|2,0:0|0:0,0:0:0:0:
71,203,70735,2,2,L|60:110,1,85
417,220,70967,6,2,L|428:127,1,85,6|2,0:0|0:0,0:0:0:0:
95,220,71200,2,2,L|84:127,1,85,2|6,0:0|0:0,0:0:0:0:
397,237,71432,6,2,L|408:144,1,85
115,237,71665,2,2,L|104:144,1,85,6|2,0:0|0:0,0:0:0:0:
287,44,71897,6,6,P|318:93|313:150,1,85,6|2,0:0|0:0,0:0:0:0:
261,265,72130,1,2,0:0:0:0:
122,155,72246,2,2,P|80:162|47:188,1,85,6|2,0:0|0:0,0:0:0:0:
274,278,72479,1,2,0:0:0:0:
196,93,72595,2,2,P|161:69|119:63,1,85,6|2,0:0|0:0,0:0:0:0:
283,295,72828,5,6,0:0:0:0:
342,143,72944,1,6,0:0:0:0:
156,293,73060,1,6,0:0:0:0:
363,229,73176,1,6,0:0:0:0:
156,176,73293,1,6,0:0:0:0:
357,333,73409,1,6,0:0:0:0:
243,128,73525,1,6,0:0:0:0:
245,358,73642,1,6,0:0:0:0:
378,222,73758,6,2,P|434:213|501:230,1,85,6|2,0:0|0:0,0:0:0:0:
290,298,73990,1,2,0:0:0:0:
247,144,74107,2,2,L|221:47,1,85,6|2,0:0|0:0,0:0:0:0:
295,312,74339,1,2,0:0:0:0:
156,116,74456,2,2,L|130:19,1,85,6|2,0:0|0:0,0:0:0:0:
83,188,74688,5,6,0:0:0:0:
282,224,74804,1,6,0:0:0:0:
115,315,74921,1,6,0:0:0:0:
398,193,75037,1,6,0:0:0:0:
199,229,75153,1,6,0:0:0:0:
387,313,75270,1,6,0:0:0:0:
227,139,75386,1,6,0:0:0:0:
271,353,75502,1,6,0:0:0:0:
114,239,75618,6,2,P|71:234|19:245,1,85,6|2,0:0|0:0,0:0:0:0:
271,337,75851,1,2,0:0:0:0:
316,182,75967,2,2,P|323:146|310:72,1,85,6|2,0:0|0:0,0:0:0:0:
271,316,76200,1,2,0:0:0:0:
398,88,76316,2,2,P|378:49|315:14,1,85,6|2,0:0|0:0,0:0:0:0:
167,62,76549,5,6,0:0:0:0:
213,261,76665,1,6,0:0:0:0:
234,98,76781,1,6,0:0:0:0:
59,135,76897,1,6,0:0:0:0:
298,171,77014,1,6,0:0:0:0:
42,252,77130,1,6,0:0:0:0:
369,254,77246,1,6,0:0:0:0:
150,168,77363,1,6,0:0:0:0:
236,348,77479,6,2,P|291:353|348:337,1,85,6|2,0:0|0:0,0:0:0:0:
399,106,77711,1,2,0:0:0:0:
266,270,77828,2,2,P|199:252|175:229,1,85,6|2,0:0|0:0,0:0:0:0:
408,93,78060,1,2,0:0:0:0:
139,303,78176,2,2,P|104:242|103:209,1,85,6|2,0:0|0:0,0:0:0:0:
207,84,78409,5,6,0:0:0:0:
340,245,78525,1,6,0:0:0:0:
193,218,78642,1,6,0:0:0:0:
384,172,78758,1,6,0:0:0:0:
318,358,78874,1,6,0:0:0:0:
274,202,78990,1,6,0:0:0:0:
471,249,79107,1,6,0:0:0:0:
195,324,79223,1,6,0:0:0:0:
233,80,79339,6,2,P|275:67|343:76,1,85,6|2,0:0|0:0,0:0:0:0:
195,236,79572,1,2,0:0:0:0:
434,189,79688,2,2,P|471:155|479:104,1,85,6|2,0:0|0:0,0:0:0:0:
173,228,79921,1,2,0:0:0:0:
411,262,80037,2,2,P|461:264|502:233,1,85,6|2,0:0|0:0,0:0:0:0:
365,109,80270,5,6,0:0:0:0:
432,356,80386,1,6,0:0:0:0:
278,196,80502,1,6,0:0:0:0:
214,355,80618,1,6,0:0:0:0:
418,186,80735,1,6,0:0:0:0:
207,267,80851,1,6,0:0:0:0:
488,298,80967,1,6,0:0:0:0:
332,132,81083,1,6,0:0:0:0:
193,353,81200,6,2,P|139:351|95:325,1,85,6|2,0:0|0:0,0:0:0:0:
126,165,81432,1,2,0:0:0:0:
376,293,81549,2,2,P|408:247|409:193,1,85,6|2,0:0|0:0,0:0:0:0:
108,152,81781,1,2,0:0:0:0:
489,229,81897,2,2,P|479:173|441:134,1,85,6|2,0:0|0:0,0:0:0:0:
233,121,82130,5,6,0:0:0:0:
393,302,82246,1,6,0:0:0:0:
180,218,82363,1,6,0:0:0:0:
364,110,82479,1,6,0:0:0:0:
309,337,82595,1,6,0:0:0:0:
161,145,82711,1,6,0:0:0:0:
320,259,82828,1,6,0:0:0:0:
93,282,82944,1,6,0:0:0:0:
286,185,83060,6,2,P|340:181|394:219,1,85,6|2,0:0|0:0,0:0:0:0:
216,346,83293,1,2,0:0:0:0:
86,196,83409,2,2,P|56:153|56:93,1,85,6|2,0:0|0:0,0:0:0:0:
229,360,83642,1,2,0:0:0:0:
133,127,83758,2,2,P|142:75|184:32,1,85,6|2,0:0|0:0,0:0:0:0:
374,123,83990,5,6,0:0:0:0:
161,200,84107,1,6,0:0:0:0:
393,339,84223,1,6,0:0:0:0:
117,295,84339,1,6,0:0:0:0:
242,139,84456,5,6,0:0:0:0:
431,201,84572,1,6,0:0:0:0:
189,342,84688,1,6,0:0:0:0:
458,282,84804,1,6,0:0:0:0:
145,216,84921,6,2,P|96:198|55:159,1,85,6|2,0:0|0:0,0:0:0:0:
221,34,85153,1,2,0:0:0:0:
330,218,85270,2,2,P|334:268|310:331,1,85,6|2,0:0|0:0,0:0:0:0:
204,22,85502,1,2,0:0:0:0:
401,323,85618,2,2,P|379:358|328:382,1,85,6|2,0:0|0:0,0:0:0:0:
138,98,85851,5,6,0:0:0:0:
183,351,85967,1,6,0:0:0:0:
286,58,86083,1,6,0:0:0:0:
86,209,86200,1,6,0:0:0:0:
405,247,86316,1,6,0:0:0:0:
154,177,86432,1,6,0:0:0:0:
291,359,86549,1,6,0:0:0:0:
287,38,86665,1,6,0:0:0:0:
256,192,86781,12,2,89339,0:0:0:0:
102,120,89572,6,2,L|101:198,1,42.5,10|2,0:0|0:0,0:0:0:0:
95,250,89804,6,2,L|157:310,1,50.9999984436036,10|2,0:0|0:0,0:0:0:0:
183,346,90037,6,2,L|277:343,1,59.4999981842042,10|2,0:0|0:0,0:0:0:0:
323,355,90270,6,2,L|392:279,1,68,10|2,0:0|0:0,0:0:0:0:
437,256,90502,6,2,L|432:153,1,68,10|0,0:0|0:3,0:0:0:0:
424,107,90735,6,2,L|343:34,1,85,10|2,0:0|0:0,0:0:0:0:
294,17,90967,6,2,L|177:23,1,93.5000028533936,10|2,0:0|0:0,0:0:0:0:
133,64,91200,6,2,L|57:150,1,101.999996887207,10|2,0:0|0:0,0:0:0:0:
112,259,91432,5,6,0:0:0:0:
281,207,91549,1,6,0:0:0:0:
179,333,91665,1,6,0:0:0:0:
178,147,91781,1,6,0:0:0:0:
328,340,91897,1,6,0:0:0:0:
91,181,92014,1,6,0:0:0:0:
378,109,92130,1,6,0:0:0:0:
250,368,92246,1,6,0:0:0:0:
214,16,92363,1,6,0:0:0:0:
214,16,92595,6,2,B|215:42|209:63|209:63|227:51|255:49,2,85
34,193,93293,6,2,L|167:191,1,85,10|2,0:0|0:0,0:0:0:0:
478,191,93525,2,2,L|345:193,1,85
98,35,93758,6,2,L|193:128,1,85,6|2,0:0|0:0,0:0:0:0:
413,348,93990,2,2,L|318:255,1,85
144,135,94223,5,10,0:0:0:0:
144,135,94339,1,2,0:0:0:0:
144,135,94456,2,2,L|256:114,1,85
368,249,94688,5,6,0:0:0:0:
368,249,94804,1,2,0:0:0:0:
368,249,94921,2,2,L|256:270,1,85
144,135,95153,5,10,0:0:0:0:
144,135,95269,1,2,0:0:0:0:
144,135,95386,2,2,B|145:146|128:51,1,85
368,249,95618,5,6,0:0:0:0:
368,249,95734,1,2,0:0:0:0:
368,249,95851,2,2,B|366:237|383:332,1,85
193,292,96083,6,0,B|130:302|130:302|91:295,1,85,10|2,0:0|0:0,0:0:0:0:
319,92,96316,2,2,B|382:82|382:82|421:89,1,85
140,218,96549,6,0,B|89:180|89:180|66:148,1,85,6|2,0:0|0:0,0:0:0:0:
371,165,96782,2,2,B|422:203|422:203|445:235,1,85
186,121,97014,5,10,0:0:0:0:
268,279,97130,1,2,0:0:0:0:
288,169,97246,1,0,0:0:0:0:
190,338,97363,1,0,0:0:0:0:
366,262,97479,6,2,P|408:236|469:242,1,85,6|2,0:0|0:0,0:0:0:0:
334,102,97711,2,2,P|308:60|314:-1,1,85
146,122,97944,2,2,P|104:148|43:142,1,85,10|2,0:0|0:0,0:0:0:0:
178,282,98176,2,2,P|204:324|198:385,1,85
264,240,98409,5,6,0:0:0:0:
96,216,98525,1,2,0:0:0:0:
285,154,98642,1,0,0:0:0:0:
61,57,98758,1,0,0:0:0:0:
93,232,98874,6,0,L|76:329,3,85,10|2|0|0,0:0|0:0|0:0|0:0,0:0:0:0:
209,107,99339,2,0,L|223:23,3,85,6|2|0|0,0:0|0:0|0:0|0:0,0:0:0:0:
310,256,99804,6,0,L|293:353,3,85,10|2|0|0,0:0|0:0|0:0|0:0,0:0:0:0:
426,131,100269,2,0,L|440:47,3,85,6|2|0|0,0:0|0:0|0:0|0:0,0:0:0:0:
371,282,100735,5,10,0:0:0:0:
139,177,100851,1,2,0:0:0:0:
283,355,100967,1,0,0:0:0:0:
286,133,101083,1,0,0:0:0:0:
133,311,101200,6,2,P|84:331|37:323,1,85,6|2,0:0|0:0,0:0:0:0:
391,282,101432,2,2,P|428:300|471:299,1,85
128,297,101665,6,2,P|79:317|32:309,1,85,10|2,0:0|0:0,0:0:0:0:
386,268,101897,2,2,P|423:286|466:285,1,85
345,156,102130,5,6,0:0:0:0:
263,355,102246,1,2,0:0:0:0:
104,218,102363,1,0,0:0:0:0:
336,326,102479,1,0,0:0:0:0:
156,157,102595,6,0,L|167:62,1,85,10|2,0:0|0:0,0:0:0:0:
356,227,102828,2,0,L|345:322,1,85,2|2,0:0|0:0,0:0:0:0:
160,237,103060,6,0,L|101:163,1,85,6|2,0:0|0:0,0:0:0:0:
351,146,103293,2,0,L|410:220,1,85,2|2,0:0|0:0,0:0:0:0:
221,292,103525,6,0,L|125:281,1,85,10|2,0:0|0:0,0:0:0:0:
291,92,103758,2,0,L|386:103,1,85,2|2,0:0|0:0,0:0:0:0:
301,287,103990,6,0,L|227:346,1,85,6|2,0:0|0:0,0:0:0:0:
210,96,104223,2,0,L|284:37,1,85,2|2,0:0|0:0,0:0:0:0:
430,152,104456,5,10,0:0:0:0:
402,303,104572,1,2,0:0:0:0:
359,78,104688,1,0,0:0:0:0:
322,355,104804,1,0,0:0:0:0:
222,182,104921,6,2,L|117:172,1,85,6|2,0:0|0:0,0:0:0:0:
210,275,105153,2,2,L|294:283,1,85
444,164,105386,5,10,0:0:0:0:
321,271,105502,1,2,0:0:0:0:
271,31,105618,1,0,0:0:0:0:
365,199,105735,1,0,0:0:0:0:
155,163,105851,6,2,L|50:139,1,85,6|2,0:0|0:0,0:0:0:0:
111,341,106083,2,2,L|193:322,1,85
312,147,106316,5,10,0:0:0:0:
284,327,106432,1,2,0:0:0:0:
312,147,106549,5,2,0:0:0:0:
284,327,106665,1,2,0:0:0:0:
213,58,106781,5,6,0:0:0:0:
251,253,106897,1,2,0:0:0:0:
213,58,107014,5,2,0:0:0:0:
251,253,107130,1,2,0:0:0:0:
62,26,107246,5,10,0:0:0:0:
174,213,107362,1,2,0:0:0:0:
62,26,107479,5,2,0:0:0:0:
174,213,107595,1,2,0:0:0:0:
10,114,107711,5,6,0:0:0:0:
243,173,107827,1,2,0:0:0:0:
10,114,107944,5,2,0:0:0:0:
243,173,108060,1,2,0:0:0:0:
