osu file format v14

[General]
AudioFilename: audio.mp3
AudioLeadIn: 0
PreviewTime: 130260
Countdown: 0
SampleSet: Soft
StackLeniency: 0.2
Mode: 0
LetterboxInBreaks: 0
WidescreenStoryboard: 1

[Editor]
Bookmarks: 1500,25500,31500,49500,69738,80256,89396,110152,130821,152750
DistanceSpacing: 1.5
BeatDivisor: 4
GridSize: 4
TimelineZoom: 1

[Metadata]
Title:Jof Compilation
TitleUnicode:Jof Compilation
Artist:Various Artists
ArtistUnicode:Various Artists
Creator:X4D
Version:hitsoundslol
Source:
Tags:heartseeker bombs away ringtone daisy blue rasen hikou ghost rule andromeda made isshun de teo omoi teo araki day by day sakuu
BeatmapID:1794859
BeatmapSetID:858805

[Difficulty]
HPDrainRate:6
CircleSize:4
OverallDifficulty:8
ApproachRate:9.6
SliderMultiplier:1.4
SliderTickRate:1

[Events]
//Background and Video events
0,0,"miku.jpg",0,0
//Break Periods
2,61700,70129
//Storyboard Layer 0 (Background)
//Storyboard Layer 1 (Fail)
//Storyboard Layer 2 (Pass)
//Storyboard Layer 3 (Foreground)
//Storyboard Sound Samples

[TimingPoints]
1500,375,4,2,1,100,1,0
25500,-66.6666666666667,4,2,1,100,0,0
58500,-133.333333333333,4,2,1,100,0,0
69738,300,4,2,1,100,1,0
69738,-66.6666666666667,4,2,1,100,0,0
70637,300,4,2,1,100,1,0
70637,-66.6666666666667,4,2,1,100,0,0
79937,-200,4,2,1,100,0,0
80162,-200,4,2,1,5,0,0
80256,285.714285714286,4,2,1,100,1,0
80256,-66.6666666666667,4,2,1,100,0,0
89113,-50,4,2,1,100,0,0
89314,-50,4,2,1,5,0,0
89396,324.324324324324,4,2,1,100,1,0
89396,-66.6666666666667,4,2,1,100,0,0
130821,307.692307692308,4,2,1,100,1,0
130821,-62.5,4,2,1,100,0,0
149282,-133.333333333333,4,2,1,100,0,0
149436,-133.333333333333,4,2,1,5,0,0
150513,-66.6666666666667,4,2,1,100,0,0
151821,-66.6666666666667,4,2,1,5,0,0
152051,-66.6666666666667,4,2,1,100,0,0
152128,-66.6666666666667,4,2,1,5,0,0
152359,-66.6666666666667,4,2,1,100,0,0
152436,-66.6666666666667,4,2,1,5,0,0
152740,472.44094488189,4,2,1,80,1,0
186755,-83.3333333333333,4,2,1,80,0,0
189117,-100,4,2,1,80,0,0

[Colours]
Combo1 : 218,218,218
Combo2 : 88,208,248
SliderBorder : 235,255,254

[HitObjects]
165,150,13500,5,6,1:2:0:0:
223,93,14250,5,8,0:0:0:0:
165,150,14625,5,0,1:2:0:0:
223,93,15187,5,8,0:0:0:0:
165,150,15375,5,0,1:2:0:0:
223,93,15750,5,8,0:0:0:0:
165,150,16125,5,0,1:2:0:0:
165,150,16500,5,0,1:2:0:0:
166,74,17062,5,0,1:0:0:0:
223,93,17250,5,8,0:0:0:0:
165,150,17625,5,0,1:2:0:0:
247,200,18187,5,0,1:0:0:0:
280,151,18562,5,0,1:0:0:0:
303,212,18750,5,8,0:0:0:0:
205,296,18937,5,0,1:0:0:0:
205,296,19125,5,0,1:0:0:0:
171,226,19312,5,8,0:0:0:0:
274,212,19500,5,0,1:0:0:0:
221,147,20062,5,0,1:0:0:0:
85,127,20250,5,8,0:0:0:0:
219,105,20625,5,0,1:0:0:0:
85,127,21187,5,8,0:0:0:0:
221,147,21375,5,0,1:0:0:0:
85,127,21750,5,8,0:0:0:0:
274,212,22500,5,0,1:0:0:0:
221,147,23062,5,0,1:0:0:0:
85,127,23250,5,8,0:0:0:0:
219,105,23625,5,0,1:0:0:0:
262,215,24375,5,0,1:0:0:0:
190,278,24750,5,8,0:0:0:0:
370,275,25500,5,4,0:0:0:0:
370,275,25687,5,0,1:0:0:0:
370,275,25875,5,0,1:0:0:0:
370,275,26062,5,8,0:0:0:0:
370,275,26437,5,0,1:0:0:0:
370,275,26625,5,8,0:0:0:0:
370,275,26812,5,0,1:0:0:0:
370,275,27000,5,0,1:0:0:0:
370,275,27187,5,0,1:0:0:0:
370,275,27375,5,0,1:0:0:0:
370,275,27562,5,8,0:0:0:0:
370,275,27937,5,0,1:0:0:0:
370,275,28125,5,8,0:0:0:0:
370,275,28312,5,0,1:0:0:0:
230,195,28500,5,0,1:0:0:0:
230,195,28687,5,0,1:0:0:0:
230,195,28875,5,8,0:0:0:0:
230,195,29062,5,0,1:0:0:0:
230,195,29250,5,0,1:0:0:0:
230,195,29437,5,0,1:0:0:0:
230,195,29625,5,8,0:0:0:0:
230,195,29812,5,0,1:0:0:0:
230,195,30000,5,0,1:0:0:0:
230,195,30187,5,0,1:0:0:0:
230,195,30375,5,8,0:0:0:0:
230,195,30562,5,0,1:0:0:0:
230,195,30750,5,0,1:0:0:0:
230,195,30937,5,0,1:0:0:0:
230,195,31125,5,8,0:0:0:0:
230,195,31312,5,8,0:0:0:0:
230,195,31406,5,8,0:0:0:0:
370,275,31500,5,4,0:0:0:0:
370,275,31687,5,0,1:0:0:0:
370,275,31875,5,0,1:0:0:0:
370,275,32062,5,8,0:0:0:0:
370,275,32437,5,0,1:0:0:0:
370,275,32625,5,8,0:0:0:0:
370,275,32812,5,0,1:0:0:0:
370,275,33000,5,0,1:0:0:0:
370,275,33187,5,0,1:0:0:0:
370,275,33375,5,0,1:0:0:0:
370,275,33562,5,8,0:0:0:0:
370,275,33937,5,0,1:0:0:0:
370,275,34125,5,8,0:0:0:0:
370,275,34312,5,0,1:0:0:0:
230,195,34500,5,0,1:0:0:0:
230,195,34687,5,0,1:0:0:0:
230,195,34875,5,10,0:0:0:0:
230,195,35062,5,0,1:0:0:0:
230,195,35250,5,2,1:2:0:0:
230,195,35437,5,0,1:0:0:0:
230,195,35625,5,10,0:0:0:0:
230,195,35812,5,0,1:0:0:0:
230,195,36000,5,2,1:2:0:0:
230,195,36187,5,0,1:0:0:0:
230,195,36375,5,10,0:0:0:0:
230,195,36562,5,0,1:0:0:0:
230,195,36750,5,2,1:2:0:0:
230,195,36937,5,8,1:2:0:0:
231,186,37031,5,8,0:0:0:0:
230,186,37125,5,8,0:0:0:0:
230,186,37218,5,8,0:0:0:0:
230,186,37312,5,8,0:0:0:0:
230,186,37406,5,8,0:0:0:0:
296,270,37500,5,0,1:0:0:0:
296,270,37687,5,0,1:0:0:0:
296,270,37875,5,0,1:0:0:0:
296,270,38062,5,8,0:0:0:0:
296,270,38250,5,0,1:0:0:0:
296,270,38437,5,0,1:0:0:0:
296,270,38625,5,8,0:0:0:0:
296,270,38812,5,0,1:0:0:0:
296,270,39000,5,0,1:0:0:0:
296,270,39187,5,0,1:0:0:0:
296,270,39375,5,0,1:0:0:0:
296,270,39562,5,8,0:0:0:0:
296,270,39750,5,0,1:0:0:0:
296,270,39937,5,0,1:0:0:0:
296,270,40125,5,8,0:0:0:0:
296,270,40312,5,0,1:0:0:0:
194,329,40500,5,4,1:2:0:0:
194,329,40687,5,0,1:0:0:0:
194,329,40875,5,8,0:0:0:0:
194,329,41062,5,0,1:0:0:0:
194,329,41250,5,0,1:0:0:0:
194,329,41437,5,8,0:0:0:0:
194,329,41812,5,0,1:0:0:0:
194,329,42000,5,0,1:0:0:0:
194,329,42187,5,0,1:0:0:0:
194,329,42375,5,8,0:0:0:0:
194,329,42562,5,0,1:0:0:0:
194,329,42750,5,0,1:0:0:0:
194,329,42937,5,8,0:0:0:0:
194,329,43031,5,8,0:0:0:0:
194,329,43125,5,8,0:0:0:0:
194,329,43218,5,8,0:0:0:0:
194,329,43312,5,8,0:0:0:0:
194,329,43406,5,8,0:0:0:0:
370,275,43500,5,4,0:0:0:0:
370,275,43687,5,0,1:0:0:0:
370,275,43875,5,0,1:0:0:0:
370,275,44062,5,8,0:0:0:0:
370,275,44437,5,0,1:0:0:0:
370,275,44625,5,8,0:0:0:0:
370,275,44812,5,0,1:0:0:0:
370,275,45000,5,0,1:0:0:0:
370,275,45187,5,0,1:0:0:0:
370,275,45375,5,0,1:0:0:0:
370,275,45562,5,8,0:0:0:0:
370,275,45937,5,0,1:0:0:0:
370,275,46125,5,8,0:0:0:0:
370,275,46312,5,0,1:0:0:0:
230,195,46500,5,0,1:0:0:0:
230,195,46687,5,0,1:0:0:0:
230,195,46875,5,8,0:0:0:0:
230,195,47062,5,0,1:0:0:0:
230,195,47250,5,0,1:0:0:0:
230,195,47437,5,0,1:0:0:0:
230,195,47625,5,8,0:0:0:0:
230,195,47812,5,0,1:0:0:0:
230,195,48000,5,0,1:0:0:0:
230,195,48187,5,0,1:0:0:0:
230,195,48375,5,8,0:0:0:0:
230,195,48562,5,0,1:0:0:0:
230,195,48750,5,0,1:0:0:0:
230,195,48937,5,0,1:0:0:0:
230,195,49125,5,8,0:0:0:0:
230,195,49312,5,8,0:0:0:0:
230,195,49406,5,0,0:0:0:0:
135,232,49500,5,14,0:0:0:0:
185,68,49687,5,0,0:0:0:0:
135,232,49875,5,10,0:0:0:0:
185,68,50062,5,0,0:0:0:0:
135,232,50250,5,10,0:0:0:0:
185,68,50437,5,0,0:0:0:0:
135,232,50625,5,10,0:0:0:0:
185,68,50812,5,0,0:0:0:0:
135,232,51000,5,10,0:0:0:0:
185,68,51187,5,0,0:0:0:0:
135,232,51375,5,10,0:0:0:0:
185,68,51562,5,0,0:0:0:0:
135,232,51750,5,10,0:0:0:0:
185,68,51937,5,0,0:0:0:0:
135,232,52125,5,10,0:0:0:0:
185,68,52312,5,0,0:0:0:0:
135,232,52500,5,14,0:0:0:0:
185,68,52687,5,0,0:0:0:0:
135,232,52875,5,10,0:0:0:0:
185,68,53062,5,0,0:0:0:0:
135,232,53250,5,10,0:0:0:0:
185,68,53437,5,0,0:0:0:0:
135,232,53625,5,10,0:0:0:0:
185,68,53812,5,0,0:0:0:0:
135,232,54000,5,10,0:0:0:0:
185,68,54187,5,0,0:0:0:0:
135,232,54375,5,10,0:0:0:0:
185,68,54562,5,0,0:0:0:0:
135,232,54750,5,10,0:0:0:0:
185,68,54937,5,0,0:0:0:0:
135,232,55125,5,10,0:0:0:0:
185,68,55312,5,0,0:0:0:0:
135,232,55500,5,14,0:0:0:0:
185,68,55687,5,0,0:0:0:0:
135,232,55875,5,10,0:0:0:0:
185,68,56062,5,0,0:0:0:0:
135,232,56250,5,10,0:0:0:0:
185,68,56437,5,0,0:0:0:0:
135,232,56625,5,10,0:0:0:0:
185,68,56812,5,0,0:0:0:0:
135,232,57000,5,10,0:0:0:0:
185,68,57187,5,0,0:0:0:0:
135,232,57375,5,10,0:0:0:0:
185,68,57562,5,0,0:0:0:0:
135,232,57750,5,10,0:0:0:0:
185,68,57937,5,0,0:0:0:0:
135,232,58125,5,10,0:0:0:0:
185,68,58312,5,0,0:0:0:0:
135,232,58500,5,4,0:0:0:0:
95,129,58875,5,2,0:0:0:0:
95,129,59625,5,2,0:0:0:0:
135,232,60000,5,4,1:2:0:0:
95,129,60375,5,2,0:0:0:0:
135,232,60937,5,4,1:2:0:0:
95,129,61125,5,0,0:0:0:0:
135,232,61500,5,0,0:0:0:0:
129,131,70638,5,4,1:2:0:0:
292,170,70937,5,8,0:0:0:0:
129,131,71237,5,4,1:0:0:0:
292,170,71537,5,8,0:0:0:0:
129,131,71837,5,4,1:0:0:0:
292,170,72137,5,8,0:0:0:0:
129,131,72437,5,4,1:0:0:0:
292,170,72737,5,8,0:0:0:0:
129,131,73037,5,0,1:0:0:0:
292,170,73337,5,8,0:0:0:0:
129,131,73637,5,0,1:0:0:0:
292,170,73937,5,8,0:0:0:0:
129,131,74237,5,4,1:0:0:0:
292,170,74537,5,8,0:0:0:0:
129,131,74837,5,4,1:0:0:0:
292,170,75137,5,8,0:0:0:0:
129,131,75437,5,4,1:2:0:0:
292,170,75737,5,8,0:0:0:0:
129,131,76037,5,4,1:0:0:0:
292,170,76337,5,8,0:0:0:0:
129,131,76637,5,4,1:0:0:0:
292,170,76937,5,8,0:0:0:0:
129,131,77237,5,4,1:0:0:0:
292,170,77537,5,8,0:0:0:0:
129,131,77837,5,0,1:0:0:0:
292,170,78137,5,8,0:0:0:0:
129,131,78437,5,4,1:0:0:0:
292,170,78737,5,8,0:0:0:0:
129,131,79037,5,4,1:0:0:0:
292,170,79337,5,8,0:0:0:0:
129,131,79637,5,12,1:2:0:0:
292,170,79712,5,8,0:0:0:0:
292,170,79787,5,8,0:0:0:0:
292,170,79862,5,8,0:0:0:0:
292,170,79937,5,8,0:0:0:0:
63,276,80256,5,4,0:0:0:0:
159,309,80541,5,8,0:0:0:0:
210,200,80827,5,0,1:0:0:0:
210,200,80970,5,0,1:0:0:0:
210,200,81113,5,8,0:0:0:0:
210,200,81398,5,0,1:0:0:0:
210,200,81541,5,0,1:0:0:0:
210,200,81684,5,8,0:0:0:0:
210,200,81827,5,0,1:0:0:0:
210,200,82113,5,0,1:0:0:0:
210,200,82256,5,8,0:0:0:0:
63,276,82541,5,4,1:2:0:0:
159,309,82827,5,8,0:0:0:0:
210,200,83113,5,0,1:0:0:0:
210,200,83256,5,0,1:0:0:0:
210,200,83398,5,8,0:0:0:0:
210,200,83684,5,0,1:0:0:0:
210,200,83827,5,0,1:0:0:0:
210,200,83970,5,8,0:0:0:0:
210,200,84113,5,0,1:0:0:0:
210,200,84256,5,0,1:0:0:0:
317,151,84398,5,8,0:0:0:0:
317,151,84470,5,8,0:0:0:0:
317,151,84541,5,8,0:0:0:0:
317,151,84613,5,0,0:0:0:0:
317,151,84684,5,8,0:0:0:0:
317,151,84756,5,0,0:0:0:0:
63,276,84827,5,4,1:2:0:0:
159,309,85113,5,8,0:0:0:0:
210,200,85398,5,0,1:0:0:0:
210,200,85541,5,0,1:0:0:0:
210,200,85684,5,8,0:0:0:0:
210,200,85970,5,0,1:0:0:0:
210,200,86113,5,0,1:0:0:0:
210,200,86256,5,8,0:0:0:0:
210,200,86398,5,0,1:0:0:0:
210,200,86684,5,0,1:0:0:0:
210,200,86827,5,8,0:0:0:0:
63,276,87113,5,4,1:2:0:0:
159,309,87398,5,8,0:0:0:0:
210,200,87684,5,0,1:0:0:0:
210,200,87827,5,0,1:0:0:0:
210,200,87970,5,8,0:0:0:0:
305,251,88256,5,0,1:0:0:0:
317,142,88398,5,8,0:0:0:0:
317,142,88470,5,8,0:0:0:0:
317,142,88541,5,8,0:0:0:0:
388,200,88684,5,8,0:0:0:0:
388,200,88827,5,8,0:0:0:0:
388,200,88970,5,8,0:0:0:0:
388,200,89113,5,0,1:0:0:0:
100,182,89396,5,4,1:2:0:0:
100,182,89720,5,8,0:0:0:0:
100,182,90044,5,0,1:2:0:0:
100,182,90368,5,8,0:0:0:0:
100,182,90693,5,0,1:2:0:0:
100,182,91017,5,8,0:0:0:0:
100,182,91341,5,0,1:2:0:0:
100,182,91666,5,8,0:0:0:0:
100,182,91990,5,0,1:2:0:0:
100,182,92314,5,8,0:0:0:0:
100,182,92639,5,0,1:2:0:0:
100,182,92963,5,8,0:0:0:0:
100,182,93287,5,0,1:2:0:0:
100,182,93612,5,8,0:0:0:0:
100,182,93936,5,0,1:2:0:0:
100,182,94098,5,8,0:0:0:0:
100,182,94260,5,8,0:0:0:0:
100,182,94585,5,4,1:2:0:0:
100,182,94909,5,8,0:0:0:0:
100,182,95233,5,0,1:2:0:0:
100,182,95558,5,8,0:0:0:0:
100,182,95882,5,0,1:2:0:0:
100,182,96206,5,8,0:0:0:0:
100,182,96531,5,0,1:2:0:0:
100,182,96855,5,8,0:0:0:0:
100,182,97179,5,4,1:2:0:0:
100,182,97504,5,8,0:0:0:0:
100,182,97828,5,0,1:2:0:0:
242,154,97990,5,8,0:0:0:0:
242,154,98071,5,8,0:0:0:0:
242,154,98152,5,8,0:0:0:0:
242,154,98233,5,8,0:0:0:0:
242,154,98314,5,8,0:0:0:0:
242,154,98558,5,8,0:0:0:0:
242,154,98639,5,8,0:0:0:0:
242,154,98720,5,8,0:0:0:0:
242,154,98801,5,0,1:0:0:0:
242,154,98882,5,0,1:0:0:0:
242,154,98963,5,0,1:0:0:0:
242,154,99044,5,0,1:0:0:0:
242,154,99125,5,8,0:0:0:0:
242,154,99206,5,8,0:0:0:0:
242,154,99287,5,0,1:0:0:0:
242,154,99368,5,0,1:0:0:0:
242,154,99450,5,8,0:0:0:0:
242,154,99531,5,8,0:0:0:0:
242,154,99612,5,0,1:0:0:0:
242,154,99693,5,0,1:0:0:0:
100,182,99774,5,4,1:2:0:0:
100,182,100098,5,8,0:0:0:0:
100,182,100423,5,0,1:2:0:0:
100,182,100747,5,8,0:0:0:0:
100,182,101071,5,0,1:2:0:0:
100,182,101395,5,8,0:0:0:0:
100,182,101720,5,0,1:2:0:0:
100,182,102044,5,8,0:0:0:0:
100,182,102368,5,0,1:2:0:0:
100,182,102693,5,8,0:0:0:0:
100,182,103017,5,0,1:2:0:0:
100,182,103341,5,8,0:0:0:0:
100,182,103666,5,0,1:2:0:0:
100,182,103990,5,8,0:0:0:0:
100,182,104314,5,0,1:2:0:0:
100,182,104477,5,8,0:0:0:0:
100,182,104639,5,8,0:0:0:0:
100,182,104963,5,4,1:2:0:0:
100,182,105287,5,8,0:0:0:0:
100,182,105612,5,0,1:2:0:0:
100,182,105936,5,8,0:0:0:0:
100,182,106260,5,4,1:2:0:0:
100,182,106585,5,8,0:0:0:0:
100,182,106909,5,0,1:2:0:0:
100,182,107233,5,8,0:0:0:0:
100,182,107558,5,4,1:2:0:0:
100,182,107882,5,8,0:0:0:0:
100,182,108206,5,0,1:2:0:0:
100,182,108531,5,8,0:0:0:0:
100,182,108855,5,0,1:2:0:0:
198,177,109017,5,8,0:0:0:0:
198,177,109098,5,8,0:0:0:0:
198,177,109179,5,8,0:0:0:0:
198,177,109260,5,8,0:0:0:0:
198,177,109341,5,8,0:0:0:0:
198,177,109423,5,8,0:0:0:0:
198,177,109504,5,8,0:0:0:0:
198,177,109585,5,8,0:0:0:0:
198,177,109666,5,8,0:0:0:0:
198,177,109747,5,8,0:0:0:0:
198,177,109828,5,8,0:0:0:0:
198,177,109909,5,8,0:0:0:0:
198,177,109990,5,8,0:0:0:0:
198,177,110071,5,8,0:0:0:0:
100,182,110152,5,4,1:2:0:0:
100,182,110477,5,8,0:0:0:0:
100,182,110801,5,0,1:2:0:0:
100,182,110963,5,0,1:2:0:0:
100,182,111125,5,8,0:0:0:0:
100,182,111450,5,0,1:2:0:0:
100,182,111774,5,8,0:0:0:0:
100,182,112098,5,0,1:2:0:0:
100,182,112423,5,8,0:0:0:0:
100,182,112747,5,0,1:2:0:0:
100,182,113071,5,8,0:0:0:0:
100,182,113395,5,0,1:2:0:0:
100,182,113639,5,0,0:0:0:0:
100,182,113720,5,8,0:0:0:0:
100,182,114044,5,0,1:2:0:0:
100,182,114368,5,8,0:0:0:0:
100,182,114693,5,0,1:2:0:0:
100,182,114855,5,0,1:2:0:0:
100,182,115017,5,8,0:0:0:0:
100,182,115341,5,4,1:2:0:0:
100,182,115666,5,8,0:0:0:0:
100,182,115990,5,0,1:2:0:0:
100,182,116152,5,0,1:2:0:0:
100,182,116314,5,8,0:0:0:0:
100,182,116639,5,0,1:2:0:0:
100,182,116963,5,8,0:0:0:0:
100,182,117287,5,0,1:2:0:0:
100,182,117612,5,8,0:0:0:0:
226,237,117774,5,8,0:0:0:0:
226,237,117855,5,8,0:0:0:0:
100,182,117936,5,0,1:2:0:0:
100,182,118260,5,8,0:0:0:0:
100,182,118585,5,0,1:2:0:0:
100,182,118747,5,0,1:2:0:0:
100,182,118909,5,8,0:0:0:0:
100,182,119233,5,8,1:2:0:0:
100,182,119558,5,8,0:0:0:0:
192,184,119882,5,8,0:0:0:0:
192,184,119963,5,8,0:0:0:0:
192,184,120044,5,8,0:0:0:0:
192,184,120125,5,8,0:0:0:0:
192,184,120206,5,8,0:0:0:0:
192,184,120287,5,8,0:0:0:0:
192,184,120368,5,8,0:0:0:0:
192,184,120450,5,8,0:0:0:0:
100,182,120531,5,4,1:2:0:0:
100,182,120855,5,8,0:0:0:0:
100,182,121179,5,0,0:0:0:0:
100,182,121341,5,0,1:2:0:0:
100,182,121504,5,8,0:0:0:0:
100,182,121828,5,0,1:2:0:0:
100,182,122152,5,8,0:0:0:0:
100,182,122477,5,0,1:2:0:0:
100,182,122801,5,8,0:0:0:0:
100,182,123125,5,0,1:2:0:0:
100,182,123450,5,8,0:0:0:0:
100,182,123774,5,0,1:2:0:0:
100,182,123936,5,0,1:2:0:0:
100,182,124098,5,0,0:0:0:0:
100,182,124423,5,0,1:2:0:0:
100,182,124747,5,8,0:0:0:0:
202,222,125071,5,0,0:0:0:0:
100,182,125233,5,8,0:0:0:0:
100,182,125558,5,8,0:0:0:0:
100,182,125720,5,4,1:2:0:0:
100,182,126044,5,8,0:0:0:0:
100,182,126368,5,0,0:0:0:0:
100,182,126531,5,0,1:2:0:0:
100,182,126693,5,8,0:0:0:0:
100,182,127017,5,0,1:2:0:0:
100,182,127341,5,8,0:0:0:0:
100,182,127666,5,0,1:2:0:0:
100,182,127990,5,8,0:0:0:0:
226,237,128152,5,8,0:0:0:0:
226,237,128233,5,8,0:0:0:0:
100,182,128314,5,0,1:2:0:0:
100,182,128639,5,8,0:0:0:0:
100,182,128963,5,0,1:2:0:0:
100,182,129125,5,8,1:2:0:0:
100,182,129206,5,8,0:0:0:0:
180,190,129287,5,8,0:0:0:0:
180,190,129368,5,8,0:0:0:0:
180,190,129450,5,8,0:0:0:0:
198,177,129612,5,8,0:0:0:0:
198,177,129693,5,8,0:0:0:0:
198,177,129774,5,8,0:0:0:0:
198,177,129855,5,8,0:0:0:0:
198,177,129936,5,8,0:0:0:0:
198,177,130017,5,8,0:0:0:0:
198,177,130098,5,8,0:0:0:0:
198,177,130179,5,8,0:0:0:0:
198,177,130260,5,8,0:0:0:0:
198,177,130341,5,8,0:0:0:0:
198,177,130423,5,8,0:0:0:0:
198,177,130504,5,8,0:0:0:0:
198,177,130585,5,8,0:0:0:0:
198,177,130666,5,8,0:0:0:0:
198,177,130747,5,8,0:0:0:0:
198,177,130821,5,4,1:2:0:0:
271,124,130974,5,2,0:0:0:0:
318,231,131128,5,8,0:0:0:0:
271,124,131282,5,2,0:0:0:0:
198,177,131436,5,0,0:0:0:0:
271,124,131590,5,2,0:0:0:0:
318,231,131744,5,8,0:0:0:0:
271,124,131897,5,2,0:0:0:0:
198,177,132051,5,0,0:0:0:0:
271,124,132205,5,2,0:0:0:0:
318,231,132359,5,8,0:0:0:0:
271,124,132513,5,2,0:0:0:0:
198,177,132667,5,0,0:0:0:0:
271,124,132821,5,2,0:0:0:0:
318,231,132974,5,8,0:0:0:0:
271,124,133128,5,12,0:0:0:0:
271,124,133436,5,2,0:0:0:0:
318,231,133590,5,8,0:0:0:0:
271,124,133744,5,2,0:0:0:0:
198,177,133897,5,0,0:0:0:0:
271,124,134051,5,2,0:0:0:0:
318,231,134205,5,8,0:0:0:0:
271,124,134359,5,2,0:0:0:0:
198,177,134513,5,0,1:2:0:0:
271,124,134667,5,2,0:0:0:0:
318,231,134821,5,8,0:0:0:0:
271,124,134974,5,2,0:0:0:0:
198,177,135128,5,8,0:0:0:0:
198,177,135205,5,8,0:0:0:0:
198,177,135282,5,8,0:0:0:0:
198,177,135359,5,8,0:0:0:0:
198,177,135436,5,8,0:0:0:0:
168,104,135590,5,0,1:0:0:0:
198,177,135744,5,4,1:2:0:0:
271,124,135897,5,2,0:0:0:0:
318,231,136051,5,8,0:0:0:0:
271,124,136205,5,2,0:0:0:0:
198,177,136359,5,0,0:0:0:0:
271,124,136513,5,2,0:0:0:0:
318,231,136667,5,8,0:0:0:0:
271,124,136821,5,2,0:0:0:0:
198,177,136974,5,0,1:2:0:0:
271,124,137128,5,2,0:0:0:0:
318,231,137282,5,8,0:0:0:0:
271,124,137436,5,2,0:0:0:0:
198,177,137590,5,0,0:0:0:0:
271,124,137744,5,8,0:0:0:0:
318,231,137897,5,8,0:0:0:0:
271,124,138051,5,0,1:0:0:0:
198,177,138205,5,4,1:2:0:0:
271,124,138359,5,2,0:0:0:0:
318,231,138513,5,8,0:0:0:0:
271,124,138667,5,2,0:0:0:0:
198,177,138821,5,0,0:0:0:0:
271,124,138974,5,0,0:0:0:0:
318,231,139128,5,8,0:0:0:0:
271,124,139282,5,2,0:0:0:0:
198,177,139436,5,0,1:2:0:0:
271,124,139590,5,2,0:0:0:0:
318,231,139744,5,8,0:0:0:0:
271,124,139897,5,2,0:0:0:0:
198,177,140051,5,8,0:0:0:0:
271,124,140205,5,10,0:0:0:0:
318,231,140359,5,8,0:0:0:0:
271,124,140513,5,12,0:0:0:0:
390,181,140821,5,0,1:0:0:0:
390,181,140897,5,0,1:0:0:0:
390,181,140974,5,8,0:0:0:0:
269,271,141282,5,0,1:0:0:0:
269,271,141436,5,0,1:0:0:0:
269,271,141590,5,8,0:0:0:0:
269,271,141897,5,0,1:0:0:0:
269,271,142051,5,0,1:0:0:0:
269,271,142205,5,8,0:0:0:0:
269,271,142513,5,0,1:0:0:0:
269,271,142667,5,0,1:0:0:0:
269,271,142821,5,8,0:0:0:0:
375,302,142974,5,12,0:0:0:0:
390,181,143282,5,0,1:0:0:0:
390,181,143359,5,0,1:0:0:0:
390,181,143436,5,8,0:0:0:0:
269,271,143744,5,0,1:0:0:0:
269,271,143897,5,0,1:0:0:0:
269,271,144051,5,8,0:0:0:0:
269,271,144359,5,0,1:0:0:0:
269,271,144513,5,0,1:0:0:0:
269,271,144667,5,8,0:0:0:0:
382,311,144821,5,0,1:0:0:0:
269,271,144974,5,8,0:0:0:0:
382,311,145128,5,0,1:0:0:0:
269,271,145282,5,8,0:0:0:0:
382,311,145436,5,0,1:0:0:0:
445,254,145590,5,4,0:0:0:0:
161,316,145897,5,8,0:0:0:0:
161,316,146359,5,8,0:0:0:0:
161,316,146821,5,8,0:0:0:0:
161,316,147282,5,8,0:0:0:0:
161,316,147744,5,8,0:0:0:0:
90,211,147897,5,0,1:0:0:0:
257,151,148051,5,12,0:0:0:0:
125,93,148205,5,0,0:0:0:0:
257,151,148359,5,8,0:0:0:0:
125,93,148513,5,0,0:0:0:0:
257,151,148667,5,8,0:0:0:0:
125,93,148821,5,0,0:0:0:0:
257,151,148974,5,8,0:0:0:0:
125,93,149128,5,0,0:0:0:0:
257,151,149282,5,12,0:0:0:0:
257,151,150513,5,6,0:0:0:0:
299,280,150821,5,2,0:0:0:0:
299,280,151128,5,0,0:0:0:0:
499,298,151436,5,8,0:0:0:0:
499,298,151513,5,8,0:0:0:0:
499,298,151590,5,8,0:0:0:0:
499,298,151667,5,8,0:0:0:0:
499,298,151744,5,10,0:0:0:0:
499,298,152051,5,10,0:0:0:0:
499,298,152359,5,10,0:0:0:0:
171,246,154629,5,4,0:0:0:0:
101,171,154865,5,0,0:0:0:0:
101,171,155102,5,0,0:0:0:0:
101,171,155338,5,0,1:0:0:0:
303,258,155574,5,8,1:0:0:0:
101,171,155810,5,0,0:0:0:0:
101,171,156047,5,0,0:0:0:0:
101,171,156283,5,0,1:0:0:0:
171,246,156519,5,2,0:0:0:0:
101,171,156755,5,0,0:0:0:0:
101,171,156991,5,0,0:0:0:0:
101,171,157228,5,0,1:0:0:0:
303,258,157464,5,8,1:0:0:0:
101,171,157700,5,0,0:0:0:0:
101,171,157936,5,0,0:0:0:0:
101,171,158173,5,0,1:0:0:0:
171,246,158409,5,4,1:2:0:0:
101,171,158645,5,0,0:0:0:0:
101,171,158881,5,0,0:0:0:0:
101,171,159117,5,0,1:0:0:0:
303,258,159354,5,8,1:0:0:0:
101,171,159590,5,0,0:0:0:0:
101,171,159826,5,0,0:0:0:0:
101,171,160062,5,0,1:0:0:0:
171,246,160299,5,0,1:0:0:0:
101,171,160535,5,0,0:0:0:0:
101,171,160771,5,0,0:0:0:0:
101,171,161007,5,0,1:0:0:0:
303,258,161243,5,4,1:2:0:0:
101,171,161480,5,0,0:0:0:0:
101,171,161716,5,4,0:0:0:0:
101,171,161952,5,0,1:0:0:0:
171,246,162188,5,4,0:0:0:0:
101,171,162425,5,0,0:0:0:0:
101,171,162661,5,0,0:0:0:0:
101,171,162897,5,0,1:0:0:0:
303,258,163133,5,8,1:0:0:0:
101,171,163369,5,0,0:0:0:0:
101,171,163606,5,0,0:0:0:0:
101,171,163842,5,0,1:0:0:0:
171,246,164078,5,2,0:0:0:0:
101,171,164314,5,0,0:0:0:0:
101,171,164551,5,0,0:0:0:0:
101,171,164787,5,0,1:0:0:0:
303,258,165023,5,8,1:0:0:0:
101,171,165259,5,0,0:0:0:0:
101,171,165495,5,0,0:0:0:0:
101,171,165732,5,0,1:0:0:0:
171,246,165968,5,4,1:2:0:0:
101,171,166204,5,0,0:0:0:0:
101,171,166440,5,0,0:0:0:0:
101,171,166677,5,0,1:0:0:0:
303,258,166913,5,8,1:0:0:0:
101,171,167149,5,0,0:0:0:0:
101,171,167385,5,0,0:0:0:0:
101,171,167621,5,0,1:0:0:0:
171,246,167858,5,0,1:0:0:0:
101,171,168094,5,0,0:0:0:0:
101,171,168330,5,0,0:0:0:0:
101,171,168566,5,0,1:0:0:0:
303,258,168802,5,4,1:2:0:0:
101,171,169039,5,0,0:0:0:0:
101,171,169275,5,4,0:0:0:0:
101,171,169511,5,0,1:0:0:0:
171,246,169747,5,4,0:0:0:0:
101,171,169984,5,0,0:0:0:0:
101,171,170220,5,0,0:0:0:0:
101,171,170456,5,0,1:0:0:0:
303,258,170692,5,8,1:0:0:0:
101,171,170928,5,0,0:0:0:0:
101,171,171165,5,0,0:0:0:0:
101,171,171401,5,0,1:0:0:0:
171,246,171637,5,2,0:0:0:0:
101,171,171873,5,0,0:0:0:0:
101,171,172110,5,0,0:0:0:0:
101,171,172346,5,0,1:0:0:0:
303,258,172582,5,8,1:0:0:0:
101,171,172818,5,0,0:0:0:0:
101,171,173054,5,0,0:0:0:0:
101,171,173291,5,0,1:0:0:0:
171,246,173527,5,4,1:2:0:0:
101,171,173763,5,0,0:0:0:0:
101,171,173999,5,0,0:0:0:0:
101,171,174236,5,0,1:0:0:0:
303,258,174472,5,10,1:2:0:0:
101,171,174708,5,0,0:0:0:0:
101,171,174944,5,0,0:0:0:0:
101,171,175180,5,0,1:0:0:0:
171,246,175417,5,0,1:0:0:0:
101,171,175653,5,0,0:0:0:0:
101,171,175889,5,0,0:0:0:0:
101,171,176125,5,0,1:0:0:0:
303,258,176362,5,4,1:2:0:0:
101,171,176598,5,0,0:0:0:0:
101,171,176834,5,2,0:0:0:0:
101,171,177070,5,0,1:0:0:0:
171,246,177306,5,4,0:0:0:0:
101,171,177543,5,0,0:0:0:0:
101,171,177779,5,0,0:0:0:0:
101,171,178015,5,0,1:0:0:0:
303,258,178251,5,8,1:0:0:0:
101,171,178488,5,0,0:0:0:0:
101,171,178724,5,0,0:0:0:0:
101,171,178960,5,0,1:0:0:0:
171,246,179196,5,2,0:0:0:0:
101,171,179432,5,0,0:0:0:0:
101,171,179669,5,0,0:0:0:0:
101,171,179905,5,0,1:0:0:0:
303,258,180141,5,8,1:0:0:0:
101,171,180377,5,0,0:0:0:0:
101,171,180614,5,0,0:0:0:0:
101,171,180850,5,0,1:0:0:0:
171,246,181086,5,4,1:2:0:0:
101,171,181322,5,0,0:0:0:0:
101,171,181558,5,0,0:0:0:0:
101,171,181795,5,0,1:0:0:0:
303,258,182031,5,8,1:0:0:0:
101,171,182267,5,0,0:0:0:0:
101,171,182503,5,0,0:0:0:0:
101,171,182740,5,0,1:0:0:0:
171,246,182976,5,0,1:0:0:0:
101,171,183212,5,0,0:0:0:0:
101,171,183448,5,0,0:0:0:0:
101,171,183684,5,0,1:0:0:0:
303,258,183921,5,4,1:2:0:0:
101,171,184157,5,0,0:0:0:0:
101,171,184393,5,4,0:0:0:0:
101,171,184629,5,0,1:0:0:0:
171,246,184865,5,4,0:0:0:0:
101,171,185102,5,0,0:0:0:0:
101,171,185338,5,0,0:0:0:0:
101,171,185574,5,0,1:0:0:0:
303,258,185810,5,8,1:0:0:0:
101,171,186047,5,0,0:0:0:0:
101,171,186283,5,0,0:0:0:0:
101,171,186519,5,0,1:0:0:0:
171,246,186755,5,2,0:0:0:0:
101,171,186991,5,0,0:0:0:0:
101,171,187228,5,0,0:0:0:0:
101,171,187464,5,0,1:0:0:0:
303,258,187700,5,8,1:0:0:0:
101,171,187936,5,0,0:0:0:0:
101,171,188173,5,0,0:0:0:0:
101,171,188409,5,0,1:0:0:0:
171,246,188645,5,4,1:2:0:0:
101,171,188881,5,0,0:0:0:0:
101,171,189117,5,0,0:0:0:0:
101,171,189354,5,0,1:0:0:0:
303,258,189590,5,8,1:0:0:0:
101,171,189826,5,0,0:0:0:0:
101,171,190062,5,0,0:0:0:0:
101,171,190299,5,0,1:0:0:0:
171,246,190535,5,2,0:0:0:0:
101,171,190771,5,0,0:0:0:0:
101,171,191007,5,0,0:0:0:0:
101,171,191243,5,0,1:0:0:0:
303,258,191480,5,8,1:0:0:0:
101,171,191716,5,8,1:0:0:0:
101,171,191952,5,12,1:0:0:0:
101,171,192188,5,8,1:0:0:0:
