osu file format v14

[General]
AudioFilename: FREEDOM DIVE.mp3
AudioLeadIn: 0
PreviewTime: 107983
Countdown: 1
SampleSet: None
StackLeniency: 0.7
Mode: 3
LetterboxInBreaks: 1
SpecialStyle: 0
WidescreenStoryboard: 1

[Editor]
DistanceSpacing: 1
BeatDivisor: 4
GridSize: 4
TimelineZoom: 2.899999

[Metadata]
Title:Jinjin's Classics Pack
TitleUnicode:Jinjin's Classics Pack
Artist:Various Artists
ArtistUnicode:Various Artists
Creator:Jinjin
Version:xi - FREEDOM DiVE [JINDIMENSIONS]
Source:
Tags:
BeatmapID:1062010
BeatmapSetID:362285

[Difficulty]
HPDrainRate:7
CircleSize:7
OverallDifficulty:7
ApproachRate:5
SliderMultiplier:1.4
SliderTickRate:1

[Events]
//Background and Video events
0,0,"BG1.jpg",0,0
//Break Periods
//Storyboard Layer 0 (Background)
//Storyboard Layer 1 (Fail)
//Storyboard Layer 2 (Pass)
//Storyboard Layer 3 (Foreground)
//Storyboard Sound Samples

[TimingPoints]
2142,270.002700027,4,2,0,30,1,0
64782,-100,4,2,0,30,0,1
82062,-100,4,2,0,30,0,0
107983,-100,4,2,0,30,0,1
146863,-100,4,2,0,30,0,0
218144,-100,4,2,0,30,0,1
257024,-100,4,2,0,30,0,0

[HitObjects]
36,192,2142,5,0,0:0:0:0:
475,192,2142,1,0,0:0:0:0:
402,192,2142,1,0,0:0:0:0:
182,192,2142,1,0,0:0:0:0:
256,192,2209,1,0,0:0:0:0:
329,192,2277,1,0,0:0:0:0:
402,192,2344,1,0,0:0:0:0:
36,192,2344,1,0,0:0:0:0:
109,192,2344,1,0,0:0:0:0:
475,192,2412,1,0,0:0:0:0:
402,192,2479,1,0,0:0:0:0:
329,192,2547,1,0,0:0:0:0:
36,192,2547,1,0,0:0:0:0:
109,192,2547,1,0,0:0:0:0:
182,192,2614,1,0,0:0:0:0:
256,192,2682,1,0,0:0:0:0:
329,192,2749,1,0,0:0:0:0:
36,192,2817,1,0,0:0:0:0:
109,192,2817,1,0,0:0:0:0:
402,192,2817,1,0,0:0:0:0:
475,192,2884,1,0,0:0:0:0:
36,192,2952,1,0,0:0:0:0:
109,192,2952,1,0,0:0:0:0:
329,192,2952,1,0,0:0:0:0:
256,192,3019,1,0,0:0:0:0:
182,192,3087,1,0,0:0:0:0:
402,192,3087,1,0,0:0:0:0:
475,192,3087,1,0,0:0:0:0:
109,192,3154,1,0,0:0:0:0:
36,192,3222,1,0,0:0:0:0:
329,192,3222,1,0,0:0:0:0:
475,192,3222,1,0,0:0:0:0:
109,192,3289,1,0,0:0:0:0:
182,192,3357,1,0,0:0:0:0:
402,192,3357,1,0,0:0:0:0:
475,192,3424,1,0,0:0:0:0:
36,192,3424,1,0,0:0:0:0:
256,192,3424,1,0,0:0:0:0:
329,192,3492,1,0,0:0:0:0:
475,192,3559,1,0,0:0:0:0:
402,192,3627,1,0,0:0:0:0:
109,192,3627,1,0,0:0:0:0:
36,192,3627,1,0,0:0:0:0:
329,192,3694,1,0,0:0:0:0:
36,192,3762,1,0,0:0:0:0:
109,192,3762,1,0,0:0:0:0:
256,192,3762,1,0,0:0:0:0:
329,192,3829,1,0,0:0:0:0:
402,192,3897,1,0,0:0:0:0:
182,192,3897,1,0,0:0:0:0:
36,192,3897,1,0,0:0:0:0:
256,192,3964,1,0,0:0:0:0:
329,192,4032,1,0,0:0:0:0:
475,192,4032,1,0,0:0:0:0:
109,192,4032,1,0,0:0:0:0:
256,192,4099,1,0,0:0:0:0:
182,192,4167,1,0,0:0:0:0:
402,192,4167,1,0,0:0:0:0:
475,192,4167,1,0,0:0:0:0:
109,192,4234,1,0,0:0:0:0:
36,192,4302,1,0,0:0:0:0:
256,192,4302,1,0,0:0:0:0:
329,192,4302,1,0,0:0:0:0:
475,192,4302,1,0,0:0:0:0:
182,192,4369,1,0,0:0:0:0:
329,192,4437,1,0,0:0:0:0:
402,192,4504,1,0,0:0:0:0:
109,192,4504,1,0,0:0:0:0:
36,192,4504,1,0,0:0:0:0:
475,192,4572,1,0,0:0:0:0:
402,192,4639,1,0,0:0:0:0:
329,192,4707,1,0,0:0:0:0:
182,192,4707,1,0,0:0:0:0:
109,192,4707,1,0,0:0:0:0:
256,192,4774,1,0,0:0:0:0:
36,192,4842,1,0,0:0:0:0:
109,192,4909,1,0,0:0:0:0:
182,192,4977,1,0,0:0:0:0:
329,192,4977,1,0,0:0:0:0:
402,192,4977,1,0,0:0:0:0:
475,192,5044,1,0,0:0:0:0:
256,192,5112,1,0,0:0:0:0:
36,192,5112,1,0,0:0:0:0:
109,192,5112,1,0,0:0:0:0:
329,192,5179,1,0,0:0:0:0:
402,192,5247,1,0,0:0:0:0:
475,192,5247,1,0,0:0:0:0:
182,192,5247,1,0,0:0:0:0:
329,192,5314,1,0,0:0:0:0:
36,192,5382,1,0,0:0:0:0:
256,192,5382,1,0,0:0:0:0:
109,192,5382,1,0,0:0:0:0:
182,192,5449,1,0,0:0:0:0:
329,192,5517,1,0,0:0:0:0:
36,192,5517,1,0,0:0:0:0:
109,192,5584,1,0,0:0:0:0:
402,192,5584,1,0,0:0:0:0:
475,192,5584,1,0,0:0:0:0:
256,192,5652,1,0,0:0:0:0:
182,192,5719,1,0,0:0:0:0:
109,192,5787,1,0,0:0:0:0:
329,192,5787,1,0,0:0:0:0:
475,192,5787,1,0,0:0:0:0:
36,192,5854,1,0,0:0:0:0:
256,192,5922,1,0,0:0:0:0:
402,192,5922,1,0,0:0:0:0:
109,192,5989,1,0,0:0:0:0:
182,192,5989,1,0,0:0:0:0:
329,192,6057,1,0,0:0:0:0:
475,192,6057,1,0,0:0:0:0:
256,192,6090,1,0,0:0:0:0:
182,192,6124,1,0,0:0:0:0:
109,192,6158,1,0,0:0:0:0:
36,192,6192,1,0,0:0:0:0:
402,192,6192,1,0,0:0:0:0:
475,192,6192,1,0,0:0:0:0:
329,192,6259,1,0,0:0:0:0:
109,192,6327,1,0,0:0:0:0:
36,192,6327,1,0,0:0:0:0:
182,192,6327,1,0,0:0:0:0:
256,192,6394,1,0,0:0:0:0:
329,192,6462,1,0,0:0:0:0:
402,192,6462,1,0,0:0:0:0:
475,192,6462,1,0,0:0:0:0:
109,192,6462,1,0,0:0:0:0:
182,192,6529,1,0,0:0:0:0:
256,192,6597,1,0,0:0:0:0:
36,192,6597,1,0,0:0:0:0:
109,192,6664,1,0,0:0:0:0:
329,192,6664,1,0,0:0:0:0:
475,192,6664,1,0,0:0:0:0:
182,192,6732,1,0,0:0:0:0:
402,192,6799,1,0,0:0:0:0:
329,192,6867,1,0,0:0:0:0:
36,192,6867,1,0,0:0:0:0:
109,192,6867,1,0,0:0:0:0:
256,192,6934,1,0,0:0:0:0:
182,192,7002,1,0,0:0:0:0:
256,192,7069,1,0,0:0:0:0:
329,192,7137,1,0,0:0:0:0:
109,192,7137,1,0,0:0:0:0:
36,192,7137,1,0,0:0:0:0:
402,192,7204,1,0,0:0:0:0:
109,192,7272,1,0,0:0:0:0:
36,192,7272,1,0,0:0:0:0:
475,192,7272,1,0,0:0:0:0:
402,192,7339,1,0,0:0:0:0:
329,192,7407,1,0,0:0:0:0:
36,192,7407,1,0,0:0:0:0:
256,192,7407,1,0,0:0:0:0:
109,192,7474,1,0,0:0:0:0:
182,192,7542,1,0,0:0:0:0:
402,192,7542,1,0,0:0:0:0:
256,192,7609,1,0,0:0:0:0:
329,192,7677,1,0,0:0:0:0:
36,192,7677,1,0,0:0:0:0:
475,192,7744,1,0,0:0:0:0:
402,192,7744,1,0,0:0:0:0:
109,192,7744,1,0,0:0:0:0:
256,192,7812,1,0,0:0:0:0:
182,192,7879,1,0,0:0:0:0:
109,192,7947,1,0,0:0:0:0:
329,192,7947,1,0,0:0:0:0:
475,192,7947,1,0,0:0:0:0:
36,192,8014,1,0,0:0:0:0:
256,192,8082,1,0,0:0:0:0:
402,192,8082,1,0,0:0:0:0:
475,192,8082,1,0,0:0:0:0:
182,192,8149,1,0,0:0:0:0:
109,192,8217,1,0,0:0:0:0:
329,192,8217,1,0,0:0:0:0:
36,192,8217,1,0,0:0:0:0:
256,192,8284,1,0,0:0:0:0:
182,192,8352,1,0,0:0:0:0:
402,192,8352,1,0,0:0:0:0:
475,192,8352,1,0,0:0:0:0:
329,192,8419,1,0,0:0:0:0:
256,192,8487,1,0,0:0:0:0:
109,192,8487,1,0,0:0:0:0:
36,192,8487,1,0,0:0:0:0:
402,192,8554,1,0,0:0:0:0:
182,192,8622,1,0,0:0:0:0:
329,192,8622,1,0,0:0:0:0:
36,192,8622,1,0,0:0:0:0:
475,192,8622,1,0,0:0:0:0:
256,192,8689,1,0,0:0:0:0:
109,192,8757,1,0,0:0:0:0:
329,192,8757,1,0,0:0:0:0:
182,192,8824,1,0,0:0:0:0:
402,192,8824,1,0,0:0:0:0:
36,192,8824,1,0,0:0:0:0:
475,192,8892,1,0,0:0:0:0:
402,192,8959,1,0,0:0:0:0:
329,192,9027,1,0,0:0:0:0:
109,192,9027,1,0,0:0:0:0:
36,192,9027,1,0,0:0:0:0:
256,192,9094,1,0,0:0:0:0:
182,192,9162,1,0,0:0:0:0:
402,192,9162,1,0,0:0:0:0:
475,192,9162,1,0,0:0:0:0:
36,192,9229,1,0,0:0:0:0:
109,192,9297,1,0,0:0:0:0:
329,192,9297,1,0,0:0:0:0:
402,192,9297,1,0,0:0:0:0:
182,192,9364,1,0,0:0:0:0:
256,192,9432,1,0,0:0:0:0:
36,192,9432,1,0,0:0:0:0:
475,192,9432,1,0,0:0:0:0:
402,192,9499,1,0,0:0:0:0:
109,192,9567,1,0,0:0:0:0:
182,192,9567,1,0,0:0:0:0:
329,192,9567,1,0,0:0:0:0:
256,192,9634,1,0,0:0:0:0:
36,192,9702,1,0,0:0:0:0:
402,192,9702,1,0,0:0:0:0:
475,192,9702,1,0,0:0:0:0:
109,192,9702,1,0,0:0:0:0:
329,192,9769,1,0,0:0:0:0:
256,192,9837,1,0,0:0:0:0:
182,192,9870,1,0,0:0:0:0:
109,192,9904,1,0,0:0:0:0:
36,192,9938,1,0,0:0:0:0:
329,192,9972,1,0,0:0:0:0:
402,192,9972,1,0,0:0:0:0:
475,192,9972,1,0,0:0:0:0:
256,192,10039,1,0,0:0:0:0:
182,192,10107,1,0,0:0:0:0:
36,192,10107,1,0,0:0:0:0:
109,192,10107,1,0,0:0:0:0:
329,192,10174,1,0,0:0:0:0:
475,192,10242,1,0,0:0:0:0:
256,192,10242,1,0,0:0:0:0:
182,192,10309,1,0,0:0:0:0:
402,192,10309,1,0,0:0:0:0:
329,192,10377,1,0,0:0:0:0:
109,192,10377,1,0,0:0:0:0:
36,192,10444,1,0,0:0:0:0:
256,192,10444,1,0,0:0:0:0:
182,192,10512,1,0,0:0:0:0:
475,192,10512,1,0,0:0:0:0:
402,192,10512,1,0,0:0:0:0:
109,192,10579,1,0,0:0:0:0:
329,192,10579,1,0,0:0:0:0:
36,192,10647,1,0,0:0:0:0:
256,192,10647,1,0,0:0:0:0:
475,192,10647,1,0,0:0:0:0:
402,192,10714,1,0,0:0:0:0:
182,192,10714,1,0,0:0:0:0:
36,192,10782,1,0,0:0:0:0:
109,192,10782,1,0,0:0:0:0:
256,192,10782,1,0,0:0:0:0:
475,192,10782,1,0,0:0:0:0:
329,192,10849,1,0,0:0:0:0:
402,192,10917,1,0,0:0:0:0:
475,192,10984,1,0,0:0:0:0:
36,192,11052,1,0,0:0:0:0:
109,192,11052,1,0,0:0:0:0:
329,192,11052,1,0,0:0:0:0:
182,192,11052,1,0,0:0:0:0:
256,192,11119,1,0,0:0:0:0:
182,192,11187,1,0,0:0:0:0:
109,192,11254,1,0,0:0:0:0:
36,192,11322,1,0,0:0:0:0:
329,192,11322,1,0,0:0:0:0:
475,192,11322,1,0,0:0:0:0:
109,192,11389,1,0,0:0:0:0:
182,192,11457,1,0,0:0:0:0:
256,192,11524,1,0,0:0:0:0:
329,192,11592,1,0,0:0:0:0:
36,192,11592,1,0,0:0:0:0:
109,192,11592,1,0,0:0:0:0:
475,192,11592,1,0,0:0:0:0:
256,192,11659,1,0,0:0:0:0:
182,192,11727,1,0,0:0:0:0:
109,192,11794,1,0,0:0:0:0:
36,192,11862,1,0,0:0:0:0:
475,192,11862,1,0,0:0:0:0:
256,192,11862,1,0,0:0:0:0:
329,192,11929,1,0,0:0:0:0:
402,192,11997,1,0,0:0:0:0:
475,192,12064,1,0,0:0:0:0:
109,192,12132,1,0,0:0:0:0:
182,192,12132,1,0,0:0:0:0:
36,192,12132,1,0,0:0:0:0:
402,192,12132,1,0,0:0:0:0:
329,192,12199,1,0,0:0:0:0:
256,192,12267,1,0,0:0:0:0:
182,192,12334,1,0,0:0:0:0:
36,192,12402,1,0,0:0:0:0:
109,192,12402,1,0,0:0:0:0:
329,192,12402,1,0,0:0:0:0:
402,192,12469,1,0,0:0:0:0:
475,192,12537,1,0,0:0:0:0:
256,192,12604,1,0,0:0:0:0:
402,192,12672,1,0,0:0:0:0:
109,192,12672,1,0,0:0:0:0:
36,192,12672,1,0,0:0:0:0:
182,192,12672,1,0,0:0:0:0:
329,192,12739,1,0,0:0:0:0:
256,192,12807,1,0,0:0:0:0:
36,192,12807,1,0,0:0:0:0:
402,192,12874,1,0,0:0:0:0:
36,192,12942,1,0,0:0:0:0:
109,192,12942,1,0,0:0:0:0:
475,192,12942,1,0,0:0:0:0:
182,192,12942,1,0,0:0:0:0:
256,192,13009,1,0,0:0:0:0:
329,192,13077,1,0,0:0:0:0:
402,192,13144,1,0,0:0:0:0:
36,192,13212,1,0,0:0:0:0:
109,192,13212,1,0,0:0:0:0:
475,192,13212,1,0,0:0:0:0:
182,192,13212,1,0,0:0:0:0:
329,192,13279,1,0,0:0:0:0:
256,192,13347,1,0,0:0:0:0:
182,192,13414,1,0,0:0:0:0:
109,192,13482,1,0,0:0:0:0:
475,192,13482,1,0,0:0:0:0:
402,192,13482,1,0,0:0:0:0:
182,192,13549,1,0,0:0:0:0:
256,192,13617,1,0,0:0:0:0:
329,192,13684,1,0,0:0:0:0:
36,192,13752,1,0,0:0:0:0:
109,192,13752,1,0,0:0:0:0:
402,192,13752,1,0,0:0:0:0:
475,192,13752,1,0,0:0:0:0:
329,192,13819,1,0,0:0:0:0:
256,192,13887,1,0,0:0:0:0:
475,192,13887,1,0,0:0:0:0:
182,192,13954,1,0,0:0:0:0:
36,192,14022,1,0,0:0:0:0:
109,192,14022,1,0,0:0:0:0:
402,192,14022,1,0,0:0:0:0:
329,192,14089,1,0,0:0:0:0:
256,192,14157,1,0,0:0:0:0:
182,192,14224,1,0,0:0:0:0:
109,192,14292,1,0,0:0:0:0:
36,192,14292,1,0,0:0:0:0:
475,192,14292,1,0,0:0:0:0:
402,192,14292,1,0,0:0:0:0:
329,192,14359,1,0,0:0:0:0:
256,192,14427,1,0,0:0:0:0:
182,192,14427,1,0,0:0:0:0:
109,192,14494,1,0,0:0:0:0:
329,192,14562,1,0,0:0:0:0:
475,192,14562,1,0,0:0:0:0:
36,192,14562,1,0,0:0:0:0:
402,192,14562,1,0,0:0:0:0:
256,192,14629,1,0,0:0:0:0:
182,192,14697,1,0,0:0:0:0:
109,192,14697,1,0,0:0:0:0:
475,192,14764,1,0,0:0:0:0:
36,192,14764,1,0,0:0:0:0:
402,192,14764,1,0,0:0:0:0:
329,192,14764,1,0,0:0:0:0:
256,192,14832,1,0,0:0:0:0:
182,192,14899,1,0,0:0:0:0:
109,192,14899,1,0,0:0:0:0:
475,192,14967,1,0,0:0:0:0:
36,192,14967,1,0,0:0:0:0:
402,192,14967,1,0,0:0:0:0:
329,192,14967,1,0,0:0:0:0:
256,192,15034,1,0,0:0:0:0:
36,192,15102,1,0,0:0:0:0:
182,192,15102,1,0,0:0:0:0:
109,192,15102,1,0,0:0:0:0:
475,192,15102,1,0,0:0:0:0:
402,192,15102,1,0,0:0:0:0:
329,192,15169,1,0,0:0:0:0:
256,192,15237,1,0,0:0:0:0:
182,192,15304,1,0,0:0:0:0:
109,192,15372,1,0,0:0:0:0:
475,192,15372,1,0,0:0:0:0:
36,192,15372,1,0,0:0:0:0:
402,192,15372,1,0,0:0:0:0:
329,192,15439,1,0,0:0:0:0:
182,192,15507,1,0,0:0:0:0:
36,192,15574,1,0,0:0:0:0:
256,192,15642,1,0,0:0:0:0:
402,192,15642,1,0,0:0:0:0:
475,192,15642,1,0,0:0:0:0:
109,192,15709,1,0,0:0:0:0:
329,192,15777,1,0,0:0:0:0:
182,192,15844,1,0,0:0:0:0:
36,192,15912,1,0,0:0:0:0:
256,192,15912,1,0,0:0:0:0:
402,192,15912,1,0,0:0:0:0:
475,192,15912,1,0,0:0:0:0:
109,192,15979,1,0,0:0:0:0:
36,192,16047,1,0,0:0:0:0:
256,192,16047,1,0,0:0:0:0:
402,192,16047,1,0,0:0:0:0:
475,192,16047,1,0,0:0:0:0:
182,192,16114,1,0,0:0:0:0:
329,192,16182,1,0,0:0:0:0:
109,192,16249,1,0,0:0:0:0:
402,192,16317,1,0,0:0:0:0:
475,192,16317,1,0,0:0:0:0:
256,192,16317,1,0,0:0:0:0:
36,192,16317,1,0,0:0:0:0:
182,192,16384,1,0,0:0:0:0:
329,192,16384,1,0,0:0:0:0:
402,192,16452,1,0,0:0:0:0:
475,192,16452,1,0,0:0:0:0:
36,192,16452,1,0,0:0:0:0:
256,192,16452,1,0,0:0:0:0:
109,192,16519,1,0,0:0:0:0:
182,192,16587,1,0,0:0:0:0:
329,192,16587,1,0,0:0:0:0:
402,192,16654,1,0,0:0:0:0:
256,192,16722,1,0,0:0:0:0:
109,192,16722,1,0,0:0:0:0:
36,192,16722,1,0,0:0:0:0:
475,192,16789,1,0,0:0:0:0:
329,192,16857,1,0,0:0:0:0:
182,192,16857,1,0,0:0:0:0:
36,192,16857,1,0,0:0:0:0:
402,192,16924,1,0,0:0:0:0:
109,192,16992,1,0,0:0:0:0:
256,192,16992,1,0,0:0:0:0:
329,192,16992,1,0,0:0:0:0:
475,192,17059,1,0,0:0:0:0:
36,192,17127,1,0,0:0:0:0:
182,192,17127,1,0,0:0:0:0:
256,192,17127,1,0,0:0:0:0:
329,192,17194,1,0,0:0:0:0:
402,192,17194,1,0,0:0:0:0:
475,192,17194,1,0,0:0:0:0:
109,192,17262,1,0,0:0:0:0:
36,192,17262,1,0,0:0:0:0:
182,192,17262,1,0,0:0:0:0:
256,192,17329,1,0,0:0:0:0:
329,192,17397,1,0,0:0:0:0:
402,192,17464,1,0,0:0:0:0:
109,192,17532,1,0,0:0:0:0:
182,192,17532,1,0,0:0:0:0:
475,192,17532,1,0,0:0:0:0:
36,192,17532,1,0,0:0:0:0:
256,192,17599,1,0,0:0:0:0:
182,192,17667,1,0,0:0:0:0:
402,192,17667,1,0,0:0:0:0:
109,192,17734,1,0,0:0:0:0:
329,192,17802,1,0,0:0:0:0:
36,192,17802,1,0,0:0:0:0:
256,192,17802,1,0,0:0:0:0:
475,192,17802,1,0,0:0:0:0:
182,192,17869,1,0,0:0:0:0:
402,192,17937,1,0,0:0:0:0:
109,192,18004,1,0,0:0:0:0:
256,192,18072,1,0,0:0:0:0:
329,192,18072,1,0,0:0:0:0:
475,192,18072,1,0,0:0:0:0:
36,192,18072,1,0,0:0:0:0:
182,192,18139,1,0,0:0:0:0:
402,192,18207,1,0,0:0:0:0:
109,192,18207,1,0,0:0:0:0:
329,192,18274,1,0,0:0:0:0:
36,192,18342,1,0,0:0:0:0:
256,192,18342,1,0,0:0:0:0:
475,192,18342,1,0,0:0:0:0:
182,192,18342,1,0,0:0:0:0:
402,192,18409,1,0,0:0:0:0:
109,192,18477,1,0,0:0:0:0:
329,192,18477,1,0,0:0:0:0:
182,192,18544,1,0,0:0:0:0:
256,192,18612,1,0,0:0:0:0:
36,192,18612,1,0,0:0:0:0:
402,192,18612,1,0,0:0:0:0:
475,192,18612,1,0,0:0:0:0:
109,192,18679,1,0,0:0:0:0:
182,192,18747,1,0,0:0:0:0:
329,192,18747,1,0,0:0:0:0:
402,192,18814,1,0,0:0:0:0:
36,192,18882,1,0,0:0:0:0:
109,192,18882,1,0,0:0:0:0:
256,192,18882,1,0,0:0:0:0:
475,192,18882,128,0,19422:0:0:0:0:
182,192,18949,1,0,0:0:0:0:
329,192,18949,1,0,0:0:0:0:
402,192,19017,1,0,0:0:0:0:
36,192,19017,1,0,0:0:0:0:
109,192,19050,1,0,0:0:0:0:
182,192,19084,1,0,0:0:0:0:
256,192,19118,1,0,0:0:0:0:
402,192,19152,1,0,0:0:0:0:
329,192,19152,1,0,0:0:0:0:
36,192,19152,1,0,0:0:0:0:
109,192,19219,1,0,0:0:0:0:
182,192,19219,1,0,0:0:0:0:
402,192,19287,1,0,0:0:0:0:
329,192,19287,1,0,0:0:0:0:
109,192,19354,1,0,0:0:0:0:
182,192,19354,1,0,0:0:0:0:
329,192,19422,1,0,0:0:0:0:
256,192,19422,1,0,0:0:0:0:
402,192,19422,1,0,0:0:0:0:
36,192,19422,1,0,0:0:0:0:
109,192,19489,1,0,0:0:0:0:
182,192,19557,1,0,0:0:0:0:
256,192,19624,1,0,0:0:0:0:
36,192,19692,1,0,0:0:0:0:
329,192,19692,1,0,0:0:0:0:
475,192,19692,1,0,0:0:0:0:
402,192,19692,1,0,0:0:0:0:
256,192,19759,1,0,0:0:0:0:
182,192,19827,1,0,0:0:0:0:
109,192,19894,1,0,0:0:0:0:
36,192,19962,1,0,0:0:0:0:
402,192,19962,1,0,0:0:0:0:
329,192,19962,1,0,0:0:0:0:
109,192,20029,1,0,0:0:0:0:
182,192,20097,1,0,0:0:0:0:
256,192,20164,1,0,0:0:0:0:
329,192,20232,1,0,0:0:0:0:
36,192,20232,1,0,0:0:0:0:
475,192,20232,1,0,0:0:0:0:
402,192,20232,1,0,0:0:0:0:
256,192,20299,1,0,0:0:0:0:
182,192,20367,1,0,0:0:0:0:
109,192,20434,1,0,0:0:0:0:
36,192,20502,1,0,0:0:0:0:
475,192,20502,1,0,0:0:0:0:
256,192,20502,1,0,0:0:0:0:
402,192,20569,1,0,0:0:0:0:
329,192,20637,1,0,0:0:0:0:
256,192,20704,1,0,0:0:0:0:
182,192,20772,1,0,0:0:0:0:
36,192,20772,1,0,0:0:0:0:
475,192,20772,1,0,0:0:0:0:
109,192,20772,1,0,0:0:0:0:
256,192,20839,1,0,0:0:0:0:
329,192,20907,1,0,0:0:0:0:
402,192,20974,1,0,0:0:0:0:
475,192,21042,1,0,0:0:0:0:
109,192,21042,1,0,0:0:0:0:
182,192,21042,1,0,0:0:0:0:
402,192,21109,1,0,0:0:0:0:
329,192,21177,1,0,0:0:0:0:
256,192,21244,1,0,0:0:0:0:
36,192,21312,1,0,0:0:0:0:
182,192,21312,1,0,0:0:0:0:
475,192,21312,1,0,0:0:0:0:
109,192,21312,1,0,0:0:0:0:
256,192,21379,1,0,0:0:0:0:
329,192,21447,1,0,0:0:0:0:
402,192,21514,1,0,0:0:0:0:
475,192,21582,1,0,0:0:0:0:
256,192,21582,1,0,0:0:0:0:
36,192,21582,1,0,0:0:0:0:
109,192,21649,1,0,0:0:0:0:
182,192,21717,1,0,0:0:0:0:
256,192,21784,1,0,0:0:0:0:
36,192,21852,1,0,0:0:0:0:
109,192,21852,1,0,0:0:0:0:
329,192,21852,1,0,0:0:0:0:
475,192,21852,1,0,0:0:0:0:
256,192,21919,1,0,0:0:0:0:
182,192,21987,1,0,0:0:0:0:
109,192,22054,1,0,0:0:0:0:
36,192,22122,1,0,0:0:0:0:
329,192,22122,1,0,0:0:0:0:
402,192,22122,1,0,0:0:0:0:
109,192,22189,1,0,0:0:0:0:
182,192,22257,1,0,0:0:0:0:
256,192,22324,1,0,0:0:0:0:
329,192,22392,1,0,0:0:0:0:
36,192,22392,1,0,0:0:0:0:
109,192,22392,1,0,0:0:0:0:
475,192,22392,1,0,0:0:0:0:
256,192,22459,1,0,0:0:0:0:
182,192,22527,1,0,0:0:0:0:
109,192,22594,1,0,0:0:0:0:
36,192,22662,1,0,0:0:0:0:
256,192,22662,1,0,0:0:0:0:
475,192,22662,1,0,0:0:0:0:
402,192,22729,1,0,0:0:0:0:
329,192,22797,1,0,0:0:0:0:
256,192,22864,1,0,0:0:0:0:
109,192,22932,1,0,0:0:0:0:
36,192,22932,1,0,0:0:0:0:
402,192,22932,1,0,0:0:0:0:
475,192,22932,1,0,0:0:0:0:
182,192,22999,1,0,0:0:0:0:
256,192,23067,1,0,0:0:0:0:
329,192,23067,1,0,0:0:0:0:
402,192,23134,1,0,0:0:0:0:
475,192,23202,1,0,0:0:0:0:
36,192,23202,1,0,0:0:0:0:
109,192,23202,1,0,0:0:0:0:
182,192,23202,1,0,0:0:0:0:
256,192,23269,1,0,0:0:0:0:
329,192,23337,1,0,0:0:0:0:
402,192,23337,1,0,0:0:0:0:
109,192,23404,1,0,0:0:0:0:
475,192,23404,1,0,0:0:0:0:
36,192,23404,1,0,0:0:0:0:
182,192,23404,1,0,0:0:0:0:
256,192,23472,1,0,0:0:0:0:
329,192,23539,1,0,0:0:0:0:
402,192,23539,1,0,0:0:0:0:
475,192,23607,1,0,0:0:0:0:
36,192,23607,1,0,0:0:0:0:
109,192,23607,1,0,0:0:0:0:
182,192,23607,1,0,0:0:0:0:
256,192,23674,1,0,0:0:0:0:
329,192,23742,1,0,0:0:0:0:
402,192,23742,1,0,0:0:0:0:
475,192,23742,1,0,0:0:0:0:
36,192,23742,1,0,0:0:0:0:
109,192,23742,1,0,0:0:0:0:
182,192,23809,1,0,0:0:0:0:
256,192,23877,1,0,0:0:0:0:
329,192,23944,1,0,0:0:0:0:
109,192,24012,1,0,0:0:0:0:
182,192,24079,1,0,0:0:0:0:
402,192,24079,1,0,0:0:0:0:
475,192,24079,1,0,0:0:0:0:
329,192,24147,1,0,0:0:0:0:
256,192,24214,1,0,0:0:0:0:
109,192,24282,1,0,0:0:0:0:
402,192,24282,1,0,0:0:0:0:
475,192,24282,1,0,0:0:0:0:
182,192,24349,1,0,0:0:0:0:
329,192,24417,1,0,0:0:0:0:
402,192,24484,1,0,0:0:0:0:
36,192,24552,1,0,0:0:0:0:
109,192,24552,1,0,0:0:0:0:
256,192,24552,1,0,0:0:0:0:
475,192,24552,1,0,0:0:0:0:
329,192,24619,1,0,0:0:0:0:
109,192,24687,1,0,0:0:0:0:
36,192,24687,1,0,0:0:0:0:
256,192,24687,1,0,0:0:0:0:
475,192,24687,1,0,0:0:0:0:
402,192,24754,1,0,0:0:0:0:
182,192,24822,1,0,0:0:0:0:
256,192,24889,1,0,0:0:0:0:
329,192,24957,1,0,0:0:0:0:
36,192,24957,1,0,0:0:0:0:
109,192,24957,1,0,0:0:0:0:
402,192,25024,1,0,0:0:0:0:
182,192,25024,1,0,0:0:0:0:
475,192,25024,1,0,0:0:0:0:
36,192,25092,1,0,0:0:0:0:
109,192,25092,1,0,0:0:0:0:
329,192,25092,1,0,0:0:0:0:
256,192,25159,1,0,0:0:0:0:
182,192,25227,1,0,0:0:0:0:
402,192,25227,1,0,0:0:0:0:
475,192,25227,1,0,0:0:0:0:
109,192,25294,1,0,0:0:0:0:
36,192,25362,1,0,0:0:0:0:
402,192,25362,1,0,0:0:0:0:
475,192,25362,1,0,0:0:0:0:
109,192,25429,1,0,0:0:0:0:
182,192,25497,1,0,0:0:0:0:
402,192,25497,1,0,0:0:0:0:
475,192,25497,1,0,0:0:0:0:
256,192,25564,1,0,0:0:0:0:
36,192,25564,1,0,0:0:0:0:
109,192,25632,1,0,0:0:0:0:
329,192,25632,1,0,0:0:0:0:
475,192,25632,1,0,0:0:0:0:
182,192,25699,1,0,0:0:0:0:
36,192,25767,1,0,0:0:0:0:
256,192,25767,1,0,0:0:0:0:
109,192,25834,1,0,0:0:0:0:
329,192,25834,1,0,0:0:0:0:
475,192,25902,128,0,26104:0:0:0:0:
182,192,25902,1,0,0:0:0:0:
402,192,25902,1,0,0:0:0:0:
36,192,25902,1,0,0:0:0:0:
256,192,25969,1,0,0:0:0:0:
109,192,26037,1,0,0:0:0:0:
329,192,26037,1,0,0:0:0:0:
256,192,26104,1,0,0:0:0:0:
36,192,26172,128,0,26374:0:0:0:0:
182,192,26172,1,0,0:0:0:0:
402,192,26172,1,0,0:0:0:0:
475,192,26172,1,0,0:0:0:0:
329,192,26239,1,0,0:0:0:0:
109,192,26307,1,0,0:0:0:0:
256,192,26307,1,0,0:0:0:0:
402,192,26374,1,0,0:0:0:0:
475,192,26374,1,0,0:0:0:0:
36,192,26442,1,0,0:0:0:0:
329,192,26442,1,0,0:0:0:0:
182,192,26442,128,0,26644:0:0:0:0:
256,192,26509,1,0,0:0:0:0:
109,192,26577,1,0,0:0:0:0:
475,192,26577,1,0,0:0:0:0:
402,192,26644,1,0,0:0:0:0:
36,192,26712,1,0,0:0:0:0:
329,192,26712,128,0,26914:0:0:0:0:
256,192,26712,1,0,0:0:0:0:
182,192,26712,1,0,0:0:0:0:
109,192,26779,1,0,0:0:0:0:
475,192,26847,1,0,0:0:0:0:
402,192,26847,1,0,0:0:0:0:
36,192,26914,1,0,0:0:0:0:
109,192,26914,1,0,0:0:0:0:
475,192,26982,128,0,27184:0:0:0:0:
182,192,26982,1,0,0:0:0:0:
329,192,26982,1,0,0:0:0:0:
256,192,26982,1,0,0:0:0:0:
36,192,27049,1,0,0:0:0:0:
256,192,27117,1,0,0:0:0:0:
402,192,27117,1,0,0:0:0:0:
109,192,27117,1,0,0:0:0:0:
329,192,27184,1,0,0:0:0:0:
475,192,27252,1,0,0:0:0:0:
109,192,27252,128,0,27454:0:0:0:0:
36,192,27252,1,0,0:0:0:0:
182,192,27252,1,0,0:0:0:0:
402,192,27319,1,0,0:0:0:0:
256,192,27387,1,0,0:0:0:0:
182,192,27387,1,0,0:0:0:0:
329,192,27387,1,0,0:0:0:0:
402,192,27454,1,0,0:0:0:0:
109,192,27522,1,0,0:0:0:0:
36,192,27522,1,0,0:0:0:0:
475,192,27522,1,0,0:0:0:0:
329,192,27522,128,0,27724:0:0:0:0:
182,192,27589,1,0,0:0:0:0:
256,192,27657,1,0,0:0:0:0:
182,192,27691,1,0,0:0:0:0:
109,192,27724,1,0,0:0:0:0:
36,192,27758,1,0,0:0:0:0:
475,192,27792,128,0,27994:0:0:0:0:
256,192,27792,1,0,0:0:0:0:
329,192,27792,1,0,0:0:0:0:
402,192,27792,1,0,0:0:0:0:
36,192,27859,1,0,0:0:0:0:
109,192,27859,1,0,0:0:0:0:
182,192,27859,1,0,0:0:0:0:
402,192,27927,1,0,0:0:0:0:
256,192,27927,1,0,0:0:0:0:
329,192,27927,1,0,0:0:0:0:
182,192,27994,1,0,0:0:0:0:
109,192,27994,1,0,0:0:0:0:
36,192,27994,1,0,0:0:0:0:
256,192,28062,1,0,0:0:0:0:
329,192,28062,1,0,0:0:0:0:
402,192,28062,1,0,0:0:0:0:
475,192,28062,1,0,0:0:0:0:
182,192,28129,1,0,0:0:0:0:
36,192,28197,1,0,0:0:0:0:
329,192,28264,1,0,0:0:0:0:
182,192,28332,1,0,0:0:0:0:
36,192,28399,1,0,0:0:0:0:
329,192,28467,1,0,0:0:0:0:
182,192,28534,1,0,0:0:0:0:
36,192,28602,1,0,0:0:0:0:
475,192,28602,1,0,0:0:0:0:
402,192,28669,1,0,0:0:0:0:
256,192,28737,1,0,0:0:0:0:
109,192,28804,1,0,0:0:0:0:
402,192,28872,1,0,0:0:0:0:
182,192,28939,1,0,0:0:0:0:
402,192,29007,1,0,0:0:0:0:
182,192,29074,1,0,0:0:0:0:
475,192,29142,1,0,0:0:0:0:
329,192,29142,1,0,0:0:0:0:
256,192,29209,1,0,0:0:0:0:
109,192,29277,1,0,0:0:0:0:
402,192,29344,1,0,0:0:0:0:
256,192,29412,1,0,0:0:0:0:
109,192,29479,1,0,0:0:0:0:
402,192,29547,1,0,0:0:0:0:
256,192,29614,1,0,0:0:0:0:
475,192,29682,1,0,0:0:0:0:
109,192,29682,1,0,0:0:0:0:
329,192,29749,1,0,0:0:0:0:
182,192,29817,1,0,0:0:0:0:
36,192,29884,1,0,0:0:0:0:
329,192,29952,1,0,0:0:0:0:
109,192,30019,1,0,0:0:0:0:
329,192,30087,1,0,0:0:0:0:
109,192,30154,1,0,0:0:0:0:
475,192,30222,1,0,0:0:0:0:
402,192,30222,1,0,0:0:0:0:
256,192,30289,1,0,0:0:0:0:
36,192,30357,1,0,0:0:0:0:
402,192,30424,1,0,0:0:0:0:
256,192,30492,1,0,0:0:0:0:
36,192,30559,1,0,0:0:0:0:
402,192,30627,1,0,0:0:0:0:
256,192,30694,1,0,0:0:0:0:
36,192,30762,1,0,0:0:0:0:
475,192,30762,1,0,0:0:0:0:
329,192,30829,1,0,0:0:0:0:
182,192,30897,1,0,0:0:0:0:
36,192,30964,1,0,0:0:0:0:
329,192,31032,1,0,0:0:0:0:
109,192,31099,1,0,0:0:0:0:
329,192,31167,1,0,0:0:0:0:
109,192,31234,1,0,0:0:0:0:
475,192,31302,1,0,0:0:0:0:
329,192,31369,1,0,0:0:0:0:
182,192,31437,1,0,0:0:0:0:
475,192,31504,1,0,0:0:0:0:
329,192,31572,1,0,0:0:0:0:
182,192,31639,1,0,0:0:0:0:
475,192,31707,1,0,0:0:0:0:
329,192,31774,1,0,0:0:0:0:
182,192,31842,1,0,0:0:0:0:
36,192,31909,1,0,0:0:0:0:
256,192,31977,1,0,0:0:0:0:
109,192,32044,1,0,0:0:0:0:
329,192,32112,1,0,0:0:0:0:
182,192,32179,1,0,0:0:0:0:
402,192,32247,1,0,0:0:0:0:
256,192,32314,1,0,0:0:0:0:
36,192,32382,1,0,0:0:0:0:
109,192,32382,1,0,0:0:0:0:
475,192,32382,1,0,0:0:0:0:
329,192,32449,1,0,0:0:0:0:
182,192,32517,1,0,0:0:0:0:
475,192,32584,1,0,0:0:0:0:
329,192,32652,1,0,0:0:0:0:
182,192,32719,1,0,0:0:0:0:
475,192,32787,1,0,0:0:0:0:
329,192,32854,1,0,0:0:0:0:
36,192,32922,1,0,0:0:0:0:
182,192,32922,1,0,0:0:0:0:
402,192,32989,1,0,0:0:0:0:
256,192,33057,1,0,0:0:0:0:
109,192,33124,1,0,0:0:0:0:
475,192,33192,1,0,0:0:0:0:
329,192,33259,1,0,0:0:0:0:
475,192,33327,1,0,0:0:0:0:
256,192,33394,1,0,0:0:0:0:
36,192,33462,1,0,0:0:0:0:
329,192,33462,1,0,0:0:0:0:
182,192,33529,1,0,0:0:0:0:
36,192,33597,1,0,0:0:0:0:
402,192,33664,1,0,0:0:0:0:
109,192,33732,1,0,0:0:0:0:
182,192,33799,1,0,0:0:0:0:
109,192,33867,1,0,0:0:0:0:
402,192,33934,1,0,0:0:0:0:
36,192,34002,1,0,0:0:0:0:
475,192,34002,1,0,0:0:0:0:
182,192,34069,1,0,0:0:0:0:
36,192,34137,1,0,0:0:0:0:
329,192,34204,1,0,0:0:0:0:
109,192,34272,1,0,0:0:0:0:
182,192,34339,1,0,0:0:0:0:
109,192,34407,1,0,0:0:0:0:
256,192,34474,1,0,0:0:0:0:
36,192,34542,1,0,0:0:0:0:
475,192,34542,1,0,0:0:0:0:
329,192,34609,1,0,0:0:0:0:
475,192,34677,1,0,0:0:0:0:
329,192,34744,1,0,0:0:0:0:
182,192,34812,1,0,0:0:0:0:
329,192,34879,1,0,0:0:0:0:
182,192,34947,1,0,0:0:0:0:
329,192,35014,1,0,0:0:0:0:
182,192,35082,1,0,0:0:0:0:
36,192,35149,1,0,0:0:0:0:
182,192,35217,1,0,0:0:0:0:
36,192,35284,1,0,0:0:0:0:
402,192,35352,1,0,0:0:0:0:
256,192,35419,1,0,0:0:0:0:
402,192,35487,1,0,0:0:0:0:
256,192,35554,1,0,0:0:0:0:
109,192,35622,1,0,0:0:0:0:
36,192,35622,1,0,0:0:0:0:
475,192,35622,1,0,0:0:0:0:
329,192,35689,1,0,0:0:0:0:
182,192,35757,1,0,0:0:0:0:
475,192,35824,1,0,0:0:0:0:
329,192,35892,1,0,0:0:0:0:
182,192,35959,1,0,0:0:0:0:
475,192,36027,1,0,0:0:0:0:
329,192,36094,1,0,0:0:0:0:
182,192,36162,1,0,0:0:0:0:
36,192,36162,1,0,0:0:0:0:
402,192,36229,1,0,0:0:0:0:
256,192,36297,1,0,0:0:0:0:
109,192,36364,1,0,0:0:0:0:
402,192,36432,1,0,0:0:0:0:
256,192,36499,1,0,0:0:0:0:
109,192,36567,1,0,0:0:0:0:
36,192,36567,1,0,0:0:0:0:
182,192,36567,1,0,0:0:0:0:
329,192,36634,1,0,0:0:0:0:
402,192,36634,1,0,0:0:0:0:
475,192,36634,1,0,0:0:0:0:
182,192,36702,1,0,0:0:0:0:
109,192,36702,1,0,0:0:0:0:
36,192,36702,1,0,0:0:0:0:
329,192,36769,1,0,0:0:0:0:
182,192,36837,1,0,0:0:0:0:
329,192,36904,1,0,0:0:0:0:
109,192,36972,1,0,0:0:0:0:
402,192,37039,1,0,0:0:0:0:
109,192,37107,1,0,0:0:0:0:
402,192,37174,1,0,0:0:0:0:
36,192,37242,1,0,0:0:0:0:
475,192,37309,1,0,0:0:0:0:
36,192,37377,1,0,0:0:0:0:
475,192,37444,1,0,0:0:0:0:
182,192,37512,1,0,0:0:0:0:
329,192,37579,1,0,0:0:0:0:
182,192,37647,1,0,0:0:0:0:
329,192,37714,1,0,0:0:0:0:
36,192,37782,1,0,0:0:0:0:
402,192,37782,1,0,0:0:0:0:
109,192,37872,1,0,0:0:0:0:
475,192,37872,1,0,0:0:0:0:
182,192,37962,1,0,0:0:0:0:
402,192,37962,1,0,0:0:0:0:
36,192,38052,1,0,0:0:0:0:
329,192,38052,1,0,0:0:0:0:
256,192,38119,1,0,0:0:0:0:
109,192,38187,1,0,0:0:0:0:
256,192,38254,1,0,0:0:0:0:
329,192,38322,1,0,0:0:0:0:
182,192,38389,1,0,0:0:0:0:
36,192,38457,1,0,0:0:0:0:
329,192,38524,1,0,0:0:0:0:
182,192,38592,1,0,0:0:0:0:
475,192,38592,1,0,0:0:0:0:
36,192,38659,1,0,0:0:0:0:
256,192,38727,1,0,0:0:0:0:
109,192,38794,1,0,0:0:0:0:
329,192,38862,1,0,0:0:0:0:
402,192,38862,1,0,0:0:0:0:
475,192,38862,1,0,0:0:0:0:
36,192,38862,1,0,0:0:0:0:
182,192,38929,1,0,0:0:0:0:
329,192,38997,1,0,0:0:0:0:
182,192,39064,1,0,0:0:0:0:
109,192,39132,1,0,0:0:0:0:
256,192,39199,1,0,0:0:0:0:
109,192,39267,1,0,0:0:0:0:
256,192,39334,1,0,0:0:0:0:
182,192,39402,1,0,0:0:0:0:
475,192,39402,1,0,0:0:0:0:
36,192,39469,1,0,0:0:0:0:
182,192,39537,1,0,0:0:0:0:
36,192,39604,1,0,0:0:0:0:
256,192,39672,1,0,0:0:0:0:
402,192,39739,1,0,0:0:0:0:
256,192,39807,1,0,0:0:0:0:
402,192,39874,1,0,0:0:0:0:
109,192,39942,1,0,0:0:0:0:
36,192,39942,1,0,0:0:0:0:
329,192,40009,1,0,0:0:0:0:
109,192,40077,1,0,0:0:0:0:
329,192,40144,1,0,0:0:0:0:
182,192,40212,1,0,0:0:0:0:
402,192,40279,1,0,0:0:0:0:
182,192,40347,1,0,0:0:0:0:
402,192,40414,1,0,0:0:0:0:
36,192,40482,1,0,0:0:0:0:
256,192,40482,1,0,0:0:0:0:
475,192,40549,1,0,0:0:0:0:
256,192,40617,1,0,0:0:0:0:
475,192,40684,1,0,0:0:0:0:
109,192,40752,1,0,0:0:0:0:
329,192,40819,1,0,0:0:0:0:
109,192,40887,1,0,0:0:0:0:
329,192,40954,1,0,0:0:0:0:
36,192,41022,1,0,0:0:0:0:
182,192,41022,1,0,0:0:0:0:
402,192,41022,1,0,0:0:0:0:
475,192,41022,1,0,0:0:0:0:
256,192,41089,1,0,0:0:0:0:
109,192,41157,1,0,0:0:0:0:
402,192,41224,1,0,0:0:0:0:
256,192,41292,1,0,0:0:0:0:
109,192,41359,1,0,0:0:0:0:
402,192,41427,1,0,0:0:0:0:
256,192,41494,1,0,0:0:0:0:
109,192,41562,1,0,0:0:0:0:
475,192,41562,1,0,0:0:0:0:
329,192,41629,1,0,0:0:0:0:
182,192,41697,1,0,0:0:0:0:
36,192,41764,1,0,0:0:0:0:
329,192,41832,1,0,0:0:0:0:
182,192,41899,1,0,0:0:0:0:
36,192,41967,1,0,0:0:0:0:
402,192,41967,1,0,0:0:0:0:
475,192,41967,1,0,0:0:0:0:
109,192,42034,1,0,0:0:0:0:
329,192,42034,1,0,0:0:0:0:
402,192,42102,1,0,0:0:0:0:
475,192,42102,1,0,0:0:0:0:
36,192,42102,1,0,0:0:0:0:
256,192,42102,1,0,0:0:0:0:
182,192,42169,1,0,0:0:0:0:
36,192,42237,1,0,0:0:0:0:
182,192,42304,1,0,0:0:0:0:
475,192,42372,1,0,0:0:0:0:
329,192,42439,1,0,0:0:0:0:
475,192,42507,1,0,0:0:0:0:
329,192,42574,1,0,0:0:0:0:
36,192,42642,1,0,0:0:0:0:
475,192,42642,1,0,0:0:0:0:
109,192,42642,1,0,0:0:0:0:
182,192,42709,1,0,0:0:0:0:
256,192,42777,1,0,0:0:0:0:
329,192,42844,1,0,0:0:0:0:
182,192,42912,1,0,0:0:0:0:
256,192,42979,1,0,0:0:0:0:
329,192,43047,1,0,0:0:0:0:
402,192,43114,1,0,0:0:0:0:
36,192,43182,1,0,0:0:0:0:
109,192,43182,1,0,0:0:0:0:
475,192,43182,1,0,0:0:0:0:
329,192,43249,1,0,0:0:0:0:
182,192,43317,1,0,0:0:0:0:
475,192,43384,1,0,0:0:0:0:
329,192,43452,1,0,0:0:0:0:
182,192,43519,1,0,0:0:0:0:
475,192,43587,1,0,0:0:0:0:
329,192,43654,1,0,0:0:0:0:
182,192,43722,1,0,0:0:0:0:
109,192,43722,1,0,0:0:0:0:
36,192,43722,1,0,0:0:0:0:
402,192,43789,1,0,0:0:0:0:
256,192,43857,1,0,0:0:0:0:
109,192,43924,1,0,0:0:0:0:
329,192,43992,1,0,0:0:0:0:
402,192,43992,1,0,0:0:0:0:
475,192,43992,1,0,0:0:0:0:
36,192,44059,1,0,0:0:0:0:
182,192,44127,1,0,0:0:0:0:
36,192,44194,1,0,0:0:0:0:
475,192,44262,1,0,0:0:0:0:
182,192,44262,1,0,0:0:0:0:
402,192,44262,1,0,0:0:0:0:
256,192,44329,1,0,0:0:0:0:
402,192,44397,1,0,0:0:0:0:
256,192,44464,1,0,0:0:0:0:
329,192,44532,1,0,0:0:0:0:
36,192,44532,1,0,0:0:0:0:
475,192,44532,1,0,0:0:0:0:
182,192,44599,1,0,0:0:0:0:
329,192,44667,1,0,0:0:0:0:
182,192,44734,1,0,0:0:0:0:
256,192,44802,1,0,0:0:0:0:
402,192,44802,1,0,0:0:0:0:
475,192,44802,1,0,0:0:0:0:
109,192,44869,1,0,0:0:0:0:
256,192,44937,1,0,0:0:0:0:
109,192,45004,1,0,0:0:0:0:
182,192,45072,1,0,0:0:0:0:
329,192,45072,1,0,0:0:0:0:
402,192,45072,1,0,0:0:0:0:
36,192,45139,1,0,0:0:0:0:
402,192,45207,1,0,0:0:0:0:
329,192,45207,1,0,0:0:0:0:
182,192,45274,1,0,0:0:0:0:
109,192,45274,1,0,0:0:0:0:
402,192,45342,1,0,0:0:0:0:
475,192,45342,1,0,0:0:0:0:
256,192,45342,1,0,0:0:0:0:
36,192,45342,128,0,45544:0:0:0:0:
109,192,45477,1,0,0:0:0:0:
182,192,45477,1,0,0:0:0:0:
329,192,45477,1,0,0:0:0:0:
36,192,45612,1,0,0:0:0:0:
402,192,45612,1,0,0:0:0:0:
475,192,45612,1,0,0:0:0:0:
256,192,45612,128,0,45814:0:0:0:0:
109,192,45747,1,0,0:0:0:0:
182,192,45747,1,0,0:0:0:0:
329,192,45747,1,0,0:0:0:0:
402,192,45814,1,0,0:0:0:0:
475,192,45814,1,0,0:0:0:0:
36,192,45882,1,0,0:0:0:0:
256,192,45882,1,0,0:0:0:0:
109,192,45882,128,0,46084:0:0:0:0:
182,192,46017,1,0,0:0:0:0:
475,192,46017,1,0,0:0:0:0:
402,192,46017,1,0,0:0:0:0:
329,192,46152,128,0,46354:0:0:0:0:
36,192,46152,1,0,0:0:0:0:
109,192,46152,1,0,0:0:0:0:
256,192,46152,1,0,0:0:0:0:
182,192,46287,1,0,0:0:0:0:
402,192,46287,1,0,0:0:0:0:
475,192,46287,1,0,0:0:0:0:
109,192,46354,1,0,0:0:0:0:
36,192,46354,1,0,0:0:0:0:
329,192,46422,1,0,0:0:0:0:
402,192,46422,1,0,0:0:0:0:
475,192,46422,1,0,0:0:0:0:
182,192,46422,128,0,46624:0:0:0:0:
36,192,46557,1,0,0:0:0:0:
109,192,46557,1,0,0:0:0:0:
256,192,46557,1,0,0:0:0:0:
402,192,46692,128,0,46894:0:0:0:0:
182,192,46692,1,0,0:0:0:0:
329,192,46692,1,0,0:0:0:0:
475,192,46692,1,0,0:0:0:0:
109,192,46827,1,0,0:0:0:0:
256,192,46827,1,0,0:0:0:0:
36,192,46827,1,0,0:0:0:0:
182,192,46894,1,0,0:0:0:0:
329,192,46894,1,0,0:0:0:0:
402,192,46962,1,0,0:0:0:0:
475,192,46962,1,0,0:0:0:0:
36,192,46962,128,0,47164:0:0:0:0:
256,192,46962,1,0,0:0:0:0:
109,192,47029,1,0,0:0:0:0:
182,192,47029,1,0,0:0:0:0:
402,192,47097,1,0,0:0:0:0:
329,192,47097,1,0,0:0:0:0:
256,192,47131,1,0,0:0:0:0:
182,192,47164,1,0,0:0:0:0:
109,192,47198,1,0,0:0:0:0:
475,192,47232,128,0,47434:0:0:0:0:
329,192,47232,1,0,0:0:0:0:
402,192,47232,1,0,0:0:0:0:
36,192,47232,1,0,0:0:0:0:
109,192,47299,1,0,0:0:0:0:
182,192,47299,1,0,0:0:0:0:
256,192,47299,1,0,0:0:0:0:
329,192,47367,1,0,0:0:0:0:
402,192,47367,1,0,0:0:0:0:
36,192,47367,1,0,0:0:0:0:
182,192,47434,1,0,0:0:0:0:
109,192,47434,1,0,0:0:0:0:
256,192,47434,1,0,0:0:0:0:
329,192,47502,1,0,0:0:0:0:
402,192,47502,1,0,0:0:0:0:
475,192,47502,1,0,0:0:0:0:
36,192,47502,128,0,48042:0:0:0:0:
182,192,47637,1,0,0:0:0:0:
256,192,47637,1,0,0:0:0:0:
109,192,47772,1,0,0:0:0:0:
329,192,47772,1,0,0:0:0:0:
475,192,47772,1,0,0:0:0:0:
256,192,47907,1,0,0:0:0:0:
402,192,47907,1,0,0:0:0:0:
475,192,48042,128,0,48177:0:0:0:0:
109,192,48042,1,0,0:0:0:0:
182,192,48042,1,0,0:0:0:0:
329,192,48042,1,0,0:0:0:0:
256,192,48177,1,0,0:0:0:0:
402,192,48177,1,0,0:0:0:0:
36,192,48312,1,0,0:0:0:0:
109,192,48312,1,0,0:0:0:0:
182,192,48312,1,0,0:0:0:0:
329,192,48312,128,0,48447:0:0:0:0:
402,192,48447,1,0,0:0:0:0:
475,192,48447,1,0,0:0:0:0:
36,192,48582,1,0,0:0:0:0:
182,192,48582,128,0,48717:0:0:0:0:
329,192,48582,1,0,0:0:0:0:
256,192,48582,1,0,0:0:0:0:
109,192,48717,1,0,0:0:0:0:
402,192,48717,1,0,0:0:0:0:
182,192,48852,1,0,0:0:0:0:
329,192,48852,1,0,0:0:0:0:
475,192,48852,1,0,0:0:0:0:
36,192,48852,128,0,48987:0:0:0:0:
256,192,48987,1,0,0:0:0:0:
402,192,48987,1,0,0:0:0:0:
109,192,49122,1,0,0:0:0:0:
182,192,49122,1,0,0:0:0:0:
475,192,49122,1,0,0:0:0:0:
329,192,49122,128,0,49257:0:0:0:0:
36,192,49257,1,0,0:0:0:0:
256,192,49257,1,0,0:0:0:0:
182,192,49392,1,0,0:0:0:0:
402,192,49392,1,0,0:0:0:0:
475,192,49392,1,0,0:0:0:0:
109,192,49392,128,0,49527:0:0:0:0:
329,192,49527,1,0,0:0:0:0:
256,192,49527,1,0,0:0:0:0:
182,192,49662,1,0,0:0:0:0:
36,192,49662,1,0,0:0:0:0:
475,192,49662,1,0,0:0:0:0:
402,192,49662,128,0,49797:0:0:0:0:
256,192,49797,1,0,0:0:0:0:
109,192,49797,1,0,0:0:0:0:
182,192,49932,1,0,0:0:0:0:
329,192,49932,1,0,0:0:0:0:
402,192,49932,1,0,0:0:0:0:
475,192,49932,128,0,50067:0:0:0:0:
109,192,50067,1,0,0:0:0:0:
256,192,50067,1,0,0:0:0:0:
182,192,50202,1,0,0:0:0:0:
402,192,50202,1,0,0:0:0:0:
475,192,50202,1,0,0:0:0:0:
36,192,50202,128,0,50337:0:0:0:0:
329,192,50337,1,0,0:0:0:0:
109,192,50337,1,0,0:0:0:0:
256,192,50472,1,0,0:0:0:0:
182,192,50472,1,0,0:0:0:0:
475,192,50472,1,0,0:0:0:0:
36,192,50472,128,0,50607:0:0:0:0:
402,192,50607,1,0,0:0:0:0:
329,192,50607,1,0,0:0:0:0:
256,192,50742,1,0,0:0:0:0:
109,192,50742,1,0,0:0:0:0:
36,192,50742,1,0,0:0:0:0:
475,192,50742,128,0,50877:0:0:0:0:
182,192,50877,1,0,0:0:0:0:
329,192,50877,1,0,0:0:0:0:
256,192,51012,1,0,0:0:0:0:
475,192,51012,1,0,0:0:0:0:
109,192,51012,1,0,0:0:0:0:
402,192,51012,128,0,51147:0:0:0:0:
182,192,51147,1,0,0:0:0:0:
329,192,51147,1,0,0:0:0:0:
36,192,51282,1,0,0:0:0:0:
109,192,51282,1,0,0:0:0:0:
475,192,51282,1,0,0:0:0:0:
256,192,51282,128,0,51417:0:0:0:0:
182,192,51417,1,0,0:0:0:0:
402,192,51417,1,0,0:0:0:0:
329,192,51552,1,0,0:0:0:0:
109,192,51552,1,0,0:0:0:0:
475,192,51552,1,0,0:0:0:0:
36,192,51552,128,0,51687:0:0:0:0:
329,192,51687,1,0,0:0:0:0:
475,192,51687,1,0,0:0:0:0:
182,192,51687,1,0,0:0:0:0:
36,192,51822,1,0,0:0:0:0:
329,192,51822,1,0,0:0:0:0:
475,192,51822,1,0,0:0:0:0:
109,192,51822,128,0,51957:0:0:0:0:
182,192,51957,1,0,0:0:0:0:
402,192,51957,1,0,0:0:0:0:
36,192,52092,1,0,0:0:0:0:
329,192,52092,1,0,0:0:0:0:
475,192,52092,1,0,0:0:0:0:
256,192,52092,128,0,52227:0:0:0:0:
109,192,52227,1,0,0:0:0:0:
182,192,52227,1,0,0:0:0:0:
256,192,52362,1,0,0:0:0:0:
475,192,52362,1,0,0:0:0:0:
36,192,52362,1,0,0:0:0:0:
402,192,52362,128,0,52497:0:0:0:0:
182,192,52497,1,0,0:0:0:0:
329,192,52497,1,0,0:0:0:0:
36,192,52632,1,0,0:0:0:0:
256,192,52632,1,0,0:0:0:0:
475,192,52632,1,0,0:0:0:0:
109,192,52632,128,0,52767:0:0:0:0:
402,192,52767,1,0,0:0:0:0:
182,192,52767,1,0,0:0:0:0:
329,192,52902,1,0,0:0:0:0:
109,192,52902,1,0,0:0:0:0:
475,192,52902,1,0,0:0:0:0:
36,192,52902,128,0,53037:0:0:0:0:
256,192,53037,1,0,0:0:0:0:
402,192,53037,1,0,0:0:0:0:
182,192,53172,1,0,0:0:0:0:
36,192,53172,1,0,0:0:0:0:
475,192,53172,1,0,0:0:0:0:
329,192,53172,128,0,53307:0:0:0:0:
109,192,53307,1,0,0:0:0:0:
256,192,53307,1,0,0:0:0:0:
36,192,53442,1,0,0:0:0:0:
402,192,53442,1,0,0:0:0:0:
475,192,53442,1,0,0:0:0:0:
182,192,53442,128,0,53577:0:0:0:0:
329,192,53577,1,0,0:0:0:0:
109,192,53577,1,0,0:0:0:0:
182,192,53712,1,0,0:0:0:0:
402,192,53712,1,0,0:0:0:0:
475,192,53712,1,0,0:0:0:0:
36,192,53712,128,0,53847:0:0:0:0:
256,192,53847,1,0,0:0:0:0:
109,192,53847,1,0,0:0:0:0:
182,192,53982,1,0,0:0:0:0:
329,192,53982,1,0,0:0:0:0:
475,192,53982,1,0,0:0:0:0:
402,192,53982,128,0,54117:0:0:0:0:
109,192,54117,1,0,0:0:0:0:
256,192,54117,1,0,0:0:0:0:
182,192,54252,1,0,0:0:0:0:
329,192,54252,1,0,0:0:0:0:
475,192,54252,1,0,0:0:0:0:
36,192,54252,128,0,54387:0:0:0:0:
256,192,54387,1,0,0:0:0:0:
402,192,54387,1,0,0:0:0:0:
36,192,54522,1,0,0:0:0:0:
329,192,54522,1,0,0:0:0:0:
475,192,54522,1,0,0:0:0:0:
109,192,54522,128,0,54657:0:0:0:0:
182,192,54657,1,0,0:0:0:0:
402,192,54657,1,0,0:0:0:0:
36,192,54792,1,0,0:0:0:0:
475,192,54792,1,0,0:0:0:0:
109,192,54792,1,0,0:0:0:0:
256,192,54792,128,0,54927:0:0:0:0:
182,192,54927,1,0,0:0:0:0:
402,192,54927,1,0,0:0:0:0:
256,192,55062,1,0,0:0:0:0:
36,192,55062,1,0,0:0:0:0:
329,192,55062,1,0,0:0:0:0:
475,192,55062,128,0,55197:0:0:0:0:
109,192,55197,1,0,0:0:0:0:
402,192,55197,1,0,0:0:0:0:
36,192,55332,1,0,0:0:0:0:
182,192,55332,1,0,0:0:0:0:
256,192,55332,1,0,0:0:0:0:
475,192,55332,1,0,0:0:0:0:
329,192,55332,128,0,55467:0:0:0:0:
109,192,55400,1,0,0:0:0:0:
402,192,55467,1,0,0:0:0:0:
182,192,55467,1,0,0:0:0:0:
109,192,55535,1,0,0:0:0:0:
329,192,55602,1,0,0:0:0:0:
402,192,55602,1,0,0:0:0:0:
475,192,55602,1,0,0:0:0:0:
36,192,55602,128,0,55737:0:0:0:0:
256,192,55602,1,0,0:0:0:0:
182,192,55670,1,0,0:0:0:0:
109,192,55670,1,0,0:0:0:0:
402,192,55737,1,0,0:0:0:0:
475,192,55737,1,0,0:0:0:0:
329,192,55771,1,0,0:0:0:0:
256,192,55805,1,0,0:0:0:0:
182,192,55838,1,0,0:0:0:0:
36,192,55872,1,0,0:0:0:0:
475,192,55872,1,0,0:0:0:0:
109,192,55872,128,0,56007:0:0:0:0:
402,192,55872,1,0,0:0:0:0:
329,192,55940,1,0,0:0:0:0:
182,192,56007,1,0,0:0:0:0:
256,192,56007,1,0,0:0:0:0:
329,192,56075,1,0,0:0:0:0:
36,192,56142,1,0,0:0:0:0:
109,192,56142,1,0,0:0:0:0:
402,192,56142,1,0,0:0:0:0:
475,192,56142,1,0,0:0:0:0:
256,192,56142,1,0,0:0:0:0:
182,192,56210,1,0,0:0:0:0:
329,192,56277,1,0,0:0:0:0:
475,192,56277,1,0,0:0:0:0:
256,192,56345,1,0,0:0:0:0:
36,192,56412,1,0,0:0:0:0:
109,192,56412,1,0,0:0:0:0:
402,192,56412,1,0,0:0:0:0:
182,192,56480,1,0,0:0:0:0:
329,192,56547,1,0,0:0:0:0:
475,192,56547,1,0,0:0:0:0:
109,192,56615,1,0,0:0:0:0:
256,192,56682,1,0,0:0:0:0:
36,192,56682,1,0,0:0:0:0:
402,192,56682,1,0,0:0:0:0:
182,192,56750,1,0,0:0:0:0:
329,192,56817,1,0,0:0:0:0:
109,192,56817,1,0,0:0:0:0:
475,192,56885,1,0,0:0:0:0:
182,192,56952,1,0,0:0:0:0:
36,192,56952,1,0,0:0:0:0:
402,192,56952,1,0,0:0:0:0:
256,192,57020,1,0,0:0:0:0:
109,192,57087,1,0,0:0:0:0:
329,192,57087,1,0,0:0:0:0:
475,192,57155,1,0,0:0:0:0:
182,192,57222,1,0,0:0:0:0:
36,192,57222,1,0,0:0:0:0:
402,192,57222,1,0,0:0:0:0:
256,192,57290,1,0,0:0:0:0:
109,192,57357,1,0,0:0:0:0:
475,192,57357,1,0,0:0:0:0:
329,192,57425,1,0,0:0:0:0:
182,192,57492,1,0,0:0:0:0:
36,192,57492,1,0,0:0:0:0:
402,192,57492,1,0,0:0:0:0:
256,192,57560,1,0,0:0:0:0:
109,192,57627,1,0,0:0:0:0:
475,192,57627,1,0,0:0:0:0:
329,192,57695,1,0,0:0:0:0:
182,192,57762,1,0,0:0:0:0:
36,192,57762,1,0,0:0:0:0:
402,192,57762,1,0,0:0:0:0:
256,192,57830,1,0,0:0:0:0:
109,192,57897,1,0,0:0:0:0:
475,192,57897,1,0,0:0:0:0:
329,192,57965,1,0,0:0:0:0:
182,192,58032,1,0,0:0:0:0:
36,192,58032,1,0,0:0:0:0:
402,192,58032,1,0,0:0:0:0:
256,192,58100,1,0,0:0:0:0:
329,192,58167,1,0,0:0:0:0:
109,192,58167,1,0,0:0:0:0:
475,192,58167,1,0,0:0:0:0:
182,192,58235,1,0,0:0:0:0:
256,192,58302,1,0,0:0:0:0:
402,192,58302,1,0,0:0:0:0:
475,192,58302,1,0,0:0:0:0:
36,192,58370,1,0,0:0:0:0:
109,192,58437,1,0,0:0:0:0:
329,192,58437,1,0,0:0:0:0:
256,192,58505,1,0,0:0:0:0:
182,192,58572,1,0,0:0:0:0:
36,192,58572,1,0,0:0:0:0:
475,192,58572,1,0,0:0:0:0:
402,192,58640,1,0,0:0:0:0:
109,192,58707,1,0,0:0:0:0:
329,192,58707,1,0,0:0:0:0:
182,192,58775,1,0,0:0:0:0:
256,192,58842,1,0,0:0:0:0:
402,192,58842,1,0,0:0:0:0:
475,192,58842,1,0,0:0:0:0:
36,192,58910,1,0,0:0:0:0:
109,192,58977,1,0,0:0:0:0:
329,192,58977,1,0,0:0:0:0:
256,192,59045,1,0,0:0:0:0:
182,192,59112,1,0,0:0:0:0:
36,192,59112,1,0,0:0:0:0:
475,192,59112,1,0,0:0:0:0:
402,192,59180,1,0,0:0:0:0:
109,192,59247,1,0,0:0:0:0:
329,192,59247,1,0,0:0:0:0:
182,192,59315,1,0,0:0:0:0:
256,192,59382,1,0,0:0:0:0:
36,192,59382,1,0,0:0:0:0:
475,192,59382,1,0,0:0:0:0:
402,192,59450,1,0,0:0:0:0:
109,192,59517,1,0,0:0:0:0:
182,192,59517,1,0,0:0:0:0:
329,192,59585,1,0,0:0:0:0:
36,192,59652,1,0,0:0:0:0:
256,192,59652,1,0,0:0:0:0:
475,192,59652,1,0,0:0:0:0:
109,192,59720,1,0,0:0:0:0:
329,192,59787,1,0,0:0:0:0:
402,192,59787,1,0,0:0:0:0:
182,192,59855,1,0,0:0:0:0:
36,192,59922,1,0,0:0:0:0:
256,192,59922,1,0,0:0:0:0:
475,192,59922,1,0,0:0:0:0:
402,192,59990,1,0,0:0:0:0:
109,192,60057,1,0,0:0:0:0:
182,192,60057,1,0,0:0:0:0:
329,192,60125,1,0,0:0:0:0:
36,192,60192,1,0,0:0:0:0:
109,192,60192,1,0,0:0:0:0:
475,192,60192,1,0,0:0:0:0:
182,192,60260,1,0,0:0:0:0:
402,192,60327,1,0,0:0:0:0:
329,192,60327,1,0,0:0:0:0:
256,192,60327,1,0,0:0:0:0:
36,192,60395,1,0,0:0:0:0:
256,192,60462,1,0,0:0:0:0:
475,192,60462,1,0,0:0:0:0:
109,192,60462,1,0,0:0:0:0:
402,192,60530,1,0,0:0:0:0:
329,192,60597,1,0,0:0:0:0:
182,192,60597,1,0,0:0:0:0:
36,192,60665,1,0,0:0:0:0:
256,192,60732,1,0,0:0:0:0:
402,192,60732,1,0,0:0:0:0:
475,192,60732,1,0,0:0:0:0:
182,192,60800,1,0,0:0:0:0:
36,192,60867,1,0,0:0:0:0:
329,192,60867,1,0,0:0:0:0:
256,192,60935,1,0,0:0:0:0:
109,192,61002,1,0,0:0:0:0:
402,192,61002,1,0,0:0:0:0:
475,192,61002,1,0,0:0:0:0:
36,192,61070,1,0,0:0:0:0:
182,192,61137,1,0,0:0:0:0:
329,192,61137,1,0,0:0:0:0:
109,192,61205,1,0,0:0:0:0:
256,192,61272,1,0,0:0:0:0:
402,192,61272,1,0,0:0:0:0:
475,192,61272,1,0,0:0:0:0:
36,192,61340,1,0,0:0:0:0:
182,192,61407,1,0,0:0:0:0:
329,192,61407,1,0,0:0:0:0:
475,192,61475,1,0,0:0:0:0:
36,192,61542,1,0,0:0:0:0:
109,192,61542,1,0,0:0:0:0:
256,192,61542,1,0,0:0:0:0:
402,192,61610,1,0,0:0:0:0:
182,192,61677,1,0,0:0:0:0:
329,192,61677,1,0,0:0:0:0:
36,192,61745,1,0,0:0:0:0:
256,192,61812,1,0,0:0:0:0:
402,192,61812,1,0,0:0:0:0:
475,192,61812,1,0,0:0:0:0:
109,192,61880,1,0,0:0:0:0:
182,192,61947,1,0,0:0:0:0:
329,192,61947,1,0,0:0:0:0:
475,192,62015,1,0,0:0:0:0:
36,192,62082,1,0,0:0:0:0:
109,192,62082,1,0,0:0:0:0:
256,192,62082,1,0,0:0:0:0:
402,192,62150,1,0,0:0:0:0:
329,192,62217,1,0,0:0:0:0:
182,192,62217,1,0,0:0:0:0:
36,192,62285,1,0,0:0:0:0:
256,192,62352,1,0,0:0:0:0:
402,192,62352,1,0,0:0:0:0:
475,192,62352,1,0,0:0:0:0:
109,192,62420,1,0,0:0:0:0:
182,192,62487,1,0,0:0:0:0:
329,192,62487,1,0,0:0:0:0:
402,192,62487,1,0,0:0:0:0:
475,192,62555,1,0,0:0:0:0:
109,192,62622,1,0,0:0:0:0:
329,192,62622,1,0,0:0:0:0:
256,192,62622,1,0,0:0:0:0:
36,192,62622,128,0,62757:0:0:0:0:
182,192,62757,1,0,0:0:0:0:
402,192,62757,1,0,0:0:0:0:
329,192,62757,1,0,0:0:0:0:
109,192,62757,128,0,62892:0:0:0:0:
475,192,62892,1,0,0:0:0:0:
256,192,62892,1,0,0:0:0:0:
402,192,62892,1,0,0:0:0:0:
182,192,62892,128,0,63027:0:0:0:0:
329,192,63027,1,0,0:0:0:0:
36,192,63027,1,0,0:0:0:0:
475,192,63027,1,0,0:0:0:0:
256,192,63027,128,0,63162:0:0:0:0:
109,192,63162,1,0,0:0:0:0:
402,192,63162,1,0,0:0:0:0:
36,192,63162,1,0,0:0:0:0:
329,192,63162,128,0,63297:0:0:0:0:
182,192,63297,1,0,0:0:0:0:
475,192,63297,1,0,0:0:0:0:
402,192,63297,1,0,0:0:0:0:
36,192,63297,128,0,63432:0:0:0:0:
256,192,63365,1,0,0:0:0:0:
475,192,63432,1,0,0:0:0:0:
402,192,63432,1,0,0:0:0:0:
109,192,63432,128,0,63567:0:0:0:0:
329,192,63432,1,0,0:0:0:0:
475,192,63567,1,0,0:0:0:0:
329,192,63567,1,0,0:0:0:0:
402,192,63567,1,0,0:0:0:0:
182,192,63567,128,0,63702:0:0:0:0:
256,192,63635,1,0,0:0:0:0:
402,192,63702,1,0,0:0:0:0:
475,192,63702,1,0,0:0:0:0:
36,192,63702,1,0,0:0:0:0:
329,192,63702,1,0,0:0:0:0:
256,192,63770,1,0,0:0:0:0:
182,192,63837,1,0,0:0:0:0:
36,192,63837,1,0,0:0:0:0:
109,192,63837,1,0,0:0:0:0:
402,192,63905,1,0,0:0:0:0:
475,192,63905,1,0,0:0:0:0:
329,192,63972,1,0,0:0:0:0:
256,192,63972,1,0,0:0:0:0:
182,192,63972,1,0,0:0:0:0:
109,192,64040,1,0,0:0:0:0:
36,192,64040,1,0,0:0:0:0:
329,192,64107,1,0,0:0:0:0:
402,192,64107,1,0,0:0:0:0:
475,192,64107,1,0,0:0:0:0:
256,192,64175,1,0,0:0:0:0:
182,192,64175,1,0,0:0:0:0:
36,192,64242,1,0,0:0:0:0:
109,192,64242,1,0,0:0:0:0:
475,192,64242,1,0,0:0:0:0:
402,192,64242,1,0,0:0:0:0:
329,192,64310,1,0,0:0:0:0:
256,192,64310,1,0,0:0:0:0:
36,192,64377,1,0,0:0:0:0:
109,192,64377,1,0,0:0:0:0:
182,192,64377,1,0,0:0:0:0:
475,192,64411,1,0,0:0:0:0:
402,192,64445,1,0,0:0:0:0:
329,192,64478,1,0,0:0:0:0:
36,192,64512,1,0,0:0:0:0:
109,192,64512,1,0,0:0:0:0:
182,192,64512,1,0,0:0:0:0:
256,192,64512,1,0,0:0:0:0:
329,192,64580,1,0,0:0:0:0:
402,192,64580,1,0,0:0:0:0:
475,192,64580,1,0,0:0:0:0:
182,192,64647,1,0,0:0:0:0:
109,192,64647,1,0,0:0:0:0:
36,192,64647,1,0,0:0:0:0:
329,192,64715,1,0,0:0:0:0:
402,192,64715,1,0,0:0:0:0:
475,192,64715,1,0,0:0:0:0:
109,192,64782,1,0,0:0:0:0:
182,192,64782,1,0,0:0:0:0:
256,192,64782,1,0,0:0:0:0:
36,192,64782,1,0,0:0:0:0:
402,192,64850,1,0,0:0:0:0:
329,192,64917,1,0,0:0:0:0:
256,192,64985,1,0,0:0:0:0:
182,192,65052,1,0,0:0:0:0:
109,192,65052,1,0,0:0:0:0:
402,192,65052,1,0,0:0:0:0:
329,192,65120,1,0,0:0:0:0:
256,192,65187,1,0,0:0:0:0:
402,192,65255,1,0,0:0:0:0:
329,192,65322,1,0,0:0:0:0:
182,192,65322,1,0,0:0:0:0:
109,192,65322,1,0,0:0:0:0:
475,192,65390,1,0,0:0:0:0:
402,192,65457,1,0,0:0:0:0:
329,192,65525,1,0,0:0:0:0:
475,192,65592,1,0,0:0:0:0:
36,192,65592,1,0,0:0:0:0:
109,192,65592,1,0,0:0:0:0:
329,192,65660,1,0,0:0:0:0:
475,192,65727,1,0,0:0:0:0:
329,192,65795,1,0,0:0:0:0:
182,192,65862,1,0,0:0:0:0:
256,192,65862,1,0,0:0:0:0:
475,192,65862,1,0,0:0:0:0:
109,192,65930,1,0,0:0:0:0:
36,192,65997,1,0,0:0:0:0:
182,192,66065,1,0,0:0:0:0:
109,192,66132,1,0,0:0:0:0:
329,192,66132,1,0,0:0:0:0:
402,192,66132,1,0,0:0:0:0:
36,192,66200,1,0,0:0:0:0:
182,192,66267,1,0,0:0:0:0:
109,192,66335,1,0,0:0:0:0:
36,192,66402,1,0,0:0:0:0:
329,192,66402,1,0,0:0:0:0:
402,192,66402,1,0,0:0:0:0:
256,192,66470,1,0,0:0:0:0:
182,192,66537,1,0,0:0:0:0:
109,192,66605,1,0,0:0:0:0:
256,192,66672,1,0,0:0:0:0:
329,192,66672,1,0,0:0:0:0:
402,192,66672,1,0,0:0:0:0:
109,192,66740,1,0,0:0:0:0:
256,192,66807,1,0,0:0:0:0:
329,192,66807,1,0,0:0:0:0:
402,192,66807,1,0,0:0:0:0:
109,192,66875,1,0,0:0:0:0:
329,192,66942,1,0,0:0:0:0:
402,192,66942,1,0,0:0:0:0:
475,192,66942,1,0,0:0:0:0:
182,192,67010,1,0,0:0:0:0:
36,192,67077,1,0,0:0:0:0:
329,192,67145,1,0,0:0:0:0:
182,192,67212,1,0,0:0:0:0:
402,192,67212,1,0,0:0:0:0:
475,192,67212,1,0,0:0:0:0:
36,192,67280,1,0,0:0:0:0:
329,192,67347,1,0,0:0:0:0:
182,192,67415,1,0,0:0:0:0:
36,192,67482,1,0,0:0:0:0:
402,192,67482,1,0,0:0:0:0:
475,192,67482,1,0,0:0:0:0:
256,192,67550,1,0,0:0:0:0:
109,192,67617,1,0,0:0:0:0:
36,192,67685,1,0,0:0:0:0:
256,192,67752,1,0,0:0:0:0:
402,192,67752,1,0,0:0:0:0:
475,192,67752,1,0,0:0:0:0:
109,192,67820,1,0,0:0:0:0:
256,192,67887,1,0,0:0:0:0:
402,192,67887,1,0,0:0:0:0:
475,192,67887,1,0,0:0:0:0:
109,192,67955,1,0,0:0:0:0:
402,192,68022,1,0,0:0:0:0:
475,192,68022,1,0,0:0:0:0:
329,192,68022,1,0,0:0:0:0:
182,192,68090,1,0,0:0:0:0:
36,192,68157,1,0,0:0:0:0:
329,192,68225,1,0,0:0:0:0:
256,192,68225,1,0,0:0:0:0:
402,192,68292,1,0,0:0:0:0:
475,192,68292,1,0,0:0:0:0:
182,192,68292,1,0,0:0:0:0:
36,192,68360,1,0,0:0:0:0:
256,192,68427,1,0,0:0:0:0:
329,192,68427,1,0,0:0:0:0:
402,192,68427,1,0,0:0:0:0:
109,192,68427,1,0,0:0:0:0:
182,192,68562,1,0,0:0:0:0:
256,192,68562,1,0,0:0:0:0:
329,192,68562,1,0,0:0:0:0:
36,192,68562,1,0,0:0:0:0:
109,192,68697,1,0,0:0:0:0:
182,192,68697,1,0,0:0:0:0:
256,192,68697,1,0,0:0:0:0:
402,192,68697,1,0,0:0:0:0:
182,192,68832,1,0,0:0:0:0:
36,192,68832,1,0,0:0:0:0:
329,192,68832,1,0,0:0:0:0:
475,192,68832,1,0,0:0:0:0:
256,192,68967,1,0,0:0:0:0:
402,192,68967,1,0,0:0:0:0:
475,192,68967,1,0,0:0:0:0:
109,192,68967,1,0,0:0:0:0:
182,192,69102,1,0,0:0:0:0:
329,192,69102,1,0,0:0:0:0:
475,192,69102,1,0,0:0:0:0:
36,192,69102,1,0,0:0:0:0:
256,192,69170,1,0,0:0:0:0:
109,192,69237,1,0,0:0:0:0:
329,192,69305,1,0,0:0:0:0:
256,192,69372,1,0,0:0:0:0:
402,192,69372,1,0,0:0:0:0:
475,192,69372,1,0,0:0:0:0:
109,192,69440,1,0,0:0:0:0:
329,192,69507,1,0,0:0:0:0:
182,192,69575,1,0,0:0:0:0:
36,192,69642,1,0,0:0:0:0:
402,192,69642,1,0,0:0:0:0:
256,192,69642,1,0,0:0:0:0:
475,192,69642,1,0,0:0:0:0:
36,192,69777,1,0,0:0:0:0:
256,192,69777,1,0,0:0:0:0:
402,192,69777,1,0,0:0:0:0:
109,192,69912,1,0,0:0:0:0:
329,192,69912,1,0,0:0:0:0:
475,192,69912,1,0,0:0:0:0:
182,192,69912,1,0,0:0:0:0:
109,192,70047,1,0,0:0:0:0:
329,192,70047,1,0,0:0:0:0:
475,192,70047,1,0,0:0:0:0:
256,192,70047,1,0,0:0:0:0:
182,192,70182,1,0,0:0:0:0:
36,192,70182,1,0,0:0:0:0:
402,192,70182,1,0,0:0:0:0:
402,192,70317,1,0,0:0:0:0:
182,192,70317,1,0,0:0:0:0:
36,192,70317,1,0,0:0:0:0:
109,192,70452,1,0,0:0:0:0:
329,192,70452,1,0,0:0:0:0:
475,192,70452,1,0,0:0:0:0:
256,192,70452,1,0,0:0:0:0:
475,192,70587,1,0,0:0:0:0:
329,192,70587,1,0,0:0:0:0:
109,192,70587,1,0,0:0:0:0:
256,192,70722,1,0,0:0:0:0:
402,192,70722,1,0,0:0:0:0:
36,192,70722,1,0,0:0:0:0:
182,192,70722,1,0,0:0:0:0:
36,192,70857,1,0,0:0:0:0:
256,192,70857,1,0,0:0:0:0:
402,192,70857,1,0,0:0:0:0:
329,192,70992,1,0,0:0:0:0:
182,192,70992,1,0,0:0:0:0:
109,192,70992,1,0,0:0:0:0:
475,192,70992,1,0,0:0:0:0:
109,192,71127,1,0,0:0:0:0:
182,192,71127,1,0,0:0:0:0:
329,192,71127,1,0,0:0:0:0:
36,192,71262,1,0,0:0:0:0:
256,192,71262,1,0,0:0:0:0:
475,192,71262,1,0,0:0:0:0:
402,192,71262,1,0,0:0:0:0:
256,192,71397,1,0,0:0:0:0:
36,192,71397,1,0,0:0:0:0:
402,192,71397,1,0,0:0:0:0:
109,192,71532,1,0,0:0:0:0:
182,192,71532,1,0,0:0:0:0:
329,192,71532,1,0,0:0:0:0:
475,192,71532,1,0,0:0:0:0:
182,192,71667,1,0,0:0:0:0:
329,192,71667,1,0,0:0:0:0:
475,192,71667,1,0,0:0:0:0:
109,192,71802,1,0,0:0:0:0:
36,192,71802,1,0,0:0:0:0:
256,192,71802,1,0,0:0:0:0:
402,192,71802,1,0,0:0:0:0:
109,192,71937,1,0,0:0:0:0:
256,192,71937,1,0,0:0:0:0:
402,192,71937,1,0,0:0:0:0:
36,192,72072,1,0,0:0:0:0:
182,192,72072,1,0,0:0:0:0:
329,192,72072,1,0,0:0:0:0:
475,192,72072,1,0,0:0:0:0:
329,192,72207,1,0,0:0:0:0:
182,192,72207,1,0,0:0:0:0:
36,192,72207,1,0,0:0:0:0:
402,192,72342,1,0,0:0:0:0:
475,192,72342,1,0,0:0:0:0:
256,192,72342,1,0,0:0:0:0:
182,192,72410,1,0,0:0:0:0:
36,192,72477,1,0,0:0:0:0:
329,192,72545,1,0,0:0:0:0:
402,192,72612,1,0,0:0:0:0:
475,192,72612,1,0,0:0:0:0:
36,192,72612,1,0,0:0:0:0:
109,192,72612,1,0,0:0:0:0:
182,192,72680,1,0,0:0:0:0:
256,192,72747,1,0,0:0:0:0:
402,192,72747,1,0,0:0:0:0:
182,192,72815,1,0,0:0:0:0:
402,192,72882,1,0,0:0:0:0:
475,192,72882,1,0,0:0:0:0:
109,192,72882,1,0,0:0:0:0:
36,192,72882,1,0,0:0:0:0:
329,192,72950,1,0,0:0:0:0:
256,192,72950,1,0,0:0:0:0:
109,192,73017,1,0,0:0:0:0:
182,192,73051,1,0,0:0:0:0:
256,192,73085,1,0,0:0:0:0:
329,192,73118,1,0,0:0:0:0:
402,192,73152,1,0,0:0:0:0:
475,192,73152,1,0,0:0:0:0:
36,192,73152,1,0,0:0:0:0:
109,192,73152,1,0,0:0:0:0:
182,192,73220,1,0,0:0:0:0:
256,192,73220,1,0,0:0:0:0:
329,192,73287,1,0,0:0:0:0:
402,192,73287,1,0,0:0:0:0:
182,192,73355,1,0,0:0:0:0:
109,192,73355,1,0,0:0:0:0:
36,192,73422,1,0,0:0:0:0:
402,192,73422,1,0,0:0:0:0:
475,192,73422,1,0,0:0:0:0:
256,192,73422,1,0,0:0:0:0:
36,192,73557,1,0,0:0:0:0:
256,192,73557,1,0,0:0:0:0:
329,192,73557,1,0,0:0:0:0:
109,192,73692,1,0,0:0:0:0:
402,192,73692,1,0,0:0:0:0:
475,192,73692,1,0,0:0:0:0:
182,192,73692,1,0,0:0:0:0:
109,192,73827,1,0,0:0:0:0:
402,192,73827,1,0,0:0:0:0:
256,192,73827,1,0,0:0:0:0:
329,192,73962,1,0,0:0:0:0:
475,192,73962,1,0,0:0:0:0:
182,192,73962,1,0,0:0:0:0:
36,192,73962,1,0,0:0:0:0:
182,192,74097,1,0,0:0:0:0:
475,192,74097,1,0,0:0:0:0:
329,192,74097,1,0,0:0:0:0:
402,192,74232,1,0,0:0:0:0:
109,192,74232,1,0,0:0:0:0:
36,192,74232,1,0,0:0:0:0:
256,192,74232,1,0,0:0:0:0:
402,192,74367,1,0,0:0:0:0:
256,192,74367,1,0,0:0:0:0:
182,192,74367,1,0,0:0:0:0:
36,192,74502,1,0,0:0:0:0:
109,192,74502,1,0,0:0:0:0:
182,192,74502,1,0,0:0:0:0:
329,192,74502,1,0,0:0:0:0:
256,192,74592,1,0,0:0:0:0:
402,192,74592,1,0,0:0:0:0:
475,192,74592,1,0,0:0:0:0:
109,192,74682,1,0,0:0:0:0:
182,192,74682,1,0,0:0:0:0:
329,192,74682,1,0,0:0:0:0:
36,192,74772,1,0,0:0:0:0:
256,192,74772,1,0,0:0:0:0:
402,192,74772,1,0,0:0:0:0:
475,192,74772,1,0,0:0:0:0:
109,192,74772,1,0,0:0:0:0:
329,192,74907,1,0,0:0:0:0:
182,192,74907,1,0,0:0:0:0:
475,192,74907,1,0,0:0:0:0:
36,192,75042,1,0,0:0:0:0:
402,192,75042,1,0,0:0:0:0:
475,192,75042,1,0,0:0:0:0:
256,192,75042,1,0,0:0:0:0:
109,192,75177,1,0,0:0:0:0:
256,192,75177,1,0,0:0:0:0:
329,192,75245,1,0,0:0:0:0:
36,192,75312,1,0,0:0:0:0:
182,192,75312,1,0,0:0:0:0:
402,192,75312,1,0,0:0:0:0:
475,192,75312,1,0,0:0:0:0:
109,192,75447,1,0,0:0:0:0:
256,192,75447,1,0,0:0:0:0:
402,192,75447,1,0,0:0:0:0:
36,192,75582,1,0,0:0:0:0:
182,192,75582,1,0,0:0:0:0:
329,192,75582,1,0,0:0:0:0:
475,192,75582,1,0,0:0:0:0:
36,192,75717,1,0,0:0:0:0:
182,192,75717,1,0,0:0:0:0:
329,192,75717,1,0,0:0:0:0:
329,192,75852,1,0,0:0:0:0:
256,192,75852,1,0,0:0:0:0:
402,192,75852,1,0,0:0:0:0:
109,192,75852,1,0,0:0:0:0:
256,192,75987,1,0,0:0:0:0:
109,192,75987,1,0,0:0:0:0:
402,192,75987,1,0,0:0:0:0:
36,192,76122,1,0,0:0:0:0:
182,192,76122,1,0,0:0:0:0:
329,192,76122,1,0,0:0:0:0:
475,192,76122,1,0,0:0:0:0:
182,192,76257,1,0,0:0:0:0:
329,192,76257,1,0,0:0:0:0:
109,192,76257,1,0,0:0:0:0:
36,192,76392,1,0,0:0:0:0:
256,192,76392,1,0,0:0:0:0:
402,192,76392,1,0,0:0:0:0:
475,192,76392,1,0,0:0:0:0:
402,192,76527,1,0,0:0:0:0:
256,192,76527,1,0,0:0:0:0:
475,192,76527,1,0,0:0:0:0:
36,192,76662,1,0,0:0:0:0:
182,192,76662,1,0,0:0:0:0:
475,192,76662,1,0,0:0:0:0:
329,192,76662,1,0,0:0:0:0:
182,192,76797,1,0,0:0:0:0:
329,192,76797,1,0,0:0:0:0:
36,192,76797,1,0,0:0:0:0:
109,192,76932,1,0,0:0:0:0:
402,192,76932,1,0,0:0:0:0:
256,192,76932,1,0,0:0:0:0:
475,192,76932,1,0,0:0:0:0:
256,192,77067,1,0,0:0:0:0:
109,192,77067,1,0,0:0:0:0:
402,192,77067,1,0,0:0:0:0:
182,192,77202,1,0,0:0:0:0:
36,192,77202,1,0,0:0:0:0:
329,192,77202,1,0,0:0:0:0:
475,192,77202,1,0,0:0:0:0:
36,192,77337,1,0,0:0:0:0:
182,192,77337,1,0,0:0:0:0:
329,192,77337,1,0,0:0:0:0:
109,192,77472,1,0,0:0:0:0:
256,192,77472,1,0,0:0:0:0:
402,192,77472,1,0,0:0:0:0:
475,192,77472,1,0,0:0:0:0:
329,192,77607,1,0,0:0:0:0:
182,192,77607,1,0,0:0:0:0:
109,192,77607,1,0,0:0:0:0:
36,192,77742,1,0,0:0:0:0:
109,192,77742,1,0,0:0:0:0:
402,192,77742,1,0,0:0:0:0:
475,192,77742,1,0,0:0:0:0:
256,192,77742,1,0,0:0:0:0:
329,192,77810,1,0,0:0:0:0:
182,192,77877,1,0,0:0:0:0:
475,192,77945,1,0,0:0:0:0:
329,192,78012,1,0,0:0:0:0:
36,192,78012,1,0,0:0:0:0:
109,192,78012,1,0,0:0:0:0:
182,192,78080,1,0,0:0:0:0:
402,192,78147,1,0,0:0:0:0:
256,192,78215,1,0,0:0:0:0:
109,192,78282,1,0,0:0:0:0:
36,192,78282,1,0,0:0:0:0:
475,192,78282,1,0,0:0:0:0:
329,192,78350,1,0,0:0:0:0:
182,192,78417,1,0,0:0:0:0:
475,192,78485,1,0,0:0:0:0:
329,192,78552,1,0,0:0:0:0:
36,192,78552,1,0,0:0:0:0:
109,192,78552,1,0,0:0:0:0:
256,192,78620,1,0,0:0:0:0:
402,192,78687,1,0,0:0:0:0:
182,192,78687,1,0,0:0:0:0:
329,192,78755,1,0,0:0:0:0:
475,192,78822,1,0,0:0:0:0:
36,192,78822,1,0,0:0:0:0:
109,192,78957,1,0,0:0:0:0:
256,192,78957,1,0,0:0:0:0:
475,192,78957,1,0,0:0:0:0:
36,192,79092,1,0,0:0:0:0:
182,192,79092,1,0,0:0:0:0:
329,192,79092,1,0,0:0:0:0:
402,192,79092,1,0,0:0:0:0:
109,192,79227,1,0,0:0:0:0:
402,192,79227,1,0,0:0:0:0:
182,192,79362,1,0,0:0:0:0:
36,192,79362,1,0,0:0:0:0:
329,192,79362,1,0,0:0:0:0:
475,192,79362,1,0,0:0:0:0:
109,192,79497,1,0,0:0:0:0:
256,192,79497,1,0,0:0:0:0:
402,192,79565,1,0,0:0:0:0:
36,192,79632,1,0,0:0:0:0:
182,192,79632,1,0,0:0:0:0:
475,192,79632,1,0,0:0:0:0:
329,192,79632,1,0,0:0:0:0:
109,192,79767,1,0,0:0:0:0:
256,192,79767,1,0,0:0:0:0:
475,192,79767,1,0,0:0:0:0:
36,192,79902,1,0,0:0:0:0:
329,192,79902,1,0,0:0:0:0:
402,192,79902,1,0,0:0:0:0:
182,192,79902,1,0,0:0:0:0:
109,192,80037,1,0,0:0:0:0:
256,192,80037,1,0,0:0:0:0:
329,192,80105,1,0,0:0:0:0:
402,192,80172,1,0,0:0:0:0:
475,192,80172,1,0,0:0:0:0:
36,192,80172,1,0,0:0:0:0:
182,192,80172,1,0,0:0:0:0:
256,192,80240,1,0,0:0:0:0:
329,192,80307,1,0,0:0:0:0:
109,192,80307,1,0,0:0:0:0:
182,192,80375,1,0,0:0:0:0:
402,192,80442,1,0,0:0:0:0:
256,192,80442,1,0,0:0:0:0:
475,192,80442,1,0,0:0:0:0:
36,192,80442,1,0,0:0:0:0:
109,192,80510,1,0,0:0:0:0:
182,192,80577,1,0,0:0:0:0:
329,192,80577,1,0,0:0:0:0:
402,192,80645,1,0,0:0:0:0:
109,192,80712,1,0,0:0:0:0:
36,192,80712,1,0,0:0:0:0:
475,192,80712,1,0,0:0:0:0:
256,192,80712,1,0,0:0:0:0:
329,192,80780,1,0,0:0:0:0:
182,192,80847,1,0,0:0:0:0:
402,192,80847,1,0,0:0:0:0:
109,192,80847,1,0,0:0:0:0:
256,192,80915,1,0,0:0:0:0:
329,192,80982,1,0,0:0:0:0:
36,192,80982,1,0,0:0:0:0:
109,192,80982,1,0,0:0:0:0:
475,192,80982,128,0,81252:0:0:0:0:
182,192,81117,1,0,0:0:0:0:
256,192,81117,1,0,0:0:0:0:
329,192,81185,1,0,0:0:0:0:
402,192,81185,1,0,0:0:0:0:
36,192,81252,128,0,81455:0:0:0:0:
109,192,81252,1,0,0:0:0:0:
182,192,81252,1,0,0:0:0:0:
256,192,81252,1,0,0:0:0:0:
329,192,81387,1,0,0:0:0:0:
402,192,81387,1,0,0:0:0:0:
256,192,81455,1,0,0:0:0:0:
182,192,81455,1,0,0:0:0:0:
475,192,81522,128,0,81725:0:0:0:0:
402,192,81522,1,0,0:0:0:0:
109,192,81522,1,0,0:0:0:0:
36,192,81522,1,0,0:0:0:0:
329,192,81590,1,0,0:0:0:0:
256,192,81590,1,0,0:0:0:0:
182,192,81657,1,0,0:0:0:0:
109,192,81657,1,0,0:0:0:0:
402,192,81725,1,0,0:0:0:0:
329,192,81725,1,0,0:0:0:0:
109,192,81792,1,0,0:0:0:0:
36,192,81792,128,0,81995:0:0:0:0:
182,192,81792,1,0,0:0:0:0:
475,192,81792,1,0,0:0:0:0:
256,192,81860,1,0,0:0:0:0:
329,192,81860,1,0,0:0:0:0:
402,192,81927,1,0,0:0:0:0:
475,192,81927,1,0,0:0:0:0:
109,192,81995,1,0,0:0:0:0:
182,192,81995,1,0,0:0:0:0:
329,192,82062,1,0,0:0:0:0:
402,192,82062,1,0,0:0:0:0:
475,192,82062,1,0,0:0:0:0:
256,192,82062,128,0,84222:0:0:0:0:
36,192,82062,1,0,0:0:0:0:
109,192,82197,1,0,0:0:0:0:
182,192,82332,1,0,0:0:0:0:
329,192,82467,1,0,0:0:0:0:
402,192,82602,1,0,0:0:0:0:
182,192,82737,1,0,0:0:0:0:
402,192,82872,1,0,0:0:0:0:
109,192,83007,1,0,0:0:0:0:
475,192,83142,1,0,0:0:0:0:
329,192,83277,1,0,0:0:0:0:
402,192,83412,1,0,0:0:0:0:
475,192,83547,1,0,0:0:0:0:
182,192,83682,1,0,0:0:0:0:
329,192,83817,1,0,0:0:0:0:
182,192,83952,1,0,0:0:0:0:
36,192,84087,1,0,0:0:0:0:
402,192,84222,1,0,0:0:0:0:
329,192,84357,1,0,0:0:0:0:
182,192,84492,1,0,0:0:0:0:
256,192,84627,1,0,0:0:0:0:
329,192,84762,1,0,0:0:0:0:
109,192,84897,1,0,0:0:0:0:
182,192,85032,1,0,0:0:0:0:
402,192,85167,1,0,0:0:0:0:
36,192,85302,1,0,0:0:0:0:
182,192,85437,1,0,0:0:0:0:
329,192,85572,1,0,0:0:0:0:
402,192,85707,1,0,0:0:0:0:
475,192,85842,1,0,0:0:0:0:
329,192,85977,1,0,0:0:0:0:
182,192,86112,1,0,0:0:0:0:
109,192,86247,1,0,0:0:0:0:
36,192,86382,1,0,0:0:0:0:
182,192,86517,1,0,0:0:0:0:
329,192,86652,1,0,0:0:0:0:
402,192,86787,1,0,0:0:0:0:
475,192,86922,1,0,0:0:0:0:
329,192,87057,1,0,0:0:0:0:
475,192,87192,1,0,0:0:0:0:
182,192,87327,1,0,0:0:0:0:
402,192,87462,1,0,0:0:0:0:
256,192,87597,1,0,0:0:0:0:
329,192,87732,1,0,0:0:0:0:
475,192,87867,1,0,0:0:0:0:
256,192,88002,1,0,0:0:0:0:
402,192,88137,1,0,0:0:0:0:
329,192,88272,1,0,0:0:0:0:
256,192,88407,1,0,0:0:0:0:
182,192,88542,1,0,0:0:0:0:
109,192,88677,1,0,0:0:0:0:
36,192,88812,1,0,0:0:0:0:
109,192,88947,1,0,0:0:0:0:
182,192,89082,1,0,0:0:0:0:
256,192,89217,1,0,0:0:0:0:
329,192,89352,1,0,0:0:0:0:
402,192,89487,1,0,0:0:0:0:
475,192,89622,1,0,0:0:0:0:
329,192,89757,1,0,0:0:0:0:
182,192,89892,1,0,0:0:0:0:
475,192,90027,1,0,0:0:0:0:
109,192,90162,1,0,0:0:0:0:
256,192,90162,128,0,90702:0:0:0:0:
402,192,90162,1,0,0:0:0:0:
36,192,90432,1,0,0:0:0:0:
329,192,90432,1,0,0:0:0:0:
475,192,90567,1,0,0:0:0:0:
402,192,90635,1,0,0:0:0:0:
329,192,90702,1,0,0:0:0:0:
36,192,90702,1,0,0:0:0:0:
109,192,90702,1,0,0:0:0:0:
182,192,90702,1,0,0:0:0:0:
256,192,90837,1,0,0:0:0:0:
109,192,90837,128,0,90972:0:0:0:0:
182,192,90837,128,0,90972:0:0:0:0:
329,192,90972,1,0,0:0:0:0:
402,192,91107,1,0,0:0:0:0:
109,192,91107,128,0,91242:0:0:0:0:
182,192,91107,128,0,91242:0:0:0:0:
475,192,91242,1,0,0:0:0:0:
402,192,91377,1,0,0:0:0:0:
36,192,91377,128,0,91512:0:0:0:0:
109,192,91377,128,0,91512:0:0:0:0:
475,192,91512,1,0,0:0:0:0:
329,192,91647,1,0,0:0:0:0:
36,192,91647,128,0,91782:0:0:0:0:
109,192,91647,128,0,91782:0:0:0:0:
475,192,91782,1,0,0:0:0:0:
36,192,91917,128,0,92052:0:0:0:0:
182,192,91917,128,0,92052:0:0:0:0:
329,192,91917,1,0,0:0:0:0:
402,192,92052,1,0,0:0:0:0:
36,192,92187,128,0,92322:0:0:0:0:
182,192,92187,128,0,92322:0:0:0:0:
475,192,92187,1,0,0:0:0:0:
402,192,92322,1,0,0:0:0:0:
109,192,92457,128,0,92592:0:0:0:0:
182,192,92457,128,0,92592:0:0:0:0:
475,192,92457,1,0,0:0:0:0:
402,192,92592,1,0,0:0:0:0:
329,192,92727,1,0,0:0:0:0:
36,192,92727,1,0,0:0:0:0:
109,192,92727,1,0,0:0:0:0:
182,192,92795,1,0,0:0:0:0:
402,192,92795,1,0,0:0:0:0:
256,192,92862,1,0,0:0:0:0:
475,192,92862,1,0,0:0:0:0:
36,192,92862,1,0,0:0:0:0:
109,192,92997,1,0,0:0:0:0:
329,192,92997,128,0,93132:0:0:0:0:
402,192,92997,128,0,93132:0:0:0:0:
36,192,93132,1,0,0:0:0:0:
109,192,93267,1,0,0:0:0:0:
329,192,93267,128,0,93402:0:0:0:0:
402,192,93267,128,0,93402:0:0:0:0:
182,192,93402,1,0,0:0:0:0:
36,192,93537,1,0,0:0:0:0:
329,192,93537,128,0,93672:0:0:0:0:
475,192,93537,128,0,93672:0:0:0:0:
109,192,93672,1,0,0:0:0:0:
182,192,93807,1,0,0:0:0:0:
329,192,93807,128,0,93942:0:0:0:0:
475,192,93807,128,0,93942:0:0:0:0:
36,192,93942,1,0,0:0:0:0:
109,192,94077,1,0,0:0:0:0:
402,192,94077,128,0,94212:0:0:0:0:
475,192,94077,128,0,94212:0:0:0:0:
182,192,94212,1,0,0:0:0:0:
256,192,94347,1,0,0:0:0:0:
475,192,94347,128,0,94482:0:0:0:0:
402,192,94347,128,0,94482:0:0:0:0:
109,192,94482,1,0,0:0:0:0:
36,192,94617,1,0,0:0:0:0:
329,192,94617,128,0,94752:0:0:0:0:
402,192,94617,128,0,94752:0:0:0:0:
182,192,94752,1,0,0:0:0:0:
329,192,94887,1,0,0:0:0:0:
402,192,94887,1,0,0:0:0:0:
109,192,94887,1,0,0:0:0:0:
36,192,94955,1,0,0:0:0:0:
256,192,94955,1,0,0:0:0:0:
182,192,95022,1,0,0:0:0:0:
402,192,95022,1,0,0:0:0:0:
475,192,95022,1,0,0:0:0:0:
109,192,95157,1,0,0:0:0:0:
329,192,95157,1,0,0:0:0:0:
182,192,95292,1,0,0:0:0:0:
402,192,95292,1,0,0:0:0:0:
256,192,95427,1,0,0:0:0:0:
475,192,95427,1,0,0:0:0:0:
329,192,95562,1,0,0:0:0:0:
109,192,95562,1,0,0:0:0:0:
36,192,95697,1,0,0:0:0:0:
256,192,95697,1,0,0:0:0:0:
109,192,95832,1,0,0:0:0:0:
329,192,95832,1,0,0:0:0:0:
36,192,95967,1,0,0:0:0:0:
256,192,95967,1,0,0:0:0:0:
182,192,96102,1,0,0:0:0:0:
402,192,96102,1,0,0:0:0:0:
475,192,96102,1,0,0:0:0:0:
109,192,96102,1,0,0:0:0:0:
36,192,96237,1,0,0:0:0:0:
329,192,96237,1,0,0:0:0:0:
182,192,96372,1,0,0:0:0:0:
402,192,96372,1,0,0:0:0:0:
256,192,96507,1,0,0:0:0:0:
475,192,96507,1,0,0:0:0:0:
36,192,96642,1,0,0:0:0:0:
109,192,96642,1,0,0:0:0:0:
402,192,96642,1,0,0:0:0:0:
329,192,96642,1,0,0:0:0:0:
182,192,96777,1,0,0:0:0:0:
475,192,96777,1,0,0:0:0:0:
109,192,96912,1,0,0:0:0:0:
402,192,96912,1,0,0:0:0:0:
329,192,97047,1,0,0:0:0:0:
36,192,97047,1,0,0:0:0:0:
256,192,97047,1,0,0:0:0:0:
182,192,97115,1,0,0:0:0:0:
109,192,97182,1,0,0:0:0:0:
402,192,97182,1,0,0:0:0:0:
475,192,97182,1,0,0:0:0:0:
256,192,97182,1,0,0:0:0:0:
36,192,97317,1,0,0:0:0:0:
329,192,97317,1,0,0:0:0:0:
256,192,97452,1,0,0:0:0:0:
475,192,97452,1,0,0:0:0:0:
109,192,97452,1,0,0:0:0:0:
182,192,97452,1,0,0:0:0:0:
329,192,97587,1,0,0:0:0:0:
36,192,97587,1,0,0:0:0:0:
109,192,97722,1,0,0:0:0:0:
402,192,97722,1,0,0:0:0:0:
475,192,97722,1,0,0:0:0:0:
182,192,97722,1,0,0:0:0:0:
256,192,97857,1,0,0:0:0:0:
329,192,97857,1,0,0:0:0:0:
182,192,97992,1,0,0:0:0:0:
109,192,97992,1,0,0:0:0:0:
36,192,97992,1,0,0:0:0:0:
256,192,98026,1,0,0:0:0:0:
329,192,98060,1,0,0:0:0:0:
402,192,98094,1,0,0:0:0:0:
36,192,98127,1,0,0:0:0:0:
475,192,98127,1,0,0:0:0:0:
109,192,98161,1,0,0:0:0:0:
182,192,98195,1,0,0:0:0:0:
256,192,98229,1,0,0:0:0:0:
329,192,98262,1,0,0:0:0:0:
402,192,98262,1,0,0:0:0:0:
475,192,98262,1,0,0:0:0:0:
109,192,98330,1,0,0:0:0:0:
182,192,98397,1,0,0:0:0:0:
256,192,98465,1,0,0:0:0:0:
402,192,98532,1,0,0:0:0:0:
36,192,98532,1,0,0:0:0:0:
475,192,98532,1,0,0:0:0:0:
329,192,98600,1,0,0:0:0:0:
256,192,98667,1,0,0:0:0:0:
182,192,98735,1,0,0:0:0:0:
109,192,98802,1,0,0:0:0:0:
36,192,98802,1,0,0:0:0:0:
475,192,98802,1,0,0:0:0:0:
182,192,98870,1,0,0:0:0:0:
256,192,98937,1,0,0:0:0:0:
329,192,99005,1,0,0:0:0:0:
402,192,99072,1,0,0:0:0:0:
475,192,99072,1,0,0:0:0:0:
36,192,99072,1,0,0:0:0:0:
329,192,99140,1,0,0:0:0:0:
256,192,99207,1,0,0:0:0:0:
182,192,99275,1,0,0:0:0:0:
109,192,99342,1,0,0:0:0:0:
36,192,99342,1,0,0:0:0:0:
402,192,99342,1,0,0:0:0:0:
475,192,99342,1,0,0:0:0:0:
182,192,99410,1,0,0:0:0:0:
256,192,99477,1,0,0:0:0:0:
329,192,99545,1,0,0:0:0:0:
402,192,99612,1,0,0:0:0:0:
36,192,99612,1,0,0:0:0:0:
109,192,99612,1,0,0:0:0:0:
329,192,99680,1,0,0:0:0:0:
256,192,99747,1,0,0:0:0:0:
182,192,99815,1,0,0:0:0:0:
109,192,99882,1,0,0:0:0:0:
402,192,99882,1,0,0:0:0:0:
475,192,99882,1,0,0:0:0:0:
182,192,99950,1,0,0:0:0:0:
256,192,100017,1,0,0:0:0:0:
329,192,100085,1,0,0:0:0:0:
402,192,100152,1,0,0:0:0:0:
36,192,100152,1,0,0:0:0:0:
109,192,100152,1,0,0:0:0:0:
329,192,100220,1,0,0:0:0:0:
256,192,100287,1,0,0:0:0:0:
182,192,100355,1,0,0:0:0:0:
36,192,100422,1,0,0:0:0:0:
475,192,100422,1,0,0:0:0:0:
402,192,100422,1,0,0:0:0:0:
329,192,100422,1,0,0:0:0:0:
109,192,100490,1,0,0:0:0:0:
182,192,100557,1,0,0:0:0:0:
256,192,100625,1,0,0:0:0:0:
475,192,100692,1,0,0:0:0:0:
36,192,100692,1,0,0:0:0:0:
109,192,100692,1,0,0:0:0:0:
402,192,100760,1,0,0:0:0:0:
329,192,100827,1,0,0:0:0:0:
256,192,100895,1,0,0:0:0:0:
36,192,100962,1,0,0:0:0:0:
475,192,100962,1,0,0:0:0:0:
402,192,100962,1,0,0:0:0:0:
109,192,101030,1,0,0:0:0:0:
182,192,101097,1,0,0:0:0:0:
256,192,101165,1,0,0:0:0:0:
475,192,101232,1,0,0:0:0:0:
109,192,101232,1,0,0:0:0:0:
36,192,101232,1,0,0:0:0:0:
402,192,101300,1,0,0:0:0:0:
329,192,101367,1,0,0:0:0:0:
256,192,101435,1,0,0:0:0:0:
36,192,101502,1,0,0:0:0:0:
109,192,101502,1,0,0:0:0:0:
182,192,101502,1,0,0:0:0:0:
475,192,101502,1,0,0:0:0:0:
402,192,101570,1,0,0:0:0:0:
329,192,101637,1,0,0:0:0:0:
182,192,101705,1,0,0:0:0:0:
475,192,101772,1,0,0:0:0:0:
402,192,101772,1,0,0:0:0:0:
36,192,101772,1,0,0:0:0:0:
256,192,101840,1,0,0:0:0:0:
182,192,101907,1,0,0:0:0:0:
109,192,101975,1,0,0:0:0:0:
329,192,102042,1,0,0:0:0:0:
36,192,102042,1,0,0:0:0:0:
475,192,102042,1,0,0:0:0:0:
256,192,102110,1,0,0:0:0:0:
182,192,102178,1,0,0:0:0:0:
109,192,102245,1,0,0:0:0:0:
36,192,102313,1,0,0:0:0:0:
402,192,102313,1,0,0:0:0:0:
475,192,102313,1,0,0:0:0:0:
329,192,102380,1,0,0:0:0:0:
109,192,102448,1,0,0:0:0:0:
182,192,102448,1,0,0:0:0:0:
256,192,102448,1,0,0:0:0:0:
329,192,102515,1,0,0:0:0:0:
36,192,102583,128,0,103595:0:0:0:0:
402,192,102583,1,0,0:0:0:0:
475,192,102583,1,0,0:0:0:0:
109,192,102718,1,0,0:0:0:0:
329,192,102718,1,0,0:0:0:0:
402,192,102785,1,0,0:0:0:0:
182,192,102785,1,0,0:0:0:0:
109,192,102853,1,0,0:0:0:0:
475,192,102853,1,0,0:0:0:0:
256,192,102853,1,0,0:0:0:0:
256,192,102988,1,0,0:0:0:0:
475,192,102988,1,0,0:0:0:0:
402,192,103055,1,0,0:0:0:0:
182,192,103055,1,0,0:0:0:0:
329,192,103123,1,0,0:0:0:0:
109,192,103123,1,0,0:0:0:0:
475,192,103123,1,0,0:0:0:0:
109,192,103258,1,0,0:0:0:0:
329,192,103258,1,0,0:0:0:0:
182,192,103325,1,0,0:0:0:0:
402,192,103325,1,0,0:0:0:0:
256,192,103393,1,0,0:0:0:0:
475,192,103393,1,0,0:0:0:0:
109,192,103393,1,0,0:0:0:0:
402,192,103528,1,0,0:0:0:0:
475,192,103528,1,0,0:0:0:0:
329,192,103595,1,0,0:0:0:0:
256,192,103595,1,0,0:0:0:0:
475,192,103663,128,0,104675:0:0:0:0:
182,192,103663,1,0,0:0:0:0:
109,192,103663,1,0,0:0:0:0:
402,192,103663,1,0,0:0:0:0:
36,192,103663,1,0,0:0:0:0:
256,192,103798,1,0,0:0:0:0:
329,192,103798,1,0,0:0:0:0:
182,192,103865,1,0,0:0:0:0:
109,192,103865,1,0,0:0:0:0:
36,192,103933,1,0,0:0:0:0:
329,192,103933,1,0,0:0:0:0:
402,192,103933,1,0,0:0:0:0:
109,192,104068,1,0,0:0:0:0:
182,192,104068,1,0,0:0:0:0:
256,192,104135,1,0,0:0:0:0:
329,192,104135,1,0,0:0:0:0:
109,192,104203,1,0,0:0:0:0:
36,192,104203,1,0,0:0:0:0:
402,192,104203,1,0,0:0:0:0:
256,192,104338,1,0,0:0:0:0:
329,192,104338,1,0,0:0:0:0:
182,192,104405,1,0,0:0:0:0:
109,192,104405,1,0,0:0:0:0:
36,192,104473,1,0,0:0:0:0:
329,192,104473,1,0,0:0:0:0:
402,192,104473,1,0,0:0:0:0:
109,192,104608,1,0,0:0:0:0:
182,192,104608,1,0,0:0:0:0:
329,192,104675,1,0,0:0:0:0:
402,192,104675,1,0,0:0:0:0:
256,192,104743,128,0,106903:0:0:0:0:
182,192,104743,1,0,0:0:0:0:
109,192,104743,1,0,0:0:0:0:
36,192,104743,1,0,0:0:0:0:
475,192,104743,1,0,0:0:0:0:
402,192,104810,1,0,0:0:0:0:
329,192,104878,1,0,0:0:0:0:
182,192,104878,1,0,0:0:0:0:
109,192,104945,1,0,0:0:0:0:
36,192,104945,1,0,0:0:0:0:
329,192,105013,1,0,0:0:0:0:
402,192,105013,1,0,0:0:0:0:
475,192,105013,1,0,0:0:0:0:
182,192,105080,1,0,0:0:0:0:
109,192,105148,1,0,0:0:0:0:
36,192,105148,1,0,0:0:0:0:
402,192,105215,1,0,0:0:0:0:
475,192,105215,1,0,0:0:0:0:
329,192,105283,1,0,0:0:0:0:
182,192,105283,1,0,0:0:0:0:
109,192,105283,1,0,0:0:0:0:
36,192,105350,1,0,0:0:0:0:
402,192,105418,1,0,0:0:0:0:
475,192,105418,1,0,0:0:0:0:
329,192,105485,1,0,0:0:0:0:
182,192,105485,1,0,0:0:0:0:
109,192,105553,1,0,0:0:0:0:
36,192,105553,1,0,0:0:0:0:
475,192,105553,1,0,0:0:0:0:
402,192,105620,1,0,0:0:0:0:
329,192,105688,1,0,0:0:0:0:
182,192,105688,1,0,0:0:0:0:
109,192,105755,1,0,0:0:0:0:
36,192,105755,1,0,0:0:0:0:
329,192,105823,1,0,0:0:0:0:
402,192,105823,1,0,0:0:0:0:
475,192,105823,1,0,0:0:0:0:
109,192,105890,1,0,0:0:0:0:
182,192,105890,1,0,0:0:0:0:
402,192,105958,1,0,0:0:0:0:
329,192,105958,1,0,0:0:0:0:
109,192,106025,1,0,0:0:0:0:
182,192,106025,1,0,0:0:0:0:
402,192,106093,1,0,0:0:0:0:
475,192,106093,1,0,0:0:0:0:
36,192,106093,1,0,0:0:0:0:
182,192,106160,1,0,0:0:0:0:
109,192,106160,1,0,0:0:0:0:
329,192,106228,1,0,0:0:0:0:
402,192,106228,1,0,0:0:0:0:
109,192,106295,1,0,0:0:0:0:
182,192,106295,1,0,0:0:0:0:
475,192,106363,1,0,0:0:0:0:
329,192,106363,1,0,0:0:0:0:
402,192,106363,1,0,0:0:0:0:
109,192,106430,1,0,0:0:0:0:
182,192,106430,1,0,0:0:0:0:
36,192,106430,1,0,0:0:0:0:
475,192,106498,1,0,0:0:0:0:
402,192,106498,1,0,0:0:0:0:
329,192,106498,1,0,0:0:0:0:
36,192,106565,1,0,0:0:0:0:
109,192,106565,1,0,0:0:0:0:
182,192,106565,1,0,0:0:0:0:
475,192,106633,1,0,0:0:0:0:
329,192,106633,1,0,0:0:0:0:
402,192,106633,1,0,0:0:0:0:
36,192,106700,1,0,0:0:0:0:
109,192,106700,1,0,0:0:0:0:
182,192,106700,1,0,0:0:0:0:
475,192,106768,1,0,0:0:0:0:
402,192,106768,1,0,0:0:0:0:
329,192,106768,1,0,0:0:0:0:
182,192,106835,1,0,0:0:0:0:
109,192,106835,1,0,0:0:0:0:
36,192,106835,1,0,0:0:0:0:
329,192,106903,128,0,107645:0:0:0:0:
402,192,106903,128,0,107645:0:0:0:0:
475,192,106903,128,0,107645:0:0:0:0:
36,192,106903,1,0,0:0:0:0:
109,192,106903,1,0,0:0:0:0:
182,192,106903,1,0,0:0:0:0:
402,192,107713,1,0,0:0:0:0:
475,192,107713,1,0,0:0:0:0:
109,192,107713,1,0,0:0:0:0:
36,192,107713,1,0,0:0:0:0:
329,192,107713,1,0,0:0:0:0:
182,192,107713,1,0,0:0:0:0:
36,192,107983,1,0,0:0:0:0:
182,192,107983,1,0,0:0:0:0:
402,192,107983,1,0,0:0:0:0:
475,192,107983,1,0,0:0:0:0:
256,192,107983,1,0,0:0:0:0:
329,192,108185,1,0,0:0:0:0:
475,192,108185,1,0,0:0:0:0:
182,192,108253,1,0,0:0:0:0:
109,192,108253,1,0,0:0:0:0:
329,192,108388,1,0,0:0:0:0:
475,192,108388,1,0,0:0:0:0:
36,192,108523,1,0,0:0:0:0:
256,192,108523,1,0,0:0:0:0:
402,192,108590,1,0,0:0:0:0:
329,192,108590,1,0,0:0:0:0:
36,192,108793,1,0,0:0:0:0:
182,192,108793,1,0,0:0:0:0:
329,192,108793,1,0,0:0:0:0:
402,192,108793,1,0,0:0:0:0:
329,192,108928,1,0,0:0:0:0:
402,192,108928,1,0,0:0:0:0:
256,192,109063,1,0,0:0:0:0:
402,192,109063,1,0,0:0:0:0:
109,192,109063,1,0,0:0:0:0:
36,192,109063,1,0,0:0:0:0:
256,192,109265,1,0,0:0:0:0:
402,192,109265,1,0,0:0:0:0:
36,192,109333,1,0,0:0:0:0:
109,192,109333,1,0,0:0:0:0:
256,192,109468,1,0,0:0:0:0:
402,192,109468,1,0,0:0:0:0:
329,192,109603,1,0,0:0:0:0:
475,192,109603,1,0,0:0:0:0:
109,192,109670,1,0,0:0:0:0:
182,192,109670,1,0,0:0:0:0:
109,192,109873,1,0,0:0:0:0:
182,192,109873,1,0,0:0:0:0:
329,192,109873,1,0,0:0:0:0:
475,192,109873,1,0,0:0:0:0:
109,192,110008,1,0,0:0:0:0:
182,192,110008,1,0,0:0:0:0:
329,192,110008,1,0,0:0:0:0:
36,192,110143,1,0,0:0:0:0:
256,192,110143,1,0,0:0:0:0:
402,192,110143,1,0,0:0:0:0:
475,192,110143,1,0,0:0:0:0:
182,192,110278,1,0,0:0:0:0:
402,192,110345,1,0,0:0:0:0:
475,192,110345,1,0,0:0:0:0:
109,192,110413,1,0,0:0:0:0:
36,192,110413,1,0,0:0:0:0:
256,192,110413,1,0,0:0:0:0:
402,192,110548,1,0,0:0:0:0:
475,192,110548,1,0,0:0:0:0:
182,192,110548,1,0,0:0:0:0:
36,192,110683,1,0,0:0:0:0:
109,192,110683,1,0,0:0:0:0:
256,192,110683,1,0,0:0:0:0:
402,192,110750,1,0,0:0:0:0:
329,192,110750,1,0,0:0:0:0:
182,192,110818,1,0,0:0:0:0:
256,192,110953,1,0,0:0:0:0:
36,192,110953,1,0,0:0:0:0:
329,192,110953,1,0,0:0:0:0:
402,192,110953,1,0,0:0:0:0:
256,192,111088,1,0,0:0:0:0:
329,192,111088,1,0,0:0:0:0:
402,192,111088,1,0,0:0:0:0:
36,192,111223,1,0,0:0:0:0:
256,192,111223,1,0,0:0:0:0:
402,192,111223,1,0,0:0:0:0:
475,192,111223,1,0,0:0:0:0:
182,192,111358,1,0,0:0:0:0:
109,192,111358,1,0,0:0:0:0:
36,192,111358,1,0,0:0:0:0:
329,192,111425,1,0,0:0:0:0:
402,192,111425,1,0,0:0:0:0:
475,192,111425,1,0,0:0:0:0:
182,192,111493,1,0,0:0:0:0:
36,192,111493,1,0,0:0:0:0:
109,192,111493,1,0,0:0:0:0:
402,192,111628,1,0,0:0:0:0:
256,192,111628,1,0,0:0:0:0:
475,192,111628,1,0,0:0:0:0:
329,192,111628,1,0,0:0:0:0:
109,192,111763,1,0,0:0:0:0:
36,192,111763,1,0,0:0:0:0:
182,192,111763,1,0,0:0:0:0:
256,192,111763,1,0,0:0:0:0:
256,192,111898,1,0,0:0:0:0:
329,192,111898,1,0,0:0:0:0:
109,192,111898,1,0,0:0:0:0:
182,192,111898,1,0,0:0:0:0:
256,192,112033,1,0,0:0:0:0:
402,192,112033,1,0,0:0:0:0:
329,192,112033,1,0,0:0:0:0:
182,192,112033,1,0,0:0:0:0:
475,192,112168,1,0,0:0:0:0:
402,192,112168,1,0,0:0:0:0:
256,192,112168,1,0,0:0:0:0:
329,192,112168,1,0,0:0:0:0:
109,192,112303,1,0,0:0:0:0:
36,192,112303,1,0,0:0:0:0:
402,192,112303,1,0,0:0:0:0:
475,192,112303,1,0,0:0:0:0:
329,192,112303,1,0,0:0:0:0:
182,192,112438,1,0,0:0:0:0:
329,192,112505,1,0,0:0:0:0:
402,192,112505,1,0,0:0:0:0:
36,192,112573,1,0,0:0:0:0:
109,192,112573,1,0,0:0:0:0:
256,192,112573,1,0,0:0:0:0:
329,192,112708,1,0,0:0:0:0:
182,192,112708,1,0,0:0:0:0:
475,192,112708,1,0,0:0:0:0:
109,192,112843,1,0,0:0:0:0:
256,192,112843,1,0,0:0:0:0:
402,192,112843,1,0,0:0:0:0:
36,192,112843,1,0,0:0:0:0:
109,192,112978,1,0,0:0:0:0:
256,192,112978,1,0,0:0:0:0:
402,192,112978,1,0,0:0:0:0:
182,192,113113,1,0,0:0:0:0:
329,192,113113,1,0,0:0:0:0:
36,192,113113,1,0,0:0:0:0:
475,192,113113,1,0,0:0:0:0:
182,192,113248,1,0,0:0:0:0:
329,192,113248,1,0,0:0:0:0:
475,192,113248,1,0,0:0:0:0:
36,192,113248,1,0,0:0:0:0:
256,192,113383,1,0,0:0:0:0:
402,192,113383,1,0,0:0:0:0:
475,192,113383,1,0,0:0:0:0:
256,192,113518,1,0,0:0:0:0:
402,192,113518,1,0,0:0:0:0:
475,192,113518,1,0,0:0:0:0:
109,192,113518,1,0,0:0:0:0:
109,192,113653,1,0,0:0:0:0:
36,192,113653,1,0,0:0:0:0:
329,192,113653,1,0,0:0:0:0:
182,192,113653,1,0,0:0:0:0:
36,192,113788,1,0,0:0:0:0:
182,192,113788,1,0,0:0:0:0:
329,192,113788,1,0,0:0:0:0:
109,192,113923,1,0,0:0:0:0:
256,192,113923,1,0,0:0:0:0:
402,192,113923,1,0,0:0:0:0:
475,192,113923,1,0,0:0:0:0:
402,192,114058,1,0,0:0:0:0:
256,192,114058,1,0,0:0:0:0:
475,192,114058,1,0,0:0:0:0:
182,192,114193,1,0,0:0:0:0:
36,192,114193,1,0,0:0:0:0:
329,192,114193,1,0,0:0:0:0:
109,192,114193,1,0,0:0:0:0:
182,192,114328,1,0,0:0:0:0:
109,192,114328,1,0,0:0:0:0:
329,192,114328,1,0,0:0:0:0:
36,192,114463,1,0,0:0:0:0:
256,192,114463,1,0,0:0:0:0:
402,192,114463,1,0,0:0:0:0:
475,192,114463,1,0,0:0:0:0:
36,192,114598,1,0,0:0:0:0:
256,192,114598,1,0,0:0:0:0:
402,192,114598,1,0,0:0:0:0:
109,192,114733,1,0,0:0:0:0:
182,192,114733,1,0,0:0:0:0:
329,192,114733,1,0,0:0:0:0:
475,192,114733,1,0,0:0:0:0:
329,192,114868,1,0,0:0:0:0:
182,192,114868,1,0,0:0:0:0:
109,192,114868,1,0,0:0:0:0:
36,192,115003,1,0,0:0:0:0:
402,192,115003,1,0,0:0:0:0:
475,192,115003,1,0,0:0:0:0:
256,192,115003,1,0,0:0:0:0:
256,192,115138,1,0,0:0:0:0:
402,192,115138,1,0,0:0:0:0:
475,192,115138,1,0,0:0:0:0:
182,192,115273,1,0,0:0:0:0:
109,192,115273,1,0,0:0:0:0:
36,192,115273,1,0,0:0:0:0:
329,192,115273,1,0,0:0:0:0:
109,192,115408,1,0,0:0:0:0:
182,192,115408,1,0,0:0:0:0:
36,192,115408,1,0,0:0:0:0:
329,192,115475,1,0,0:0:0:0:
402,192,115475,1,0,0:0:0:0:
256,192,115543,1,0,0:0:0:0:
182,192,115543,1,0,0:0:0:0:
36,192,115543,128,0,116555:0:0:0:0:
475,192,115543,1,0,0:0:0:0:
329,192,115678,1,0,0:0:0:0:
402,192,115678,1,0,0:0:0:0:
109,192,115745,1,0,0:0:0:0:
182,192,115745,1,0,0:0:0:0:
256,192,115813,1,0,0:0:0:0:
402,192,115813,1,0,0:0:0:0:
475,192,115813,1,0,0:0:0:0:
329,192,115813,1,0,0:0:0:0:
182,192,115880,1,0,0:0:0:0:
475,192,115948,1,0,0:0:0:0:
402,192,115948,1,0,0:0:0:0:
109,192,115948,1,0,0:0:0:0:
329,192,115981,1,0,0:0:0:0:
256,192,116015,1,0,0:0:0:0:
182,192,116049,1,0,0:0:0:0:
109,192,116083,1,0,0:0:0:0:
475,192,116083,1,0,0:0:0:0:
402,192,116083,1,0,0:0:0:0:
329,192,116150,1,0,0:0:0:0:
256,192,116150,1,0,0:0:0:0:
182,192,116218,1,0,0:0:0:0:
109,192,116218,1,0,0:0:0:0:
475,192,116218,1,0,0:0:0:0:
402,192,116251,1,0,0:0:0:0:
329,192,116285,1,0,0:0:0:0:
256,192,116319,1,0,0:0:0:0:
182,192,116353,1,0,0:0:0:0:
109,192,116353,1,0,0:0:0:0:
402,192,116420,1,0,0:0:0:0:
475,192,116420,1,0,0:0:0:0:
182,192,116488,1,0,0:0:0:0:
109,192,116488,1,0,0:0:0:0:
329,192,116488,1,0,0:0:0:0:
402,192,116555,1,0,0:0:0:0:
475,192,116555,1,0,0:0:0:0:
109,192,116623,1,0,0:0:0:0:
36,192,116623,1,0,0:0:0:0:
182,192,116623,1,0,0:0:0:0:
256,192,116623,1,0,0:0:0:0:
109,192,116758,1,0,0:0:0:0:
256,192,116758,1,0,0:0:0:0:
36,192,116758,1,0,0:0:0:0:
182,192,116893,1,0,0:0:0:0:
329,192,116893,1,0,0:0:0:0:
402,192,116893,1,0,0:0:0:0:
36,192,116893,1,0,0:0:0:0:
182,192,117028,1,0,0:0:0:0:
402,192,117028,1,0,0:0:0:0:
329,192,117028,1,0,0:0:0:0:
256,192,117163,1,0,0:0:0:0:
109,192,117163,1,0,0:0:0:0:
475,192,117163,1,0,0:0:0:0:
36,192,117163,1,0,0:0:0:0:
256,192,117298,1,0,0:0:0:0:
109,192,117298,1,0,0:0:0:0:
475,192,117298,1,0,0:0:0:0:
182,192,117433,1,0,0:0:0:0:
36,192,117433,1,0,0:0:0:0:
329,192,117433,1,0,0:0:0:0:
402,192,117433,1,0,0:0:0:0:
329,192,117568,1,0,0:0:0:0:
182,192,117568,1,0,0:0:0:0:
36,192,117568,1,0,0:0:0:0:
109,192,117703,1,0,0:0:0:0:
256,192,117703,1,0,0:0:0:0:
402,192,117703,1,0,0:0:0:0:
475,192,117703,1,0,0:0:0:0:
182,192,117793,1,0,0:0:0:0:
36,192,117793,1,0,0:0:0:0:
329,192,117793,1,0,0:0:0:0:
256,192,117883,1,0,0:0:0:0:
402,192,117883,1,0,0:0:0:0:
475,192,117883,1,0,0:0:0:0:
36,192,117973,1,0,0:0:0:0:
109,192,117973,1,0,0:0:0:0:
182,192,117973,1,0,0:0:0:0:
329,192,117973,1,0,0:0:0:0:
475,192,117973,1,0,0:0:0:0:
36,192,118108,1,0,0:0:0:0:
109,192,118108,1,0,0:0:0:0:
329,192,118108,1,0,0:0:0:0:
109,192,118243,1,0,0:0:0:0:
182,192,118243,1,0,0:0:0:0:
402,192,118243,1,0,0:0:0:0:
475,192,118243,1,0,0:0:0:0:
182,192,118378,1,0,0:0:0:0:
109,192,118378,1,0,0:0:0:0:
329,192,118378,1,0,0:0:0:0:
402,192,118445,1,0,0:0:0:0:
475,192,118445,1,0,0:0:0:0:
182,192,118513,1,0,0:0:0:0:
256,192,118513,1,0,0:0:0:0:
36,192,118513,1,0,0:0:0:0:
329,192,118513,1,0,0:0:0:0:
36,192,118648,1,0,0:0:0:0:
182,192,118648,1,0,0:0:0:0:
256,192,118648,1,0,0:0:0:0:
402,192,118715,1,0,0:0:0:0:
475,192,118715,1,0,0:0:0:0:
36,192,118783,1,0,0:0:0:0:
182,192,118783,1,0,0:0:0:0:
256,192,118783,1,0,0:0:0:0:
329,192,118783,1,0,0:0:0:0:
182,192,118918,1,0,0:0:0:0:
329,192,118918,1,0,0:0:0:0:
109,192,118918,1,0,0:0:0:0:
256,192,119053,1,0,0:0:0:0:
402,192,119053,1,0,0:0:0:0:
475,192,119053,1,0,0:0:0:0:
36,192,119053,1,0,0:0:0:0:
256,192,119188,1,0,0:0:0:0:
402,192,119188,1,0,0:0:0:0:
475,192,119188,1,0,0:0:0:0:
182,192,119323,1,0,0:0:0:0:
36,192,119323,1,0,0:0:0:0:
329,192,119323,1,0,0:0:0:0:
109,192,119323,1,0,0:0:0:0:
109,192,119458,1,0,0:0:0:0:
182,192,119458,1,0,0:0:0:0:
329,192,119458,1,0,0:0:0:0:
256,192,119593,1,0,0:0:0:0:
402,192,119593,1,0,0:0:0:0:
475,192,119593,1,0,0:0:0:0:
36,192,119593,1,0,0:0:0:0:
256,192,119728,1,0,0:0:0:0:
36,192,119728,1,0,0:0:0:0:
402,192,119728,1,0,0:0:0:0:
109,192,119863,1,0,0:0:0:0:
182,192,119863,1,0,0:0:0:0:
329,192,119863,1,0,0:0:0:0:
475,192,119863,1,0,0:0:0:0:
182,192,119998,1,0,0:0:0:0:
329,192,119998,1,0,0:0:0:0:
475,192,119998,1,0,0:0:0:0:
36,192,120133,1,0,0:0:0:0:
109,192,120133,1,0,0:0:0:0:
256,192,120133,1,0,0:0:0:0:
402,192,120133,1,0,0:0:0:0:
402,192,120268,1,0,0:0:0:0:
256,192,120268,1,0,0:0:0:0:
109,192,120268,1,0,0:0:0:0:
36,192,120403,1,0,0:0:0:0:
182,192,120403,1,0,0:0:0:0:
329,192,120403,1,0,0:0:0:0:
475,192,120403,1,0,0:0:0:0:
329,192,120538,1,0,0:0:0:0:
182,192,120538,1,0,0:0:0:0:
36,192,120538,1,0,0:0:0:0:
109,192,120673,1,0,0:0:0:0:
256,192,120673,1,0,0:0:0:0:
402,192,120673,1,0,0:0:0:0:
475,192,120673,1,0,0:0:0:0:
109,192,120808,1,0,0:0:0:0:
256,192,120808,1,0,0:0:0:0:
402,192,120808,1,0,0:0:0:0:
475,192,120943,1,0,0:0:0:0:
36,192,120943,1,0,0:0:0:0:
256,192,120943,1,0,0:0:0:0:
402,192,120943,1,0,0:0:0:0:
182,192,121010,1,0,0:0:0:0:
109,192,121078,1,0,0:0:0:0:
402,192,121145,1,0,0:0:0:0:
475,192,121145,1,0,0:0:0:0:
256,192,121213,1,0,0:0:0:0:
36,192,121213,1,0,0:0:0:0:
329,192,121213,1,0,0:0:0:0:
182,192,121280,1,0,0:0:0:0:
109,192,121348,1,0,0:0:0:0:
402,192,121348,1,0,0:0:0:0:
329,192,121415,1,0,0:0:0:0:
36,192,121483,1,0,0:0:0:0:
256,192,121483,1,0,0:0:0:0:
182,192,121483,1,0,0:0:0:0:
402,192,121550,1,0,0:0:0:0:
475,192,121550,1,0,0:0:0:0:
329,192,121618,1,0,0:0:0:0:
256,192,121685,1,0,0:0:0:0:
182,192,121753,1,0,0:0:0:0:
109,192,121753,1,0,0:0:0:0:
36,192,121753,1,0,0:0:0:0:
402,192,121753,1,0,0:0:0:0:
329,192,121820,1,0,0:0:0:0:
256,192,121888,1,0,0:0:0:0:
475,192,121888,1,0,0:0:0:0:
109,192,121888,1,0,0:0:0:0:
182,192,121888,1,0,0:0:0:0:
402,192,121955,1,0,0:0:0:0:
329,192,122023,1,0,0:0:0:0:
36,192,122023,1,0,0:0:0:0:
109,192,122158,1,0,0:0:0:0:
256,192,122158,1,0,0:0:0:0:
329,192,122158,1,0,0:0:0:0:
475,192,122158,1,0,0:0:0:0:
182,192,122293,1,0,0:0:0:0:
36,192,122293,1,0,0:0:0:0:
256,192,122293,1,0,0:0:0:0:
402,192,122293,1,0,0:0:0:0:
36,192,122428,1,0,0:0:0:0:
182,192,122428,1,0,0:0:0:0:
402,192,122428,1,0,0:0:0:0:
109,192,122563,1,0,0:0:0:0:
329,192,122563,1,0,0:0:0:0:
256,192,122563,1,0,0:0:0:0:
475,192,122563,1,0,0:0:0:0:
256,192,122698,1,0,0:0:0:0:
329,192,122698,1,0,0:0:0:0:
475,192,122698,1,0,0:0:0:0:
36,192,122765,1,0,0:0:0:0:
109,192,122765,1,0,0:0:0:0:
256,192,122833,1,0,0:0:0:0:
329,192,122833,1,0,0:0:0:0:
475,192,122833,1,0,0:0:0:0:
329,192,122968,1,0,0:0:0:0:
475,192,122968,1,0,0:0:0:0:
182,192,122968,1,0,0:0:0:0:
36,192,122968,1,0,0:0:0:0:
109,192,123103,1,0,0:0:0:0:
256,192,123103,1,0,0:0:0:0:
402,192,123103,1,0,0:0:0:0:
36,192,123103,1,0,0:0:0:0:
182,192,123238,1,0,0:0:0:0:
329,192,123238,1,0,0:0:0:0:
109,192,123305,1,0,0:0:0:0:
402,192,123305,1,0,0:0:0:0:
475,192,123305,1,0,0:0:0:0:
36,192,123373,1,0,0:0:0:0:
256,192,123373,1,0,0:0:0:0:
329,192,123440,1,0,0:0:0:0:
402,192,123508,1,0,0:0:0:0:
475,192,123508,1,0,0:0:0:0:
256,192,123575,1,0,0:0:0:0:
182,192,123643,1,0,0:0:0:0:
109,192,123643,1,0,0:0:0:0:
36,192,123643,1,0,0:0:0:0:
402,192,123710,1,0,0:0:0:0:
329,192,123710,1,0,0:0:0:0:
182,192,123778,1,0,0:0:0:0:
256,192,123778,1,0,0:0:0:0:
109,192,123845,1,0,0:0:0:0:
36,192,123845,1,0,0:0:0:0:
329,192,123913,1,0,0:0:0:0:
402,192,123913,1,0,0:0:0:0:
475,192,123913,1,0,0:0:0:0:
256,192,123980,1,0,0:0:0:0:
182,192,124048,1,0,0:0:0:0:
109,192,124048,1,0,0:0:0:0:
36,192,124048,1,0,0:0:0:0:
256,192,124115,1,0,0:0:0:0:
329,192,124183,1,0,0:0:0:0:
402,192,124183,1,0,0:0:0:0:
36,192,124183,1,0,0:0:0:0:
475,192,124183,128,0,124655:0:0:0:0:
109,192,124250,1,0,0:0:0:0:
182,192,124318,1,0,0:0:0:0:
256,192,124318,1,0,0:0:0:0:
329,192,124385,1,0,0:0:0:0:
402,192,124385,1,0,0:0:0:0:
36,192,124453,128,0,124925:0:0:0:0:
182,192,124453,1,0,0:0:0:0:
109,192,124453,1,0,0:0:0:0:
256,192,124453,1,0,0:0:0:0:
402,192,124520,1,0,0:0:0:0:
329,192,124588,1,0,0:0:0:0:
256,192,124588,1,0,0:0:0:0:
182,192,124655,1,0,0:0:0:0:
109,192,124655,1,0,0:0:0:0:
402,192,124723,1,0,0:0:0:0:
475,192,124723,128,0,125195:0:0:0:0:
329,192,124723,1,0,0:0:0:0:
256,192,124790,1,0,0:0:0:0:
182,192,124790,1,0,0:0:0:0:
109,192,124858,1,0,0:0:0:0:
402,192,124858,1,0,0:0:0:0:
329,192,124891,1,0,0:0:0:0:
256,192,124925,1,0,0:0:0:0:
182,192,124959,1,0,0:0:0:0:
36,192,124993,128,0,125195:0:0:0:0:
109,192,124993,1,0,0:0:0:0:
402,192,124993,1,0,0:0:0:0:
329,192,124993,1,0,0:0:0:0:
256,192,125060,1,0,0:0:0:0:
182,192,125060,1,0,0:0:0:0:
109,192,125128,1,0,0:0:0:0:
402,192,125128,1,0,0:0:0:0:
256,192,125195,1,0,0:0:0:0:
329,192,125195,1,0,0:0:0:0:
109,192,125263,1,0,0:0:0:0:
402,192,125263,128,0,125398:0:0:0:0:
475,192,125263,128,0,125398:0:0:0:0:
182,192,125263,1,0,0:0:0:0:
36,192,125263,1,0,0:0:0:0:
256,192,125330,1,0,0:0:0:0:
36,192,125398,1,0,0:0:0:0:
182,192,125398,1,0,0:0:0:0:
402,192,125465,128,0,125600:0:0:0:0:
475,192,125465,128,0,125600:0:0:0:0:
329,192,125465,1,0,0:0:0:0:
256,192,125533,1,0,0:0:0:0:
109,192,125533,1,0,0:0:0:0:
36,192,125600,1,0,0:0:0:0:
402,192,125668,128,0,125803:0:0:0:0:
475,192,125668,128,0,125803:0:0:0:0:
329,192,125668,1,0,0:0:0:0:
182,192,125668,1,0,0:0:0:0:
109,192,125735,1,0,0:0:0:0:
36,192,125803,1,0,0:0:0:0:
182,192,125803,1,0,0:0:0:0:
256,192,125803,1,0,0:0:0:0:
329,192,125870,128,0,126005:0:0:0:0:
475,192,125870,128,0,126005:0:0:0:0:
402,192,125870,1,0,0:0:0:0:
36,192,125938,1,0,0:0:0:0:
109,192,125938,1,0,0:0:0:0:
182,192,126005,1,0,0:0:0:0:
329,192,126073,128,0,126140:0:0:0:0:
475,192,126073,128,0,126140:0:0:0:0:
402,192,126073,1,0,0:0:0:0:
256,192,126073,1,0,0:0:0:0:
36,192,126073,1,0,0:0:0:0:
109,192,126140,1,0,0:0:0:0:
329,192,126208,128,0,126275:0:0:0:0:
475,192,126208,128,0,126275:0:0:0:0:
402,192,126208,1,0,0:0:0:0:
182,192,126208,1,0,0:0:0:0:
256,192,126208,1,0,0:0:0:0:
109,192,126275,1,0,0:0:0:0:
329,192,126343,128,0,126478:0:0:0:0:
402,192,126343,128,0,126478:0:0:0:0:
36,192,126343,1,0,0:0:0:0:
256,192,126343,1,0,0:0:0:0:
475,192,126343,1,0,0:0:0:0:
182,192,126410,1,0,0:0:0:0:
109,192,126478,1,0,0:0:0:0:
36,192,126478,1,0,0:0:0:0:
329,192,126545,128,0,126680:0:0:0:0:
402,192,126545,128,0,126680:0:0:0:0:
475,192,126545,1,0,0:0:0:0:
256,192,126545,1,0,0:0:0:0:
109,192,126613,1,0,0:0:0:0:
182,192,126613,1,0,0:0:0:0:
36,192,126680,1,0,0:0:0:0:
329,192,126748,128,0,126883:0:0:0:0:
402,192,126748,128,0,126883:0:0:0:0:
475,192,126748,1,0,0:0:0:0:
182,192,126748,1,0,0:0:0:0:
256,192,126748,1,0,0:0:0:0:
109,192,126815,1,0,0:0:0:0:
475,192,126883,1,0,0:0:0:0:
256,192,126883,1,0,0:0:0:0:
36,192,126883,1,0,0:0:0:0:
109,192,126950,128,0,127085:0:0:0:0:
182,192,126950,128,0,127085:0:0:0:0:
329,192,126950,1,0,0:0:0:0:
402,192,127018,1,0,0:0:0:0:
475,192,127018,1,0,0:0:0:0:
329,192,127085,1,0,0:0:0:0:
109,192,127153,128,0,127220:0:0:0:0:
182,192,127153,128,0,127220:0:0:0:0:
256,192,127153,1,0,0:0:0:0:
475,192,127153,1,0,0:0:0:0:
36,192,127153,1,0,0:0:0:0:
402,192,127220,1,0,0:0:0:0:
109,192,127288,128,0,127355:0:0:0:0:
182,192,127288,128,0,127355:0:0:0:0:
475,192,127288,1,0,0:0:0:0:
36,192,127288,1,0,0:0:0:0:
329,192,127288,1,0,0:0:0:0:
256,192,127355,1,0,0:0:0:0:
475,192,127423,128,0,127558:0:0:0:0:
402,192,127423,128,0,127558:0:0:0:0:
182,192,127423,1,0,0:0:0:0:
36,192,127423,1,0,0:0:0:0:
329,192,127423,1,0,0:0:0:0:
256,192,127490,1,0,0:0:0:0:
36,192,127558,1,0,0:0:0:0:
109,192,127558,1,0,0:0:0:0:
402,192,127625,128,0,127760:0:0:0:0:
475,192,127625,128,0,127760:0:0:0:0:
182,192,127625,1,0,0:0:0:0:
329,192,127625,1,0,0:0:0:0:
36,192,127693,1,0,0:0:0:0:
109,192,127693,1,0,0:0:0:0:
256,192,127760,1,0,0:0:0:0:
475,192,127828,128,0,127963:0:0:0:0:
402,192,127828,128,0,127963:0:0:0:0:
109,192,127828,1,0,0:0:0:0:
329,192,127828,1,0,0:0:0:0:
182,192,127828,1,0,0:0:0:0:
36,192,127895,1,0,0:0:0:0:
256,192,127963,1,0,0:0:0:0:
182,192,127963,1,0,0:0:0:0:
109,192,127963,1,0,0:0:0:0:
402,192,128030,128,0,128165:0:0:0:0:
329,192,128030,128,0,128165:0:0:0:0:
475,192,128030,1,0,0:0:0:0:
36,192,128030,1,0,0:0:0:0:
182,192,128098,1,0,0:0:0:0:
256,192,128098,1,0,0:0:0:0:
109,192,128165,1,0,0:0:0:0:
329,192,128233,128,0,128300:0:0:0:0:
402,192,128233,128,0,128300:0:0:0:0:
475,192,128233,1,0,0:0:0:0:
256,192,128233,1,0,0:0:0:0:
36,192,128233,1,0,0:0:0:0:
182,192,128300,1,0,0:0:0:0:
329,192,128368,128,0,128435:0:0:0:0:
402,192,128368,128,0,128435:0:0:0:0:
36,192,128368,1,0,0:0:0:0:
109,192,128368,1,0,0:0:0:0:
475,192,128368,1,0,0:0:0:0:
256,192,128435,1,0,0:0:0:0:
36,192,128503,128,0,128638:0:0:0:0:
182,192,128503,128,0,128638:0:0:0:0:
402,192,128503,1,0,0:0:0:0:
329,192,128503,1,0,0:0:0:0:
109,192,128503,1,0,0:0:0:0:
475,192,128570,1,0,0:0:0:0:
329,192,128638,1,0,0:0:0:0:
256,192,128638,1,0,0:0:0:0:
36,192,128705,128,0,128840:0:0:0:0:
182,192,128705,128,0,128840:0:0:0:0:
402,192,128705,1,0,0:0:0:0:
475,192,128705,1,0,0:0:0:0:
109,192,128705,1,0,0:0:0:0:
329,192,128773,1,0,0:0:0:0:
256,192,128773,1,0,0:0:0:0:
109,192,128908,128,0,129043:0:0:0:0:
256,192,128908,128,0,129043:0:0:0:0:
402,192,128908,1,0,0:0:0:0:
475,192,128908,1,0,0:0:0:0:
36,192,128908,1,0,0:0:0:0:
182,192,129043,128,0,129178:0:0:0:0:
329,192,129043,128,0,129178:0:0:0:0:
36,192,129043,1,0,0:0:0:0:
475,192,129043,1,0,0:0:0:0:
256,192,129178,128,0,129313:0:0:0:0:
402,192,129178,128,0,129313:0:0:0:0:
36,192,129178,1,0,0:0:0:0:
109,192,129178,1,0,0:0:0:0:
329,192,129313,128,0,129448:0:0:0:0:
475,192,129313,128,0,129448:0:0:0:0:
109,192,129313,1,0,0:0:0:0:
182,192,129313,1,0,0:0:0:0:
36,192,129448,128,0,129583:0:0:0:0:
402,192,129448,128,0,129583:0:0:0:0:
182,192,129448,1,0,0:0:0:0:
256,192,129448,1,0,0:0:0:0:
256,192,129583,1,0,0:0:0:0:
475,192,129583,1,0,0:0:0:0:
109,192,129583,128,0,129718:0:0:0:0:
182,192,129583,128,0,129718:0:0:0:0:
329,192,129650,1,0,0:0:0:0:
402,192,129718,1,0,0:0:0:0:
475,192,129718,1,0,0:0:0:0:
109,192,129785,128,0,129920:0:0:0:0:
182,192,129785,128,0,129920:0:0:0:0:
36,192,129785,1,0,0:0:0:0:
475,192,129853,1,0,0:0:0:0:
402,192,129853,1,0,0:0:0:0:
256,192,129853,1,0,0:0:0:0:
329,192,129920,1,0,0:0:0:0:
109,192,129988,128,0,130055:0:0:0:0:
182,192,129988,128,0,130055:0:0:0:0:
475,192,129988,1,0,0:0:0:0:
256,192,129988,1,0,0:0:0:0:
36,192,129988,1,0,0:0:0:0:
402,192,130055,1,0,0:0:0:0:
36,192,130123,1,0,0:0:0:0:
109,192,130123,1,0,0:0:0:0:
256,192,130123,128,0,130190:0:0:0:0:
329,192,130123,128,0,130190:0:0:0:0:
36,192,130258,1,0,0:0:0:0:
109,192,130258,1,0,0:0:0:0:
256,192,130258,128,0,130325:0:0:0:0:
329,192,130258,128,0,130325:0:0:0:0:
109,192,130393,1,0,0:0:0:0:
329,192,130393,128,0,130460:0:0:0:0:
402,192,130393,128,0,130460:0:0:0:0:
182,192,130393,1,0,0:0:0:0:
109,192,130528,1,0,0:0:0:0:
329,192,130528,128,0,130595:0:0:0:0:
402,192,130528,128,0,130595:0:0:0:0:
182,192,130528,1,0,0:0:0:0:
402,192,130663,128,0,130730:0:0:0:0:
475,192,130663,128,0,130730:0:0:0:0:
256,192,130663,1,0,0:0:0:0:
402,192,130798,128,0,130865:0:0:0:0:
475,192,130798,128,0,130865:0:0:0:0:
109,192,130798,1,0,0:0:0:0:
182,192,130798,1,0,0:0:0:0:
329,192,130933,128,0,131000:0:0:0:0:
402,192,130933,128,0,131000:0:0:0:0:
109,192,130933,1,0,0:0:0:0:
182,192,130933,1,0,0:0:0:0:
329,192,131068,128,0,131135:0:0:0:0:
402,192,131068,128,0,131135:0:0:0:0:
36,192,131068,1,0,0:0:0:0:
109,192,131068,1,0,0:0:0:0:
256,192,131203,128,0,131270:0:0:0:0:
329,192,131203,128,0,131270:0:0:0:0:
36,192,131203,1,0,0:0:0:0:
109,192,131203,1,0,0:0:0:0:
329,192,131338,128,0,131405:0:0:0:0:
256,192,131338,128,0,131405:0:0:0:0:
36,192,131338,1,0,0:0:0:0:
109,192,131338,1,0,0:0:0:0:
182,192,131473,128,0,131540:0:0:0:0:
256,192,131473,128,0,131540:0:0:0:0:
36,192,131473,1,0,0:0:0:0:
109,192,131473,1,0,0:0:0:0:
256,192,131608,128,0,131675:0:0:0:0:
182,192,131608,128,0,131675:0:0:0:0:
109,192,131608,1,0,0:0:0:0:
36,192,131608,1,0,0:0:0:0:
182,192,131743,128,0,131810:0:0:0:0:
256,192,131743,128,0,131810:0:0:0:0:
402,192,131743,1,0,0:0:0:0:
475,192,131743,1,0,0:0:0:0:
182,192,131878,128,0,131945:0:0:0:0:
256,192,131878,128,0,131945:0:0:0:0:
402,192,131878,1,0,0:0:0:0:
475,192,131878,1,0,0:0:0:0:
109,192,132013,128,0,132080:0:0:0:0:
182,192,132013,128,0,132080:0:0:0:0:
475,192,132013,1,0,0:0:0:0:
402,192,132013,1,0,0:0:0:0:
109,192,132148,128,0,132215:0:0:0:0:
182,192,132148,128,0,132215:0:0:0:0:
475,192,132148,1,0,0:0:0:0:
402,192,132148,1,0,0:0:0:0:
36,192,132283,128,0,132350:0:0:0:0:
109,192,132283,128,0,132350:0:0:0:0:
475,192,132283,1,0,0:0:0:0:
402,192,132283,1,0,0:0:0:0:
109,192,132418,128,0,132485:0:0:0:0:
36,192,132418,128,0,132485:0:0:0:0:
475,192,132418,1,0,0:0:0:0:
402,192,132418,1,0,0:0:0:0:
329,192,132553,128,0,132620:0:0:0:0:
402,192,132553,128,0,132620:0:0:0:0:
182,192,132553,1,0,0:0:0:0:
109,192,132553,1,0,0:0:0:0:
329,192,132688,128,0,132755:0:0:0:0:
402,192,132688,128,0,132755:0:0:0:0:
109,192,132688,1,0,0:0:0:0:
182,192,132688,1,0,0:0:0:0:
256,192,132755,1,0,0:0:0:0:
475,192,132823,128,0,133835:0:0:0:0:
402,192,132823,1,0,0:0:0:0:
329,192,132823,1,0,0:0:0:0:
36,192,132823,128,0,132890:0:0:0:0:
109,192,132823,128,0,132890:0:0:0:0:
182,192,132958,1,0,0:0:0:0:
36,192,132958,1,0,0:0:0:0:
329,192,133025,1,0,0:0:0:0:
402,192,133025,1,0,0:0:0:0:
256,192,133093,1,0,0:0:0:0:
109,192,133093,1,0,0:0:0:0:
36,192,133093,1,0,0:0:0:0:
182,192,133093,1,0,0:0:0:0:
329,192,133160,1,0,0:0:0:0:
109,192,133228,1,0,0:0:0:0:
402,192,133228,1,0,0:0:0:0:
36,192,133228,1,0,0:0:0:0:
182,192,133262,1,0,0:0:0:0:
256,192,133295,1,0,0:0:0:0:
329,192,133329,1,0,0:0:0:0:
109,192,133363,1,0,0:0:0:0:
36,192,133363,1,0,0:0:0:0:
402,192,133363,1,0,0:0:0:0:
182,192,133430,1,0,0:0:0:0:
256,192,133430,1,0,0:0:0:0:
329,192,133498,1,0,0:0:0:0:
402,192,133498,1,0,0:0:0:0:
36,192,133498,1,0,0:0:0:0:
109,192,133532,1,0,0:0:0:0:
182,192,133565,1,0,0:0:0:0:
256,192,133599,1,0,0:0:0:0:
329,192,133633,1,0,0:0:0:0:
402,192,133633,1,0,0:0:0:0:
36,192,133633,1,0,0:0:0:0:
109,192,133700,1,0,0:0:0:0:
182,192,133700,1,0,0:0:0:0:
329,192,133768,1,0,0:0:0:0:
402,192,133768,1,0,0:0:0:0:
256,192,133768,1,0,0:0:0:0:
109,192,133835,1,0,0:0:0:0:
36,192,133835,1,0,0:0:0:0:
402,192,133903,1,0,0:0:0:0:
256,192,133903,1,0,0:0:0:0:
475,192,133903,1,0,0:0:0:0:
182,192,133903,1,0,0:0:0:0:
109,192,134038,1,0,0:0:0:0:
182,192,134038,1,0,0:0:0:0:
36,192,134038,1,0,0:0:0:0:
329,192,134038,1,0,0:0:0:0:
109,192,134173,1,0,0:0:0:0:
256,192,134173,1,0,0:0:0:0:
402,192,134173,1,0,0:0:0:0:
475,192,134173,1,0,0:0:0:0:
109,192,134308,1,0,0:0:0:0:
256,192,134308,1,0,0:0:0:0:
402,192,134308,1,0,0:0:0:0:
182,192,134443,1,0,0:0:0:0:
329,192,134443,1,0,0:0:0:0:
475,192,134443,1,0,0:0:0:0:
36,192,134443,1,0,0:0:0:0:
182,192,134578,1,0,0:0:0:0:
329,192,134578,1,0,0:0:0:0:
475,192,134578,1,0,0:0:0:0:
256,192,134713,1,0,0:0:0:0:
402,192,134713,1,0,0:0:0:0:
475,192,134713,1,0,0:0:0:0:
109,192,134713,1,0,0:0:0:0:
256,192,134848,1,0,0:0:0:0:
402,192,134848,1,0,0:0:0:0:
475,192,134848,1,0,0:0:0:0:
109,192,134983,1,0,0:0:0:0:
182,192,134983,1,0,0:0:0:0:
329,192,134983,1,0,0:0:0:0:
36,192,134983,128,0,135163:0:0:0:0:
256,192,135073,1,0,0:0:0:0:
402,192,135073,1,0,0:0:0:0:
475,192,135073,1,0,0:0:0:0:
182,192,135163,1,0,0:0:0:0:
109,192,135163,1,0,0:0:0:0:
329,192,135163,1,0,0:0:0:0:
256,192,135253,1,0,0:0:0:0:
402,192,135253,1,0,0:0:0:0:
475,192,135253,1,0,0:0:0:0:
36,192,135253,1,0,0:0:0:0:
109,192,135253,1,0,0:0:0:0:
256,192,135388,1,0,0:0:0:0:
402,192,135388,1,0,0:0:0:0:
475,192,135388,1,0,0:0:0:0:
109,192,135523,1,0,0:0:0:0:
182,192,135523,1,0,0:0:0:0:
329,192,135523,1,0,0:0:0:0:
402,192,135523,1,0,0:0:0:0:
182,192,135658,1,0,0:0:0:0:
109,192,135658,1,0,0:0:0:0:
329,192,135725,1,0,0:0:0:0:
402,192,135725,1,0,0:0:0:0:
36,192,135793,1,0,0:0:0:0:
109,192,135793,1,0,0:0:0:0:
256,192,135793,1,0,0:0:0:0:
36,192,135928,1,0,0:0:0:0:
109,192,135928,1,0,0:0:0:0:
256,192,135928,1,0,0:0:0:0:
329,192,135928,1,0,0:0:0:0:
182,192,136063,1,0,0:0:0:0:
329,192,136063,1,0,0:0:0:0:
402,192,136063,1,0,0:0:0:0:
475,192,136063,1,0,0:0:0:0:
329,192,136198,1,0,0:0:0:0:
402,192,136198,1,0,0:0:0:0:
475,192,136198,1,0,0:0:0:0:
36,192,136333,1,0,0:0:0:0:
109,192,136333,1,0,0:0:0:0:
182,192,136333,1,0,0:0:0:0:
329,192,136333,1,0,0:0:0:0:
182,192,136468,1,0,0:0:0:0:
109,192,136468,1,0,0:0:0:0:
36,192,136468,1,0,0:0:0:0:
182,192,136603,1,0,0:0:0:0:
256,192,136603,1,0,0:0:0:0:
402,192,136603,1,0,0:0:0:0:
475,192,136603,1,0,0:0:0:0:
256,192,136738,1,0,0:0:0:0:
402,192,136738,1,0,0:0:0:0:
475,192,136738,1,0,0:0:0:0:
109,192,136873,1,0,0:0:0:0:
36,192,136873,1,0,0:0:0:0:
256,192,136873,1,0,0:0:0:0:
329,192,136873,1,0,0:0:0:0:
256,192,137008,1,0,0:0:0:0:
109,192,137008,1,0,0:0:0:0:
36,192,137008,1,0,0:0:0:0:
182,192,137143,1,0,0:0:0:0:
329,192,137143,1,0,0:0:0:0:
402,192,137143,1,0,0:0:0:0:
475,192,137143,1,0,0:0:0:0:
36,192,137210,1,0,0:0:0:0:
109,192,137210,1,0,0:0:0:0:
182,192,137278,1,0,0:0:0:0:
329,192,137278,1,0,0:0:0:0:
402,192,137278,1,0,0:0:0:0:
109,192,137345,1,0,0:0:0:0:
36,192,137345,1,0,0:0:0:0:
256,192,137413,1,0,0:0:0:0:
329,192,137413,1,0,0:0:0:0:
475,192,137413,1,0,0:0:0:0:
402,192,137413,1,0,0:0:0:0:
182,192,137480,1,0,0:0:0:0:
109,192,137480,1,0,0:0:0:0:
256,192,137548,1,0,0:0:0:0:
329,192,137548,1,0,0:0:0:0:
475,192,137548,1,0,0:0:0:0:
182,192,137615,1,0,0:0:0:0:
109,192,137615,1,0,0:0:0:0:
36,192,137683,1,0,0:0:0:0:
402,192,137683,1,0,0:0:0:0:
475,192,137683,1,0,0:0:0:0:
329,192,137683,1,0,0:0:0:0:
182,192,137750,1,0,0:0:0:0:
256,192,137750,1,0,0:0:0:0:
36,192,137818,1,0,0:0:0:0:
329,192,137818,1,0,0:0:0:0:
402,192,137818,1,0,0:0:0:0:
475,192,137818,1,0,0:0:0:0:
256,192,137885,1,0,0:0:0:0:
182,192,137885,1,0,0:0:0:0:
109,192,137953,1,0,0:0:0:0:
475,192,137953,1,0,0:0:0:0:
36,192,137953,1,0,0:0:0:0:
402,192,137953,1,0,0:0:0:0:
256,192,138020,1,0,0:0:0:0:
329,192,138020,1,0,0:0:0:0:
109,192,138088,1,0,0:0:0:0:
402,192,138088,1,0,0:0:0:0:
475,192,138088,1,0,0:0:0:0:
256,192,138155,1,0,0:0:0:0:
329,192,138155,1,0,0:0:0:0:
36,192,138223,1,0,0:0:0:0:
475,192,138223,1,0,0:0:0:0:
109,192,138223,1,0,0:0:0:0:
182,192,138223,1,0,0:0:0:0:
329,192,138290,1,0,0:0:0:0:
402,192,138358,1,0,0:0:0:0:
109,192,138425,1,0,0:0:0:0:
36,192,138425,1,0,0:0:0:0:
256,192,138493,1,0,0:0:0:0:
475,192,138493,1,0,0:0:0:0:
182,192,138493,1,0,0:0:0:0:
329,192,138560,1,0,0:0:0:0:
402,192,138628,1,0,0:0:0:0:
109,192,138628,1,0,0:0:0:0:
182,192,138695,1,0,0:0:0:0:
475,192,138763,1,0,0:0:0:0:
256,192,138763,1,0,0:0:0:0:
329,192,138763,1,0,0:0:0:0:
109,192,138830,1,0,0:0:0:0:
36,192,138830,1,0,0:0:0:0:
182,192,138898,1,0,0:0:0:0:
256,192,138965,1,0,0:0:0:0:
329,192,139033,1,0,0:0:0:0:
109,192,139033,1,0,0:0:0:0:
402,192,139033,1,0,0:0:0:0:
475,192,139033,1,0,0:0:0:0:
182,192,139100,1,0,0:0:0:0:
402,192,139168,1,0,0:0:0:0:
256,192,139168,1,0,0:0:0:0:
329,192,139168,1,0,0:0:0:0:
36,192,139168,1,0,0:0:0:0:
109,192,139235,1,0,0:0:0:0:
182,192,139303,1,0,0:0:0:0:
475,192,139303,1,0,0:0:0:0:
329,192,139438,1,0,0:0:0:0:
256,192,139438,1,0,0:0:0:0:
475,192,139438,1,0,0:0:0:0:
109,192,139438,1,0,0:0:0:0:
182,192,139573,1,0,0:0:0:0:
256,192,139573,1,0,0:0:0:0:
36,192,139573,1,0,0:0:0:0:
402,192,139573,1,0,0:0:0:0:
329,192,139708,1,0,0:0:0:0:
182,192,139708,1,0,0:0:0:0:
36,192,139708,1,0,0:0:0:0:
109,192,139843,1,0,0:0:0:0:
256,192,139843,1,0,0:0:0:0:
475,192,139843,1,0,0:0:0:0:
402,192,139843,1,0,0:0:0:0:
36,192,139978,1,0,0:0:0:0:
182,192,139978,1,0,0:0:0:0:
329,192,139978,1,0,0:0:0:0:
475,192,140045,1,0,0:0:0:0:
402,192,140045,1,0,0:0:0:0:
329,192,140113,1,0,0:0:0:0:
109,192,140113,1,0,0:0:0:0:
256,192,140113,1,0,0:0:0:0:
475,192,140248,1,0,0:0:0:0:
182,192,140248,1,0,0:0:0:0:
36,192,140248,1,0,0:0:0:0:
402,192,140248,1,0,0:0:0:0:
109,192,140383,1,0,0:0:0:0:
402,192,140383,1,0,0:0:0:0:
256,192,140383,1,0,0:0:0:0:
475,192,140383,1,0,0:0:0:0:
36,192,140518,1,0,0:0:0:0:
182,192,140518,1,0,0:0:0:0:
329,192,140585,1,0,0:0:0:0:
402,192,140653,1,0,0:0:0:0:
475,192,140653,1,0,0:0:0:0:
36,192,140788,1,0,0:0:0:0:
109,192,140788,1,0,0:0:0:0:
182,192,140855,1,0,0:0:0:0:
329,192,140923,1,0,0:0:0:0:
402,192,140990,1,0,0:0:0:0:
475,192,140990,1,0,0:0:0:0:
256,192,141058,1,0,0:0:0:0:
182,192,141125,1,0,0:0:0:0:
109,192,141193,1,0,0:0:0:0:
36,192,141193,1,0,0:0:0:0:
329,192,141260,1,0,0:0:0:0:
256,192,141328,1,0,0:0:0:0:
182,192,141328,1,0,0:0:0:0:
329,192,141395,1,0,0:0:0:0:
402,192,141463,1,0,0:0:0:0:
36,192,141463,128,0,141733:0:0:0:0:
475,192,141463,1,0,0:0:0:0:
182,192,141598,1,0,0:0:0:0:
256,192,141598,1,0,0:0:0:0:
109,192,141598,1,0,0:0:0:0:
329,192,141665,1,0,0:0:0:0:
402,192,141665,1,0,0:0:0:0:
475,192,141665,1,0,0:0:0:0:
109,192,141733,1,0,0:0:0:0:
182,192,141733,1,0,0:0:0:0:
256,192,141733,128,0,142003:0:0:0:0:
329,192,141868,1,0,0:0:0:0:
402,192,141868,1,0,0:0:0:0:
475,192,141868,1,0,0:0:0:0:
182,192,141935,1,0,0:0:0:0:
109,192,141935,1,0,0:0:0:0:
36,192,141935,1,0,0:0:0:0:
329,192,142003,1,0,0:0:0:0:
402,192,142003,1,0,0:0:0:0:
475,192,142003,128,0,142273:0:0:0:0:
36,192,142138,1,0,0:0:0:0:
109,192,142138,1,0,0:0:0:0:
182,192,142138,1,0,0:0:0:0:
256,192,142205,1,0,0:0:0:0:
329,192,142205,1,0,0:0:0:0:
402,192,142205,1,0,0:0:0:0:
182,192,142273,1,0,0:0:0:0:
109,192,142273,1,0,0:0:0:0:
36,192,142273,128,0,142475:0:0:0:0:
402,192,142340,1,0,0:0:0:0:
475,192,142340,1,0,0:0:0:0:
182,192,142408,1,0,0:0:0:0:
329,192,142408,1,0,0:0:0:0:
256,192,142408,1,0,0:0:0:0:
402,192,142475,1,0,0:0:0:0:
475,192,142475,1,0,0:0:0:0:
256,192,142543,1,0,0:0:0:0:
182,192,142543,1,0,0:0:0:0:
36,192,142543,1,0,0:0:0:0:
109,192,142543,1,0,0:0:0:0:
36,192,142678,1,0,0:0:0:0:
182,192,142678,1,0,0:0:0:0:
256,192,142678,1,0,0:0:0:0:
109,192,142678,1,0,0:0:0:0:
109,192,142813,1,0,0:0:0:0:
182,192,142813,1,0,0:0:0:0:
256,192,142813,1,0,0:0:0:0:
329,192,142813,1,0,0:0:0:0:
329,192,142948,1,0,0:0:0:0:
256,192,142948,1,0,0:0:0:0:
182,192,142948,1,0,0:0:0:0:
109,192,142948,1,0,0:0:0:0:
182,192,143083,1,0,0:0:0:0:
256,192,143083,1,0,0:0:0:0:
329,192,143083,1,0,0:0:0:0:
402,192,143083,1,0,0:0:0:0:
402,192,143218,1,0,0:0:0:0:
329,192,143218,1,0,0:0:0:0:
256,192,143218,1,0,0:0:0:0:
182,192,143218,1,0,0:0:0:0:
256,192,143353,1,0,0:0:0:0:
329,192,143353,1,0,0:0:0:0:
402,192,143353,1,0,0:0:0:0:
475,192,143353,1,0,0:0:0:0:
256,192,143488,1,0,0:0:0:0:
329,192,143488,1,0,0:0:0:0:
402,192,143488,1,0,0:0:0:0:
475,192,143488,1,0,0:0:0:0:
36,192,143623,1,0,0:0:0:0:
109,192,143623,1,0,0:0:0:0:
182,192,143623,1,0,0:0:0:0:
329,192,143690,1,0,0:0:0:0:
402,192,143690,1,0,0:0:0:0:
36,192,143758,1,0,0:0:0:0:
109,192,143758,1,0,0:0:0:0:
182,192,143758,1,0,0:0:0:0:
329,192,143825,1,0,0:0:0:0:
402,192,143825,1,0,0:0:0:0:
109,192,143893,1,0,0:0:0:0:
182,192,143893,1,0,0:0:0:0:
256,192,143893,1,0,0:0:0:0:
402,192,143960,1,0,0:0:0:0:
475,192,143960,1,0,0:0:0:0:
109,192,144028,1,0,0:0:0:0:
182,192,144028,1,0,0:0:0:0:
256,192,144028,1,0,0:0:0:0:
402,192,144095,1,0,0:0:0:0:
475,192,144095,1,0,0:0:0:0:
182,192,144163,1,0,0:0:0:0:
256,192,144163,1,0,0:0:0:0:
329,192,144163,1,0,0:0:0:0:
36,192,144230,1,0,0:0:0:0:
109,192,144230,1,0,0:0:0:0:
182,192,144298,1,0,0:0:0:0:
256,192,144298,1,0,0:0:0:0:
329,192,144298,1,0,0:0:0:0:
109,192,144365,1,0,0:0:0:0:
36,192,144365,1,0,0:0:0:0:
329,192,144433,1,0,0:0:0:0:
402,192,144433,1,0,0:0:0:0:
256,192,144433,1,0,0:0:0:0:
182,192,144500,1,0,0:0:0:0:
109,192,144500,1,0,0:0:0:0:
256,192,144568,1,0,0:0:0:0:
329,192,144568,1,0,0:0:0:0:
402,192,144568,1,0,0:0:0:0:
182,192,144635,1,0,0:0:0:0:
109,192,144635,1,0,0:0:0:0:
329,192,144703,1,0,0:0:0:0:
402,192,144703,1,0,0:0:0:0:
475,192,144703,1,0,0:0:0:0:
36,192,144703,1,0,0:0:0:0:
36,192,144838,1,0,0:0:0:0:
329,192,144838,1,0,0:0:0:0:
402,192,144838,1,0,0:0:0:0:
475,192,144838,1,0,0:0:0:0:
182,192,144973,1,0,0:0:0:0:
402,192,144973,1,0,0:0:0:0:
475,192,144973,1,0,0:0:0:0:
256,192,144973,1,0,0:0:0:0:
182,192,145108,1,0,0:0:0:0:
402,192,145108,1,0,0:0:0:0:
475,192,145108,1,0,0:0:0:0:
256,192,145108,1,0,0:0:0:0:
182,192,145243,1,0,0:0:0:0:
109,192,145243,1,0,0:0:0:0:
475,192,145243,1,0,0:0:0:0:
329,192,145243,1,0,0:0:0:0:
182,192,145378,1,0,0:0:0:0:
109,192,145378,1,0,0:0:0:0:
475,192,145378,1,0,0:0:0:0:
329,192,145378,1,0,0:0:0:0:
36,192,145513,1,0,0:0:0:0:
109,192,145513,1,0,0:0:0:0:
256,192,145513,1,0,0:0:0:0:
402,192,145580,1,0,0:0:0:0:
475,192,145580,1,0,0:0:0:0:
109,192,145648,1,0,0:0:0:0:
36,192,145648,1,0,0:0:0:0:
256,192,145648,1,0,0:0:0:0:
402,192,145715,1,0,0:0:0:0:
475,192,145715,1,0,0:0:0:0:
256,192,145783,1,0,0:0:0:0:
182,192,145783,1,0,0:0:0:0:
109,192,145783,1,0,0:0:0:0:
36,192,145783,128,0,145985:0:0:0:0:
329,192,145850,1,0,0:0:0:0:
402,192,145850,1,0,0:0:0:0:
109,192,145918,1,0,0:0:0:0:
475,192,145918,1,0,0:0:0:0:
182,192,145952,1,0,0:0:0:0:
256,192,145985,1,0,0:0:0:0:
329,192,146019,1,0,0:0:0:0:
475,192,146053,128,0,146255:0:0:0:0:
109,192,146053,1,0,0:0:0:0:
402,192,146053,1,0,0:0:0:0:
36,192,146053,1,0,0:0:0:0:
256,192,146120,1,0,0:0:0:0:
182,192,146120,1,0,0:0:0:0:
402,192,146188,1,0,0:0:0:0:
329,192,146188,1,0,0:0:0:0:
36,192,146188,1,0,0:0:0:0:
109,192,146222,1,0,0:0:0:0:
182,192,146255,1,0,0:0:0:0:
256,192,146289,1,0,0:0:0:0:
36,192,146323,128,0,146525:0:0:0:0:
329,192,146323,1,0,0:0:0:0:
402,192,146323,1,0,0:0:0:0:
475,192,146323,1,0,0:0:0:0:
109,192,146390,1,0,0:0:0:0:
182,192,146390,1,0,0:0:0:0:
329,192,146458,1,0,0:0:0:0:
402,192,146458,1,0,0:0:0:0:
256,192,146492,1,0,0:0:0:0:
182,192,146525,1,0,0:0:0:0:
109,192,146559,1,0,0:0:0:0:
475,192,146593,128,0,146795:0:0:0:0:
329,192,146593,1,0,0:0:0:0:
402,192,146593,1,0,0:0:0:0:
36,192,146593,1,0,0:0:0:0:
256,192,146660,1,0,0:0:0:0:
182,192,146660,1,0,0:0:0:0:
109,192,146728,1,0,0:0:0:0:
36,192,146728,1,0,0:0:0:0:
402,192,146728,1,0,0:0:0:0:
329,192,146762,1,0,0:0:0:0:
256,192,146795,1,0,0:0:0:0:
182,192,146829,1,0,0:0:0:0:
109,192,146863,1,0,0:0:0:0:
36,192,146863,128,0,148955:0:0:0:0:
475,192,146863,128,0,148955:0:0:0:0:
402,192,146863,128,0,146930:0:0:0:0:
329,192,146930,128,0,146998:0:0:0:0:
256,192,146998,128,0,147065:0:0:0:0:
182,192,147065,128,0,147133:0:0:0:0:
402,192,147133,1,0,0:0:0:0:
109,192,147133,128,0,147200:0:0:0:0:
329,192,147200,1,0,0:0:0:0:
256,192,147268,1,0,0:0:0:0:
182,192,147335,1,0,0:0:0:0:
402,192,147403,1,0,0:0:0:0:
109,192,147403,128,0,147470:0:0:0:0:
182,192,147470,128,0,147538:0:0:0:0:
256,192,147538,128,0,147605:0:0:0:0:
329,192,147605,128,0,147673:0:0:0:0:
109,192,147673,1,0,0:0:0:0:
402,192,147673,128,0,147740:0:0:0:0:
182,192,147740,1,0,0:0:0:0:
256,192,147808,1,0,0:0:0:0:
329,192,147875,1,0,0:0:0:0:
109,192,147943,1,0,0:0:0:0:
402,192,147943,128,0,148010:0:0:0:0:
329,192,148010,128,0,148078:0:0:0:0:
256,192,148078,128,0,148145:0:0:0:0:
182,192,148145,128,0,148213:0:0:0:0:
402,192,148213,1,0,0:0:0:0:
109,192,148213,128,0,148280:0:0:0:0:
329,192,148280,1,0,0:0:0:0:
256,192,148348,1,0,0:0:0:0:
182,192,148415,1,0,0:0:0:0:
402,192,148483,1,0,0:0:0:0:
109,192,148483,128,0,148550:0:0:0:0:
182,192,148550,128,0,148618:0:0:0:0:
256,192,148618,128,0,148685:0:0:0:0:
329,192,148685,128,0,148753:0:0:0:0:
109,192,148753,1,0,0:0:0:0:
402,192,148753,128,0,148820:0:0:0:0:
182,192,148820,1,0,0:0:0:0:
256,192,148888,1,0,0:0:0:0:
329,192,148955,1,0,0:0:0:0:
402,192,149023,1,0,0:0:0:0:
475,192,149023,1,0,0:0:0:0:
36,192,149023,1,0,0:0:0:0:
109,192,149023,1,0,0:0:0:0:
182,192,149090,1,0,0:0:0:0:
256,192,149158,1,0,0:0:0:0:
329,192,149225,1,0,0:0:0:0:
475,192,149293,1,0,0:0:0:0:
402,192,149293,1,0,0:0:0:0:
36,192,149293,1,0,0:0:0:0:
256,192,149360,1,0,0:0:0:0:
182,192,149428,1,0,0:0:0:0:
109,192,149495,1,0,0:0:0:0:
36,192,149563,1,0,0:0:0:0:
329,192,149563,1,0,0:0:0:0:
475,192,149563,1,0,0:0:0:0:
256,192,149630,1,0,0:0:0:0:
182,192,149698,1,0,0:0:0:0:
329,192,149765,1,0,0:0:0:0:
36,192,149833,1,0,0:0:0:0:
109,192,149833,1,0,0:0:0:0:
475,192,149833,1,0,0:0:0:0:
402,192,149900,1,0,0:0:0:0:
109,192,149968,1,0,0:0:0:0:
36,192,149968,1,0,0:0:0:0:
329,192,149968,1,0,0:0:0:0:
256,192,150035,1,0,0:0:0:0:
36,192,150103,1,0,0:0:0:0:
109,192,150103,1,0,0:0:0:0:
182,192,150103,1,0,0:0:0:0:
256,192,150170,1,0,0:0:0:0:
329,192,150238,1,0,0:0:0:0:
402,192,150305,1,0,0:0:0:0:
109,192,150373,1,0,0:0:0:0:
36,192,150373,1,0,0:0:0:0:
475,192,150373,1,0,0:0:0:0:
182,192,150373,1,0,0:0:0:0:
402,192,150440,1,0,0:0:0:0:
256,192,150508,1,0,0:0:0:0:
329,192,150508,1,0,0:0:0:0:
182,192,150575,1,0,0:0:0:0:
109,192,150643,1,0,0:0:0:0:
402,192,150643,1,0,0:0:0:0:
475,192,150643,1,0,0:0:0:0:
36,192,150643,1,0,0:0:0:0:
329,192,150710,1,0,0:0:0:0:
256,192,150778,1,0,0:0:0:0:
182,192,150778,1,0,0:0:0:0:
109,192,150845,1,0,0:0:0:0:
36,192,150845,1,0,0:0:0:0:
475,192,150845,1,0,0:0:0:0:
402,192,150845,1,0,0:0:0:0:
329,192,150913,1,0,0:0:0:0:
256,192,150980,1,0,0:0:0:0:
182,192,150980,1,0,0:0:0:0:
109,192,151048,1,0,0:0:0:0:
36,192,151048,1,0,0:0:0:0:
402,192,151048,1,0,0:0:0:0:
475,192,151048,1,0,0:0:0:0:
329,192,151115,1,0,0:0:0:0:
256,192,151183,1,0,0:0:0:0:
182,192,151183,1,0,0:0:0:0:
36,192,151183,1,0,0:0:0:0:
109,192,151183,1,0,0:0:0:0:
475,192,151250,1,0,0:0:0:0:
402,192,151318,1,0,0:0:0:0:
329,192,151385,1,0,0:0:0:0:
182,192,151453,1,0,0:0:0:0:
109,192,151453,1,0,0:0:0:0:
36,192,151453,1,0,0:0:0:0:
402,192,151520,1,0,0:0:0:0:
329,192,151588,1,0,0:0:0:0:
256,192,151655,1,0,0:0:0:0:
109,192,151723,1,0,0:0:0:0:
36,192,151723,1,0,0:0:0:0:
475,192,151723,1,0,0:0:0:0:
329,192,151790,1,0,0:0:0:0:
256,192,151858,1,0,0:0:0:0:
182,192,151925,1,0,0:0:0:0:
36,192,151993,1,0,0:0:0:0:
402,192,151993,1,0,0:0:0:0:
475,192,151993,1,0,0:0:0:0:
109,192,151993,1,0,0:0:0:0:
36,192,152128,1,0,0:0:0:0:
109,192,152128,1,0,0:0:0:0:
475,192,152128,1,0,0:0:0:0:
402,192,152128,1,0,0:0:0:0:
36,192,152398,1,0,0:0:0:0:
109,192,152398,1,0,0:0:0:0:
402,192,152398,1,0,0:0:0:0:
475,192,152398,1,0,0:0:0:0:
182,192,152466,1,0,0:0:0:0:
329,192,152466,1,0,0:0:0:0:
109,192,152533,1,0,0:0:0:0:
36,192,152533,1,0,0:0:0:0:
402,192,152533,1,0,0:0:0:0:
475,192,152533,1,0,0:0:0:0:
256,192,152668,1,0,0:0:0:0:
329,192,152668,1,0,0:0:0:0:
182,192,152668,1,0,0:0:0:0:
109,192,152803,1,0,0:0:0:0:
36,192,152803,1,0,0:0:0:0:
402,192,152803,1,0,0:0:0:0:
475,192,152803,1,0,0:0:0:0:
475,192,152938,1,0,0:0:0:0:
402,192,152938,1,0,0:0:0:0:
36,192,152938,1,0,0:0:0:0:
109,192,152938,1,0,0:0:0:0:
182,192,153006,1,0,0:0:0:0:
329,192,153006,1,0,0:0:0:0:
402,192,153073,1,0,0:0:0:0:
475,192,153073,1,0,0:0:0:0:
36,192,153073,1,0,0:0:0:0:
109,192,153073,1,0,0:0:0:0:
182,192,153208,1,0,0:0:0:0:
329,192,153208,1,0,0:0:0:0:
36,192,153208,1,0,0:0:0:0:
475,192,153208,1,0,0:0:0:0:
402,192,153276,1,0,0:0:0:0:
109,192,153276,1,0,0:0:0:0:
256,192,153276,1,0,0:0:0:0:
182,192,153343,1,0,0:0:0:0:
36,192,153343,1,0,0:0:0:0:
329,192,153343,1,0,0:0:0:0:
475,192,153343,1,0,0:0:0:0:
402,192,153478,1,0,0:0:0:0:
475,192,153478,1,0,0:0:0:0:
329,192,153478,1,0,0:0:0:0:
329,192,153546,1,0,0:0:0:0:
402,192,153546,1,0,0:0:0:0:
475,192,153546,1,0,0:0:0:0:
182,192,153613,1,0,0:0:0:0:
109,192,153613,1,0,0:0:0:0:
36,192,153613,1,0,0:0:0:0:
36,192,153748,1,0,0:0:0:0:
109,192,153748,1,0,0:0:0:0:
182,192,153748,1,0,0:0:0:0:
182,192,153816,1,0,0:0:0:0:
36,192,153816,1,0,0:0:0:0:
109,192,153816,1,0,0:0:0:0:
329,192,153883,1,0,0:0:0:0:
402,192,153883,1,0,0:0:0:0:
475,192,153883,1,0,0:0:0:0:
256,192,153883,1,0,0:0:0:0:
109,192,154018,1,0,0:0:0:0:
182,192,154018,1,0,0:0:0:0:
36,192,154018,1,0,0:0:0:0:
329,192,154086,1,0,0:0:0:0:
402,192,154086,1,0,0:0:0:0:
475,192,154086,1,0,0:0:0:0:
109,192,154153,1,0,0:0:0:0:
36,192,154153,1,0,0:0:0:0:
182,192,154153,1,0,0:0:0:0:
475,192,154288,1,0,0:0:0:0:
402,192,154288,1,0,0:0:0:0:
329,192,154288,1,0,0:0:0:0:
36,192,154356,1,0,0:0:0:0:
182,192,154356,1,0,0:0:0:0:
109,192,154356,1,0,0:0:0:0:
402,192,154423,1,0,0:0:0:0:
475,192,154423,1,0,0:0:0:0:
256,192,154423,1,0,0:0:0:0:
329,192,154423,1,0,0:0:0:0:
109,192,154491,1,0,0:0:0:0:
182,192,154558,1,0,0:0:0:0:
256,192,154626,1,0,0:0:0:0:
329,192,154693,1,0,0:0:0:0:
402,192,154693,1,0,0:0:0:0:
475,192,154693,1,0,0:0:0:0:
36,192,154693,1,0,0:0:0:0:
256,192,154761,1,0,0:0:0:0:
182,192,154828,1,0,0:0:0:0:
109,192,154896,1,0,0:0:0:0:
36,192,154963,1,0,0:0:0:0:
402,192,154963,1,0,0:0:0:0:
475,192,154963,1,0,0:0:0:0:
329,192,155031,1,0,0:0:0:0:
256,192,155098,1,0,0:0:0:0:
182,192,155132,1,0,0:0:0:0:
109,192,155166,1,0,0:0:0:0:
36,192,155199,1,0,0:0:0:0:
402,192,155233,1,0,0:0:0:0:
475,192,155233,1,0,0:0:0:0:
182,192,155301,1,0,0:0:0:0:
256,192,155301,1,0,0:0:0:0:
329,192,155368,1,0,0:0:0:0:
402,192,155368,1,0,0:0:0:0:
475,192,155368,1,0,0:0:0:0:
109,192,155436,1,0,0:0:0:0:
182,192,155436,1,0,0:0:0:0:
36,192,155503,1,0,0:0:0:0:
329,192,155503,1,0,0:0:0:0:
402,192,155503,1,0,0:0:0:0:
475,192,155503,1,0,0:0:0:0:
256,192,155503,128,0,159823:0:0:0:0:
109,192,155638,1,0,0:0:0:0:
182,192,155638,1,0,0:0:0:0:
36,192,155773,1,0,0:0:0:0:
329,192,155773,1,0,0:0:0:0:
402,192,155773,1,0,0:0:0:0:
475,192,155773,1,0,0:0:0:0:
182,192,155908,1,0,0:0:0:0:
402,192,155908,1,0,0:0:0:0:
109,192,156043,1,0,0:0:0:0:
36,192,156043,1,0,0:0:0:0:
329,192,156043,1,0,0:0:0:0:
475,192,156043,1,0,0:0:0:0:
182,192,156178,1,0,0:0:0:0:
36,192,156178,1,0,0:0:0:0:
109,192,156313,1,0,0:0:0:0:
329,192,156313,1,0,0:0:0:0:
402,192,156313,1,0,0:0:0:0:
475,192,156313,1,0,0:0:0:0:
182,192,156448,1,0,0:0:0:0:
329,192,156448,1,0,0:0:0:0:
36,192,156583,1,0,0:0:0:0:
109,192,156583,1,0,0:0:0:0:
402,192,156583,1,0,0:0:0:0:
475,192,156583,1,0,0:0:0:0:
329,192,156718,1,0,0:0:0:0:
36,192,156718,1,0,0:0:0:0:
109,192,156853,1,0,0:0:0:0:
182,192,156853,1,0,0:0:0:0:
402,192,156853,1,0,0:0:0:0:
475,192,156853,1,0,0:0:0:0:
475,192,156988,1,0,0:0:0:0:
36,192,156988,1,0,0:0:0:0:
109,192,157123,1,0,0:0:0:0:
182,192,157123,1,0,0:0:0:0:
329,192,157123,1,0,0:0:0:0:
402,192,157123,1,0,0:0:0:0:
182,192,157258,1,0,0:0:0:0:
475,192,157258,1,0,0:0:0:0:
36,192,157393,1,0,0:0:0:0:
109,192,157393,1,0,0:0:0:0:
329,192,157393,1,0,0:0:0:0:
402,192,157393,1,0,0:0:0:0:
402,192,157528,1,0,0:0:0:0:
36,192,157528,1,0,0:0:0:0:
109,192,157528,1,0,0:0:0:0:
329,192,157528,1,0,0:0:0:0:
109,192,157663,1,0,0:0:0:0:
36,192,157663,1,0,0:0:0:0:
329,192,157663,1,0,0:0:0:0:
475,192,157663,1,0,0:0:0:0:
182,192,157731,1,0,0:0:0:0:
402,192,157798,1,0,0:0:0:0:
475,192,157798,1,0,0:0:0:0:
329,192,157866,1,0,0:0:0:0:
109,192,157933,1,0,0:0:0:0:
475,192,157933,1,0,0:0:0:0:
36,192,157933,1,0,0:0:0:0:
182,192,158001,1,0,0:0:0:0:
329,192,158068,1,0,0:0:0:0:
402,192,158068,1,0,0:0:0:0:
109,192,158136,1,0,0:0:0:0:
36,192,158203,1,0,0:0:0:0:
475,192,158203,1,0,0:0:0:0:
182,192,158203,1,0,0:0:0:0:
402,192,158271,1,0,0:0:0:0:
329,192,158338,1,0,0:0:0:0:
109,192,158338,1,0,0:0:0:0:
182,192,158406,1,0,0:0:0:0:
36,192,158473,1,0,0:0:0:0:
402,192,158473,1,0,0:0:0:0:
475,192,158473,1,0,0:0:0:0:
109,192,158541,1,0,0:0:0:0:
182,192,158608,1,0,0:0:0:0:
329,192,158608,1,0,0:0:0:0:
475,192,158676,1,0,0:0:0:0:
402,192,158743,1,0,0:0:0:0:
109,192,158743,1,0,0:0:0:0:
36,192,158743,1,0,0:0:0:0:
182,192,158878,1,0,0:0:0:0:
329,192,158878,1,0,0:0:0:0:
36,192,159013,1,0,0:0:0:0:
109,192,159013,1,0,0:0:0:0:
402,192,159013,1,0,0:0:0:0:
475,192,159013,1,0,0:0:0:0:
329,192,159013,1,0,0:0:0:0:
182,192,159148,1,0,0:0:0:0:
36,192,159283,1,0,0:0:0:0:
109,192,159283,1,0,0:0:0:0:
329,192,159283,1,0,0:0:0:0:
402,192,159283,1,0,0:0:0:0:
475,192,159283,1,0,0:0:0:0:
182,192,159486,1,0,0:0:0:0:
109,192,159486,1,0,0:0:0:0:
36,192,159486,1,0,0:0:0:0:
402,192,159486,1,0,0:0:0:0:
475,192,159486,1,0,0:0:0:0:
109,192,159688,1,0,0:0:0:0:
182,192,159688,1,0,0:0:0:0:
329,192,159688,1,0,0:0:0:0:
402,192,159688,1,0,0:0:0:0:
475,192,159688,1,0,0:0:0:0:
36,192,159823,128,0,161916:0:0:0:0:
475,192,159823,128,0,161916:0:0:0:0:
182,192,159823,1,0,0:0:0:0:
329,192,159823,1,0,0:0:0:0:
109,192,159823,1,0,0:0:0:0:
402,192,159823,1,0,0:0:0:0:
256,192,159891,1,0,0:0:0:0:
329,192,159958,1,0,0:0:0:0:
402,192,160026,1,0,0:0:0:0:
109,192,160093,1,0,0:0:0:0:
182,192,160093,1,0,0:0:0:0:
256,192,160093,1,0,0:0:0:0:
402,192,160161,1,0,0:0:0:0:
329,192,160228,1,0,0:0:0:0:
256,192,160296,1,0,0:0:0:0:
109,192,160363,1,0,0:0:0:0:
182,192,160363,1,0,0:0:0:0:
402,192,160363,1,0,0:0:0:0:
329,192,160431,1,0,0:0:0:0:
256,192,160498,1,0,0:0:0:0:
182,192,160566,1,0,0:0:0:0:
109,192,160633,1,0,0:0:0:0:
329,192,160633,1,0,0:0:0:0:
402,192,160633,1,0,0:0:0:0:
109,192,160768,1,0,0:0:0:0:
402,192,160768,1,0,0:0:0:0:
329,192,160768,1,0,0:0:0:0:
329,192,161038,1,0,0:0:0:0:
402,192,161038,1,0,0:0:0:0:
182,192,161106,1,0,0:0:0:0:
109,192,161106,1,0,0:0:0:0:
329,192,161173,1,0,0:0:0:0:
402,192,161173,1,0,0:0:0:0:
256,192,161241,1,0,0:0:0:0:
182,192,161308,1,0,0:0:0:0:
109,192,161308,1,0,0:0:0:0:
329,192,161376,1,0,0:0:0:0:
402,192,161376,1,0,0:0:0:0:
182,192,161443,1,0,0:0:0:0:
109,192,161443,1,0,0:0:0:0:
256,192,161511,1,0,0:0:0:0:
329,192,161578,1,0,0:0:0:0:
402,192,161578,1,0,0:0:0:0:
182,192,161646,1,0,0:0:0:0:
109,192,161646,1,0,0:0:0:0:
329,192,161713,1,0,0:0:0:0:
402,192,161713,1,0,0:0:0:0:
256,192,161781,1,0,0:0:0:0:
109,192,161848,1,0,0:0:0:0:
182,192,161848,1,0,0:0:0:0:
329,192,161916,1,0,0:0:0:0:
256,192,161916,1,0,0:0:0:0:
36,192,161983,1,0,0:0:0:0:
109,192,161983,1,0,0:0:0:0:
402,192,161983,1,0,0:0:0:0:
475,192,161983,1,0,0:0:0:0:
182,192,162051,1,0,0:0:0:0:
256,192,162118,1,0,0:0:0:0:
36,192,162118,1,0,0:0:0:0:
329,192,162186,1,0,0:0:0:0:
109,192,162186,1,0,0:0:0:0:
475,192,162253,1,0,0:0:0:0:
182,192,162253,1,0,0:0:0:0:
402,192,162253,1,0,0:0:0:0:
256,192,162321,1,0,0:0:0:0:
329,192,162388,1,0,0:0:0:0:
109,192,162388,1,0,0:0:0:0:
256,192,162456,1,0,0:0:0:0:
36,192,162456,1,0,0:0:0:0:
182,192,162523,1,0,0:0:0:0:
475,192,162523,1,0,0:0:0:0:
402,192,162523,1,0,0:0:0:0:
329,192,162591,1,0,0:0:0:0:
256,192,162658,1,0,0:0:0:0:
36,192,162658,1,0,0:0:0:0:
329,192,162726,1,0,0:0:0:0:
109,192,162726,1,0,0:0:0:0:
402,192,162793,1,0,0:0:0:0:
475,192,162793,1,0,0:0:0:0:
182,192,162793,1,0,0:0:0:0:
109,192,162861,1,0,0:0:0:0:
329,192,162861,1,0,0:0:0:0:
36,192,162928,1,0,0:0:0:0:
256,192,162928,1,0,0:0:0:0:
182,192,162996,1,0,0:0:0:0:
402,192,162996,1,0,0:0:0:0:
109,192,163063,1,0,0:0:0:0:
36,192,163063,1,0,0:0:0:0:
329,192,163063,1,0,0:0:0:0:
475,192,163063,1,0,0:0:0:0:
256,192,163131,1,0,0:0:0:0:
109,192,163198,1,0,0:0:0:0:
36,192,163198,1,0,0:0:0:0:
402,192,163198,1,0,0:0:0:0:
182,192,163266,1,0,0:0:0:0:
329,192,163266,1,0,0:0:0:0:
256,192,163333,1,0,0:0:0:0:
475,192,163333,1,0,0:0:0:0:
36,192,163333,1,0,0:0:0:0:
402,192,163333,1,0,0:0:0:0:
109,192,163401,1,0,0:0:0:0:
329,192,163401,1,0,0:0:0:0:
182,192,163468,1,0,0:0:0:0:
475,192,163468,1,0,0:0:0:0:
36,192,163468,1,0,0:0:0:0:
256,192,163536,1,0,0:0:0:0:
402,192,163536,1,0,0:0:0:0:
475,192,163603,1,0,0:0:0:0:
109,192,163603,1,0,0:0:0:0:
36,192,163603,1,0,0:0:0:0:
329,192,163603,1,0,0:0:0:0:
182,192,163671,1,0,0:0:0:0:
402,192,163671,1,0,0:0:0:0:
36,192,163738,1,0,0:0:0:0:
256,192,163738,1,0,0:0:0:0:
109,192,163738,1,0,0:0:0:0:
475,192,163772,1,0,0:0:0:0:
402,192,163806,1,0,0:0:0:0:
329,192,163839,1,0,0:0:0:0:
182,192,163873,1,0,0:0:0:0:
109,192,163873,1,0,0:0:0:0:
36,192,163873,1,0,0:0:0:0:
329,192,163941,1,0,0:0:0:0:
402,192,163941,1,0,0:0:0:0:
475,192,163941,1,0,0:0:0:0:
182,192,164008,1,0,0:0:0:0:
109,192,164008,1,0,0:0:0:0:
36,192,164008,1,0,0:0:0:0:
329,192,164076,1,0,0:0:0:0:
402,192,164076,1,0,0:0:0:0:
475,192,164076,1,0,0:0:0:0:
36,192,164143,1,0,0:0:0:0:
109,192,164143,1,0,0:0:0:0:
182,192,164143,1,0,0:0:0:0:
256,192,164143,1,0,0:0:0:0:
329,192,164278,1,0,0:0:0:0:
402,192,164346,1,0,0:0:0:0:
36,192,164413,1,0,0:0:0:0:
475,192,164413,1,0,0:0:0:0:
182,192,164413,1,0,0:0:0:0:
256,192,164481,1,0,0:0:0:0:
329,192,164548,1,0,0:0:0:0:
402,192,164616,1,0,0:0:0:0:
475,192,164683,1,0,0:0:0:0:
109,192,164683,1,0,0:0:0:0:
182,192,164751,1,0,0:0:0:0:
256,192,164818,1,0,0:0:0:0:
329,192,164886,1,0,0:0:0:0:
36,192,164953,1,0,0:0:0:0:
109,192,164953,1,0,0:0:0:0:
475,192,164953,1,0,0:0:0:0:
402,192,164953,1,0,0:0:0:0:
182,192,165021,1,0,0:0:0:0:
256,192,165088,1,0,0:0:0:0:
329,192,165156,1,0,0:0:0:0:
402,192,165223,1,0,0:0:0:0:
109,192,165223,1,0,0:0:0:0:
36,192,165223,1,0,0:0:0:0:
256,192,165291,128,0,165426:0:0:0:0:
182,192,165291,128,0,165426:0:0:0:0:
475,192,165291,128,0,165426:0:0:0:0:
182,192,165493,128,0,165628:0:0:0:0:
256,192,165493,128,0,165628:0:0:0:0:
402,192,165493,128,0,165628:0:0:0:0:
109,192,165696,128,0,165831:0:0:0:0:
256,192,165696,128,0,165831:0:0:0:0:
329,192,165696,128,0,165831:0:0:0:0:
182,192,165898,128,0,166033:0:0:0:0:
256,192,165898,128,0,166033:0:0:0:0:
36,192,165898,128,0,166033:0:0:0:0:
36,192,166101,128,0,166236:0:0:0:0:
109,192,166101,128,0,166236:0:0:0:0:
182,192,166101,128,0,166236:0:0:0:0:
36,192,166303,1,0,0:0:0:0:
109,192,166303,1,0,0:0:0:0:
182,192,166303,1,0,0:0:0:0:
402,192,166303,1,0,0:0:0:0:
329,192,166371,1,0,0:0:0:0:
256,192,166438,1,0,0:0:0:0:
329,192,166506,1,0,0:0:0:0:
36,192,166573,1,0,0:0:0:0:
475,192,166573,1,0,0:0:0:0:
402,192,166573,1,0,0:0:0:0:
329,192,166641,1,0,0:0:0:0:
256,192,166708,1,0,0:0:0:0:
182,192,166776,1,0,0:0:0:0:
402,192,166843,1,0,0:0:0:0:
109,192,166843,1,0,0:0:0:0:
329,192,166911,1,0,0:0:0:0:
402,192,166978,1,0,0:0:0:0:
329,192,167046,1,0,0:0:0:0:
402,192,167113,1,0,0:0:0:0:
36,192,167113,1,0,0:0:0:0:
109,192,167113,1,0,0:0:0:0:
329,192,167181,1,0,0:0:0:0:
402,192,167248,1,0,0:0:0:0:
475,192,167316,1,0,0:0:0:0:
36,192,167383,1,0,0:0:0:0:
109,192,167383,1,0,0:0:0:0:
182,192,167383,1,0,0:0:0:0:
402,192,167518,128,0,167586:0:0:0:0:
475,192,167518,128,0,167586:0:0:0:0:
256,192,167518,128,0,167586:0:0:0:0:
256,192,167653,128,0,167856:0:0:0:0:
329,192,167653,128,0,167856:0:0:0:0:
402,192,167653,128,0,167856:0:0:0:0:
182,192,167923,128,0,168058:0:0:0:0:
109,192,167923,128,0,168058:0:0:0:0:
329,192,167923,128,0,168058:0:0:0:0:
182,192,168126,128,0,168261:0:0:0:0:
256,192,168126,128,0,168261:0:0:0:0:
36,192,168126,128,0,168261:0:0:0:0:
36,192,168328,128,0,168396:0:0:0:0:
109,192,168328,128,0,168396:0:0:0:0:
182,192,168328,128,0,168396:0:0:0:0:
36,192,168463,1,0,0:0:0:0:
109,192,168463,1,0,0:0:0:0:
182,192,168463,1,0,0:0:0:0:
256,192,168463,1,0,0:0:0:0:
329,192,168598,1,0,0:0:0:0:
402,192,168666,1,0,0:0:0:0:
109,192,168733,1,0,0:0:0:0:
182,192,168733,1,0,0:0:0:0:
256,192,168801,1,0,0:0:0:0:
329,192,168868,1,0,0:0:0:0:
402,192,168868,1,0,0:0:0:0:
475,192,168868,1,0,0:0:0:0:
36,192,169003,1,0,0:0:0:0:
182,192,169003,1,0,0:0:0:0:
256,192,169071,1,0,0:0:0:0:
329,192,169138,1,0,0:0:0:0:
109,192,169138,1,0,0:0:0:0:
182,192,169206,1,0,0:0:0:0:
256,192,169273,1,0,0:0:0:0:
402,192,169273,1,0,0:0:0:0:
475,192,169273,1,0,0:0:0:0:
36,192,169341,1,0,0:0:0:0:
109,192,169408,1,0,0:0:0:0:
182,192,169476,1,0,0:0:0:0:
256,192,169543,1,0,0:0:0:0:
475,192,169543,1,0,0:0:0:0:
402,192,169611,1,0,0:0:0:0:
329,192,169678,1,0,0:0:0:0:
182,192,169678,1,0,0:0:0:0:
402,192,169746,1,0,0:0:0:0:
475,192,169813,1,0,0:0:0:0:
109,192,169813,1,0,0:0:0:0:
36,192,169813,1,0,0:0:0:0:
402,192,169881,1,0,0:0:0:0:
329,192,169948,1,0,0:0:0:0:
182,192,169948,1,0,0:0:0:0:
402,192,170016,1,0,0:0:0:0:
256,192,170083,1,0,0:0:0:0:
36,192,170083,1,0,0:0:0:0:
475,192,170083,1,0,0:0:0:0:
109,192,170151,1,0,0:0:0:0:
182,192,170218,1,0,0:0:0:0:
256,192,170286,1,0,0:0:0:0:
329,192,170353,1,0,0:0:0:0:
402,192,170353,1,0,0:0:0:0:
109,192,170353,1,0,0:0:0:0:
182,192,170421,1,0,0:0:0:0:
256,192,170488,1,0,0:0:0:0:
36,192,170488,1,0,0:0:0:0:
329,192,170556,1,0,0:0:0:0:
109,192,170556,1,0,0:0:0:0:
182,192,170623,1,0,0:0:0:0:
402,192,170623,1,0,0:0:0:0:
475,192,170623,1,0,0:0:0:0:
329,192,170691,1,0,0:0:0:0:
256,192,170758,1,0,0:0:0:0:
182,192,170826,1,0,0:0:0:0:
36,192,170893,128,0,171096:0:0:0:0:
109,192,170893,128,0,171096:0:0:0:0:
402,192,170893,128,0,171096:0:0:0:0:
475,192,170893,128,0,171096:0:0:0:0:
329,192,170961,1,0,0:0:0:0:
256,192,171028,1,0,0:0:0:0:
182,192,171096,1,0,0:0:0:0:
36,192,171163,128,0,171298:0:0:0:0:
109,192,171163,128,0,171298:0:0:0:0:
329,192,171163,128,0,171298:0:0:0:0:
402,192,171163,128,0,171298:0:0:0:0:
36,192,171366,128,0,171501:0:0:0:0:
182,192,171366,128,0,171501:0:0:0:0:
329,192,171366,128,0,171501:0:0:0:0:
475,192,171366,128,0,171501:0:0:0:0:
109,192,171568,128,0,171703:0:0:0:0:
182,192,171568,128,0,171703:0:0:0:0:
329,192,171568,128,0,171703:0:0:0:0:
402,192,171568,128,0,171703:0:0:0:0:
36,192,171771,128,0,171906:0:0:0:0:
256,192,171771,128,0,171906:0:0:0:0:
402,192,171771,128,0,171906:0:0:0:0:
475,192,171771,128,0,171906:0:0:0:0:
36,192,171973,128,0,172108:0:0:0:0:
182,192,171973,128,0,172108:0:0:0:0:
329,192,171973,128,0,172108:0:0:0:0:
402,192,171973,128,0,172108:0:0:0:0:
36,192,172176,128,0,172311:0:0:0:0:
109,192,172176,128,0,172311:0:0:0:0:
256,192,172176,128,0,172311:0:0:0:0:
329,192,172176,128,0,172311:0:0:0:0:
182,192,172378,128,0,172513:0:0:0:0:
256,192,172378,128,0,172513:0:0:0:0:
109,192,172378,128,0,172513:0:0:0:0:
36,192,172378,128,0,172513:0:0:0:0:
36,192,172581,128,0,172716:0:0:0:0:
109,192,172581,128,0,172716:0:0:0:0:
182,192,172581,128,0,172716:0:0:0:0:
36,192,172783,1,0,0:0:0:0:
109,192,172783,1,0,0:0:0:0:
182,192,172783,1,0,0:0:0:0:
475,192,172783,1,0,0:0:0:0:
402,192,172783,1,0,0:0:0:0:
256,192,172851,1,0,0:0:0:0:
329,192,172918,1,0,0:0:0:0:
402,192,172986,1,0,0:0:0:0:
36,192,173053,1,0,0:0:0:0:
109,192,173053,1,0,0:0:0:0:
475,192,173053,1,0,0:0:0:0:
182,192,173121,1,0,0:0:0:0:
256,192,173188,1,0,0:0:0:0:
329,192,173256,1,0,0:0:0:0:
402,192,173323,1,0,0:0:0:0:
475,192,173323,1,0,0:0:0:0:
36,192,173323,1,0,0:0:0:0:
109,192,173391,1,0,0:0:0:0:
182,192,173458,1,0,0:0:0:0:
256,192,173526,1,0,0:0:0:0:
329,192,173593,1,0,0:0:0:0:
402,192,173593,1,0,0:0:0:0:
475,192,173593,1,0,0:0:0:0:
36,192,173728,1,0,0:0:0:0:
109,192,173728,1,0,0:0:0:0:
402,192,173728,1,0,0:0:0:0:
475,192,173728,1,0,0:0:0:0:
182,192,173998,1,0,0:0:0:0:
256,192,174133,1,0,0:0:0:0:
402,192,174133,1,0,0:0:0:0:
329,192,174268,1,0,0:0:0:0:
475,192,174268,1,0,0:0:0:0:
36,192,174403,1,0,0:0:0:0:
182,192,174403,1,0,0:0:0:0:
256,192,174471,1,0,0:0:0:0:
329,192,174538,1,0,0:0:0:0:
402,192,174606,1,0,0:0:0:0:
475,192,174673,1,0,0:0:0:0:
109,192,174673,1,0,0:0:0:0:
402,192,174741,1,0,0:0:0:0:
329,192,174808,1,0,0:0:0:0:
36,192,174808,1,0,0:0:0:0:
256,192,174876,1,0,0:0:0:0:
182,192,174943,1,0,0:0:0:0:
109,192,174943,1,0,0:0:0:0:
475,192,174943,1,0,0:0:0:0:
329,192,175011,1,0,0:0:0:0:
256,192,175078,1,0,0:0:0:0:
182,192,175146,1,0,0:0:0:0:
109,192,175213,1,0,0:0:0:0:
36,192,175213,1,0,0:0:0:0:
475,192,175213,1,0,0:0:0:0:
256,192,175281,1,0,0:0:0:0:
182,192,175348,1,0,0:0:0:0:
109,192,175416,1,0,0:0:0:0:
36,192,175483,1,0,0:0:0:0:
402,192,175483,1,0,0:0:0:0:
475,192,175483,1,0,0:0:0:0:
182,192,175551,1,0,0:0:0:0:
109,192,175618,1,0,0:0:0:0:
36,192,175686,1,0,0:0:0:0:
329,192,175753,1,0,0:0:0:0:
402,192,175753,1,0,0:0:0:0:
475,192,175753,1,0,0:0:0:0:
109,192,175888,1,0,0:0:0:0:
182,192,175888,1,0,0:0:0:0:
402,192,175888,1,0,0:0:0:0:
475,192,175888,1,0,0:0:0:0:
36,192,176158,1,0,0:0:0:0:
109,192,176293,1,0,0:0:0:0:
256,192,176293,1,0,0:0:0:0:
182,192,176428,1,0,0:0:0:0:
329,192,176428,1,0,0:0:0:0:
256,192,176563,1,0,0:0:0:0:
402,192,176563,1,0,0:0:0:0:
109,192,176631,1,0,0:0:0:0:
182,192,176698,1,0,0:0:0:0:
329,192,176766,1,0,0:0:0:0:
402,192,176833,1,0,0:0:0:0:
329,192,176901,1,0,0:0:0:0:
182,192,176968,1,0,0:0:0:0:
109,192,177036,1,0,0:0:0:0:
36,192,177103,1,0,0:0:0:0:
402,192,177103,1,0,0:0:0:0:
475,192,177103,1,0,0:0:0:0:
329,192,177171,1,0,0:0:0:0:
256,192,177238,1,0,0:0:0:0:
182,192,177306,1,0,0:0:0:0:
109,192,177373,1,0,0:0:0:0:
36,192,177373,1,0,0:0:0:0:
475,192,177373,1,0,0:0:0:0:
36,192,177508,1,0,0:0:0:0:
402,192,177508,1,0,0:0:0:0:
475,192,177508,1,0,0:0:0:0:
329,192,177576,1,0,0:0:0:0:
256,192,177643,1,0,0:0:0:0:
182,192,177711,1,0,0:0:0:0:
109,192,177778,1,0,0:0:0:0:
36,192,177778,1,0,0:0:0:0:
475,192,177778,1,0,0:0:0:0:
402,192,177913,1,0,0:0:0:0:
475,192,177913,1,0,0:0:0:0:
36,192,177913,1,0,0:0:0:0:
329,192,177981,1,0,0:0:0:0:
256,192,178048,1,0,0:0:0:0:
182,192,178116,1,0,0:0:0:0:
109,192,178183,1,0,0:0:0:0:
36,192,178183,1,0,0:0:0:0:
475,192,178183,1,0,0:0:0:0:
402,192,178318,1,0,0:0:0:0:
475,192,178318,1,0,0:0:0:0:
256,192,178318,1,0,0:0:0:0:
329,192,178386,1,0,0:0:0:0:
36,192,178453,1,0,0:0:0:0:
109,192,178453,1,0,0:0:0:0:
182,192,178521,1,0,0:0:0:0:
256,192,178588,1,0,0:0:0:0:
329,192,178656,1,0,0:0:0:0:
36,192,178723,1,0,0:0:0:0:
109,192,178723,1,0,0:0:0:0:
402,192,178723,1,0,0:0:0:0:
182,192,178791,1,0,0:0:0:0:
329,192,178858,1,0,0:0:0:0:
182,192,178926,1,0,0:0:0:0:
36,192,178993,1,0,0:0:0:0:
402,192,178993,1,0,0:0:0:0:
475,192,178993,1,0,0:0:0:0:
329,192,179061,1,0,0:0:0:0:
182,192,179128,1,0,0:0:0:0:
109,192,179128,1,0,0:0:0:0:
329,192,179196,1,0,0:0:0:0:
36,192,179263,1,0,0:0:0:0:
402,192,179263,1,0,0:0:0:0:
475,192,179263,1,0,0:0:0:0:
109,192,179263,1,0,0:0:0:0:
182,192,179331,1,0,0:0:0:0:
256,192,179398,1,0,0:0:0:0:
36,192,179398,1,0,0:0:0:0:
329,192,179466,1,0,0:0:0:0:
109,192,179466,1,0,0:0:0:0:
182,192,179533,1,0,0:0:0:0:
402,192,179533,1,0,0:0:0:0:
475,192,179533,1,0,0:0:0:0:
256,192,179601,1,0,0:0:0:0:
36,192,179668,1,0,0:0:0:0:
329,192,179668,1,0,0:0:0:0:
109,192,179736,1,0,0:0:0:0:
402,192,179736,1,0,0:0:0:0:
182,192,179803,1,0,0:0:0:0:
256,192,179803,1,0,0:0:0:0:
475,192,179803,1,0,0:0:0:0:
329,192,179871,1,0,0:0:0:0:
36,192,179938,1,0,0:0:0:0:
402,192,179938,1,0,0:0:0:0:
109,192,179972,1,0,0:0:0:0:
182,192,180006,1,0,0:0:0:0:
475,192,180006,1,0,0:0:0:0:
256,192,180040,1,0,0:0:0:0:
329,192,180073,1,0,0:0:0:0:
36,192,180073,1,0,0:0:0:0:
109,192,180141,1,0,0:0:0:0:
402,192,180141,1,0,0:0:0:0:
182,192,180208,1,0,0:0:0:0:
475,192,180208,1,0,0:0:0:0:
256,192,180242,1,0,0:0:0:0:
329,192,180276,1,0,0:0:0:0:
402,192,180310,1,0,0:0:0:0:
475,192,180343,1,0,0:0:0:0:
109,192,180343,1,0,0:0:0:0:
36,192,180343,128,0,180816:0:0:0:0:
182,192,180343,1,0,0:0:0:0:
256,192,180411,1,0,0:0:0:0:
329,192,180411,1,0,0:0:0:0:
402,192,180478,1,0,0:0:0:0:
475,192,180478,1,0,0:0:0:0:
182,192,180546,1,0,0:0:0:0:
109,192,180546,1,0,0:0:0:0:
329,192,180613,1,0,0:0:0:0:
402,192,180613,1,0,0:0:0:0:
475,192,180613,1,0,0:0:0:0:
256,192,180681,1,0,0:0:0:0:
182,192,180681,1,0,0:0:0:0:
109,192,180748,1,0,0:0:0:0:
475,192,180748,1,0,0:0:0:0:
402,192,180748,1,0,0:0:0:0:
329,192,180816,1,0,0:0:0:0:
256,192,180816,1,0,0:0:0:0:
36,192,180883,1,0,0:0:0:0:
182,192,180883,1,0,0:0:0:0:
109,192,180883,1,0,0:0:0:0:
475,192,180883,128,0,181356:0:0:0:0:
329,192,180951,1,0,0:0:0:0:
402,192,180951,1,0,0:0:0:0:
36,192,181018,1,0,0:0:0:0:
109,192,181018,1,0,0:0:0:0:
182,192,181018,1,0,0:0:0:0:
256,192,181052,1,0,0:0:0:0:
329,192,181086,1,0,0:0:0:0:
402,192,181120,1,0,0:0:0:0:
36,192,181153,1,0,0:0:0:0:
109,192,181153,1,0,0:0:0:0:
182,192,181153,1,0,0:0:0:0:
256,192,181221,1,0,0:0:0:0:
329,192,181221,1,0,0:0:0:0:
402,192,181221,1,0,0:0:0:0:
182,192,181288,1,0,0:0:0:0:
109,192,181288,1,0,0:0:0:0:
36,192,181288,1,0,0:0:0:0:
256,192,181356,1,0,0:0:0:0:
329,192,181356,1,0,0:0:0:0:
402,192,181356,1,0,0:0:0:0:
109,192,181423,1,0,0:0:0:0:
36,192,181423,1,0,0:0:0:0:
475,192,181423,1,0,0:0:0:0:
182,192,181423,128,0,181626:0:0:0:0:
256,192,181491,128,0,181693:0:0:0:0:
329,192,181558,128,0,181761:0:0:0:0:
402,192,181626,128,0,181828:0:0:0:0:
475,192,181693,128,0,181896:0:0:0:0:
36,192,181693,1,0,0:0:0:0:
109,192,181693,1,0,0:0:0:0:
182,192,181761,1,0,0:0:0:0:
256,192,181828,1,0,0:0:0:0:
329,192,181896,1,0,0:0:0:0:
36,192,181963,1,0,0:0:0:0:
402,192,181963,1,0,0:0:0:0:
182,192,181963,1,0,0:0:0:0:
36,192,182098,1,0,0:0:0:0:
402,192,182098,1,0,0:0:0:0:
475,192,182098,1,0,0:0:0:0:
182,192,182098,1,0,0:0:0:0:
109,192,182368,1,0,0:0:0:0:
36,192,182368,1,0,0:0:0:0:
329,192,182368,1,0,0:0:0:0:
475,192,182368,1,0,0:0:0:0:
36,192,182503,1,0,0:0:0:0:
109,192,182503,1,0,0:0:0:0:
256,192,182503,1,0,0:0:0:0:
329,192,182571,1,0,0:0:0:0:
402,192,182638,1,0,0:0:0:0:
475,192,182706,1,0,0:0:0:0:
182,192,182773,1,0,0:0:0:0:
256,192,182841,1,0,0:0:0:0:
329,192,182908,1,0,0:0:0:0:
402,192,182976,1,0,0:0:0:0:
475,192,183043,1,0,0:0:0:0:
402,192,183111,1,0,0:0:0:0:
329,192,183178,1,0,0:0:0:0:
256,192,183246,1,0,0:0:0:0:
402,192,183313,1,0,0:0:0:0:
329,192,183381,1,0,0:0:0:0:
256,192,183448,1,0,0:0:0:0:
182,192,183516,1,0,0:0:0:0:
36,192,183583,1,0,0:0:0:0:
475,192,183583,1,0,0:0:0:0:
109,192,183583,128,0,183786:0:0:0:0:
182,192,183651,128,0,183853:0:0:0:0:
256,192,183718,128,0,183921:0:0:0:0:
329,192,183786,128,0,183988:0:0:0:0:
475,192,183853,1,0,0:0:0:0:
36,192,183853,1,0,0:0:0:0:
402,192,183853,128,0,184056:0:0:0:0:
109,192,183921,1,0,0:0:0:0:
182,192,183988,1,0,0:0:0:0:
256,192,184056,1,0,0:0:0:0:
329,192,184123,1,0,0:0:0:0:
36,192,184123,1,0,0:0:0:0:
109,192,184123,1,0,0:0:0:0:
402,192,184123,1,0,0:0:0:0:
182,192,184258,1,0,0:0:0:0:
109,192,184258,1,0,0:0:0:0:
402,192,184258,1,0,0:0:0:0:
182,192,184528,1,0,0:0:0:0:
256,192,184528,1,0,0:0:0:0:
329,192,184528,1,0,0:0:0:0:
475,192,184528,1,0,0:0:0:0:
36,192,184663,1,0,0:0:0:0:
109,192,184663,1,0,0:0:0:0:
402,192,184663,1,0,0:0:0:0:
182,192,184731,1,0,0:0:0:0:
256,192,184798,1,0,0:0:0:0:
329,192,184866,1,0,0:0:0:0:
182,192,184933,1,0,0:0:0:0:
256,192,185001,1,0,0:0:0:0:
329,192,185068,1,0,0:0:0:0:
402,192,185136,1,0,0:0:0:0:
475,192,185203,1,0,0:0:0:0:
402,192,185271,1,0,0:0:0:0:
329,192,185338,1,0,0:0:0:0:
256,192,185406,1,0,0:0:0:0:
402,192,185473,1,0,0:0:0:0:
329,192,185541,1,0,0:0:0:0:
256,192,185608,1,0,0:0:0:0:
182,192,185676,1,0,0:0:0:0:
36,192,185743,1,0,0:0:0:0:
109,192,185743,1,0,0:0:0:0:
402,192,185743,1,0,0:0:0:0:
475,192,185743,1,0,0:0:0:0:
182,192,185811,1,0,0:0:0:0:
256,192,185878,1,0,0:0:0:0:
329,192,185946,1,0,0:0:0:0:
402,192,186013,1,0,0:0:0:0:
36,192,186013,128,0,186216:0:0:0:0:
109,192,186013,128,0,186216:0:0:0:0:
475,192,186283,1,0,0:0:0:0:
109,192,186283,128,0,186418:0:0:0:0:
182,192,186283,128,0,186418:0:0:0:0:
475,192,186486,1,0,0:0:0:0:
182,192,186486,128,0,186621:0:0:0:0:
256,192,186486,128,0,186621:0:0:0:0:
475,192,186688,1,0,0:0:0:0:
256,192,186688,128,0,186823:0:0:0:0:
329,192,186688,128,0,186823:0:0:0:0:
402,192,186891,1,0,0:0:0:0:
109,192,186891,128,0,187026:0:0:0:0:
182,192,186891,128,0,187026:0:0:0:0:
475,192,187093,1,0,0:0:0:0:
182,192,187093,128,0,187228:0:0:0:0:
256,192,187093,128,0,187228:0:0:0:0:
36,192,187296,1,0,0:0:0:0:
256,192,187296,128,0,187431:0:0:0:0:
329,192,187296,128,0,187431:0:0:0:0:
109,192,187498,1,0,0:0:0:0:
329,192,187498,128,0,187566:0:0:0:0:
402,192,187498,128,0,187566:0:0:0:0:
329,192,187633,1,0,0:0:0:0:
402,192,187633,1,0,0:0:0:0:
109,192,187633,1,0,0:0:0:0:
182,192,187701,1,0,0:0:0:0:
256,192,187768,1,0,0:0:0:0:
329,192,187836,1,0,0:0:0:0:
402,192,187903,1,0,0:0:0:0:
475,192,187903,1,0,0:0:0:0:
36,192,187903,1,0,0:0:0:0:
182,192,187971,1,0,0:0:0:0:
109,192,188038,1,0,0:0:0:0:
36,192,188106,1,0,0:0:0:0:
475,192,188173,1,0,0:0:0:0:
329,192,188173,1,0,0:0:0:0:
256,192,188241,1,0,0:0:0:0:
182,192,188308,1,0,0:0:0:0:
109,192,188376,1,0,0:0:0:0:
402,192,188443,1,0,0:0:0:0:
475,192,188443,1,0,0:0:0:0:
329,192,188511,1,0,0:0:0:0:
256,192,188578,1,0,0:0:0:0:
182,192,188646,1,0,0:0:0:0:
36,192,188713,1,0,0:0:0:0:
475,192,188713,1,0,0:0:0:0:
402,192,188781,1,0,0:0:0:0:
329,192,188848,1,0,0:0:0:0:
256,192,188916,1,0,0:0:0:0:
36,192,188983,1,0,0:0:0:0:
109,192,188983,1,0,0:0:0:0:
182,192,188983,1,0,0:0:0:0:
256,192,189051,1,0,0:0:0:0:
329,192,189051,1,0,0:0:0:0:
182,192,189118,1,0,0:0:0:0:
109,192,189118,1,0,0:0:0:0:
329,192,189186,1,0,0:0:0:0:
256,192,189186,1,0,0:0:0:0:
36,192,189253,1,0,0:0:0:0:
109,192,189253,1,0,0:0:0:0:
402,192,189253,1,0,0:0:0:0:
475,192,189253,1,0,0:0:0:0:
256,192,189321,1,0,0:0:0:0:
182,192,189321,1,0,0:0:0:0:
329,192,189388,1,0,0:0:0:0:
402,192,189388,1,0,0:0:0:0:
182,192,189456,1,0,0:0:0:0:
256,192,189456,1,0,0:0:0:0:
36,192,189523,1,0,0:0:0:0:
475,192,189523,1,0,0:0:0:0:
109,192,189523,1,0,0:0:0:0:
402,192,189523,1,0,0:0:0:0:
329,192,189591,1,0,0:0:0:0:
256,192,189591,1,0,0:0:0:0:
109,192,189658,1,0,0:0:0:0:
182,192,189658,1,0,0:0:0:0:
475,192,189692,1,0,0:0:0:0:
402,192,189726,1,0,0:0:0:0:
329,192,189760,1,0,0:0:0:0:
182,192,189793,1,0,0:0:0:0:
109,192,189793,1,0,0:0:0:0:
36,192,189793,1,0,0:0:0:0:
256,192,189793,1,0,0:0:0:0:
329,192,189861,1,0,0:0:0:0:
402,192,189861,1,0,0:0:0:0:
475,192,189861,1,0,0:0:0:0:
182,192,189895,1,0,0:0:0:0:
109,192,189928,1,0,0:0:0:0:
36,192,189962,1,0,0:0:0:0:
329,192,189996,1,0,0:0:0:0:
402,192,189996,1,0,0:0:0:0:
475,192,189996,1,0,0:0:0:0:
256,192,190063,1,0,0:0:0:0:
182,192,190063,1,0,0:0:0:0:
109,192,190063,1,0,0:0:0:0:
36,192,190063,1,0,0:0:0:0:
329,192,190198,1,0,0:0:0:0:
402,192,190266,1,0,0:0:0:0:
475,192,190333,1,0,0:0:0:0:
109,192,190333,1,0,0:0:0:0:
182,192,190333,1,0,0:0:0:0:
256,192,190401,1,0,0:0:0:0:
329,192,190468,1,0,0:0:0:0:
402,192,190536,1,0,0:0:0:0:
36,192,190603,1,0,0:0:0:0:
109,192,190603,1,0,0:0:0:0:
475,192,190603,1,0,0:0:0:0:
182,192,190671,1,0,0:0:0:0:
256,192,190738,1,0,0:0:0:0:
329,192,190806,1,0,0:0:0:0:
402,192,190873,1,0,0:0:0:0:
475,192,190873,1,0,0:0:0:0:
36,192,190873,1,0,0:0:0:0:
182,192,190941,1,0,0:0:0:0:
329,192,191008,1,0,0:0:0:0:
402,192,191076,1,0,0:0:0:0:
36,192,191143,1,0,0:0:0:0:
109,192,191143,1,0,0:0:0:0:
475,192,191143,1,0,0:0:0:0:
329,192,191211,1,0,0:0:0:0:
256,192,191278,1,0,0:0:0:0:
329,192,191346,1,0,0:0:0:0:
402,192,191413,1,0,0:0:0:0:
109,192,191413,1,0,0:0:0:0:
182,192,191481,1,0,0:0:0:0:
329,192,191548,1,0,0:0:0:0:
402,192,191616,1,0,0:0:0:0:
475,192,191683,1,0,0:0:0:0:
109,192,191683,1,0,0:0:0:0:
402,192,191751,1,0,0:0:0:0:
329,192,191818,1,0,0:0:0:0:
402,192,191886,1,0,0:0:0:0:
182,192,191953,1,0,0:0:0:0:
36,192,191953,1,0,0:0:0:0:
329,192,192021,1,0,0:0:0:0:
256,192,192088,1,0,0:0:0:0:
109,192,192088,1,0,0:0:0:0:
329,192,192156,1,0,0:0:0:0:
36,192,192223,1,0,0:0:0:0:
182,192,192223,1,0,0:0:0:0:
402,192,192223,1,0,0:0:0:0:
475,192,192223,1,0,0:0:0:0:
109,192,192358,1,0,0:0:0:0:
256,192,192358,1,0,0:0:0:0:
475,192,192358,1,0,0:0:0:0:
36,192,192493,128,0,192696:0:0:0:0:
182,192,192493,128,0,192696:0:0:0:0:
329,192,192493,128,0,192696:0:0:0:0:
402,192,192493,128,0,192696:0:0:0:0:
36,192,192763,128,0,192898:0:0:0:0:
109,192,192763,128,0,192898:0:0:0:0:
256,192,192763,128,0,192898:0:0:0:0:
329,192,192763,128,0,192898:0:0:0:0:
36,192,192966,128,0,193101:0:0:0:0:
109,192,192966,128,0,193101:0:0:0:0:
329,192,192966,128,0,193101:0:0:0:0:
402,192,192966,128,0,193101:0:0:0:0:
36,192,193168,128,0,193303:0:0:0:0:
109,192,193168,128,0,193303:0:0:0:0:
256,192,193168,128,0,193303:0:0:0:0:
475,192,193303,1,0,0:0:0:0:
182,192,193371,1,0,0:0:0:0:
256,192,193438,1,0,0:0:0:0:
182,192,193506,1,0,0:0:0:0:
402,192,193573,1,0,0:0:0:0:
109,192,193641,1,0,0:0:0:0:
182,192,193708,1,0,0:0:0:0:
109,192,193776,1,0,0:0:0:0:
329,192,193843,1,0,0:0:0:0:
36,192,193911,1,0,0:0:0:0:
109,192,193978,1,0,0:0:0:0:
36,192,194046,1,0,0:0:0:0:
402,192,194113,1,0,0:0:0:0:
109,192,194181,1,0,0:0:0:0:
182,192,194248,1,0,0:0:0:0:
109,192,194316,1,0,0:0:0:0:
36,192,194383,1,0,0:0:0:0:
329,192,194383,1,0,0:0:0:0:
475,192,194383,1,0,0:0:0:0:
402,192,194383,1,0,0:0:0:0:
256,192,194451,1,0,0:0:0:0:
182,192,194518,1,0,0:0:0:0:
109,192,194586,1,0,0:0:0:0:
182,192,194653,1,0,0:0:0:0:
329,192,194653,1,0,0:0:0:0:
256,192,194788,1,0,0:0:0:0:
182,192,194923,1,0,0:0:0:0:
329,192,194923,1,0,0:0:0:0:
402,192,194991,1,0,0:0:0:0:
329,192,195058,1,0,0:0:0:0:
256,192,195193,1,0,0:0:0:0:
109,192,195328,1,0,0:0:0:0:
182,192,195328,1,0,0:0:0:0:
256,192,195396,1,0,0:0:0:0:
329,192,195463,1,0,0:0:0:0:
402,192,195463,1,0,0:0:0:0:
36,192,195463,1,0,0:0:0:0:
109,192,195531,1,0,0:0:0:0:
182,192,195598,1,0,0:0:0:0:
256,192,195666,1,0,0:0:0:0:
109,192,195733,1,0,0:0:0:0:
402,192,195733,1,0,0:0:0:0:
182,192,195801,1,0,0:0:0:0:
256,192,195868,1,0,0:0:0:0:
329,192,195936,1,0,0:0:0:0:
182,192,196003,1,0,0:0:0:0:
475,192,196003,1,0,0:0:0:0:
256,192,196071,1,0,0:0:0:0:
329,192,196138,1,0,0:0:0:0:
402,192,196206,1,0,0:0:0:0:
36,192,196273,1,0,0:0:0:0:
475,192,196273,1,0,0:0:0:0:
109,192,196307,1,0,0:0:0:0:
182,192,196341,1,0,0:0:0:0:
256,192,196375,1,0,0:0:0:0:
475,192,196408,1,0,0:0:0:0:
402,192,196442,1,0,0:0:0:0:
329,192,196476,1,0,0:0:0:0:
256,192,196510,1,0,0:0:0:0:
109,192,196543,1,0,0:0:0:0:
36,192,196543,1,0,0:0:0:0:
182,192,196543,1,0,0:0:0:0:
475,192,196611,128,0,196746:0:0:0:0:
36,192,196678,1,0,0:0:0:0:
109,192,196678,1,0,0:0:0:0:
402,192,196678,128,0,196813:0:0:0:0:
329,192,196746,128,0,196881:0:0:0:0:
36,192,196813,1,0,0:0:0:0:
109,192,196813,1,0,0:0:0:0:
256,192,196813,128,0,196948:0:0:0:0:
475,192,196881,128,0,197016:0:0:0:0:
109,192,196948,1,0,0:0:0:0:
36,192,196948,1,0,0:0:0:0:
402,192,196948,128,0,197083:0:0:0:0:
329,192,197016,128,0,197151:0:0:0:0:
36,192,197083,1,0,0:0:0:0:
109,192,197083,1,0,0:0:0:0:
256,192,197083,128,0,197218:0:0:0:0:
182,192,197083,1,0,0:0:0:0:
475,192,197151,128,0,197286:0:0:0:0:
36,192,197218,1,0,0:0:0:0:
109,192,197218,1,0,0:0:0:0:
402,192,197218,128,0,197353:0:0:0:0:
329,192,197286,128,0,197421:0:0:0:0:
109,192,197353,1,0,0:0:0:0:
36,192,197353,1,0,0:0:0:0:
256,192,197353,128,0,197488:0:0:0:0:
402,192,197421,1,0,0:0:0:0:
329,192,197488,1,0,0:0:0:0:
109,192,197488,1,0,0:0:0:0:
36,192,197488,1,0,0:0:0:0:
182,192,197488,1,0,0:0:0:0:
256,192,197556,1,0,0:0:0:0:
402,192,197556,1,0,0:0:0:0:
329,192,197623,1,0,0:0:0:0:
475,192,197623,1,0,0:0:0:0:
182,192,197623,1,0,0:0:0:0:
36,192,197691,128,0,197826:0:0:0:0:
402,192,197758,1,0,0:0:0:0:
475,192,197758,1,0,0:0:0:0:
109,192,197758,128,0,197893:0:0:0:0:
182,192,197826,128,0,197961:0:0:0:0:
329,192,197893,1,0,0:0:0:0:
402,192,197893,1,0,0:0:0:0:
475,192,197893,1,0,0:0:0:0:
256,192,197893,128,0,198028:0:0:0:0:
36,192,197961,1,0,0:0:0:0:
402,192,198028,1,0,0:0:0:0:
475,192,198028,1,0,0:0:0:0:
109,192,198028,1,0,0:0:0:0:
182,192,198096,1,0,0:0:0:0:
329,192,198163,1,0,0:0:0:0:
402,192,198163,1,0,0:0:0:0:
475,192,198163,1,0,0:0:0:0:
36,192,198163,1,0,0:0:0:0:
256,192,198163,1,0,0:0:0:0:
109,192,198298,1,0,0:0:0:0:
402,192,198298,1,0,0:0:0:0:
182,192,198332,1,0,0:0:0:0:
256,192,198366,1,0,0:0:0:0:
329,192,198400,1,0,0:0:0:0:
36,192,198433,1,0,0:0:0:0:
475,192,198433,1,0,0:0:0:0:
402,192,198433,1,0,0:0:0:0:
109,192,198501,1,0,0:0:0:0:
182,192,198501,1,0,0:0:0:0:
329,192,198568,1,0,0:0:0:0:
402,192,198568,1,0,0:0:0:0:
109,192,198636,1,0,0:0:0:0:
182,192,198636,1,0,0:0:0:0:
402,192,198703,1,0,0:0:0:0:
475,192,198703,1,0,0:0:0:0:
36,192,198703,128,0,199176:0:0:0:0:
329,192,198703,128,0,198771:0:0:0:0:
256,192,198771,128,0,198838:0:0:0:0:
182,192,198838,128,0,198906:0:0:0:0:
402,192,198838,1,0,0:0:0:0:
109,192,198906,128,0,198973:0:0:0:0:
329,192,198906,1,0,0:0:0:0:
475,192,198973,128,0,199446:0:0:0:0:
402,192,198973,1,0,0:0:0:0:
256,192,198973,128,0,199041:0:0:0:0:
329,192,199041,128,0,199108:0:0:0:0:
402,192,199108,128,0,199176:0:0:0:0:
182,192,199108,1,0,0:0:0:0:
109,192,199176,128,0,199243:0:0:0:0:
256,192,199176,1,0,0:0:0:0:
36,192,199243,128,0,199716:0:0:0:0:
329,192,199243,1,0,0:0:0:0:
182,192,199243,128,0,199311:0:0:0:0:
256,192,199311,128,0,199378:0:0:0:0:
402,192,199311,1,0,0:0:0:0:
329,192,199378,128,0,199446:0:0:0:0:
109,192,199378,1,0,0:0:0:0:
402,192,199446,128,0,199513:0:0:0:0:
182,192,199446,1,0,0:0:0:0:
109,192,199513,128,0,199581:0:0:0:0:
475,192,199513,128,0,199986:0:0:0:0:
256,192,199513,1,0,0:0:0:0:
182,192,199581,128,0,199648:0:0:0:0:
329,192,199581,1,0,0:0:0:0:
256,192,199648,128,0,199716:0:0:0:0:
402,192,199648,1,0,0:0:0:0:
329,192,199716,1,0,0:0:0:0:
182,192,199716,128,0,199783:0:0:0:0:
36,192,199783,128,0,200256:0:0:0:0:
402,192,199783,128,0,199918:0:0:0:0:
109,192,199783,128,0,199851:0:0:0:0:
329,192,199851,128,0,199986:0:0:0:0:
182,192,199851,128,0,199918:0:0:0:0:
109,192,199918,128,0,200053:0:0:0:0:
256,192,199918,128,0,199986:0:0:0:0:
182,192,199986,128,0,200121:0:0:0:0:
402,192,199986,128,0,200053:0:0:0:0:
475,192,200053,128,0,200256:0:0:0:0:
256,192,200053,128,0,200188:0:0:0:0:
329,192,200053,128,0,200121:0:0:0:0:
109,192,200121,1,0,0:0:0:0:
402,192,200121,128,0,200188:0:0:0:0:
182,192,200188,1,0,0:0:0:0:
329,192,200188,128,0,200256:0:0:0:0:
109,192,200256,1,0,0:0:0:0:
256,192,200256,128,0,200323:0:0:0:0:
475,192,200323,1,0,0:0:0:0:
402,192,200323,1,0,0:0:0:0:
329,192,200323,1,0,0:0:0:0:
36,192,200323,1,0,0:0:0:0:
182,192,200323,128,0,200391:0:0:0:0:
256,192,200391,1,0,0:0:0:0:
109,192,200391,128,0,200458:0:0:0:0:
475,192,200458,1,0,0:0:0:0:
36,192,200458,128,0,200526:0:0:0:0:
402,192,200492,1,0,0:0:0:0:
329,192,200526,1,0,0:0:0:0:
182,192,200526,1,0,0:0:0:0:
109,192,200560,1,0,0:0:0:0:
36,192,200593,1,0,0:0:0:0:
475,192,200593,1,0,0:0:0:0:
256,192,200593,1,0,0:0:0:0:
329,192,200661,1,0,0:0:0:0:
402,192,200661,1,0,0:0:0:0:
182,192,200661,1,0,0:0:0:0:
36,192,200728,1,0,0:0:0:0:
475,192,200728,1,0,0:0:0:0:
256,192,200728,1,0,0:0:0:0:
109,192,200796,1,0,0:0:0:0:
182,192,200796,1,0,0:0:0:0:
329,192,200796,1,0,0:0:0:0:
256,192,200863,1,0,0:0:0:0:
36,192,200863,1,0,0:0:0:0:
402,192,200863,1,0,0:0:0:0:
475,192,200863,1,0,0:0:0:0:
402,192,201066,1,0,0:0:0:0:
475,192,201066,1,0,0:0:0:0:
402,192,201268,1,0,0:0:0:0:
475,192,201268,1,0,0:0:0:0:
329,192,201471,1,0,0:0:0:0:
402,192,201471,1,0,0:0:0:0:
329,192,201673,1,0,0:0:0:0:
402,192,201673,1,0,0:0:0:0:
329,192,201808,1,0,0:0:0:0:
402,192,201808,1,0,0:0:0:0:
256,192,201943,1,0,0:0:0:0:
329,192,201943,1,0,0:0:0:0:
256,192,202146,1,0,0:0:0:0:
329,192,202146,1,0,0:0:0:0:
256,192,202349,1,0,0:0:0:0:
329,192,202349,1,0,0:0:0:0:
109,192,202551,1,0,0:0:0:0:
182,192,202551,1,0,0:0:0:0:
109,192,202754,1,0,0:0:0:0:
182,192,202754,1,0,0:0:0:0:
109,192,202889,1,0,0:0:0:0:
182,192,202889,1,0,0:0:0:0:
329,192,203024,1,0,0:0:0:0:
475,192,203024,1,0,0:0:0:0:
256,192,203024,1,0,0:0:0:0:
329,192,203226,1,0,0:0:0:0:
475,192,203226,1,0,0:0:0:0:
329,192,203429,1,0,0:0:0:0:
475,192,203429,1,0,0:0:0:0:
256,192,203631,1,0,0:0:0:0:
402,192,203631,1,0,0:0:0:0:
256,192,203834,1,0,0:0:0:0:
402,192,203834,1,0,0:0:0:0:
402,192,203969,1,0,0:0:0:0:
256,192,203969,1,0,0:0:0:0:
182,192,204104,1,0,0:0:0:0:
36,192,204104,1,0,0:0:0:0:
36,192,204306,1,0,0:0:0:0:
182,192,204306,1,0,0:0:0:0:
109,192,204509,1,0,0:0:0:0:
256,192,204509,1,0,0:0:0:0:
182,192,204644,1,0,0:0:0:0:
329,192,204644,1,0,0:0:0:0:
256,192,204779,1,0,0:0:0:0:
402,192,204779,1,0,0:0:0:0:
329,192,204914,1,0,0:0:0:0:
475,192,204914,1,0,0:0:0:0:
36,192,205049,1,0,0:0:0:0:
182,192,205049,1,0,0:0:0:0:
109,192,205184,1,0,0:0:0:0:
256,192,205184,1,0,0:0:0:0:
402,192,205184,1,0,0:0:0:0:
402,192,205386,1,0,0:0:0:0:
109,192,205386,1,0,0:0:0:0:
109,192,205589,1,0,0:0:0:0:
402,192,205589,1,0,0:0:0:0:
36,192,205724,1,0,0:0:0:0:
256,192,205724,1,0,0:0:0:0:
36,192,205859,1,0,0:0:0:0:
256,192,205859,1,0,0:0:0:0:
109,192,205994,1,0,0:0:0:0:
329,192,205994,1,0,0:0:0:0:
109,192,206129,1,0,0:0:0:0:
329,192,206129,1,0,0:0:0:0:
256,192,206264,1,0,0:0:0:0:
475,192,206264,1,0,0:0:0:0:
256,192,206399,1,0,0:0:0:0:
475,192,206399,1,0,0:0:0:0:
402,192,206534,1,0,0:0:0:0:
182,192,206534,1,0,0:0:0:0:
182,192,206669,1,0,0:0:0:0:
402,192,206669,1,0,0:0:0:0:
329,192,206804,1,0,0:0:0:0:
109,192,206804,1,0,0:0:0:0:
109,192,206939,1,0,0:0:0:0:
329,192,206939,1,0,0:0:0:0:
256,192,207074,1,0,0:0:0:0:
36,192,207074,1,0,0:0:0:0:
36,192,207209,1,0,0:0:0:0:
256,192,207209,1,0,0:0:0:0:
329,192,207344,1,0,0:0:0:0:
475,192,207344,1,0,0:0:0:0:
329,192,207479,1,0,0:0:0:0:
475,192,207479,1,0,0:0:0:0:
256,192,207614,1,0,0:0:0:0:
402,192,207614,1,0,0:0:0:0:
402,192,207749,1,0,0:0:0:0:
256,192,207749,1,0,0:0:0:0:
182,192,207884,1,0,0:0:0:0:
329,192,207884,1,0,0:0:0:0:
182,192,208019,1,0,0:0:0:0:
329,192,208019,1,0,0:0:0:0:
109,192,208154,1,0,0:0:0:0:
402,192,208154,1,0,0:0:0:0:
109,192,208289,1,0,0:0:0:0:
402,192,208289,1,0,0:0:0:0:
36,192,208424,1,0,0:0:0:0:
329,192,208424,1,0,0:0:0:0:
36,192,208626,1,0,0:0:0:0:
329,192,208626,1,0,0:0:0:0:
329,192,208829,1,0,0:0:0:0:
36,192,208829,1,0,0:0:0:0:
109,192,209031,1,0,0:0:0:0:
182,192,209031,1,0,0:0:0:0:
109,192,209234,1,0,0:0:0:0:
182,192,209234,1,0,0:0:0:0:
109,192,209369,1,0,0:0:0:0:
182,192,209369,1,0,0:0:0:0:
329,192,209436,1,0,0:0:0:0:
402,192,209436,1,0,0:0:0:0:
475,192,209436,1,0,0:0:0:0:
182,192,209504,1,0,0:0:0:0:
109,192,209504,1,0,0:0:0:0:
36,192,209504,128,0,211664:0:0:0:0:
329,192,209639,1,0,0:0:0:0:
475,192,209639,1,0,0:0:0:0:
256,192,209774,1,0,0:0:0:0:
402,192,209774,1,0,0:0:0:0:
402,192,209909,1,0,0:0:0:0:
256,192,209909,1,0,0:0:0:0:
182,192,210044,1,0,0:0:0:0:
329,192,210044,1,0,0:0:0:0:
329,192,210179,1,0,0:0:0:0:
182,192,210179,1,0,0:0:0:0:
256,192,210314,1,0,0:0:0:0:
109,192,210314,1,0,0:0:0:0:
109,192,210449,1,0,0:0:0:0:
256,192,210449,1,0,0:0:0:0:
329,192,210584,1,0,0:0:0:0:
402,192,210584,1,0,0:0:0:0:
182,192,210674,1,0,0:0:0:0:
256,192,210674,1,0,0:0:0:0:
402,192,210764,1,0,0:0:0:0:
475,192,210764,1,0,0:0:0:0:
329,192,210854,1,0,0:0:0:0:
256,192,210854,1,0,0:0:0:0:
256,192,210989,1,0,0:0:0:0:
329,192,210989,1,0,0:0:0:0:
182,192,211124,1,0,0:0:0:0:
402,192,211124,1,0,0:0:0:0:
182,192,211326,1,0,0:0:0:0:
402,192,211326,1,0,0:0:0:0:
109,192,211529,1,0,0:0:0:0:
329,192,211529,1,0,0:0:0:0:
182,192,211664,1,0,0:0:0:0:
256,192,211664,1,0,0:0:0:0:
402,192,211664,1,0,0:0:0:0:
475,192,211664,128,0,213824:0:0:0:0:
36,192,211799,1,0,0:0:0:0:
109,192,211799,1,0,0:0:0:0:
182,192,211934,1,0,0:0:0:0:
256,192,211934,1,0,0:0:0:0:
182,192,212069,1,0,0:0:0:0:
256,192,212069,1,0,0:0:0:0:
329,192,212204,1,0,0:0:0:0:
402,192,212204,1,0,0:0:0:0:
329,192,212339,1,0,0:0:0:0:
402,192,212339,1,0,0:0:0:0:
109,192,212474,1,0,0:0:0:0:
182,192,212474,1,0,0:0:0:0:
109,192,212609,1,0,0:0:0:0:
182,192,212609,1,0,0:0:0:0:
256,192,212744,1,0,0:0:0:0:
402,192,212744,1,0,0:0:0:0:
256,192,212879,1,0,0:0:0:0:
402,192,212879,1,0,0:0:0:0:
182,192,213014,1,0,0:0:0:0:
329,192,213014,1,0,0:0:0:0:
329,192,213149,1,0,0:0:0:0:
182,192,213149,1,0,0:0:0:0:
109,192,213284,1,0,0:0:0:0:
256,192,213284,1,0,0:0:0:0:
256,192,213419,1,0,0:0:0:0:
109,192,213419,1,0,0:0:0:0:
182,192,213554,1,0,0:0:0:0:
329,192,213554,1,0,0:0:0:0:
329,192,213689,1,0,0:0:0:0:
182,192,213689,1,0,0:0:0:0:
109,192,213824,1,0,0:0:0:0:
256,192,213824,1,0,0:0:0:0:
402,192,213824,1,0,0:0:0:0:
36,192,213824,128,0,214904:0:0:0:0:
329,192,213891,1,0,0:0:0:0:
182,192,213959,1,0,0:0:0:0:
402,192,214026,1,0,0:0:0:0:
329,192,214094,1,0,0:0:0:0:
182,192,214161,1,0,0:0:0:0:
402,192,214229,1,0,0:0:0:0:
329,192,214296,1,0,0:0:0:0:
182,192,214364,1,0,0:0:0:0:
109,192,214364,1,0,0:0:0:0:
402,192,214431,1,0,0:0:0:0:
329,192,214499,1,0,0:0:0:0:
256,192,214566,1,0,0:0:0:0:
402,192,214634,1,0,0:0:0:0:
256,192,214701,1,0,0:0:0:0:
475,192,214769,1,0,0:0:0:0:
109,192,214769,1,0,0:0:0:0:
329,192,214836,1,0,0:0:0:0:
182,192,214836,1,0,0:0:0:0:
256,192,214904,1,0,0:0:0:0:
402,192,214904,1,0,0:0:0:0:
475,192,214904,128,0,215984:0:0:0:0:
109,192,214971,1,0,0:0:0:0:
329,192,215039,1,0,0:0:0:0:
182,192,215106,1,0,0:0:0:0:
36,192,215174,1,0,0:0:0:0:
402,192,215174,1,0,0:0:0:0:
256,192,215241,1,0,0:0:0:0:
109,192,215309,1,0,0:0:0:0:
329,192,215376,1,0,0:0:0:0:
182,192,215444,1,0,0:0:0:0:
36,192,215444,1,0,0:0:0:0:
402,192,215444,1,0,0:0:0:0:
256,192,215511,1,0,0:0:0:0:
109,192,215579,1,0,0:0:0:0:
402,192,215646,1,0,0:0:0:0:
256,192,215714,1,0,0:0:0:0:
109,192,215781,1,0,0:0:0:0:
36,192,215849,1,0,0:0:0:0:
329,192,215849,1,0,0:0:0:0:
182,192,215916,1,0,0:0:0:0:
109,192,215984,1,0,0:0:0:0:
36,192,215984,1,0,0:0:0:0:
402,192,215984,1,0,0:0:0:0:
256,192,215984,128,0,217064:0:0:0:0:
329,192,216051,1,0,0:0:0:0:
182,192,216119,1,0,0:0:0:0:
402,192,216186,1,0,0:0:0:0:
109,192,216186,1,0,0:0:0:0:
329,192,216254,1,0,0:0:0:0:
182,192,216321,1,0,0:0:0:0:
109,192,216389,1,0,0:0:0:0:
402,192,216389,1,0,0:0:0:0:
329,192,216456,1,0,0:0:0:0:
182,192,216524,1,0,0:0:0:0:
36,192,216524,1,0,0:0:0:0:
475,192,216524,1,0,0:0:0:0:
402,192,216591,1,0,0:0:0:0:
329,192,216659,1,0,0:0:0:0:
109,192,216659,1,0,0:0:0:0:
182,192,216726,1,0,0:0:0:0:
402,192,216794,1,0,0:0:0:0:
475,192,216794,1,0,0:0:0:0:
36,192,216794,1,0,0:0:0:0:
109,192,216861,1,0,0:0:0:0:
329,192,216861,1,0,0:0:0:0:
182,192,216929,1,0,0:0:0:0:
475,192,216929,1,0,0:0:0:0:
36,192,216996,1,0,0:0:0:0:
402,192,216996,1,0,0:0:0:0:
109,192,217064,1,0,0:0:0:0:
182,192,217064,1,0,0:0:0:0:
329,192,217064,128,0,217334:0:0:0:0:
475,192,217199,128,0,217334:0:0:0:0:
256,192,217334,128,0,217604:0:0:0:0:
36,192,217334,1,0,0:0:0:0:
109,192,217334,1,0,0:0:0:0:
182,192,217334,1,0,0:0:0:0:
402,192,217469,128,0,217604:0:0:0:0:
182,192,217604,128,0,217874:0:0:0:0:
109,192,217604,1,0,0:0:0:0:
36,192,217604,1,0,0:0:0:0:
475,192,217604,1,0,0:0:0:0:
329,192,217739,128,0,217874:0:0:0:0:
109,192,217874,128,0,218144:0:0:0:0:
36,192,217874,1,0,0:0:0:0:
475,192,217874,1,0,0:0:0:0:
402,192,217941,1,0,0:0:0:0:
256,192,218009,128,0,218144:0:0:0:0:
329,192,218009,1,0,0:0:0:0:
402,192,218076,1,0,0:0:0:0:
182,192,218144,1,0,0:0:0:0:
36,192,218144,1,0,0:0:0:0:
475,192,218144,1,0,0:0:0:0:
329,192,218211,1,0,0:0:0:0:
256,192,218279,1,0,0:0:0:0:
109,192,218279,1,0,0:0:0:0:
402,192,218346,1,0,0:0:0:0:
182,192,218414,1,0,0:0:0:0:
36,192,218414,1,0,0:0:0:0:
329,192,218414,1,0,0:0:0:0:
256,192,218481,1,0,0:0:0:0:
402,192,218549,1,0,0:0:0:0:
109,192,218549,1,0,0:0:0:0:
329,192,218616,1,0,0:0:0:0:
182,192,218684,1,0,0:0:0:0:
36,192,218684,1,0,0:0:0:0:
256,192,218684,1,0,0:0:0:0:
475,192,218751,1,0,0:0:0:0:
402,192,218819,1,0,0:0:0:0:
109,192,218819,1,0,0:0:0:0:
329,192,218886,1,0,0:0:0:0:
182,192,218954,1,0,0:0:0:0:
256,192,218954,1,0,0:0:0:0:
475,192,218954,1,0,0:0:0:0:
402,192,219021,1,0,0:0:0:0:
109,192,219089,1,0,0:0:0:0:
475,192,219089,1,0,0:0:0:0:
182,192,219156,1,0,0:0:0:0:
256,192,219224,1,0,0:0:0:0:
36,192,219224,1,0,0:0:0:0:
402,192,219224,1,0,0:0:0:0:
329,192,219291,1,0,0:0:0:0:
256,192,219359,1,0,0:0:0:0:
109,192,219359,1,0,0:0:0:0:
402,192,219426,1,0,0:0:0:0:
329,192,219494,1,0,0:0:0:0:
182,192,219494,1,0,0:0:0:0:
36,192,219494,1,0,0:0:0:0:
256,192,219561,1,0,0:0:0:0:
402,192,219629,1,0,0:0:0:0:
475,192,219629,1,0,0:0:0:0:
329,192,219696,1,0,0:0:0:0:
256,192,219764,1,0,0:0:0:0:
109,192,219764,1,0,0:0:0:0:
36,192,219764,1,0,0:0:0:0:
182,192,219831,1,0,0:0:0:0:
109,192,219899,1,0,0:0:0:0:
329,192,219899,1,0,0:0:0:0:
36,192,219966,1,0,0:0:0:0:
182,192,220034,1,0,0:0:0:0:
402,192,220034,1,0,0:0:0:0:
475,192,220034,1,0,0:0:0:0:
109,192,220101,1,0,0:0:0:0:
182,192,220169,1,0,0:0:0:0:
329,192,220169,1,0,0:0:0:0:
475,192,220169,1,0,0:0:0:0:
36,192,220236,1,0,0:0:0:0:
109,192,220304,1,0,0:0:0:0:
256,192,220304,1,0,0:0:0:0:
402,192,220304,1,0,0:0:0:0:
475,192,220304,1,0,0:0:0:0:
329,192,220371,1,0,0:0:0:0:
182,192,220439,1,0,0:0:0:0:
36,192,220439,1,0,0:0:0:0:
475,192,220506,1,0,0:0:0:0:
329,192,220574,1,0,0:0:0:0:
109,192,220574,1,0,0:0:0:0:
256,192,220574,1,0,0:0:0:0:
182,192,220641,1,0,0:0:0:0:
475,192,220709,1,0,0:0:0:0:
402,192,220709,1,0,0:0:0:0:
329,192,220776,1,0,0:0:0:0:
109,192,220844,1,0,0:0:0:0:
256,192,220844,1,0,0:0:0:0:
36,192,220844,1,0,0:0:0:0:
402,192,220911,1,0,0:0:0:0:
182,192,220979,1,0,0:0:0:0:
329,192,220979,1,0,0:0:0:0:
109,192,221046,1,0,0:0:0:0:
256,192,221114,1,0,0:0:0:0:
402,192,221114,1,0,0:0:0:0:
475,192,221114,1,0,0:0:0:0:
36,192,221181,1,0,0:0:0:0:
256,192,221249,1,0,0:0:0:0:
402,192,221249,1,0,0:0:0:0:
475,192,221249,1,0,0:0:0:0:
109,192,221316,1,0,0:0:0:0:
475,192,221384,1,0,0:0:0:0:
402,192,221384,1,0,0:0:0:0:
256,192,221384,1,0,0:0:0:0:
36,192,221451,1,0,0:0:0:0:
329,192,221519,1,0,0:0:0:0:
182,192,221519,1,0,0:0:0:0:
402,192,221519,1,0,0:0:0:0:
256,192,221586,1,0,0:0:0:0:
109,192,221586,1,0,0:0:0:0:
36,192,221586,1,0,0:0:0:0:
182,192,221654,1,0,0:0:0:0:
329,192,221654,1,0,0:0:0:0:
402,192,221654,1,0,0:0:0:0:
109,192,221721,1,0,0:0:0:0:
256,192,221789,1,0,0:0:0:0:
402,192,221789,1,0,0:0:0:0:
475,192,221789,1,0,0:0:0:0:
182,192,221856,1,0,0:0:0:0:
109,192,221856,1,0,0:0:0:0:
329,192,221924,1,0,0:0:0:0:
475,192,221924,1,0,0:0:0:0:
36,192,221924,1,0,0:0:0:0:
256,192,221991,1,0,0:0:0:0:
182,192,221991,1,0,0:0:0:0:
36,192,222059,1,0,0:0:0:0:
109,192,222059,1,0,0:0:0:0:
402,192,222059,1,0,0:0:0:0:
329,192,222126,1,0,0:0:0:0:
256,192,222126,1,0,0:0:0:0:
182,192,222194,1,0,0:0:0:0:
109,192,222194,1,0,0:0:0:0:
36,192,222194,1,0,0:0:0:0:
329,192,222261,1,0,0:0:0:0:
402,192,222261,1,0,0:0:0:0:
256,192,222329,1,0,0:0:0:0:
182,192,222329,1,0,0:0:0:0:
109,192,222329,1,0,0:0:0:0:
402,192,222396,1,0,0:0:0:0:
475,192,222396,1,0,0:0:0:0:
36,192,222464,1,0,0:0:0:0:
182,192,222464,1,0,0:0:0:0:
256,192,222464,1,0,0:0:0:0:
329,192,222464,1,0,0:0:0:0:
402,192,222531,1,0,0:0:0:0:
475,192,222599,1,0,0:0:0:0:
109,192,222599,1,0,0:0:0:0:
329,192,222666,1,0,0:0:0:0:
402,192,222734,1,0,0:0:0:0:
182,192,222734,1,0,0:0:0:0:
36,192,222734,1,0,0:0:0:0:
475,192,222801,1,0,0:0:0:0:
109,192,222869,1,0,0:0:0:0:
256,192,222869,1,0,0:0:0:0:
329,192,222936,1,0,0:0:0:0:
402,192,223004,1,0,0:0:0:0:
182,192,223004,1,0,0:0:0:0:
36,192,223004,1,0,0:0:0:0:
475,192,223004,1,0,0:0:0:0:
256,192,223071,1,0,0:0:0:0:
109,192,223139,1,0,0:0:0:0:
329,192,223139,1,0,0:0:0:0:
256,192,223206,1,0,0:0:0:0:
182,192,223274,1,0,0:0:0:0:
36,192,223274,1,0,0:0:0:0:
402,192,223274,1,0,0:0:0:0:
475,192,223274,1,0,0:0:0:0:
329,192,223341,1,0,0:0:0:0:
256,192,223409,1,0,0:0:0:0:
109,192,223409,1,0,0:0:0:0:
36,192,223409,1,0,0:0:0:0:
329,192,223476,1,0,0:0:0:0:
36,192,223544,1,0,0:0:0:0:
182,192,223544,1,0,0:0:0:0:
402,192,223544,1,0,0:0:0:0:
475,192,223544,1,0,0:0:0:0:
256,192,223611,1,0,0:0:0:0:
109,192,223679,1,0,0:0:0:0:
402,192,223679,1,0,0:0:0:0:
475,192,223679,1,0,0:0:0:0:
256,192,223746,1,0,0:0:0:0:
329,192,223814,1,0,0:0:0:0:
402,192,223814,1,0,0:0:0:0:
36,192,223814,1,0,0:0:0:0:
182,192,223881,1,0,0:0:0:0:
36,192,223949,1,0,0:0:0:0:
329,192,223949,1,0,0:0:0:0:
402,192,223949,1,0,0:0:0:0:
182,192,224016,1,0,0:0:0:0:
256,192,224084,1,0,0:0:0:0:
329,192,224084,1,0,0:0:0:0:
475,192,224084,1,0,0:0:0:0:
109,192,224151,1,0,0:0:0:0:
256,192,224219,1,0,0:0:0:0:
329,192,224219,1,0,0:0:0:0:
475,192,224219,1,0,0:0:0:0:
109,192,224286,1,0,0:0:0:0:
182,192,224354,1,0,0:0:0:0:
402,192,224354,1,0,0:0:0:0:
256,192,224354,1,0,0:0:0:0:
36,192,224421,1,0,0:0:0:0:
182,192,224489,1,0,0:0:0:0:
256,192,224489,1,0,0:0:0:0:
402,192,224489,1,0,0:0:0:0:
36,192,224556,1,0,0:0:0:0:
109,192,224624,1,0,0:0:0:0:
329,192,224624,1,0,0:0:0:0:
182,192,224624,1,0,0:0:0:0:
475,192,224624,1,0,0:0:0:0:
182,192,224759,1,0,0:0:0:0:
109,192,224759,1,0,0:0:0:0:
329,192,224759,1,0,0:0:0:0:
475,192,224759,1,0,0:0:0:0:
36,192,224894,1,0,0:0:0:0:
109,192,224894,1,0,0:0:0:0:
256,192,224894,1,0,0:0:0:0:
402,192,224894,1,0,0:0:0:0:
256,192,225029,1,0,0:0:0:0:
402,192,225029,1,0,0:0:0:0:
109,192,225029,1,0,0:0:0:0:
36,192,225029,1,0,0:0:0:0:
36,192,225164,1,0,0:0:0:0:
182,192,225164,1,0,0:0:0:0:
256,192,225164,1,0,0:0:0:0:
329,192,225164,1,0,0:0:0:0:
182,192,225299,1,0,0:0:0:0:
36,192,225299,1,0,0:0:0:0:
256,192,225299,1,0,0:0:0:0:
329,192,225299,1,0,0:0:0:0:
109,192,225434,1,0,0:0:0:0:
182,192,225434,1,0,0:0:0:0:
402,192,225434,1,0,0:0:0:0:
475,192,225434,1,0,0:0:0:0:
182,192,225569,1,0,0:0:0:0:
109,192,225569,1,0,0:0:0:0:
402,192,225569,1,0,0:0:0:0:
475,192,225569,1,0,0:0:0:0:
256,192,225636,1,0,0:0:0:0:
329,192,225704,1,0,0:0:0:0:
402,192,225704,1,0,0:0:0:0:
475,192,225704,1,0,0:0:0:0:
36,192,225704,1,0,0:0:0:0:
109,192,225704,1,0,0:0:0:0:
256,192,225771,1,0,0:0:0:0:
182,192,225839,1,0,0:0:0:0:
36,192,225839,1,0,0:0:0:0:
329,192,225906,1,0,0:0:0:0:
256,192,225974,1,0,0:0:0:0:
109,192,225974,1,0,0:0:0:0:
402,192,225974,1,0,0:0:0:0:
475,192,225974,1,0,0:0:0:0:
182,192,226041,1,0,0:0:0:0:
36,192,226109,1,0,0:0:0:0:
329,192,226109,1,0,0:0:0:0:
475,192,226109,1,0,0:0:0:0:
256,192,226142,1,0,0:0:0:0:
182,192,226176,1,0,0:0:0:0:
402,192,226176,1,0,0:0:0:0:
109,192,226210,1,0,0:0:0:0:
36,192,226244,1,0,0:0:0:0:
329,192,226244,1,0,0:0:0:0:
475,192,226244,1,0,0:0:0:0:
256,192,226311,1,0,0:0:0:0:
182,192,226311,1,0,0:0:0:0:
402,192,226379,1,0,0:0:0:0:
475,192,226379,1,0,0:0:0:0:
109,192,226379,1,0,0:0:0:0:
329,192,226412,1,0,0:0:0:0:
256,192,226446,1,0,0:0:0:0:
182,192,226480,1,0,0:0:0:0:
109,192,226514,1,0,0:0:0:0:
36,192,226514,1,0,0:0:0:0:
475,192,226514,1,0,0:0:0:0:
402,192,226514,1,0,0:0:0:0:
329,192,226581,1,0,0:0:0:0:
256,192,226581,1,0,0:0:0:0:
182,192,226581,1,0,0:0:0:0:
109,192,226649,1,0,0:0:0:0:
36,192,226649,1,0,0:0:0:0:
402,192,226649,1,0,0:0:0:0:
475,192,226649,1,0,0:0:0:0:
329,192,226716,1,0,0:0:0:0:
182,192,226716,1,0,0:0:0:0:
256,192,226716,1,0,0:0:0:0:
109,192,226784,1,0,0:0:0:0:
36,192,226784,1,0,0:0:0:0:
402,192,226784,1,0,0:0:0:0:
475,192,226784,1,0,0:0:0:0:
329,192,226851,1,0,0:0:0:0:
109,192,226919,1,0,0:0:0:0:
402,192,226919,1,0,0:0:0:0:
475,192,226919,1,0,0:0:0:0:
182,192,226986,1,0,0:0:0:0:
36,192,227054,1,0,0:0:0:0:
256,192,227054,1,0,0:0:0:0:
329,192,227054,1,0,0:0:0:0:
109,192,227121,1,0,0:0:0:0:
36,192,227189,1,0,0:0:0:0:
256,192,227189,1,0,0:0:0:0:
329,192,227189,1,0,0:0:0:0:
182,192,227256,1,0,0:0:0:0:
109,192,227324,1,0,0:0:0:0:
329,192,227324,1,0,0:0:0:0:
402,192,227324,1,0,0:0:0:0:
256,192,227391,1,0,0:0:0:0:
109,192,227459,1,0,0:0:0:0:
329,192,227459,1,0,0:0:0:0:
402,192,227459,1,0,0:0:0:0:
182,192,227526,1,0,0:0:0:0:
402,192,227594,1,0,0:0:0:0:
475,192,227594,1,0,0:0:0:0:
36,192,227594,1,0,0:0:0:0:
329,192,227661,1,0,0:0:0:0:
36,192,227729,1,0,0:0:0:0:
402,192,227729,1,0,0:0:0:0:
475,192,227729,1,0,0:0:0:0:
109,192,227796,1,0,0:0:0:0:
182,192,227864,1,0,0:0:0:0:
256,192,227864,1,0,0:0:0:0:
36,192,227864,1,0,0:0:0:0:
329,192,227864,1,0,0:0:0:0:
109,192,227954,1,0,0:0:0:0:
402,192,227954,1,0,0:0:0:0:
475,192,227954,1,0,0:0:0:0:
256,192,228044,1,0,0:0:0:0:
329,192,228044,1,0,0:0:0:0:
36,192,228044,1,0,0:0:0:0:
109,192,228134,1,0,0:0:0:0:
182,192,228134,1,0,0:0:0:0:
402,192,228134,1,0,0:0:0:0:
475,192,228134,1,0,0:0:0:0:
256,192,228201,1,0,0:0:0:0:
109,192,228269,1,0,0:0:0:0:
182,192,228269,1,0,0:0:0:0:
402,192,228269,1,0,0:0:0:0:
329,192,228336,1,0,0:0:0:0:
109,192,228404,1,0,0:0:0:0:
36,192,228404,1,0,0:0:0:0:
475,192,228404,1,0,0:0:0:0:
256,192,228404,1,0,0:0:0:0:
402,192,228471,1,0,0:0:0:0:
329,192,228539,1,0,0:0:0:0:
182,192,228539,1,0,0:0:0:0:
475,192,228606,1,0,0:0:0:0:
402,192,228674,1,0,0:0:0:0:
256,192,228674,1,0,0:0:0:0:
109,192,228674,1,0,0:0:0:0:
36,192,228674,1,0,0:0:0:0:
329,192,228741,1,0,0:0:0:0:
182,192,228809,1,0,0:0:0:0:
36,192,228809,1,0,0:0:0:0:
475,192,228809,1,0,0:0:0:0:
402,192,228876,1,0,0:0:0:0:
256,192,228876,1,0,0:0:0:0:
109,192,228944,1,0,0:0:0:0:
329,192,228944,1,0,0:0:0:0:
36,192,228944,1,0,0:0:0:0:
182,192,229011,1,0,0:0:0:0:
109,192,229079,1,0,0:0:0:0:
36,192,229079,1,0,0:0:0:0:
329,192,229079,1,0,0:0:0:0:
256,192,229146,1,0,0:0:0:0:
182,192,229214,1,0,0:0:0:0:
109,192,229214,1,0,0:0:0:0:
402,192,229214,1,0,0:0:0:0:
256,192,229281,1,0,0:0:0:0:
402,192,229349,1,0,0:0:0:0:
182,192,229349,1,0,0:0:0:0:
109,192,229349,1,0,0:0:0:0:
329,192,229416,1,0,0:0:0:0:
256,192,229484,1,0,0:0:0:0:
182,192,229484,1,0,0:0:0:0:
475,192,229484,1,0,0:0:0:0:
329,192,229551,1,0,0:0:0:0:
256,192,229619,1,0,0:0:0:0:
182,192,229619,1,0,0:0:0:0:
475,192,229619,1,0,0:0:0:0:
402,192,229686,1,0,0:0:0:0:
329,192,229754,1,0,0:0:0:0:
256,192,229754,1,0,0:0:0:0:
36,192,229754,1,0,0:0:0:0:
109,192,229821,1,0,0:0:0:0:
256,192,229889,1,0,0:0:0:0:
329,192,229889,1,0,0:0:0:0:
36,192,229889,1,0,0:0:0:0:
182,192,229956,1,0,0:0:0:0:
109,192,230024,1,0,0:0:0:0:
402,192,230024,1,0,0:0:0:0:
475,192,230024,1,0,0:0:0:0:
329,192,230091,1,0,0:0:0:0:
109,192,230159,1,0,0:0:0:0:
402,192,230159,1,0,0:0:0:0:
475,192,230159,1,0,0:0:0:0:
182,192,230226,1,0,0:0:0:0:
329,192,230294,1,0,0:0:0:0:
402,192,230294,1,0,0:0:0:0:
36,192,230294,1,0,0:0:0:0:
256,192,230361,1,0,0:0:0:0:
36,192,230429,1,0,0:0:0:0:
329,192,230429,1,0,0:0:0:0:
402,192,230429,1,0,0:0:0:0:
109,192,230496,1,0,0:0:0:0:
256,192,230564,1,0,0:0:0:0:
329,192,230564,1,0,0:0:0:0:
475,192,230564,1,0,0:0:0:0:
182,192,230631,1,0,0:0:0:0:
256,192,230699,1,0,0:0:0:0:
329,192,230699,1,0,0:0:0:0:
475,192,230699,1,0,0:0:0:0:
182,192,230766,1,0,0:0:0:0:
36,192,230834,1,0,0:0:0:0:
109,192,230834,1,0,0:0:0:0:
402,192,230834,1,0,0:0:0:0:
329,192,230901,1,0,0:0:0:0:
109,192,230969,1,0,0:0:0:0:
36,192,230969,1,0,0:0:0:0:
402,192,230969,1,0,0:0:0:0:
329,192,231036,1,0,0:0:0:0:
182,192,231104,1,0,0:0:0:0:
36,192,231104,1,0,0:0:0:0:
256,192,231104,1,0,0:0:0:0:
475,192,231104,1,0,0:0:0:0:
402,192,231171,1,0,0:0:0:0:
329,192,231239,1,0,0:0:0:0:
109,192,231239,1,0,0:0:0:0:
475,192,231306,1,0,0:0:0:0:
402,192,231374,1,0,0:0:0:0:
36,192,231374,1,0,0:0:0:0:
182,192,231374,1,0,0:0:0:0:
329,192,231441,1,0,0:0:0:0:
475,192,231509,1,0,0:0:0:0:
256,192,231509,1,0,0:0:0:0:
402,192,231576,1,0,0:0:0:0:
109,192,231644,1,0,0:0:0:0:
329,192,231644,1,0,0:0:0:0:
36,192,231644,1,0,0:0:0:0:
256,192,231711,1,0,0:0:0:0:
182,192,231779,1,0,0:0:0:0:
402,192,231779,1,0,0:0:0:0:
329,192,231846,1,0,0:0:0:0:
256,192,231914,1,0,0:0:0:0:
475,192,231914,1,0,0:0:0:0:
36,192,231914,1,0,0:0:0:0:
109,192,231981,1,0,0:0:0:0:
329,192,232049,1,0,0:0:0:0:
402,192,232049,1,0,0:0:0:0:
182,192,232116,1,0,0:0:0:0:
475,192,232184,1,0,0:0:0:0:
256,192,232184,1,0,0:0:0:0:
36,192,232184,1,0,0:0:0:0:
36,192,232319,1,0,0:0:0:0:
256,192,232319,1,0,0:0:0:0:
475,192,232319,1,0,0:0:0:0:
402,192,232319,1,0,0:0:0:0:
36,192,232454,1,0,0:0:0:0:
182,192,232454,1,0,0:0:0:0:
329,192,232454,1,0,0:0:0:0:
402,192,232454,1,0,0:0:0:0:
36,192,232589,1,0,0:0:0:0:
182,192,232589,1,0,0:0:0:0:
329,192,232589,1,0,0:0:0:0:
109,192,232724,1,0,0:0:0:0:
256,192,232724,1,0,0:0:0:0:
402,192,232724,1,0,0:0:0:0:
475,192,232724,1,0,0:0:0:0:
182,192,232926,1,0,0:0:0:0:
329,192,232926,1,0,0:0:0:0:
402,192,232926,1,0,0:0:0:0:
475,192,232926,1,0,0:0:0:0:
109,192,233129,1,0,0:0:0:0:
256,192,233129,1,0,0:0:0:0:
182,192,233264,1,0,0:0:0:0:
36,192,233264,1,0,0:0:0:0:
402,192,233264,1,0,0:0:0:0:
475,192,233264,1,0,0:0:0:0:
329,192,233331,1,0,0:0:0:0:
256,192,233399,1,0,0:0:0:0:
109,192,233399,1,0,0:0:0:0:
36,192,233399,1,0,0:0:0:0:
329,192,233466,1,0,0:0:0:0:
402,192,233466,1,0,0:0:0:0:
475,192,233466,1,0,0:0:0:0:
182,192,233534,1,0,0:0:0:0:
109,192,233534,1,0,0:0:0:0:
36,192,233534,1,0,0:0:0:0:
256,192,233601,1,0,0:0:0:0:
329,192,233669,1,0,0:0:0:0:
402,192,233669,1,0,0:0:0:0:
475,192,233669,1,0,0:0:0:0:
256,192,233736,1,0,0:0:0:0:
182,192,233804,1,0,0:0:0:0:
36,192,233804,1,0,0:0:0:0:
402,192,233804,1,0,0:0:0:0:
475,192,233804,1,0,0:0:0:0:
329,192,233871,1,0,0:0:0:0:
109,192,233939,1,0,0:0:0:0:
256,192,233939,1,0,0:0:0:0:
36,192,233939,1,0,0:0:0:0:
402,192,234006,1,0,0:0:0:0:
475,192,234006,1,0,0:0:0:0:
182,192,234006,1,0,0:0:0:0:
329,192,234074,1,0,0:0:0:0:
109,192,234074,1,0,0:0:0:0:
36,192,234074,1,0,0:0:0:0:
256,192,234141,1,0,0:0:0:0:
182,192,234209,1,0,0:0:0:0:
402,192,234209,1,0,0:0:0:0:
475,192,234209,1,0,0:0:0:0:
109,192,234276,1,0,0:0:0:0:
329,192,234344,1,0,0:0:0:0:
402,192,234344,1,0,0:0:0:0:
475,192,234344,128,0,234546:0:0:0:0:
36,192,234344,1,0,0:0:0:0:
256,192,234411,1,0,0:0:0:0:
182,192,234479,1,0,0:0:0:0:
36,192,234479,1,0,0:0:0:0:
109,192,234479,1,0,0:0:0:0:
256,192,234546,1,0,0:0:0:0:
329,192,234546,1,0,0:0:0:0:
402,192,234546,1,0,0:0:0:0:
36,192,234614,128,0,234816:0:0:0:0:
109,192,234614,1,0,0:0:0:0:
475,192,234614,1,0,0:0:0:0:
182,192,234614,1,0,0:0:0:0:
256,192,234681,1,0,0:0:0:0:
329,192,234749,1,0,0:0:0:0:
402,192,234749,1,0,0:0:0:0:
475,192,234749,1,0,0:0:0:0:
182,192,234816,1,0,0:0:0:0:
109,192,234816,1,0,0:0:0:0:
256,192,234816,1,0,0:0:0:0:
36,192,234884,1,0,0:0:0:0:
475,192,234884,128,0,235086:0:0:0:0:
329,192,234884,1,0,0:0:0:0:
402,192,234884,1,0,0:0:0:0:
109,192,234951,1,0,0:0:0:0:
182,192,234951,1,0,0:0:0:0:
329,192,235019,1,0,0:0:0:0:
402,192,235019,1,0,0:0:0:0:
256,192,235053,1,0,0:0:0:0:
182,192,235086,1,0,0:0:0:0:
109,192,235120,1,0,0:0:0:0:
36,192,235154,128,0,235356:0:0:0:0:
475,192,235154,1,0,0:0:0:0:
329,192,235154,1,0,0:0:0:0:
256,192,235221,1,0,0:0:0:0:
402,192,235221,1,0,0:0:0:0:
329,192,235289,1,0,0:0:0:0:
182,192,235289,1,0,0:0:0:0:
256,192,235356,1,0,0:0:0:0:
109,192,235356,1,0,0:0:0:0:
402,192,235424,128,0,235626:0:0:0:0:
475,192,235424,128,0,235626:0:0:0:0:
182,192,235424,128,0,235491:0:0:0:0:
36,192,235424,1,0,0:0:0:0:
329,192,235424,128,0,235896:0:0:0:0:
109,192,235491,128,0,235559:0:0:0:0:
36,192,235559,128,0,235626:0:0:0:0:
182,192,235626,128,0,235694:0:0:0:0:
402,192,235694,128,0,235896:0:0:0:0:
475,192,235694,128,0,236166:0:0:0:0:
109,192,235694,128,0,235761:0:0:0:0:
256,192,235694,1,0,0:0:0:0:
36,192,235761,128,0,235829:0:0:0:0:
182,192,235829,128,0,235896:0:0:0:0:
109,192,235896,128,0,235964:0:0:0:0:
402,192,235964,128,0,236166:0:0:0:0:
329,192,235964,128,0,236436:0:0:0:0:
36,192,235964,128,0,236031:0:0:0:0:
256,192,235964,1,0,0:0:0:0:
182,192,236031,128,0,236099:0:0:0:0:
109,192,236099,128,0,236166:0:0:0:0:
36,192,236166,128,0,236234:0:0:0:0:
109,192,236234,1,0,0:0:0:0:
402,192,236234,128,0,236436:0:0:0:0:
182,192,236234,1,0,0:0:0:0:
475,192,236234,128,0,236436:0:0:0:0:
256,192,236301,1,0,0:0:0:0:
109,192,236369,1,0,0:0:0:0:
182,192,236369,1,0,0:0:0:0:
256,192,236436,1,0,0:0:0:0:
36,192,236504,128,0,236976:0:0:0:0:
109,192,236504,128,0,236706:0:0:0:0:
182,192,236504,128,0,236706:0:0:0:0:
475,192,236504,128,0,236571:0:0:0:0:
329,192,236504,1,0,0:0:0:0:
402,192,236571,128,0,236639:0:0:0:0:
329,192,236639,128,0,236706:0:0:0:0:
475,192,236706,128,0,236774:0:0:0:0:
109,192,236774,128,0,236976:0:0:0:0:
182,192,236774,128,0,237246:0:0:0:0:
402,192,236774,128,0,236841:0:0:0:0:
256,192,236774,1,0,0:0:0:0:
329,192,236841,128,0,236909:0:0:0:0:
475,192,236909,128,0,236976:0:0:0:0:
329,192,236976,128,0,237044:0:0:0:0:
36,192,237044,128,0,237516:0:0:0:0:
109,192,237044,128,0,237246:0:0:0:0:
256,192,237044,1,0,0:0:0:0:
402,192,237044,128,0,237111:0:0:0:0:
475,192,237111,128,0,237179:0:0:0:0:
329,192,237179,128,0,237246:0:0:0:0:
475,192,237246,128,0,237314:0:0:0:0:
109,192,237314,128,0,237516:0:0:0:0:
182,192,237314,128,0,237516:0:0:0:0:
329,192,237314,1,0,0:0:0:0:
402,192,237314,1,0,0:0:0:0:
256,192,237381,1,0,0:0:0:0:
329,192,237449,1,0,0:0:0:0:
402,192,237449,1,0,0:0:0:0:
256,192,237516,1,0,0:0:0:0:
36,192,237584,1,0,0:0:0:0:
329,192,237584,128,0,237786:0:0:0:0:
402,192,237584,128,0,237786:0:0:0:0:
475,192,237584,128,0,238056:0:0:0:0:
182,192,237584,128,0,237651:0:0:0:0:
109,192,237651,128,0,237719:0:0:0:0:
36,192,237719,128,0,237786:0:0:0:0:
109,192,237786,128,0,237854:0:0:0:0:
182,192,237854,128,0,237921:0:0:0:0:
256,192,237854,128,0,238056:0:0:0:0:
329,192,237854,128,0,238056:0:0:0:0:
402,192,237854,1,0,0:0:0:0:
109,192,237921,128,0,237989:0:0:0:0:
36,192,237989,128,0,238056:0:0:0:0:
109,192,238056,128,0,238124:0:0:0:0:
182,192,238124,128,0,238326:0:0:0:0:
256,192,238124,128,0,238326:0:0:0:0:
36,192,238124,128,0,238596:0:0:0:0:
329,192,238124,1,0,0:0:0:0:
475,192,238124,128,0,238191:0:0:0:0:
402,192,238191,128,0,238259:0:0:0:0:
329,192,238259,128,0,238326:0:0:0:0:
475,192,238326,128,0,238394:0:0:0:0:
109,192,238394,128,0,238596:0:0:0:0:
182,192,238394,128,0,238596:0:0:0:0:
402,192,238394,128,0,238461:0:0:0:0:
256,192,238394,1,0,0:0:0:0:
329,192,238461,128,0,238529:0:0:0:0:
256,192,238529,1,0,0:0:0:0:
402,192,238529,128,0,238596:0:0:0:0:
329,192,238596,128,0,238664:0:0:0:0:
36,192,238664,128,0,239136:0:0:0:0:
402,192,238664,128,0,238866:0:0:0:0:
475,192,238664,128,0,238866:0:0:0:0:
109,192,238664,1,0,0:0:0:0:
182,192,238664,1,0,0:0:0:0:
329,192,238799,1,0,0:0:0:0:
256,192,238799,1,0,0:0:0:0:
182,192,238866,1,0,0:0:0:0:
109,192,238866,1,0,0:0:0:0:
402,192,238934,128,0,239136:0:0:0:0:
475,192,238934,128,0,239136:0:0:0:0:
256,192,238934,1,0,0:0:0:0:
329,192,238934,1,0,0:0:0:0:
182,192,239069,1,0,0:0:0:0:
109,192,239069,1,0,0:0:0:0:
329,192,239069,128,0,239204:0:0:0:0:
36,192,239204,128,0,239676:0:0:0:0:
182,192,239204,1,0,0:0:0:0:
256,192,239204,1,0,0:0:0:0:
402,192,239204,128,0,239339:0:0:0:0:
109,192,239204,1,0,0:0:0:0:
256,192,239339,1,0,0:0:0:0:
329,192,239339,1,0,0:0:0:0:
475,192,239339,128,0,239474:0:0:0:0:
182,192,239339,1,0,0:0:0:0:
329,192,239474,1,0,0:0:0:0:
402,192,239474,1,0,0:0:0:0:
109,192,239474,128,0,239609:0:0:0:0:
256,192,239474,1,0,0:0:0:0:
402,192,239609,1,0,0:0:0:0:
475,192,239609,1,0,0:0:0:0:
182,192,239609,128,0,239744:0:0:0:0:
329,192,239609,1,0,0:0:0:0:
475,192,239744,128,0,240216:0:0:0:0:
329,192,239744,128,0,239946:0:0:0:0:
402,192,239744,128,0,239946:0:0:0:0:
256,192,239744,1,0,0:0:0:0:
36,192,239744,128,0,239811:0:0:0:0:
109,192,239811,128,0,239879:0:0:0:0:
182,192,239879,128,0,239946:0:0:0:0:
36,192,239946,128,0,240014:0:0:0:0:
329,192,240014,128,0,240216:0:0:0:0:
402,192,240014,128,0,240216:0:0:0:0:
109,192,240014,128,0,240081:0:0:0:0:
256,192,240014,1,0,0:0:0:0:
182,192,240081,128,0,240149:0:0:0:0:
36,192,240149,128,0,240216:0:0:0:0:
109,192,240216,128,0,240284:0:0:0:0:
182,192,240284,128,0,240554:0:0:0:0:
402,192,240284,1,0,0:0:0:0:
475,192,240284,1,0,0:0:0:0:
256,192,240284,1,0,0:0:0:0:
402,192,240419,1,0,0:0:0:0:
475,192,240419,1,0,0:0:0:0:
36,192,240419,1,0,0:0:0:0:
256,192,240554,128,0,240824:0:0:0:0:
402,192,240554,1,0,0:0:0:0:
475,192,240554,1,0,0:0:0:0:
36,192,240554,1,0,0:0:0:0:
402,192,240689,1,0,0:0:0:0:
475,192,240689,1,0,0:0:0:0:
36,192,240689,1,0,0:0:0:0:
329,192,240824,128,0,241094:0:0:0:0:
109,192,240824,1,0,0:0:0:0:
182,192,240824,1,0,0:0:0:0:
109,192,240959,1,0,0:0:0:0:
182,192,240959,1,0,0:0:0:0:
475,192,240959,1,0,0:0:0:0:
256,192,241094,128,0,241364:0:0:0:0:
36,192,241094,1,0,0:0:0:0:
109,192,241094,1,0,0:0:0:0:
402,192,241094,1,0,0:0:0:0:
402,192,241229,1,0,0:0:0:0:
109,192,241229,1,0,0:0:0:0:
36,192,241229,1,0,0:0:0:0:
182,192,241364,128,0,241634:0:0:0:0:
329,192,241364,1,0,0:0:0:0:
475,192,241364,1,0,0:0:0:0:
36,192,241364,1,0,0:0:0:0:
329,192,241499,1,0,0:0:0:0:
475,192,241499,1,0,0:0:0:0:
36,192,241499,1,0,0:0:0:0:
109,192,241634,128,0,241904:0:0:0:0:
256,192,241634,1,0,0:0:0:0:
402,192,241634,1,0,0:0:0:0:
475,192,241634,1,0,0:0:0:0:
256,192,241769,1,0,0:0:0:0:
402,192,241769,1,0,0:0:0:0:
475,192,241769,1,0,0:0:0:0:
402,192,241904,128,0,242174:0:0:0:0:
182,192,241904,1,0,0:0:0:0:
36,192,241904,1,0,0:0:0:0:
329,192,241904,1,0,0:0:0:0:
182,192,242039,1,0,0:0:0:0:
36,192,242039,1,0,0:0:0:0:
256,192,242039,1,0,0:0:0:0:
329,192,242174,128,0,242444:0:0:0:0:
109,192,242174,1,0,0:0:0:0:
475,192,242174,1,0,0:0:0:0:
182,192,242174,1,0,0:0:0:0:
182,192,242309,1,0,0:0:0:0:
109,192,242309,1,0,0:0:0:0:
475,192,242309,1,0,0:0:0:0:
256,192,242444,128,0,242714:0:0:0:0:
109,192,242444,1,0,0:0:0:0:
36,192,242444,1,0,0:0:0:0:
402,192,242444,1,0,0:0:0:0:
36,192,242579,1,0,0:0:0:0:
109,192,242579,1,0,0:0:0:0:
402,192,242579,1,0,0:0:0:0:
475,192,242714,128,0,242984:0:0:0:0:
329,192,242714,1,0,0:0:0:0:
182,192,242714,1,0,0:0:0:0:
36,192,242714,1,0,0:0:0:0:
36,192,242849,1,0,0:0:0:0:
182,192,242849,1,0,0:0:0:0:
329,192,242849,1,0,0:0:0:0:
402,192,242984,128,0,243524:0:0:0:0:
256,192,242984,1,0,0:0:0:0:
329,192,242984,1,0,0:0:0:0:
36,192,242984,1,0,0:0:0:0:
182,192,243051,1,0,0:0:0:0:
109,192,243119,1,0,0:0:0:0:
256,192,243186,1,0,0:0:0:0:
182,192,243254,1,0,0:0:0:0:
475,192,243254,1,0,0:0:0:0:
329,192,243254,1,0,0:0:0:0:
36,192,243254,1,0,0:0:0:0:
109,192,243321,1,0,0:0:0:0:
256,192,243389,1,0,0:0:0:0:
182,192,243456,1,0,0:0:0:0:
36,192,243524,128,0,243996:0:0:0:0:
109,192,243524,1,0,0:0:0:0:
329,192,243524,1,0,0:0:0:0:
256,192,243524,1,0,0:0:0:0:
402,192,243591,1,0,0:0:0:0:
475,192,243591,1,0,0:0:0:0:
182,192,243659,1,0,0:0:0:0:
109,192,243659,1,0,0:0:0:0:
256,192,243693,1,0,0:0:0:0:
329,192,243726,1,0,0:0:0:0:
402,192,243760,1,0,0:0:0:0:
475,192,243794,1,0,0:0:0:0:
182,192,243794,1,0,0:0:0:0:
109,192,243794,1,0,0:0:0:0:
256,192,243861,1,0,0:0:0:0:
329,192,243861,1,0,0:0:0:0:
402,192,243929,1,0,0:0:0:0:
475,192,243929,1,0,0:0:0:0:
109,192,243929,1,0,0:0:0:0:
182,192,243996,1,0,0:0:0:0:
256,192,243996,1,0,0:0:0:0:
36,192,244064,1,0,0:0:0:0:
402,192,244064,128,0,244266:0:0:0:0:
475,192,244064,128,0,244266:0:0:0:0:
329,192,244064,128,0,244131:0:0:0:0:
109,192,244064,1,0,0:0:0:0:
182,192,244131,128,0,244199:0:0:0:0:
329,192,244199,128,0,244266:0:0:0:0:
182,192,244266,128,0,244334:0:0:0:0:
402,192,244334,128,0,244536:0:0:0:0:
475,192,244334,128,0,244536:0:0:0:0:
256,192,244334,128,0,244401:0:0:0:0:
329,192,244334,1,0,0:0:0:0:
109,192,244401,128,0,244469:0:0:0:0:
256,192,244469,128,0,244536:0:0:0:0:
109,192,244536,128,0,244604:0:0:0:0:
329,192,244604,128,0,244806:0:0:0:0:
475,192,244604,128,0,244806:0:0:0:0:
182,192,244604,128,0,244671:0:0:0:0:
402,192,244604,1,0,0:0:0:0:
36,192,244671,128,0,244739:0:0:0:0:
182,192,244739,128,0,244806:0:0:0:0:
36,192,244806,128,0,244874:0:0:0:0:
329,192,244874,128,0,245076:0:0:0:0:
402,192,244874,128,0,245076:0:0:0:0:
109,192,244874,128,0,244941:0:0:0:0:
475,192,244874,1,0,0:0:0:0:
256,192,244941,128,0,245009:0:0:0:0:
109,192,245009,128,0,245076:0:0:0:0:
475,192,245009,1,0,0:0:0:0:
256,192,245076,128,0,245144:0:0:0:0:
329,192,245144,1,0,0:0:0:0:
182,192,245144,1,0,0:0:0:0:
36,192,245144,1,0,0:0:0:0:
475,192,245144,128,0,245346:0:0:0:0:
109,192,245234,1,0,0:0:0:0:
182,192,245234,1,0,0:0:0:0:
402,192,245234,1,0,0:0:0:0:
36,192,245324,1,0,0:0:0:0:
256,192,245324,1,0,0:0:0:0:
329,192,245324,1,0,0:0:0:0:
475,192,245414,1,0,0:0:0:0:
109,192,245414,128,0,245616:0:0:0:0:
182,192,245414,128,0,245616:0:0:0:0:
402,192,245414,128,0,245481:0:0:0:0:
329,192,245481,128,0,245549:0:0:0:0:
402,192,245549,128,0,245616:0:0:0:0:
329,192,245616,128,0,245684:0:0:0:0:
182,192,245684,128,0,245886:0:0:0:0:
36,192,245684,128,0,245886:0:0:0:0:
475,192,245684,128,0,245751:0:0:0:0:
109,192,245684,1,0,0:0:0:0:
402,192,245751,128,0,245819:0:0:0:0:
329,192,245819,128,0,245886:0:0:0:0:
256,192,245819,1,0,0:0:0:0:
475,192,245886,128,0,245954:0:0:0:0:
36,192,245954,128,0,246156:0:0:0:0:
109,192,245954,128,0,246156:0:0:0:0:
402,192,245954,128,0,246021:0:0:0:0:
182,192,245954,1,0,0:0:0:0:
329,192,246021,128,0,246089:0:0:0:0:
475,192,246089,128,0,246156:0:0:0:0:
182,192,246089,1,0,0:0:0:0:
402,192,246156,128,0,246224:0:0:0:0:
36,192,246224,128,0,246291:0:0:0:0:
109,192,246224,128,0,246291:0:0:0:0:
182,192,246224,128,0,246291:0:0:0:0:
475,192,246224,128,0,246426:0:0:0:0:
329,192,246224,128,0,246426:0:0:0:0:
36,192,246359,128,0,246426:0:0:0:0:
109,192,246359,128,0,246426:0:0:0:0:
182,192,246359,128,0,246426:0:0:0:0:
256,192,246494,128,0,246561:0:0:0:0:
329,192,246494,128,0,246561:0:0:0:0:
402,192,246494,128,0,246561:0:0:0:0:
36,192,246494,128,0,246696:0:0:0:0:
109,192,246494,128,0,246696:0:0:0:0:
256,192,246629,128,0,246696:0:0:0:0:
329,192,246629,128,0,246696:0:0:0:0:
402,192,246629,128,0,246696:0:0:0:0:
109,192,246764,128,0,246831:0:0:0:0:
256,192,246764,128,0,246831:0:0:0:0:
182,192,246764,128,0,246831:0:0:0:0:
402,192,246764,128,0,246966:0:0:0:0:
475,192,246764,128,0,246966:0:0:0:0:
109,192,246899,128,0,246966:0:0:0:0:
256,192,246899,128,0,246966:0:0:0:0:
182,192,246899,128,0,246966:0:0:0:0:
329,192,247034,128,0,247101:0:0:0:0:
402,192,247034,128,0,247101:0:0:0:0:
475,192,247034,128,0,247101:0:0:0:0:
36,192,247034,128,0,247236:0:0:0:0:
109,192,247034,128,0,247236:0:0:0:0:
329,192,247169,128,0,247236:0:0:0:0:
402,192,247169,128,0,247236:0:0:0:0:
475,192,247169,128,0,247236:0:0:0:0:
109,192,247304,128,0,247371:0:0:0:0:
256,192,247304,128,0,247371:0:0:0:0:
36,192,247304,128,0,247371:0:0:0:0:
402,192,247304,128,0,247506:0:0:0:0:
475,192,247304,128,0,247506:0:0:0:0:
36,192,247439,128,0,247506:0:0:0:0:
256,192,247439,128,0,247506:0:0:0:0:
109,192,247439,128,0,247506:0:0:0:0:
329,192,247574,128,0,247641:0:0:0:0:
402,192,247574,128,0,247641:0:0:0:0:
475,192,247574,128,0,247641:0:0:0:0:
182,192,247574,128,0,247776:0:0:0:0:
36,192,247574,128,0,247776:0:0:0:0:
475,192,247709,128,0,247776:0:0:0:0:
329,192,247709,128,0,247776:0:0:0:0:
402,192,247709,128,0,247776:0:0:0:0:
109,192,247844,128,0,247911:0:0:0:0:
36,192,247844,128,0,247911:0:0:0:0:
182,192,247844,128,0,247911:0:0:0:0:
329,192,247844,128,0,248046:0:0:0:0:
402,192,247844,128,0,248046:0:0:0:0:
36,192,247979,128,0,248046:0:0:0:0:
109,192,247979,128,0,248046:0:0:0:0:
182,192,247979,128,0,248046:0:0:0:0:
329,192,248114,128,0,248181:0:0:0:0:
256,192,248114,128,0,248181:0:0:0:0:
475,192,248114,128,0,248181:0:0:0:0:
109,192,248114,128,0,248316:0:0:0:0:
36,192,248114,128,0,248316:0:0:0:0:
475,192,248249,128,0,248316:0:0:0:0:
329,192,248249,128,0,248316:0:0:0:0:
256,192,248249,128,0,248316:0:0:0:0:
256,192,248384,128,0,249396:0:0:0:0:
475,192,248384,128,0,248451:0:0:0:0:
36,192,248384,128,0,248586:0:0:0:0:
182,192,248384,128,0,248586:0:0:0:0:
402,192,248451,128,0,248519:0:0:0:0:
329,192,248519,128,0,248586:0:0:0:0:
109,192,248519,1,0,0:0:0:0:
475,192,248586,128,0,248654:0:0:0:0:
402,192,248654,128,0,248721:0:0:0:0:
109,192,248654,128,0,248856:0:0:0:0:
182,192,248654,128,0,248856:0:0:0:0:
36,192,248654,128,0,248721:0:0:0:0:
329,192,248721,128,0,248789:0:0:0:0:
475,192,248789,128,0,248856:0:0:0:0:
36,192,248789,1,0,0:0:0:0:
402,192,248856,128,0,248924:0:0:0:0:
329,192,248924,128,0,248991:0:0:0:0:
36,192,248924,128,0,249126:0:0:0:0:
109,192,248924,128,0,249126:0:0:0:0:
402,192,248991,128,0,249059:0:0:0:0:
475,192,249059,128,0,249126:0:0:0:0:
182,192,249059,1,0,0:0:0:0:
329,192,249126,128,0,249194:0:0:0:0:
402,192,249194,128,0,249261:0:0:0:0:
36,192,249194,128,0,249396:0:0:0:0:
182,192,249194,128,0,249396:0:0:0:0:
109,192,249194,128,0,249261:0:0:0:0:
329,192,249261,128,0,249329:0:0:0:0:
475,192,249329,128,0,249396:0:0:0:0:
109,192,249329,1,0,0:0:0:0:
402,192,249396,128,0,249464:0:0:0:0:
36,192,249464,128,0,249936:0:0:0:0:
109,192,249464,128,0,249531:0:0:0:0:
329,192,249464,128,0,249666:0:0:0:0:
475,192,249464,128,0,249666:0:0:0:0:
182,192,249531,128,0,249599:0:0:0:0:
256,192,249599,128,0,249666:0:0:0:0:
402,192,249599,1,0,0:0:0:0:
109,192,249666,128,0,249734:0:0:0:0:
182,192,249734,128,0,249801:0:0:0:0:
402,192,249734,128,0,249936:0:0:0:0:
475,192,249734,128,0,249936:0:0:0:0:
329,192,249734,128,0,249801:0:0:0:0:
256,192,249801,128,0,249869:0:0:0:0:
109,192,249869,128,0,249936:0:0:0:0:
329,192,249869,1,0,0:0:0:0:
182,192,249936,128,0,250004:0:0:0:0:
256,192,250004,128,0,250544:0:0:0:0:
36,192,250004,128,0,250071:0:0:0:0:
329,192,250004,128,0,250206:0:0:0:0:
402,192,250004,128,0,250206:0:0:0:0:
109,192,250071,128,0,250139:0:0:0:0:
182,192,250139,128,0,250206:0:0:0:0:
475,192,250139,1,0,0:0:0:0:
36,192,250206,128,0,250274:0:0:0:0:
109,192,250274,128,0,250341:0:0:0:0:
475,192,250274,128,0,250476:0:0:0:0:
329,192,250274,128,0,250476:0:0:0:0:
402,192,250274,128,0,250341:0:0:0:0:
182,192,250341,128,0,250409:0:0:0:0:
36,192,250409,128,0,250476:0:0:0:0:
402,192,250409,1,0,0:0:0:0:
182,192,250476,128,0,250544:0:0:0:0:
475,192,250544,128,0,251556:0:0:0:0:
329,192,250544,1,0,0:0:0:0:
402,192,250544,1,0,0:0:0:0:
36,192,250544,1,0,0:0:0:0:
109,192,250611,1,0,0:0:0:0:
329,192,250679,128,0,250814:0:0:0:0:
402,192,250679,128,0,250814:0:0:0:0:
182,192,250679,1,0,0:0:0:0:
36,192,250746,1,0,0:0:0:0:
109,192,250814,1,0,0:0:0:0:
182,192,250881,1,0,0:0:0:0:
329,192,250949,128,0,251084:0:0:0:0:
402,192,250949,128,0,251084:0:0:0:0:
256,192,250949,1,0,0:0:0:0:
109,192,251016,1,0,0:0:0:0:
36,192,251084,1,0,0:0:0:0:
182,192,251151,1,0,0:0:0:0:
329,192,251219,128,0,251354:0:0:0:0:
402,192,251219,128,0,251354:0:0:0:0:
109,192,251219,1,0,0:0:0:0:
36,192,251286,1,0,0:0:0:0:
256,192,251354,1,0,0:0:0:0:
109,192,251421,1,0,0:0:0:0:
329,192,251489,128,0,251556:0:0:0:0:
402,192,251489,128,0,251556:0:0:0:0:
182,192,251489,1,0,0:0:0:0:
36,192,251556,1,0,0:0:0:0:
109,192,251624,1,0,0:0:0:0:
256,192,251624,1,0,0:0:0:0:
329,192,251624,1,0,0:0:0:0:
402,192,251624,1,0,0:0:0:0:
475,192,251624,1,0,0:0:0:0:
182,192,251691,1,0,0:0:0:0:
475,192,251759,1,0,0:0:0:0:
36,192,251759,1,0,0:0:0:0:
402,192,251759,1,0,0:0:0:0:
329,192,251826,1,0,0:0:0:0:
182,192,251826,1,0,0:0:0:0:
256,192,251826,1,0,0:0:0:0:
109,192,251894,1,0,0:0:0:0:
36,192,251894,1,0,0:0:0:0:
402,192,251894,1,0,0:0:0:0:
475,192,251894,1,0,0:0:0:0:
329,192,251961,1,0,0:0:0:0:
475,192,252029,1,0,0:0:0:0:
36,192,252029,1,0,0:0:0:0:
109,192,252029,1,0,0:0:0:0:
329,192,252096,1,0,0:0:0:0:
182,192,252096,1,0,0:0:0:0:
256,192,252096,1,0,0:0:0:0:
475,192,252164,1,0,0:0:0:0:
402,192,252164,1,0,0:0:0:0:
109,192,252164,1,0,0:0:0:0:
36,192,252164,1,0,0:0:0:0:
182,192,252232,1,0,0:0:0:0:
402,192,252299,1,0,0:0:0:0:
329,192,252299,1,0,0:0:0:0:
475,192,252299,1,0,0:0:0:0:
182,192,252367,1,0,0:0:0:0:
109,192,252367,1,0,0:0:0:0:
36,192,252367,1,0,0:0:0:0:
256,192,252434,1,0,0:0:0:0:
329,192,252434,1,0,0:0:0:0:
402,192,252434,1,0,0:0:0:0:
475,192,252434,1,0,0:0:0:0:
182,192,252502,1,0,0:0:0:0:
109,192,252502,1,0,0:0:0:0:
36,192,252502,1,0,0:0:0:0:
329,192,252569,1,0,0:0:0:0:
402,192,252569,1,0,0:0:0:0:
475,192,252569,1,0,0:0:0:0:
182,192,252637,1,0,0:0:0:0:
109,192,252637,1,0,0:0:0:0:
36,192,252637,1,0,0:0:0:0:
329,192,252704,1,0,0:0:0:0:
402,192,252704,1,0,0:0:0:0:
475,192,252704,1,0,0:0:0:0:
256,192,252704,1,0,0:0:0:0:
182,192,252772,1,0,0:0:0:0:
36,192,252839,1,0,0:0:0:0:
475,192,252839,1,0,0:0:0:0:
329,192,252839,1,0,0:0:0:0:
109,192,252839,1,0,0:0:0:0:
256,192,252907,1,0,0:0:0:0:
182,192,252974,1,0,0:0:0:0:
402,192,252974,1,0,0:0:0:0:
475,192,252974,1,0,0:0:0:0:
36,192,252974,1,0,0:0:0:0:
256,192,253042,1,0,0:0:0:0:
109,192,253109,1,0,0:0:0:0:
329,192,253109,1,0,0:0:0:0:
402,192,253109,1,0,0:0:0:0:
36,192,253109,1,0,0:0:0:0:
182,192,253177,1,0,0:0:0:0:
256,192,253244,1,0,0:0:0:0:
402,192,253244,1,0,0:0:0:0:
475,192,253244,1,0,0:0:0:0:
109,192,253244,1,0,0:0:0:0:
329,192,253312,1,0,0:0:0:0:
36,192,253379,1,0,0:0:0:0:
182,192,253379,1,0,0:0:0:0:
402,192,253379,1,0,0:0:0:0:
475,192,253379,1,0,0:0:0:0:
256,192,253447,1,0,0:0:0:0:
109,192,253514,1,0,0:0:0:0:
329,192,253514,1,0,0:0:0:0:
475,192,253514,1,0,0:0:0:0:
36,192,253514,1,0,0:0:0:0:
182,192,253582,1,0,0:0:0:0:
256,192,253649,1,0,0:0:0:0:
402,192,253649,1,0,0:0:0:0:
109,192,253649,1,0,0:0:0:0:
36,192,253649,1,0,0:0:0:0:
475,192,253717,1,0,0:0:0:0:
329,192,253784,1,0,0:0:0:0:
182,192,253784,1,0,0:0:0:0:
402,192,253784,1,0,0:0:0:0:
109,192,253784,1,0,0:0:0:0:
256,192,253852,1,0,0:0:0:0:
36,192,253919,1,0,0:0:0:0:
109,192,253919,1,0,0:0:0:0:
402,192,253919,1,0,0:0:0:0:
475,192,253919,1,0,0:0:0:0:
329,192,253987,1,0,0:0:0:0:
256,192,254054,1,0,0:0:0:0:
182,192,254054,1,0,0:0:0:0:
36,192,254054,1,0,0:0:0:0:
475,192,254054,1,0,0:0:0:0:
402,192,254122,1,0,0:0:0:0:
109,192,254189,1,0,0:0:0:0:
329,192,254189,1,0,0:0:0:0:
182,192,254189,1,0,0:0:0:0:
475,192,254189,1,0,0:0:0:0:
256,192,254257,1,0,0:0:0:0:
36,192,254324,1,0,0:0:0:0:
109,192,254324,1,0,0:0:0:0:
402,192,254324,1,0,0:0:0:0:
475,192,254324,1,0,0:0:0:0:
329,192,254392,1,0,0:0:0:0:
182,192,254459,1,0,0:0:0:0:
256,192,254459,1,0,0:0:0:0:
402,192,254459,1,0,0:0:0:0:
36,192,254459,1,0,0:0:0:0:
109,192,254527,1,0,0:0:0:0:
329,192,254594,1,0,0:0:0:0:
475,192,254594,1,0,0:0:0:0:
182,192,254594,1,0,0:0:0:0:
36,192,254594,1,0,0:0:0:0:
256,192,254662,1,0,0:0:0:0:
109,192,254729,1,0,0:0:0:0:
402,192,254729,1,0,0:0:0:0:
475,192,254729,1,0,0:0:0:0:
182,192,254729,1,0,0:0:0:0:
329,192,254797,1,0,0:0:0:0:
256,192,254864,1,0,0:0:0:0:
36,192,254864,128,0,255067:0:0:0:0:
109,192,254864,1,0,0:0:0:0:
475,192,254864,1,0,0:0:0:0:
402,192,254932,1,0,0:0:0:0:
329,192,254999,1,0,0:0:0:0:
182,192,254999,1,0,0:0:0:0:
475,192,254999,1,0,0:0:0:0:
256,192,255067,1,0,0:0:0:0:
182,192,255134,128,0,255337:0:0:0:0:
109,192,255134,1,0,0:0:0:0:
36,192,255134,1,0,0:0:0:0:
402,192,255134,1,0,0:0:0:0:
329,192,255202,1,0,0:0:0:0:
256,192,255269,1,0,0:0:0:0:
36,192,255269,1,0,0:0:0:0:
475,192,255269,1,0,0:0:0:0:
402,192,255337,1,0,0:0:0:0:
329,192,255404,128,0,255607:0:0:0:0:
36,192,255404,1,0,0:0:0:0:
182,192,255404,1,0,0:0:0:0:
109,192,255404,1,0,0:0:0:0:
256,192,255472,1,0,0:0:0:0:
402,192,255539,1,0,0:0:0:0:
475,192,255539,1,0,0:0:0:0:
182,192,255539,1,0,0:0:0:0:
109,192,255607,1,0,0:0:0:0:
475,192,255674,128,0,255877:0:0:0:0:
329,192,255674,1,0,0:0:0:0:
402,192,255674,1,0,0:0:0:0:
256,192,255674,1,0,0:0:0:0:
109,192,255742,1,0,0:0:0:0:
182,192,255742,1,0,0:0:0:0:
36,192,255742,1,0,0:0:0:0:
256,192,255809,1,0,0:0:0:0:
329,192,255809,1,0,0:0:0:0:
402,192,255809,1,0,0:0:0:0:
182,192,255877,1,0,0:0:0:0:
475,192,255944,1,0,0:0:0:0:
36,192,255944,1,0,0:0:0:0:
109,192,255944,1,0,0:0:0:0:
402,192,255944,1,0,0:0:0:0:
256,192,256012,1,0,0:0:0:0:
329,192,256012,1,0,0:0:0:0:
475,192,256079,1,0,0:0:0:0:
36,192,256079,1,0,0:0:0:0:
109,192,256079,1,0,0:0:0:0:
182,192,256113,1,0,0:0:0:0:
256,192,256147,1,0,0:0:0:0:
329,192,256180,1,0,0:0:0:0:
402,192,256214,1,0,0:0:0:0:
475,192,256214,1,0,0:0:0:0:
109,192,256214,1,0,0:0:0:0:
36,192,256214,1,0,0:0:0:0:
256,192,256282,1,0,0:0:0:0:
182,192,256282,1,0,0:0:0:0:
36,192,256349,1,0,0:0:0:0:
475,192,256349,1,0,0:0:0:0:
402,192,256349,1,0,0:0:0:0:
329,192,256383,1,0,0:0:0:0:
256,192,256417,1,0,0:0:0:0:
182,192,256450,1,0,0:0:0:0:
109,192,256484,1,0,0:0:0:0:
36,192,256484,1,0,0:0:0:0:
402,192,256484,1,0,0:0:0:0:
475,192,256484,1,0,0:0:0:0:
256,192,256552,1,0,0:0:0:0:
329,192,256552,1,0,0:0:0:0:
36,192,256619,1,0,0:0:0:0:
475,192,256619,1,0,0:0:0:0:
109,192,256619,1,0,0:0:0:0:
182,192,256653,1,0,0:0:0:0:
256,192,256687,1,0,0:0:0:0:
329,192,256720,1,0,0:0:0:0:
402,192,256754,1,0,0:0:0:0:
475,192,256754,1,0,0:0:0:0:
109,192,256754,1,0,0:0:0:0:
36,192,256754,1,0,0:0:0:0:
256,192,256822,1,0,0:0:0:0:
182,192,256822,1,0,0:0:0:0:
36,192,256889,1,0,0:0:0:0:
475,192,256889,1,0,0:0:0:0:
402,192,256889,1,0,0:0:0:0:
329,192,256923,1,0,0:0:0:0:
256,192,256957,1,0,0:0:0:0:
182,192,256990,1,0,0:0:0:0:
36,192,257024,128,0,261344:0:0:0:0:
109,192,257024,128,0,261344:0:0:0:0:
402,192,257024,128,0,261344:0:0:0:0:
475,192,257024,128,0,261344:0:0:0:0:
