osu file format v14

[General]
AudioFilename: to Luv me I --- for u. - t pazolite.mp3
AudioLeadIn: 0
PreviewTime: 116860
Countdown: 0
SampleSet: Soft
StackLeniency: 0.7
Mode: 3
LetterboxInBreaks: 1
SpecialStyle: 0
WidescreenStoryboard: 1

[Editor]
DistanceSpacing: 1
BeatDivisor: 4
GridSize: 4
TimelineZoom: 2.899999

[Metadata]
Title:Jinjin's Classics Pack
TitleUnicode:Jinjin's Classics Pack
Artist:Various Artists
ArtistUnicode:Various Artists
Creator:Jinjin
Version:t+pazolite - to Luv me, I *** for U [Luvlust]
Source:
Tags:
BeatmapID:1062007
BeatmapSetID:362285

[Difficulty]
HPDrainRate:6
CircleSize:7
OverallDifficulty:5
ApproachRate:5
SliderMultiplier:1.4
SliderTickRate:1

[Events]
//Background and Video events
0,0,"Passion_Wallpaper_by_DianePhotos.jpg",0,0
//Break Periods
//Storyboard Layer 0 (Background)
//Storyboard Layer 1 (Fail)
//Storyboard Layer 2 (Pass)
//Storyboard Layer 3 (Foreground)
//Storyboard Sound Samples

[TimingPoints]
210,333.333333333333,4,2,0,0,1,0
20876,-95.2380952380952,4,2,0,0,0,0
21876,-90.9090909090909,4,2,0,0,0,0
22876,-87.719298245614,4,2,0,0,0,0
24209,-86.2068965517241,4,2,0,0,0,0
24679,-81.9672131147541,4,2,0,0,0,0
25324,272.727272727273,4,2,0,0,1,0

[HitObjects]
109,192,210,128,0,376:0:0:0:0:
329,192,210,128,0,376:0:0:0:0:
402,192,876,128,0,1043:0:0:0:0:
36,192,1543,128,0,1709:0:0:0:0:
256,192,1543,128,0,1709:0:0:0:0:
402,192,2209,128,0,2376:0:0:0:0:
402,192,2876,128,0,3043:0:0:0:0:
109,192,2876,128,0,3043:0:0:0:0:
329,192,3543,128,0,3709:0:0:0:0:
182,192,3876,128,0,4043:0:0:0:0:
402,192,4209,128,0,4376:0:0:0:0:
36,192,4209,128,0,4376:0:0:0:0:
182,192,4876,128,0,5043:0:0:0:0:
182,192,5376,1,0,0:0:0:0:
256,192,5459,1,0,0:0:0:0:
329,192,5543,128,0,5709:0:0:0:0:
109,192,5543,128,0,5709:0:0:0:0:
182,192,6209,128,0,6376:0:0:0:0:
475,192,6876,128,0,7043:0:0:0:0:
109,192,6876,128,0,7043:0:0:0:0:
256,192,7543,128,0,7709:0:0:0:0:
329,192,8209,128,0,8376:0:0:0:0:
182,192,8209,128,0,8376:0:0:0:0:
402,192,8876,128,0,9043:0:0:0:0:
475,192,9209,128,0,9376:0:0:0:0:
402,192,9543,128,0,9709:0:0:0:0:
109,192,9543,128,0,9709:0:0:0:0:
182,192,10209,128,0,10376:0:0:0:0:
329,192,10876,128,0,11043:0:0:0:0:
36,192,10876,128,0,11043:0:0:0:0:
475,192,11543,128,0,11709:0:0:0:0:
109,192,12209,128,0,12376:0:0:0:0:
329,192,12209,128,0,12376:0:0:0:0:
475,192,12876,128,0,13043:0:0:0:0:
36,192,13543,128,0,13709:0:0:0:0:
475,192,13543,128,0,13709:0:0:0:0:
182,192,14209,128,0,14376:0:0:0:0:
329,192,14543,128,0,14709:0:0:0:0:
182,192,14876,128,0,15043:0:0:0:0:
475,192,14876,128,0,15043:0:0:0:0:
329,192,15543,128,0,15709:0:0:0:0:
402,192,16209,128,0,16376:0:0:0:0:
109,192,16209,128,0,16376:0:0:0:0:
182,192,16876,128,0,17043:0:0:0:0:
329,192,17209,128,0,17376:0:0:0:0:
109,192,17543,128,0,17709:0:0:0:0:
475,192,17543,128,0,17709:0:0:0:0:
402,192,18209,128,0,18376:0:0:0:0:
329,192,18876,128,0,19043:0:0:0:0:
36,192,18876,128,0,19043:0:0:0:0:
182,192,19543,128,0,19709:0:0:0:0:
329,192,20043,1,0,0:0:0:0:
402,192,20126,1,0,0:0:0:0:
475,192,20209,128,0,20376:0:0:0:0:
109,192,20209,128,0,20376:0:0:0:0:
256,192,20876,128,0,26414:0:0:0:0:
182,192,21876,128,0,25209:0:0:0:0:
329,192,21876,128,0,25209:0:0:0:0:
109,192,22876,128,0,25209:0:0:0:0:
402,192,22876,128,0,25209:0:0:0:0:
36,192,24209,128,0,25209:0:0:0:0:
475,192,24709,128,0,25209:0:0:0:0:
109,192,25324,1,0,0:0:0:0:
182,192,25324,1,0,0:0:0:0:
402,192,25324,1,0,0:0:0:0:
329,192,25324,1,0,0:0:0:0:
475,192,25324,128,0,25596:0:0:0:0:
36,192,25324,128,0,25596:0:0:0:0:
109,192,25596,128,0,25869:0:0:0:0:
402,192,25596,128,0,25869:0:0:0:0:
329,192,25596,1,0,0:0:0:0:
182,192,25596,1,0,0:0:0:0:
36,192,25869,1,0,0:0:0:0:
182,192,25869,1,0,0:0:0:0:
329,192,25869,1,0,0:0:0:0:
475,192,25869,1,0,0:0:0:0:
36,192,26005,1,0,0:0:0:0:
182,192,26005,1,0,0:0:0:0:
329,192,26005,1,0,0:0:0:0:
475,192,26005,1,0,0:0:0:0:
182,192,26142,1,0,0:0:0:0:
36,192,26142,1,0,0:0:0:0:
329,192,26142,1,0,0:0:0:0:
475,192,26142,1,0,0:0:0:0:
109,192,26142,1,0,0:0:0:0:
402,192,26142,1,0,0:0:0:0:
36,192,26278,1,0,0:0:0:0:
182,192,26278,1,0,0:0:0:0:
329,192,26278,1,0,0:0:0:0:
475,192,26278,1,0,0:0:0:0:
109,192,26278,1,0,0:0:0:0:
402,192,26278,1,0,0:0:0:0:
36,192,26414,1,0,0:0:0:0:
109,192,26414,1,0,0:0:0:0:
182,192,26414,1,0,0:0:0:0:
329,192,26414,1,0,0:0:0:0:
402,192,26414,1,0,0:0:0:0:
475,192,26414,1,0,0:0:0:0:
36,192,26551,1,0,0:0:0:0:
329,192,26551,1,0,0:0:0:0:
256,192,26551,1,0,0:0:0:0:
182,192,26551,1,0,0:0:0:0:
109,192,26687,1,0,0:0:0:0:
182,192,26687,1,0,0:0:0:0:
329,192,26687,1,0,0:0:0:0:
402,192,26687,1,0,0:0:0:0:
182,192,26824,1,0,0:0:0:0:
402,192,26824,1,0,0:0:0:0:
475,192,26824,1,0,0:0:0:0:
109,192,26824,1,0,0:0:0:0:
36,192,26960,1,0,0:0:0:0:
182,192,26960,1,0,0:0:0:0:
256,192,26960,1,0,0:0:0:0:
329,192,26960,1,0,0:0:0:0:
36,192,27096,1,0,0:0:0:0:
182,192,27096,1,0,0:0:0:0:
256,192,27096,1,0,0:0:0:0:
329,192,27096,1,0,0:0:0:0:
36,192,27233,1,0,0:0:0:0:
109,192,27233,1,0,0:0:0:0:
329,192,27233,1,0,0:0:0:0:
402,192,27233,1,0,0:0:0:0:
36,192,27369,1,0,0:0:0:0:
109,192,27369,1,0,0:0:0:0:
402,192,27369,1,0,0:0:0:0:
475,192,27369,1,0,0:0:0:0:
182,192,27505,1,0,0:0:0:0:
256,192,27505,1,0,0:0:0:0:
475,192,27505,1,0,0:0:0:0:
329,192,27505,1,0,0:0:0:0:
182,192,27642,1,0,0:0:0:0:
109,192,27642,1,0,0:0:0:0:
256,192,27642,1,0,0:0:0:0:
402,192,27642,1,0,0:0:0:0:
329,192,27778,1,0,0:0:0:0:
182,192,27778,1,0,0:0:0:0:
109,192,27778,1,0,0:0:0:0:
36,192,27778,1,0,0:0:0:0:
36,192,27914,1,0,0:0:0:0:
182,192,27914,1,0,0:0:0:0:
109,192,27914,1,0,0:0:0:0:
256,192,27914,1,0,0:0:0:0:
329,192,28051,1,0,0:0:0:0:
402,192,28051,1,0,0:0:0:0:
475,192,28051,1,0,0:0:0:0:
256,192,28051,1,0,0:0:0:0:
109,192,28187,1,0,0:0:0:0:
182,192,28187,1,0,0:0:0:0:
256,192,28187,1,0,0:0:0:0:
36,192,28187,1,0,0:0:0:0:
109,192,28324,1,0,0:0:0:0:
256,192,28324,1,0,0:0:0:0:
182,192,28324,1,0,0:0:0:0:
329,192,28324,1,0,0:0:0:0:
182,192,28460,1,0,0:0:0:0:
256,192,28460,1,0,0:0:0:0:
329,192,28460,1,0,0:0:0:0:
402,192,28460,1,0,0:0:0:0:
109,192,28596,1,0,0:0:0:0:
36,192,28596,1,0,0:0:0:0:
182,192,28596,1,0,0:0:0:0:
329,192,28596,1,0,0:0:0:0:
475,192,28596,1,0,0:0:0:0:
402,192,28596,1,0,0:0:0:0:
36,192,28733,1,0,0:0:0:0:
109,192,28733,1,0,0:0:0:0:
256,192,28733,1,0,0:0:0:0:
329,192,28733,1,0,0:0:0:0:
36,192,28869,1,0,0:0:0:0:
109,192,28869,1,0,0:0:0:0:
329,192,28869,1,0,0:0:0:0:
402,192,28869,1,0,0:0:0:0:
36,192,29005,1,0,0:0:0:0:
109,192,29005,1,0,0:0:0:0:
402,192,29005,1,0,0:0:0:0:
475,192,29005,1,0,0:0:0:0:
109,192,29142,1,0,0:0:0:0:
182,192,29142,1,0,0:0:0:0:
256,192,29142,1,0,0:0:0:0:
329,192,29142,1,0,0:0:0:0:
109,192,29278,1,0,0:0:0:0:
182,192,29278,1,0,0:0:0:0:
256,192,29278,1,0,0:0:0:0:
329,192,29278,1,0,0:0:0:0:
109,192,29414,1,0,0:0:0:0:
182,192,29414,1,0,0:0:0:0:
329,192,29414,1,0,0:0:0:0:
402,192,29414,1,0,0:0:0:0:
402,192,29551,1,0,0:0:0:0:
475,192,29551,1,0,0:0:0:0:
109,192,29551,1,0,0:0:0:0:
182,192,29551,1,0,0:0:0:0:
36,192,29687,1,0,0:0:0:0:
182,192,29687,1,0,0:0:0:0:
475,192,29687,1,0,0:0:0:0:
329,192,29687,1,0,0:0:0:0:
182,192,29824,1,0,0:0:0:0:
36,192,29824,1,0,0:0:0:0:
402,192,29824,1,0,0:0:0:0:
256,192,29824,1,0,0:0:0:0:
36,192,29960,1,0,0:0:0:0:
182,192,29960,1,0,0:0:0:0:
329,192,29960,1,0,0:0:0:0:
475,192,29960,1,0,0:0:0:0:
182,192,30096,1,0,0:0:0:0:
36,192,30096,1,0,0:0:0:0:
402,192,30096,1,0,0:0:0:0:
256,192,30096,1,0,0:0:0:0:
109,192,30233,1,0,0:0:0:0:
329,192,30233,1,0,0:0:0:0:
402,192,30233,1,0,0:0:0:0:
182,192,30233,1,0,0:0:0:0:
182,192,30369,1,0,0:0:0:0:
109,192,30369,1,0,0:0:0:0:
329,192,30369,1,0,0:0:0:0:
402,192,30369,1,0,0:0:0:0:
36,192,30505,1,0,0:0:0:0:
182,192,30505,1,0,0:0:0:0:
109,192,30505,1,0,0:0:0:0:
329,192,30505,1,0,0:0:0:0:
475,192,30505,1,0,0:0:0:0:
402,192,30505,1,0,0:0:0:0:
109,192,30642,1,0,0:0:0:0:
182,192,30642,1,0,0:0:0:0:
402,192,30642,1,0,0:0:0:0:
329,192,30642,1,0,0:0:0:0:
36,192,30778,1,0,0:0:0:0:
109,192,30778,1,0,0:0:0:0:
182,192,30778,1,0,0:0:0:0:
329,192,30778,1,0,0:0:0:0:
402,192,30778,1,0,0:0:0:0:
475,192,30778,1,0,0:0:0:0:
36,192,30914,1,0,0:0:0:0:
402,192,30914,1,0,0:0:0:0:
475,192,30914,1,0,0:0:0:0:
109,192,30914,1,0,0:0:0:0:
329,192,31051,1,0,0:0:0:0:
182,192,31051,1,0,0:0:0:0:
36,192,31051,1,0,0:0:0:0:
475,192,31051,1,0,0:0:0:0:
182,192,31187,1,0,0:0:0:0:
329,192,31187,1,0,0:0:0:0:
109,192,31187,1,0,0:0:0:0:
402,192,31187,1,0,0:0:0:0:
36,192,31324,1,0,0:0:0:0:
109,192,31324,1,0,0:0:0:0:
402,192,31324,1,0,0:0:0:0:
475,192,31324,1,0,0:0:0:0:
36,192,31460,1,0,0:0:0:0:
402,192,31460,1,0,0:0:0:0:
475,192,31460,1,0,0:0:0:0:
109,192,31460,1,0,0:0:0:0:
36,192,31596,1,0,0:0:0:0:
182,192,31596,1,0,0:0:0:0:
329,192,31596,1,0,0:0:0:0:
475,192,31596,1,0,0:0:0:0:
109,192,31733,1,0,0:0:0:0:
182,192,31733,1,0,0:0:0:0:
402,192,31733,1,0,0:0:0:0:
329,192,31733,1,0,0:0:0:0:
182,192,31869,1,0,0:0:0:0:
256,192,31869,1,0,0:0:0:0:
402,192,31869,1,0,0:0:0:0:
475,192,31869,1,0,0:0:0:0:
402,192,32005,1,0,0:0:0:0:
329,192,32005,1,0,0:0:0:0:
182,192,32005,1,0,0:0:0:0:
109,192,32005,1,0,0:0:0:0:
36,192,32142,1,0,0:0:0:0:
109,192,32142,1,0,0:0:0:0:
256,192,32142,1,0,0:0:0:0:
329,192,32142,1,0,0:0:0:0:
182,192,32278,1,0,0:0:0:0:
256,192,32278,1,0,0:0:0:0:
402,192,32278,1,0,0:0:0:0:
475,192,32278,1,0,0:0:0:0:
109,192,32414,1,0,0:0:0:0:
182,192,32414,1,0,0:0:0:0:
329,192,32414,1,0,0:0:0:0:
402,192,32414,1,0,0:0:0:0:
36,192,32551,1,0,0:0:0:0:
109,192,32551,1,0,0:0:0:0:
329,192,32551,1,0,0:0:0:0:
256,192,32551,1,0,0:0:0:0:
109,192,32687,1,0,0:0:0:0:
182,192,32687,1,0,0:0:0:0:
329,192,32687,1,0,0:0:0:0:
402,192,32687,1,0,0:0:0:0:
182,192,32824,1,0,0:0:0:0:
402,192,32824,1,0,0:0:0:0:
256,192,32824,1,0,0:0:0:0:
475,192,32824,1,0,0:0:0:0:
36,192,32960,1,0,0:0:0:0:
109,192,32960,1,0,0:0:0:0:
182,192,32960,1,0,0:0:0:0:
329,192,32960,1,0,0:0:0:0:
402,192,32960,1,0,0:0:0:0:
475,192,32960,1,0,0:0:0:0:
36,192,33096,1,0,0:0:0:0:
109,192,33096,1,0,0:0:0:0:
329,192,33096,1,0,0:0:0:0:
256,192,33096,1,0,0:0:0:0:
109,192,33233,1,0,0:0:0:0:
182,192,33233,1,0,0:0:0:0:
329,192,33233,1,0,0:0:0:0:
402,192,33233,1,0,0:0:0:0:
182,192,33369,1,0,0:0:0:0:
256,192,33369,1,0,0:0:0:0:
402,192,33369,1,0,0:0:0:0:
475,192,33369,1,0,0:0:0:0:
36,192,33505,1,0,0:0:0:0:
109,192,33505,1,0,0:0:0:0:
256,192,33505,1,0,0:0:0:0:
329,192,33505,1,0,0:0:0:0:
36,192,33642,1,0,0:0:0:0:
256,192,33642,1,0,0:0:0:0:
329,192,33642,1,0,0:0:0:0:
109,192,33642,1,0,0:0:0:0:
109,192,33778,1,0,0:0:0:0:
182,192,33778,1,0,0:0:0:0:
329,192,33778,1,0,0:0:0:0:
402,192,33778,1,0,0:0:0:0:
182,192,33914,1,0,0:0:0:0:
256,192,33914,1,0,0:0:0:0:
402,192,33914,1,0,0:0:0:0:
475,192,33914,1,0,0:0:0:0:
36,192,34051,128,0,34324:0:0:0:0:
329,192,34051,128,0,34324:0:0:0:0:
109,192,34051,1,0,0:0:0:0:
475,192,34051,1,0,0:0:0:0:
182,192,34187,1,0,0:0:0:0:
256,192,34187,1,0,0:0:0:0:
109,192,34324,128,0,34596:0:0:0:0:
402,192,34324,128,0,34596:0:0:0:0:
256,192,34324,1,0,0:0:0:0:
475,192,34324,1,0,0:0:0:0:
182,192,34460,1,0,0:0:0:0:
329,192,34460,1,0,0:0:0:0:
36,192,34596,1,0,0:0:0:0:
256,192,34596,1,0,0:0:0:0:
475,192,34596,1,0,0:0:0:0:
182,192,34733,1,0,0:0:0:0:
329,192,34733,1,0,0:0:0:0:
256,192,34869,1,0,0:0:0:0:
36,192,34869,1,0,0:0:0:0:
475,192,34869,1,0,0:0:0:0:
109,192,34869,1,0,0:0:0:0:
402,192,34869,1,0,0:0:0:0:
182,192,35005,1,0,0:0:0:0:
329,192,35005,1,0,0:0:0:0:
36,192,35142,1,0,0:0:0:0:
109,192,35142,1,0,0:0:0:0:
182,192,35142,1,0,0:0:0:0:
329,192,35142,1,0,0:0:0:0:
402,192,35142,1,0,0:0:0:0:
475,192,35142,1,0,0:0:0:0:
36,192,35278,1,0,0:0:0:0:
256,192,35278,1,0,0:0:0:0:
402,192,35278,1,0,0:0:0:0:
475,192,35278,1,0,0:0:0:0:
36,192,35414,1,0,0:0:0:0:
182,192,35414,1,0,0:0:0:0:
329,192,35414,1,0,0:0:0:0:
475,192,35414,1,0,0:0:0:0:
109,192,35551,1,0,0:0:0:0:
256,192,35551,1,0,0:0:0:0:
402,192,35551,1,0,0:0:0:0:
475,192,35551,1,0,0:0:0:0:
109,192,35687,1,0,0:0:0:0:
36,192,35687,1,0,0:0:0:0:
329,192,35687,1,0,0:0:0:0:
402,192,35687,1,0,0:0:0:0:
36,192,35824,1,0,0:0:0:0:
182,192,35824,1,0,0:0:0:0:
256,192,35824,1,0,0:0:0:0:
475,192,35824,1,0,0:0:0:0:
109,192,35960,1,0,0:0:0:0:
256,192,35960,1,0,0:0:0:0:
329,192,35960,1,0,0:0:0:0:
402,192,35960,1,0,0:0:0:0:
182,192,36096,1,0,0:0:0:0:
475,192,36096,1,0,0:0:0:0:
402,192,36096,1,0,0:0:0:0:
36,192,36096,1,0,0:0:0:0:
109,192,36233,1,0,0:0:0:0:
256,192,36233,1,0,0:0:0:0:
329,192,36233,1,0,0:0:0:0:
475,192,36233,1,0,0:0:0:0:
402,192,36369,1,0,0:0:0:0:
329,192,36369,1,0,0:0:0:0:
182,192,36369,1,0,0:0:0:0:
109,192,36369,1,0,0:0:0:0:
36,192,36505,1,0,0:0:0:0:
182,192,36505,1,0,0:0:0:0:
256,192,36505,1,0,0:0:0:0:
475,192,36505,1,0,0:0:0:0:
402,192,36642,1,0,0:0:0:0:
329,192,36642,1,0,0:0:0:0:
109,192,36642,1,0,0:0:0:0:
36,192,36642,1,0,0:0:0:0:
182,192,36778,1,0,0:0:0:0:
256,192,36778,1,0,0:0:0:0:
475,192,36778,1,0,0:0:0:0:
402,192,36778,1,0,0:0:0:0:
36,192,36914,1,0,0:0:0:0:
109,192,36914,1,0,0:0:0:0:
182,192,36914,1,0,0:0:0:0:
329,192,36914,1,0,0:0:0:0:
109,192,37051,1,0,0:0:0:0:
256,192,37051,1,0,0:0:0:0:
402,192,37051,1,0,0:0:0:0:
475,192,37051,1,0,0:0:0:0:
182,192,37187,1,0,0:0:0:0:
329,192,37187,1,0,0:0:0:0:
36,192,37187,1,0,0:0:0:0:
475,192,37187,1,0,0:0:0:0:
36,192,37324,1,0,0:0:0:0:
109,192,37324,1,0,0:0:0:0:
182,192,37324,1,0,0:0:0:0:
329,192,37324,1,0,0:0:0:0:
402,192,37324,1,0,0:0:0:0:
475,192,37324,1,0,0:0:0:0:
256,192,37460,1,0,0:0:0:0:
182,192,37460,1,0,0:0:0:0:
329,192,37460,1,0,0:0:0:0:
36,192,37460,1,0,0:0:0:0:
109,192,37596,1,0,0:0:0:0:
402,192,37596,1,0,0:0:0:0:
475,192,37596,1,0,0:0:0:0:
256,192,37596,1,0,0:0:0:0:
182,192,37733,1,0,0:0:0:0:
329,192,37733,1,0,0:0:0:0:
475,192,37733,1,0,0:0:0:0:
36,192,37733,1,0,0:0:0:0:
109,192,37869,1,0,0:0:0:0:
36,192,37869,1,0,0:0:0:0:
256,192,37869,1,0,0:0:0:0:
402,192,37869,1,0,0:0:0:0:
182,192,38005,1,0,0:0:0:0:
109,192,38005,1,0,0:0:0:0:
329,192,38005,1,0,0:0:0:0:
475,192,38005,1,0,0:0:0:0:
256,192,38142,1,0,0:0:0:0:
402,192,38142,1,0,0:0:0:0:
36,192,38142,1,0,0:0:0:0:
475,192,38142,1,0,0:0:0:0:
109,192,38278,1,0,0:0:0:0:
182,192,38278,1,0,0:0:0:0:
329,192,38278,1,0,0:0:0:0:
402,192,38278,1,0,0:0:0:0:
36,192,38414,1,0,0:0:0:0:
256,192,38414,1,0,0:0:0:0:
475,192,38414,1,0,0:0:0:0:
329,192,38414,1,0,0:0:0:0:
109,192,38551,1,0,0:0:0:0:
36,192,38551,1,0,0:0:0:0:
182,192,38551,1,0,0:0:0:0:
402,192,38551,1,0,0:0:0:0:
256,192,38687,1,0,0:0:0:0:
329,192,38687,1,0,0:0:0:0:
109,192,38687,1,0,0:0:0:0:
475,192,38687,1,0,0:0:0:0:
402,192,38824,1,0,0:0:0:0:
182,192,38824,1,0,0:0:0:0:
36,192,38824,1,0,0:0:0:0:
475,192,38824,1,0,0:0:0:0:
109,192,38960,1,0,0:0:0:0:
36,192,38960,1,0,0:0:0:0:
256,192,38960,1,0,0:0:0:0:
329,192,38960,1,0,0:0:0:0:
182,192,39096,1,0,0:0:0:0:
402,192,39096,1,0,0:0:0:0:
475,192,39096,1,0,0:0:0:0:
329,192,39096,1,0,0:0:0:0:
109,192,39233,1,0,0:0:0:0:
36,192,39233,1,0,0:0:0:0:
182,192,39233,1,0,0:0:0:0:
402,192,39233,1,0,0:0:0:0:
329,192,39233,1,0,0:0:0:0:
475,192,39233,1,0,0:0:0:0:
256,192,39369,1,0,0:0:0:0:
109,192,39369,1,0,0:0:0:0:
36,192,39369,1,0,0:0:0:0:
402,192,39369,1,0,0:0:0:0:
36,192,39505,1,0,0:0:0:0:
109,192,39505,1,0,0:0:0:0:
182,192,39505,1,0,0:0:0:0:
329,192,39505,1,0,0:0:0:0:
402,192,39505,1,0,0:0:0:0:
475,192,39505,1,0,0:0:0:0:
256,192,39642,1,0,0:0:0:0:
329,192,39642,1,0,0:0:0:0:
475,192,39642,1,0,0:0:0:0:
182,192,39642,1,0,0:0:0:0:
109,192,39778,1,0,0:0:0:0:
36,192,39778,1,0,0:0:0:0:
402,192,39778,1,0,0:0:0:0:
256,192,39778,1,0,0:0:0:0:
182,192,39914,1,0,0:0:0:0:
36,192,39914,1,0,0:0:0:0:
329,192,39914,1,0,0:0:0:0:
475,192,39914,1,0,0:0:0:0:
109,192,40051,1,0,0:0:0:0:
256,192,40051,1,0,0:0:0:0:
402,192,40051,1,0,0:0:0:0:
329,192,40051,1,0,0:0:0:0:
36,192,40187,1,0,0:0:0:0:
182,192,40187,1,0,0:0:0:0:
475,192,40187,1,0,0:0:0:0:
402,192,40187,1,0,0:0:0:0:
36,192,40324,1,0,0:0:0:0:
109,192,40324,1,0,0:0:0:0:
329,192,40324,1,0,0:0:0:0:
256,192,40324,1,0,0:0:0:0:
182,192,40460,1,0,0:0:0:0:
402,192,40460,1,0,0:0:0:0:
475,192,40460,1,0,0:0:0:0:
329,192,40460,1,0,0:0:0:0:
36,192,40596,1,0,0:0:0:0:
109,192,40596,1,0,0:0:0:0:
182,192,40596,1,0,0:0:0:0:
256,192,40596,1,0,0:0:0:0:
329,192,40733,1,0,0:0:0:0:
402,192,40733,1,0,0:0:0:0:
475,192,40733,1,0,0:0:0:0:
109,192,40733,1,0,0:0:0:0:
182,192,40869,1,0,0:0:0:0:
256,192,40869,1,0,0:0:0:0:
36,192,40869,1,0,0:0:0:0:
402,192,40869,1,0,0:0:0:0:
109,192,41005,1,0,0:0:0:0:
329,192,41005,1,0,0:0:0:0:
256,192,41005,1,0,0:0:0:0:
475,192,41005,1,0,0:0:0:0:
182,192,41142,1,0,0:0:0:0:
109,192,41142,1,0,0:0:0:0:
36,192,41142,1,0,0:0:0:0:
402,192,41142,1,0,0:0:0:0:
256,192,41278,1,0,0:0:0:0:
329,192,41278,1,0,0:0:0:0:
475,192,41278,1,0,0:0:0:0:
182,192,41278,1,0,0:0:0:0:
36,192,41414,1,0,0:0:0:0:
109,192,41414,1,0,0:0:0:0:
402,192,41414,1,0,0:0:0:0:
329,192,41414,1,0,0:0:0:0:
256,192,41551,1,0,0:0:0:0:
475,192,41551,1,0,0:0:0:0:
182,192,41551,1,0,0:0:0:0:
36,192,41551,1,0,0:0:0:0:
36,192,41687,1,0,0:0:0:0:
109,192,41687,1,0,0:0:0:0:
182,192,41687,1,0,0:0:0:0:
329,192,41687,1,0,0:0:0:0:
402,192,41687,1,0,0:0:0:0:
475,192,41687,1,0,0:0:0:0:
109,192,41824,1,0,0:0:0:0:
182,192,41824,1,0,0:0:0:0:
329,192,41824,1,0,0:0:0:0:
402,192,41824,1,0,0:0:0:0:
36,192,41960,1,0,0:0:0:0:
109,192,41960,1,0,0:0:0:0:
402,192,41960,1,0,0:0:0:0:
475,192,41960,1,0,0:0:0:0:
475,192,42096,1,0,0:0:0:0:
402,192,42096,1,0,0:0:0:0:
109,192,42096,1,0,0:0:0:0:
36,192,42096,1,0,0:0:0:0:
182,192,42233,1,0,0:0:0:0:
36,192,42233,1,0,0:0:0:0:
329,192,42233,1,0,0:0:0:0:
475,192,42233,1,0,0:0:0:0:
36,192,42369,1,0,0:0:0:0:
182,192,42369,1,0,0:0:0:0:
475,192,42369,1,0,0:0:0:0:
329,192,42369,1,0,0:0:0:0:
109,192,42505,1,0,0:0:0:0:
182,192,42505,1,0,0:0:0:0:
329,192,42505,1,0,0:0:0:0:
402,192,42505,1,0,0:0:0:0:
182,192,42642,1,0,0:0:0:0:
109,192,42642,1,0,0:0:0:0:
402,192,42642,1,0,0:0:0:0:
329,192,42642,1,0,0:0:0:0:
36,192,42778,128,0,43051:0:0:0:0:
475,192,42778,128,0,43051:0:0:0:0:
109,192,42778,1,0,0:0:0:0:
402,192,42778,1,0,0:0:0:0:
329,192,42914,1,0,0:0:0:0:
182,192,42914,1,0,0:0:0:0:
109,192,43051,128,0,43324:0:0:0:0:
402,192,43051,128,0,43324:0:0:0:0:
182,192,43051,1,0,0:0:0:0:
329,192,43051,1,0,0:0:0:0:
36,192,43187,1,0,0:0:0:0:
475,192,43187,1,0,0:0:0:0:
182,192,43324,1,0,0:0:0:0:
256,192,43324,1,0,0:0:0:0:
329,192,43324,1,0,0:0:0:0:
36,192,43460,1,0,0:0:0:0:
109,192,43460,1,0,0:0:0:0:
402,192,43460,1,0,0:0:0:0:
475,192,43460,1,0,0:0:0:0:
182,192,43596,1,0,0:0:0:0:
256,192,43596,1,0,0:0:0:0:
329,192,43596,1,0,0:0:0:0:
36,192,43733,1,0,0:0:0:0:
109,192,43733,1,0,0:0:0:0:
402,192,43733,1,0,0:0:0:0:
475,192,43733,1,0,0:0:0:0:
36,192,43869,1,0,0:0:0:0:
109,192,43869,1,0,0:0:0:0:
182,192,43869,1,0,0:0:0:0:
329,192,43869,1,0,0:0:0:0:
402,192,43869,1,0,0:0:0:0:
475,192,43869,1,0,0:0:0:0:
256,192,44005,1,0,0:0:0:0:
256,192,44142,1,0,0:0:0:0:
182,192,44210,1,0,0:0:0:0:
329,192,44278,1,0,0:0:0:0:
182,192,44346,1,0,0:0:0:0:
36,192,44414,1,0,0:0:0:0:
475,192,44414,1,0,0:0:0:0:
109,192,44551,1,0,0:0:0:0:
182,192,44568,1,0,0:0:0:0:
402,192,44619,1,0,0:0:0:0:
329,192,44636,1,0,0:0:0:0:
109,192,44687,1,0,0:0:0:0:
182,192,44687,1,0,0:0:0:0:
402,192,44755,1,0,0:0:0:0:
329,192,44755,1,0,0:0:0:0:
109,192,44824,1,0,0:0:0:0:
182,192,44824,1,0,0:0:0:0:
402,192,44892,1,0,0:0:0:0:
329,192,44892,1,0,0:0:0:0:
36,192,44960,1,0,0:0:0:0:
109,192,44960,1,0,0:0:0:0:
256,192,44960,1,0,0:0:0:0:
182,192,44960,1,0,0:0:0:0:
475,192,45028,1,0,0:0:0:0:
36,192,45096,1,0,0:0:0:0:
109,192,45096,1,0,0:0:0:0:
256,192,45096,1,0,0:0:0:0:
402,192,45164,1,0,0:0:0:0:
329,192,45233,1,0,0:0:0:0:
182,192,45233,1,0,0:0:0:0:
109,192,45233,1,0,0:0:0:0:
36,192,45301,1,0,0:0:0:0:
182,192,45369,1,0,0:0:0:0:
256,192,45369,1,0,0:0:0:0:
402,192,45369,1,0,0:0:0:0:
109,192,45437,1,0,0:0:0:0:
36,192,45505,1,0,0:0:0:0:
256,192,45505,1,0,0:0:0:0:
329,192,45505,1,0,0:0:0:0:
182,192,45574,1,0,0:0:0:0:
109,192,45642,1,0,0:0:0:0:
402,192,45642,1,0,0:0:0:0:
329,192,45642,1,0,0:0:0:0:
256,192,45710,1,0,0:0:0:0:
182,192,45778,1,0,0:0:0:0:
402,192,45778,1,0,0:0:0:0:
475,192,45778,1,0,0:0:0:0:
329,192,45846,1,0,0:0:0:0:
256,192,45914,1,0,0:0:0:0:
36,192,45914,1,0,0:0:0:0:
109,192,45914,1,0,0:0:0:0:
329,192,45983,1,0,0:0:0:0:
402,192,46051,1,0,0:0:0:0:
475,192,46051,1,0,0:0:0:0:
109,192,46051,1,0,0:0:0:0:
182,192,46119,1,0,0:0:0:0:
256,192,46187,1,0,0:0:0:0:
36,192,46187,1,0,0:0:0:0:
402,192,46187,1,0,0:0:0:0:
109,192,46255,1,0,0:0:0:0:
182,192,46324,1,0,0:0:0:0:
329,192,46324,1,0,0:0:0:0:
475,192,46324,1,0,0:0:0:0:
109,192,46392,1,0,0:0:0:0:
36,192,46460,1,0,0:0:0:0:
256,192,46460,1,0,0:0:0:0:
402,192,46460,1,0,0:0:0:0:
182,192,46528,1,0,0:0:0:0:
109,192,46596,1,0,0:0:0:0:
36,192,46596,1,0,0:0:0:0:
475,192,46596,1,0,0:0:0:0:
402,192,46664,1,0,0:0:0:0:
329,192,46733,1,0,0:0:0:0:
182,192,46733,1,0,0:0:0:0:
109,192,46733,1,0,0:0:0:0:
402,192,46801,1,0,0:0:0:0:
475,192,46869,1,0,0:0:0:0:
36,192,46869,1,0,0:0:0:0:
182,192,46869,1,0,0:0:0:0:
329,192,46937,1,0,0:0:0:0:
36,192,47005,1,0,0:0:0:0:
475,192,47005,1,0,0:0:0:0:
109,192,47005,1,0,0:0:0:0:
402,192,47005,1,0,0:0:0:0:
182,192,47074,1,0,0:0:0:0:
329,192,47074,1,0,0:0:0:0:
256,192,47142,1,0,0:0:0:0:
402,192,47142,1,0,0:0:0:0:
475,192,47142,1,0,0:0:0:0:
36,192,47142,1,0,0:0:0:0:
109,192,47142,1,0,0:0:0:0:
182,192,47210,1,0,0:0:0:0:
256,192,47278,1,0,0:0:0:0:
329,192,47278,1,0,0:0:0:0:
475,192,47278,1,0,0:0:0:0:
36,192,47346,1,0,0:0:0:0:
109,192,47414,1,0,0:0:0:0:
182,192,47414,1,0,0:0:0:0:
329,192,47414,1,0,0:0:0:0:
475,192,47483,1,0,0:0:0:0:
402,192,47551,1,0,0:0:0:0:
182,192,47551,1,0,0:0:0:0:
36,192,47551,1,0,0:0:0:0:
256,192,47619,1,0,0:0:0:0:
329,192,47687,1,0,0:0:0:0:
36,192,47687,1,0,0:0:0:0:
109,192,47687,1,0,0:0:0:0:
182,192,47755,1,0,0:0:0:0:
256,192,47824,1,0,0:0:0:0:
402,192,47824,1,0,0:0:0:0:
475,192,47824,1,0,0:0:0:0:
182,192,47892,1,0,0:0:0:0:
109,192,47960,1,0,0:0:0:0:
36,192,47960,1,0,0:0:0:0:
402,192,47960,1,0,0:0:0:0:
329,192,48028,1,0,0:0:0:0:
256,192,48096,1,0,0:0:0:0:
109,192,48096,1,0,0:0:0:0:
475,192,48096,1,0,0:0:0:0:
402,192,48164,1,0,0:0:0:0:
329,192,48233,1,0,0:0:0:0:
36,192,48233,1,0,0:0:0:0:
109,192,48233,1,0,0:0:0:0:
182,192,48301,1,0,0:0:0:0:
402,192,48301,1,0,0:0:0:0:
256,192,48369,128,0,48505:0:0:0:0:
475,192,48369,128,0,48505:0:0:0:0:
36,192,48505,1,0,0:0:0:0:
182,192,48505,1,0,0:0:0:0:
402,192,48505,1,0,0:0:0:0:
109,192,48574,1,0,0:0:0:0:
329,192,48574,1,0,0:0:0:0:
256,192,48642,128,0,48778:0:0:0:0:
475,192,48642,128,0,48778:0:0:0:0:
36,192,48778,1,0,0:0:0:0:
109,192,48778,1,0,0:0:0:0:
402,192,48778,1,0,0:0:0:0:
182,192,48846,1,0,0:0:0:0:
256,192,48914,1,0,0:0:0:0:
402,192,48914,1,0,0:0:0:0:
475,192,48914,1,0,0:0:0:0:
109,192,49051,1,0,0:0:0:0:
182,192,49051,1,0,0:0:0:0:
402,192,49051,1,0,0:0:0:0:
36,192,49051,128,0,49324:0:0:0:0:
329,192,49119,128,0,49324:0:0:0:0:
256,192,49187,128,0,49324:0:0:0:0:
475,192,49187,1,0,0:0:0:0:
109,192,49324,1,0,0:0:0:0:
182,192,49324,1,0,0:0:0:0:
402,192,49324,1,0,0:0:0:0:
475,192,49324,1,0,0:0:0:0:
36,192,49392,1,0,0:0:0:0:
109,192,49460,1,0,0:0:0:0:
182,192,49460,1,0,0:0:0:0:
402,192,49460,1,0,0:0:0:0:
36,192,49528,1,0,0:0:0:0:
182,192,49596,1,0,0:0:0:0:
256,192,49596,1,0,0:0:0:0:
475,192,49596,1,0,0:0:0:0:
109,192,49664,1,0,0:0:0:0:
36,192,49733,1,0,0:0:0:0:
256,192,49733,1,0,0:0:0:0:
329,192,49733,1,0,0:0:0:0:
475,192,49733,1,0,0:0:0:0:
182,192,49801,1,0,0:0:0:0:
109,192,49869,1,0,0:0:0:0:
329,192,49869,1,0,0:0:0:0:
475,192,49869,1,0,0:0:0:0:
256,192,49937,1,0,0:0:0:0:
182,192,50005,1,0,0:0:0:0:
402,192,50005,1,0,0:0:0:0:
36,192,50005,1,0,0:0:0:0:
329,192,50074,1,0,0:0:0:0:
256,192,50142,1,0,0:0:0:0:
36,192,50142,1,0,0:0:0:0:
109,192,50142,1,0,0:0:0:0:
329,192,50210,1,0,0:0:0:0:
402,192,50278,1,0,0:0:0:0:
182,192,50278,1,0,0:0:0:0:
109,192,50278,1,0,0:0:0:0:
256,192,50346,1,0,0:0:0:0:
329,192,50414,1,0,0:0:0:0:
475,192,50414,1,0,0:0:0:0:
36,192,50414,1,0,0:0:0:0:
109,192,50483,1,0,0:0:0:0:
182,192,50551,1,0,0:0:0:0:
256,192,50551,1,0,0:0:0:0:
402,192,50551,1,0,0:0:0:0:
109,192,50619,1,0,0:0:0:0:
36,192,50687,1,0,0:0:0:0:
475,192,50687,1,0,0:0:0:0:
329,192,50687,1,0,0:0:0:0:
256,192,50755,1,0,0:0:0:0:
182,192,50824,1,0,0:0:0:0:
109,192,50824,1,0,0:0:0:0:
475,192,50824,1,0,0:0:0:0:
402,192,50892,1,0,0:0:0:0:
329,192,50960,1,0,0:0:0:0:
256,192,50960,1,0,0:0:0:0:
182,192,50960,1,0,0:0:0:0:
402,192,51028,1,0,0:0:0:0:
475,192,51096,1,0,0:0:0:0:
109,192,51096,1,0,0:0:0:0:
182,192,51096,1,0,0:0:0:0:
256,192,51164,1,0,0:0:0:0:
329,192,51233,1,0,0:0:0:0:
402,192,51233,1,0,0:0:0:0:
36,192,51233,1,0,0:0:0:0:
109,192,51301,1,0,0:0:0:0:
182,192,51369,1,0,0:0:0:0:
329,192,51369,1,0,0:0:0:0:
402,192,51369,1,0,0:0:0:0:
256,192,51369,1,0,0:0:0:0:
36,192,51437,1,0,0:0:0:0:
475,192,51437,1,0,0:0:0:0:
109,192,51505,1,0,0:0:0:0:
182,192,51505,1,0,0:0:0:0:
256,192,51505,1,0,0:0:0:0:
329,192,51505,1,0,0:0:0:0:
402,192,51505,1,0,0:0:0:0:
36,192,51574,1,0,0:0:0:0:
329,192,51642,1,0,0:0:0:0:
109,192,51642,1,0,0:0:0:0:
475,192,51642,1,0,0:0:0:0:
182,192,51710,1,0,0:0:0:0:
256,192,51778,1,0,0:0:0:0:
36,192,51778,1,0,0:0:0:0:
402,192,51778,1,0,0:0:0:0:
109,192,51846,1,0,0:0:0:0:
182,192,51914,1,0,0:0:0:0:
329,192,51914,1,0,0:0:0:0:
475,192,51914,1,0,0:0:0:0:
109,192,51983,1,0,0:0:0:0:
36,192,52051,1,0,0:0:0:0:
329,192,52051,1,0,0:0:0:0:
475,192,52051,1,0,0:0:0:0:
256,192,52119,1,0,0:0:0:0:
182,192,52187,1,0,0:0:0:0:
36,192,52187,1,0,0:0:0:0:
475,192,52187,1,0,0:0:0:0:
402,192,52255,1,0,0:0:0:0:
329,192,52324,1,0,0:0:0:0:
109,192,52324,1,0,0:0:0:0:
256,192,52324,1,0,0:0:0:0:
402,192,52392,1,0,0:0:0:0:
475,192,52460,1,0,0:0:0:0:
256,192,52460,1,0,0:0:0:0:
182,192,52460,1,0,0:0:0:0:
329,192,52528,1,0,0:0:0:0:
109,192,52596,1,0,0:0:0:0:
402,192,52596,1,0,0:0:0:0:
36,192,52596,1,0,0:0:0:0:
182,192,52664,1,0,0:0:0:0:
256,192,52733,1,0,0:0:0:0:
329,192,52733,1,0,0:0:0:0:
475,192,52733,1,0,0:0:0:0:
182,192,52801,1,0,0:0:0:0:
109,192,52869,1,0,0:0:0:0:
36,192,52869,1,0,0:0:0:0:
329,192,52869,1,0,0:0:0:0:
475,192,52869,128,0,53142:0:0:0:0:
402,192,52937,1,0,0:0:0:0:
329,192,53005,1,0,0:0:0:0:
182,192,53005,1,0,0:0:0:0:
36,192,53005,1,0,0:0:0:0:
256,192,53074,1,0,0:0:0:0:
109,192,53142,1,0,0:0:0:0:
402,192,53142,1,0,0:0:0:0:
182,192,53142,1,0,0:0:0:0:
36,192,53142,1,0,0:0:0:0:
256,192,53278,1,0,0:0:0:0:
329,192,53278,1,0,0:0:0:0:
475,192,53278,1,0,0:0:0:0:
109,192,53346,1,0,0:0:0:0:
36,192,53346,1,0,0:0:0:0:
329,192,53414,1,0,0:0:0:0:
402,192,53414,1,0,0:0:0:0:
475,192,53414,1,0,0:0:0:0:
182,192,53483,1,0,0:0:0:0:
109,192,53483,1,0,0:0:0:0:
36,192,53483,1,0,0:0:0:0:
329,192,53551,1,0,0:0:0:0:
402,192,53551,1,0,0:0:0:0:
475,192,53551,1,0,0:0:0:0:
182,192,53619,1,0,0:0:0:0:
109,192,53619,1,0,0:0:0:0:
36,192,53619,1,0,0:0:0:0:
256,192,53687,1,0,0:0:0:0:
329,192,53687,1,0,0:0:0:0:
402,192,53687,1,0,0:0:0:0:
475,192,53687,1,0,0:0:0:0:
182,192,53755,1,0,0:0:0:0:
109,192,53824,1,0,0:0:0:0:
36,192,53824,1,0,0:0:0:0:
475,192,53824,1,0,0:0:0:0:
329,192,53892,1,0,0:0:0:0:
182,192,53960,1,0,0:0:0:0:
36,192,53960,1,0,0:0:0:0:
475,192,53960,1,0,0:0:0:0:
256,192,54028,1,0,0:0:0:0:
402,192,54096,1,0,0:0:0:0:
109,192,54096,1,0,0:0:0:0:
475,192,54096,1,0,0:0:0:0:
182,192,54164,1,0,0:0:0:0:
36,192,54233,1,0,0:0:0:0:
256,192,54233,1,0,0:0:0:0:
475,192,54233,1,0,0:0:0:0:
329,192,54301,1,0,0:0:0:0:
182,192,54369,1,0,0:0:0:0:
109,192,54369,1,0,0:0:0:0:
402,192,54369,1,0,0:0:0:0:
256,192,54437,1,0,0:0:0:0:
475,192,54505,1,0,0:0:0:0:
329,192,54505,1,0,0:0:0:0:
36,192,54505,1,0,0:0:0:0:
182,192,54574,1,0,0:0:0:0:
402,192,54642,1,0,0:0:0:0:
475,192,54642,1,0,0:0:0:0:
36,192,54642,1,0,0:0:0:0:
329,192,54710,1,0,0:0:0:0:
256,192,54778,1,0,0:0:0:0:
182,192,54778,1,0,0:0:0:0:
475,192,54778,1,0,0:0:0:0:
36,192,54846,1,0,0:0:0:0:
182,192,54914,1,0,0:0:0:0:
329,192,54914,1,0,0:0:0:0:
402,192,54914,1,0,0:0:0:0:
36,192,54983,1,0,0:0:0:0:
109,192,55051,1,0,0:0:0:0:
256,192,55051,1,0,0:0:0:0:
475,192,55051,1,0,0:0:0:0:
329,192,55119,1,0,0:0:0:0:
182,192,55187,1,0,0:0:0:0:
36,192,55187,1,0,0:0:0:0:
475,192,55187,1,0,0:0:0:0:
329,192,55255,1,0,0:0:0:0:
109,192,55324,1,0,0:0:0:0:
256,192,55324,1,0,0:0:0:0:
182,192,55324,1,0,0:0:0:0:
475,192,55392,1,0,0:0:0:0:
402,192,55460,1,0,0:0:0:0:
36,192,55460,1,0,0:0:0:0:
109,192,55460,1,0,0:0:0:0:
182,192,55528,1,0,0:0:0:0:
256,192,55596,1,0,0:0:0:0:
475,192,55596,1,0,0:0:0:0:
329,192,55596,1,0,0:0:0:0:
36,192,55664,1,0,0:0:0:0:
402,192,55733,1,0,0:0:0:0:
475,192,55733,1,0,0:0:0:0:
109,192,55733,1,0,0:0:0:0:
329,192,55801,1,0,0:0:0:0:
182,192,55801,1,0,0:0:0:0:
256,192,55869,1,0,0:0:0:0:
36,192,55869,1,0,0:0:0:0:
109,192,55869,1,0,0:0:0:0:
329,192,55937,1,0,0:0:0:0:
402,192,56005,1,0,0:0:0:0:
475,192,56005,1,0,0:0:0:0:
182,192,56005,1,0,0:0:0:0:
36,192,56074,1,0,0:0:0:0:
182,192,56142,1,0,0:0:0:0:
329,192,56142,1,0,0:0:0:0:
256,192,56142,1,0,0:0:0:0:
475,192,56210,1,0,0:0:0:0:
36,192,56278,1,0,0:0:0:0:
109,192,56278,1,0,0:0:0:0:
329,192,56278,1,0,0:0:0:0:
182,192,56346,1,0,0:0:0:0:
256,192,56414,1,0,0:0:0:0:
402,192,56414,1,0,0:0:0:0:
475,192,56414,1,0,0:0:0:0:
36,192,56483,1,0,0:0:0:0:
109,192,56551,1,0,0:0:0:0:
329,192,56551,1,0,0:0:0:0:
182,192,56551,1,0,0:0:0:0:
475,192,56619,1,0,0:0:0:0:
256,192,56687,1,0,0:0:0:0:
36,192,56687,1,0,0:0:0:0:
402,192,56687,1,0,0:0:0:0:
182,192,56755,1,0,0:0:0:0:
109,192,56824,1,0,0:0:0:0:
475,192,56824,1,0,0:0:0:0:
329,192,56824,1,0,0:0:0:0:
256,192,56892,1,0,0:0:0:0:
36,192,56960,1,0,0:0:0:0:
109,192,56960,1,0,0:0:0:0:
182,192,56960,1,0,0:0:0:0:
329,192,57028,1,0,0:0:0:0:
402,192,57028,1,0,0:0:0:0:
475,192,57028,1,0,0:0:0:0:
36,192,57096,128,0,57233:0:0:0:0:
109,192,57096,128,0,57233:0:0:0:0:
182,192,57096,128,0,57233:0:0:0:0:
329,192,57233,1,0,0:0:0:0:
475,192,57233,1,0,0:0:0:0:
402,192,57233,1,0,0:0:0:0:
182,192,57301,1,0,0:0:0:0:
109,192,57301,1,0,0:0:0:0:
36,192,57301,1,0,0:0:0:0:
329,192,57369,128,0,57505:0:0:0:0:
402,192,57369,128,0,57505:0:0:0:0:
475,192,57369,128,0,57505:0:0:0:0:
36,192,57505,1,0,0:0:0:0:
109,192,57505,1,0,0:0:0:0:
256,192,57574,1,0,0:0:0:0:
182,192,57574,1,0,0:0:0:0:
329,192,57642,128,0,57778:0:0:0:0:
475,192,57642,128,0,57778:0:0:0:0:
36,192,57778,1,0,0:0:0:0:
109,192,57778,1,0,0:0:0:0:
182,192,57778,1,0,0:0:0:0:
329,192,57914,128,0,58051:0:0:0:0:
475,192,57914,128,0,58051:0:0:0:0:
36,192,58051,1,0,0:0:0:0:
109,192,58051,1,0,0:0:0:0:
182,192,58051,1,0,0:0:0:0:
256,192,58051,1,0,0:0:0:0:
402,192,58119,1,0,0:0:0:0:
109,192,58187,1,0,0:0:0:0:
182,192,58187,1,0,0:0:0:0:
475,192,58187,1,0,0:0:0:0:
256,192,58255,1,0,0:0:0:0:
329,192,58324,1,0,0:0:0:0:
36,192,58324,1,0,0:0:0:0:
475,192,58324,1,0,0:0:0:0:
182,192,58392,1,0,0:0:0:0:
402,192,58460,1,0,0:0:0:0:
256,192,58460,1,0,0:0:0:0:
36,192,58460,1,0,0:0:0:0:
109,192,58528,1,0,0:0:0:0:
329,192,58596,1,0,0:0:0:0:
475,192,58596,1,0,0:0:0:0:
256,192,58596,1,0,0:0:0:0:
36,192,58664,1,0,0:0:0:0:
182,192,58733,1,0,0:0:0:0:
402,192,58733,1,0,0:0:0:0:
329,192,58733,1,0,0:0:0:0:
36,192,58801,1,0,0:0:0:0:
109,192,58869,1,0,0:0:0:0:
256,192,58869,1,0,0:0:0:0:
475,192,58869,1,0,0:0:0:0:
402,192,58937,1,0,0:0:0:0:
329,192,59005,1,0,0:0:0:0:
182,192,59005,1,0,0:0:0:0:
36,192,59005,1,0,0:0:0:0:
475,192,59074,1,0,0:0:0:0:
402,192,59142,1,0,0:0:0:0:
256,192,59142,1,0,0:0:0:0:
109,192,59142,1,0,0:0:0:0:
36,192,59210,1,0,0:0:0:0:
182,192,59278,1,0,0:0:0:0:
329,192,59278,1,0,0:0:0:0:
475,192,59278,1,0,0:0:0:0:
109,192,59346,1,0,0:0:0:0:
36,192,59414,1,0,0:0:0:0:
256,192,59414,1,0,0:0:0:0:
402,192,59414,1,0,0:0:0:0:
475,192,59483,1,0,0:0:0:0:
329,192,59551,1,0,0:0:0:0:
182,192,59551,1,0,0:0:0:0:
36,192,59551,1,0,0:0:0:0:
402,192,59619,1,0,0:0:0:0:
475,192,59687,1,0,0:0:0:0:
256,192,59687,1,0,0:0:0:0:
109,192,59687,1,0,0:0:0:0:
182,192,59755,1,0,0:0:0:0:
329,192,59824,1,0,0:0:0:0:
36,192,59824,1,0,0:0:0:0:
402,192,59824,1,0,0:0:0:0:
256,192,59892,1,0,0:0:0:0:
182,192,59960,1,0,0:0:0:0:
109,192,59960,1,0,0:0:0:0:
475,192,59960,1,0,0:0:0:0:
402,192,60028,1,0,0:0:0:0:
329,192,60096,1,0,0:0:0:0:
256,192,60096,1,0,0:0:0:0:
36,192,60096,1,0,0:0:0:0:
109,192,60164,1,0,0:0:0:0:
402,192,60164,1,0,0:0:0:0:
475,192,60233,1,0,0:0:0:0:
182,192,60233,1,0,0:0:0:0:
256,192,60233,1,0,0:0:0:0:
109,192,60301,1,0,0:0:0:0:
36,192,60369,1,0,0:0:0:0:
329,192,60369,1,0,0:0:0:0:
402,192,60369,1,0,0:0:0:0:
256,192,60437,1,0,0:0:0:0:
182,192,60505,1,0,0:0:0:0:
475,192,60505,1,0,0:0:0:0:
109,192,60505,1,0,0:0:0:0:
402,192,60574,1,0,0:0:0:0:
329,192,60642,1,0,0:0:0:0:
36,192,60642,1,0,0:0:0:0:
256,192,60642,1,0,0:0:0:0:
475,192,60710,1,0,0:0:0:0:
402,192,60778,1,0,0:0:0:0:
182,192,60778,1,0,0:0:0:0:
109,192,60778,1,0,0:0:0:0:
256,192,60846,1,0,0:0:0:0:
329,192,60914,1,0,0:0:0:0:
475,192,60914,1,0,0:0:0:0:
36,192,60914,1,0,0:0:0:0:
109,192,60983,1,0,0:0:0:0:
182,192,61051,1,0,0:0:0:0:
402,192,61051,1,0,0:0:0:0:
475,192,61051,1,0,0:0:0:0:
329,192,61119,1,0,0:0:0:0:
256,192,61187,1,0,0:0:0:0:
36,192,61187,1,0,0:0:0:0:
109,192,61187,1,0,0:0:0:0:
402,192,61255,1,0,0:0:0:0:
36,192,61324,128,0,61869:0:0:0:0:
475,192,61324,128,0,61869:0:0:0:0:
182,192,61324,1,0,0:0:0:0:
329,192,61324,1,0,0:0:0:0:
256,192,61324,1,0,0:0:0:0:
182,192,61460,1,0,0:0:0:0:
109,192,61460,1,0,0:0:0:0:
256,192,61596,1,0,0:0:0:0:
182,192,61596,1,0,0:0:0:0:
256,192,61733,1,0,0:0:0:0:
329,192,61733,1,0,0:0:0:0:
109,192,61869,1,0,0:0:0:0:
182,192,61869,1,0,0:0:0:0:
402,192,61869,1,0,0:0:0:0:
256,192,61869,1,0,0:0:0:0:
329,192,61869,1,0,0:0:0:0:
36,192,62005,1,0,0:0:0:0:
475,192,62005,1,0,0:0:0:0:
402,192,62039,1,0,0:0:0:0:
329,192,62074,1,0,0:0:0:0:
256,192,62108,1,0,0:0:0:0:
182,192,62142,1,0,0:0:0:0:
109,192,62176,1,0,0:0:0:0:
36,192,62210,1,0,0:0:0:0:
475,192,62244,1,0,0:0:0:0:
402,192,62278,1,0,0:0:0:0:
329,192,62312,1,0,0:0:0:0:
256,192,62346,1,0,0:0:0:0:
182,192,62380,1,0,0:0:0:0:
109,192,62414,1,0,0:0:0:0:
36,192,62414,1,0,0:0:0:0:
475,192,62414,1,0,0:0:0:0:
402,192,62414,128,0,62483:0:0:0:0:
329,192,62483,1,0,0:0:0:0:
475,192,62551,128,0,62619:0:0:0:0:
109,192,62551,1,0,0:0:0:0:
256,192,62619,1,0,0:0:0:0:
109,192,62687,1,0,0:0:0:0:
329,192,62755,128,0,62824:0:0:0:0:
182,192,62755,1,0,0:0:0:0:
36,192,62824,1,0,0:0:0:0:
182,192,62892,1,0,0:0:0:0:
475,192,62960,128,0,63028:0:0:0:0:
109,192,62960,1,0,0:0:0:0:
329,192,63028,1,0,0:0:0:0:
182,192,63096,1,0,0:0:0:0:
402,192,63164,128,0,63233:0:0:0:0:
256,192,63164,1,0,0:0:0:0:
109,192,63233,1,0,0:0:0:0:
475,192,63233,1,0,0:0:0:0:
182,192,63301,1,0,0:0:0:0:
329,192,63369,128,0,63437:0:0:0:0:
36,192,63369,1,0,0:0:0:0:
475,192,63437,1,0,0:0:0:0:
182,192,63505,128,0,63574:0:0:0:0:
402,192,63505,1,0,0:0:0:0:
36,192,63574,1,0,0:0:0:0:
329,192,63642,128,0,63710:0:0:0:0:
475,192,63642,1,0,0:0:0:0:
109,192,63710,1,0,0:0:0:0:
182,192,63778,1,0,0:0:0:0:
402,192,63778,1,0,0:0:0:0:
329,192,63846,128,0,63914:0:0:0:0:
475,192,63846,1,0,0:0:0:0:
36,192,63914,1,0,0:0:0:0:
182,192,63983,1,0,0:0:0:0:
109,192,64051,128,0,64119:0:0:0:0:
329,192,64051,1,0,0:0:0:0:
256,192,64051,1,0,0:0:0:0:
475,192,64119,1,0,0:0:0:0:
329,192,64187,1,0,0:0:0:0:
402,192,64187,1,0,0:0:0:0:
182,192,64255,128,0,64324:0:0:0:0:
36,192,64255,1,0,0:0:0:0:
475,192,64324,1,0,0:0:0:0:
329,192,64392,1,0,0:0:0:0:
256,192,64460,128,0,64528:0:0:0:0:
109,192,64460,1,0,0:0:0:0:
475,192,64460,1,0,0:0:0:0:
402,192,64528,1,0,0:0:0:0:
36,192,64596,128,0,64664:0:0:0:0:
182,192,64596,1,0,0:0:0:0:
329,192,64596,1,0,0:0:0:0:
475,192,64664,1,0,0:0:0:0:
329,192,64733,128,0,64801:0:0:0:0:
109,192,64733,1,0,0:0:0:0:
402,192,64801,1,0,0:0:0:0:
36,192,64869,1,0,0:0:0:0:
182,192,64869,1,0,0:0:0:0:
256,192,64937,128,0,65005:0:0:0:0:
475,192,64937,1,0,0:0:0:0:
109,192,65005,1,0,0:0:0:0:
182,192,65074,1,0,0:0:0:0:
402,192,65142,128,0,65210:0:0:0:0:
256,192,65142,1,0,0:0:0:0:
36,192,65210,1,0,0:0:0:0:
182,192,65278,1,0,0:0:0:0:
329,192,65346,128,0,65414:0:0:0:0:
475,192,65346,1,0,0:0:0:0:
36,192,65414,1,0,0:0:0:0:
109,192,65414,1,0,0:0:0:0:
402,192,65483,1,0,0:0:0:0:
182,192,65551,128,0,65619:0:0:0:0:
329,192,65551,1,0,0:0:0:0:
475,192,65619,1,0,0:0:0:0:
109,192,65687,128,0,65755:0:0:0:0:
256,192,65687,1,0,0:0:0:0:
329,192,65687,1,0,0:0:0:0:
402,192,65755,1,0,0:0:0:0:
329,192,65824,128,0,65892:0:0:0:0:
36,192,65824,1,0,0:0:0:0:
182,192,65892,1,0,0:0:0:0:
109,192,65960,1,0,0:0:0:0:
329,192,66028,128,0,66096:0:0:0:0:
36,192,66028,1,0,0:0:0:0:
475,192,66096,1,0,0:0:0:0:
256,192,66096,1,0,0:0:0:0:
402,192,66164,1,0,0:0:0:0:
182,192,66233,128,0,66301:0:0:0:0:
329,192,66233,1,0,0:0:0:0:
36,192,66301,1,0,0:0:0:0:
402,192,66369,1,0,0:0:0:0:
329,192,66437,128,0,66505:0:0:0:0:
109,192,66437,1,0,0:0:0:0:
475,192,66505,1,0,0:0:0:0:
182,192,66574,1,0,0:0:0:0:
402,192,66642,128,0,66710:0:0:0:0:
36,192,66642,1,0,0:0:0:0:
475,192,66642,1,0,0:0:0:0:
256,192,66710,1,0,0:0:0:0:
109,192,66778,1,0,0:0:0:0:
329,192,66778,1,0,0:0:0:0:
182,192,66778,128,0,66846:0:0:0:0:
402,192,66778,1,0,0:0:0:0:
475,192,66846,1,0,0:0:0:0:
402,192,66914,128,0,66983:0:0:0:0:
256,192,66914,1,0,0:0:0:0:
36,192,66983,1,0,0:0:0:0:
182,192,67051,1,0,0:0:0:0:
329,192,67119,128,0,67187:0:0:0:0:
475,192,67119,1,0,0:0:0:0:
36,192,67187,1,0,0:0:0:0:
182,192,67255,1,0,0:0:0:0:
475,192,67324,128,0,67392:0:0:0:0:
329,192,67324,1,0,0:0:0:0:
109,192,67392,1,0,0:0:0:0:
256,192,67460,1,0,0:0:0:0:
329,192,67528,128,0,67596:0:0:0:0:
402,192,67528,1,0,0:0:0:0:
109,192,67596,1,0,0:0:0:0:
36,192,67596,1,0,0:0:0:0:
256,192,67664,1,0,0:0:0:0:
182,192,67733,128,0,67801:0:0:0:0:
402,192,67733,1,0,0:0:0:0:
109,192,67801,1,0,0:0:0:0:
36,192,67869,128,0,67937:0:0:0:0:
256,192,67869,1,0,0:0:0:0:
402,192,67937,1,0,0:0:0:0:
329,192,68005,128,0,68074:0:0:0:0:
182,192,68005,1,0,0:0:0:0:
36,192,68074,1,0,0:0:0:0:
182,192,68142,1,0,0:0:0:0:
475,192,68142,1,0,0:0:0:0:
329,192,68210,128,0,68278:0:0:0:0:
36,192,68210,1,0,0:0:0:0:
182,192,68278,1,0,0:0:0:0:
475,192,68346,1,0,0:0:0:0:
109,192,68414,128,0,68483:0:0:0:0:
329,192,68414,1,0,0:0:0:0:
402,192,68414,1,0,0:0:0:0:
182,192,68483,1,0,0:0:0:0:
475,192,68551,1,0,0:0:0:0:
402,192,68551,1,0,0:0:0:0:
182,192,68619,128,0,68687:0:0:0:0:
329,192,68619,1,0,0:0:0:0:
36,192,68687,1,0,0:0:0:0:
475,192,68755,1,0,0:0:0:0:
329,192,68824,128,0,68892:0:0:0:0:
109,192,68824,1,0,0:0:0:0:
256,192,68824,1,0,0:0:0:0:
475,192,68892,1,0,0:0:0:0:
36,192,68960,128,0,69028:0:0:0:0:
182,192,68960,1,0,0:0:0:0:
256,192,68960,1,0,0:0:0:0:
329,192,69028,1,0,0:0:0:0:
402,192,69096,128,0,69164:0:0:0:0:
109,192,69096,1,0,0:0:0:0:
475,192,69164,1,0,0:0:0:0:
182,192,69233,1,0,0:0:0:0:
256,192,69233,1,0,0:0:0:0:
329,192,69301,128,0,69369:0:0:0:0:
36,192,69301,1,0,0:0:0:0:
109,192,69369,1,0,0:0:0:0:
402,192,69437,1,0,0:0:0:0:
475,192,69505,128,0,69574:0:0:0:0:
182,192,69505,1,0,0:0:0:0:
36,192,69574,1,0,0:0:0:0:
182,192,69642,1,0,0:0:0:0:
329,192,69710,128,0,69778:0:0:0:0:
402,192,69710,1,0,0:0:0:0:
109,192,69778,1,0,0:0:0:0:
36,192,69778,1,0,0:0:0:0:
475,192,69846,1,0,0:0:0:0:
182,192,69914,128,0,69983:0:0:0:0:
329,192,69914,1,0,0:0:0:0:
109,192,69983,1,0,0:0:0:0:
36,192,70051,128,0,70119:0:0:0:0:
402,192,70051,1,0,0:0:0:0:
475,192,70051,1,0,0:0:0:0:
256,192,70119,1,0,0:0:0:0:
329,192,70187,128,0,70255:0:0:0:0:
109,192,70187,1,0,0:0:0:0:
475,192,70255,1,0,0:0:0:0:
182,192,70324,1,0,0:0:0:0:
475,192,70392,128,0,70460:0:0:0:0:
36,192,70392,1,0,0:0:0:0:
329,192,70460,1,0,0:0:0:0:
256,192,70460,1,0,0:0:0:0:
109,192,70528,1,0,0:0:0:0:
329,192,70596,128,0,70664:0:0:0:0:
402,192,70596,1,0,0:0:0:0:
36,192,70664,1,0,0:0:0:0:
475,192,70733,1,0,0:0:0:0:
182,192,70801,128,0,70869:0:0:0:0:
329,192,70801,1,0,0:0:0:0:
36,192,70869,1,0,0:0:0:0:
475,192,70937,1,0,0:0:0:0:
109,192,71005,128,0,71074:0:0:0:0:
256,192,71005,1,0,0:0:0:0:
402,192,71005,1,0,0:0:0:0:
475,192,71074,1,0,0:0:0:0:
36,192,71142,128,0,71414:0:0:0:0:
182,192,71142,128,0,71210:0:0:0:0:
329,192,71142,1,0,0:0:0:0:
475,192,71278,128,0,71346:0:0:0:0:
256,192,71278,1,0,0:0:0:0:
329,192,71414,128,0,71687:0:0:0:0:
182,192,71414,1,0,0:0:0:0:
109,192,71483,128,0,71551:0:0:0:0:
256,192,71551,1,0,0:0:0:0:
475,192,71687,128,0,71960:0:0:0:0:
182,192,71687,128,0,71755:0:0:0:0:
36,192,71687,1,0,0:0:0:0:
329,192,71824,1,0,0:0:0:0:
36,192,71892,128,0,71960:0:0:0:0:
182,192,71960,128,0,72233:0:0:0:0:
256,192,71960,1,0,0:0:0:0:
402,192,72096,128,0,72164:0:0:0:0:
329,192,72096,1,0,0:0:0:0:
36,192,72233,128,0,72505:0:0:0:0:
256,192,72233,128,0,72301:0:0:0:0:
475,192,72233,1,0,0:0:0:0:
329,192,72369,128,0,72437:0:0:0:0:
109,192,72369,1,0,0:0:0:0:
475,192,72505,128,0,72778:0:0:0:0:
256,192,72505,1,0,0:0:0:0:
182,192,72574,128,0,72642:0:0:0:0:
329,192,72642,1,0,0:0:0:0:
402,192,72778,128,0,73051:0:0:0:0:
36,192,72778,128,0,72846:0:0:0:0:
109,192,72778,1,0,0:0:0:0:
182,192,72914,1,0,0:0:0:0:
109,192,72983,128,0,73051:0:0:0:0:
329,192,73051,128,0,73324:0:0:0:0:
475,192,73051,1,0,0:0:0:0:
182,192,73187,128,0,73255:0:0:0:0:
36,192,73187,1,0,0:0:0:0:
36,192,73324,128,0,73596:0:0:0:0:
475,192,73324,128,0,73392:0:0:0:0:
256,192,73324,1,0,0:0:0:0:
402,192,73460,128,0,73528:0:0:0:0:
109,192,73460,1,0,0:0:0:0:
182,192,73596,128,0,73869:0:0:0:0:
256,192,73596,1,0,0:0:0:0:
402,192,73664,128,0,73733:0:0:0:0:
109,192,73733,1,0,0:0:0:0:
329,192,73869,128,0,74142:0:0:0:0:
36,192,73869,128,0,73937:0:0:0:0:
475,192,73869,1,0,0:0:0:0:
256,192,74005,1,0,0:0:0:0:
182,192,74074,128,0,74142:0:0:0:0:
109,192,74142,128,0,74414:0:0:0:0:
475,192,74142,1,0,0:0:0:0:
402,192,74278,128,0,74346:0:0:0:0:
256,192,74278,1,0,0:0:0:0:
36,192,74414,128,0,74687:0:0:0:0:
329,192,74414,128,0,74483:0:0:0:0:
182,192,74414,1,0,0:0:0:0:
475,192,74551,128,0,74619:0:0:0:0:
256,192,74551,1,0,0:0:0:0:
402,192,74687,128,0,74960:0:0:0:0:
109,192,74687,1,0,0:0:0:0:
182,192,74755,128,0,74824:0:0:0:0:
329,192,74824,1,0,0:0:0:0:
256,192,74960,128,0,75233:0:0:0:0:
36,192,74960,128,0,75028:0:0:0:0:
475,192,74960,1,0,0:0:0:0:
109,192,75096,1,0,0:0:0:0:
402,192,75164,128,0,75233:0:0:0:0:
182,192,75233,128,0,75505:0:0:0:0:
36,192,75233,1,0,0:0:0:0:
475,192,75369,128,0,75437:0:0:0:0:
109,192,75369,1,0,0:0:0:0:
36,192,75505,128,0,75778:0:0:0:0:
329,192,75505,128,0,75574:0:0:0:0:
402,192,75505,1,0,0:0:0:0:
256,192,75505,1,0,0:0:0:0:
182,192,75642,128,0,75710:0:0:0:0:
475,192,75642,1,0,0:0:0:0:
329,192,75778,128,0,76051:0:0:0:0:
402,192,75778,1,0,0:0:0:0:
182,192,75846,128,0,75914:0:0:0:0:
36,192,75914,1,0,0:0:0:0:
475,192,76051,128,0,76324:0:0:0:0:
256,192,76051,128,0,76119:0:0:0:0:
109,192,76051,1,0,0:0:0:0:
402,192,76187,1,0,0:0:0:0:
36,192,76255,128,0,76324:0:0:0:0:
182,192,76324,128,0,76596:0:0:0:0:
329,192,76324,1,0,0:0:0:0:
402,192,76460,128,0,76528:0:0:0:0:
256,192,76460,1,0,0:0:0:0:
36,192,76596,128,0,76869:0:0:0:0:
329,192,76596,128,0,76664:0:0:0:0:
109,192,76596,1,0,0:0:0:0:
402,192,76733,128,0,76801:0:0:0:0:
182,192,76733,1,0,0:0:0:0:
475,192,76869,128,0,77142:0:0:0:0:
256,192,76869,1,0,0:0:0:0:
109,192,76937,128,0,77005:0:0:0:0:
329,192,77005,1,0,0:0:0:0:
402,192,77142,128,0,77414:0:0:0:0:
36,192,77142,128,0,77210:0:0:0:0:
256,192,77142,1,0,0:0:0:0:
182,192,77278,1,0,0:0:0:0:
109,192,77346,128,0,77414:0:0:0:0:
329,192,77414,128,0,77687:0:0:0:0:
36,192,77414,1,0,0:0:0:0:
182,192,77551,128,0,77619:0:0:0:0:
109,192,77551,1,0,0:0:0:0:
36,192,77687,128,0,77960:0:0:0:0:
402,192,77687,128,0,77755:0:0:0:0:
256,192,77687,1,0,0:0:0:0:
475,192,77824,128,0,77892:0:0:0:0:
329,192,77824,1,0,0:0:0:0:
182,192,77960,128,0,78233:0:0:0:0:
402,192,77960,1,0,0:0:0:0:
329,192,78028,128,0,78096:0:0:0:0:
109,192,78096,1,0,0:0:0:0:
402,192,78233,128,0,78505:0:0:0:0:
36,192,78233,128,0,78301:0:0:0:0:
256,192,78233,1,0,0:0:0:0:
329,192,78369,1,0,0:0:0:0:
182,192,78437,128,0,78505:0:0:0:0:
109,192,78505,128,0,78778:0:0:0:0:
256,192,78505,1,0,0:0:0:0:
475,192,78642,128,0,78710:0:0:0:0:
329,192,78642,1,0,0:0:0:0:
36,192,78778,128,0,79051:0:0:0:0:
256,192,78778,1,0,0:0:0:0:
475,192,79051,128,0,79596:0:0:0:0:
402,192,79051,128,0,79324:0:0:0:0:
256,192,79324,128,0,79596:0:0:0:0:
109,192,79596,128,0,79869:0:0:0:0:
36,192,79869,1,0,0:0:0:0:
329,192,79869,1,0,0:0:0:0:
475,192,79869,1,0,0:0:0:0:
402,192,79869,1,0,0:0:0:0:
182,192,79869,1,0,0:0:0:0:
109,192,80005,1,0,0:0:0:0:
256,192,80005,1,0,0:0:0:0:
182,192,80142,1,0,0:0:0:0:
329,192,80142,1,0,0:0:0:0:
402,192,80142,1,0,0:0:0:0:
475,192,80142,1,0,0:0:0:0:
36,192,80142,1,0,0:0:0:0:
182,192,80278,1,0,0:0:0:0:
329,192,80278,1,0,0:0:0:0:
109,192,80414,1,0,0:0:0:0:
256,192,80414,1,0,0:0:0:0:
36,192,80414,1,0,0:0:0:0:
402,192,80414,1,0,0:0:0:0:
475,192,80414,1,0,0:0:0:0:
182,192,80551,1,0,0:0:0:0:
329,192,80551,1,0,0:0:0:0:
256,192,80687,1,0,0:0:0:0:
329,192,80687,1,0,0:0:0:0:
475,192,80687,1,0,0:0:0:0:
109,192,80687,1,0,0:0:0:0:
36,192,80687,1,0,0:0:0:0:
402,192,80824,1,0,0:0:0:0:
182,192,80824,1,0,0:0:0:0:
36,192,80960,1,0,0:0:0:0:
182,192,80960,1,0,0:0:0:0:
256,192,80960,1,0,0:0:0:0:
402,192,80960,1,0,0:0:0:0:
475,192,80960,1,0,0:0:0:0:
329,192,81096,1,0,0:0:0:0:
109,192,81096,1,0,0:0:0:0:
36,192,81233,1,0,0:0:0:0:
402,192,81233,1,0,0:0:0:0:
475,192,81233,1,0,0:0:0:0:
182,192,81233,1,0,0:0:0:0:
329,192,81233,1,0,0:0:0:0:
109,192,81369,1,0,0:0:0:0:
256,192,81369,1,0,0:0:0:0:
329,192,81505,1,0,0:0:0:0:
402,192,81505,1,0,0:0:0:0:
475,192,81505,1,0,0:0:0:0:
182,192,81505,1,0,0:0:0:0:
36,192,81505,1,0,0:0:0:0:
329,192,81642,1,0,0:0:0:0:
109,192,81642,1,0,0:0:0:0:
36,192,81778,1,0,0:0:0:0:
182,192,81778,1,0,0:0:0:0:
402,192,81778,1,0,0:0:0:0:
475,192,81778,1,0,0:0:0:0:
256,192,81778,1,0,0:0:0:0:
182,192,81914,1,0,0:0:0:0:
329,192,81914,1,0,0:0:0:0:
36,192,82051,1,0,0:0:0:0:
109,192,82051,1,0,0:0:0:0:
402,192,82051,1,0,0:0:0:0:
475,192,82051,1,0,0:0:0:0:
256,192,82051,1,0,0:0:0:0:
329,192,82187,1,0,0:0:0:0:
182,192,82187,1,0,0:0:0:0:
256,192,82324,1,0,0:0:0:0:
475,192,82324,1,0,0:0:0:0:
402,192,82324,1,0,0:0:0:0:
36,192,82324,1,0,0:0:0:0:
109,192,82324,1,0,0:0:0:0:
182,192,82460,1,0,0:0:0:0:
329,192,82460,1,0,0:0:0:0:
329,192,82596,1,0,0:0:0:0:
109,192,82596,1,0,0:0:0:0:
36,192,82596,1,0,0:0:0:0:
182,192,82596,1,0,0:0:0:0:
475,192,82596,1,0,0:0:0:0:
402,192,82733,1,0,0:0:0:0:
256,192,82733,1,0,0:0:0:0:
475,192,82869,1,0,0:0:0:0:
402,192,82869,1,0,0:0:0:0:
36,192,82869,1,0,0:0:0:0:
182,192,82869,1,0,0:0:0:0:
256,192,82869,1,0,0:0:0:0:
329,192,83005,1,0,0:0:0:0:
182,192,83005,1,0,0:0:0:0:
109,192,83142,1,0,0:0:0:0:
256,192,83142,1,0,0:0:0:0:
329,192,83142,1,0,0:0:0:0:
475,192,83142,1,0,0:0:0:0:
36,192,83142,1,0,0:0:0:0:
182,192,83278,1,0,0:0:0:0:
109,192,83278,1,0,0:0:0:0:
256,192,83414,1,0,0:0:0:0:
182,192,83414,1,0,0:0:0:0:
36,192,83414,1,0,0:0:0:0:
475,192,83414,1,0,0:0:0:0:
402,192,83414,1,0,0:0:0:0:
109,192,83551,1,0,0:0:0:0:
329,192,83551,1,0,0:0:0:0:
36,192,83687,1,0,0:0:0:0:
402,192,83687,1,0,0:0:0:0:
182,192,83687,1,0,0:0:0:0:
475,192,83687,1,0,0:0:0:0:
256,192,83687,1,0,0:0:0:0:
182,192,83824,1,0,0:0:0:0:
329,192,83824,1,0,0:0:0:0:
475,192,83960,1,0,0:0:0:0:
109,192,83960,1,0,0:0:0:0:
36,192,83960,1,0,0:0:0:0:
402,192,83960,1,0,0:0:0:0:
256,192,83960,1,0,0:0:0:0:
36,192,84096,1,0,0:0:0:0:
109,192,84096,1,0,0:0:0:0:
475,192,84096,1,0,0:0:0:0:
402,192,84096,1,0,0:0:0:0:
256,192,84096,1,0,0:0:0:0:
36,192,84233,1,0,0:0:0:0:
329,192,84233,1,0,0:0:0:0:
475,192,84233,1,0,0:0:0:0:
109,192,84233,1,0,0:0:0:0:
402,192,84233,1,0,0:0:0:0:
182,192,84233,1,0,0:0:0:0:
402,192,84369,1,0,0:0:0:0:
256,192,84369,1,0,0:0:0:0:
36,192,84505,1,0,0:0:0:0:
109,192,84505,1,0,0:0:0:0:
182,192,84505,1,0,0:0:0:0:
402,192,84505,1,0,0:0:0:0:
475,192,84505,1,0,0:0:0:0:
256,192,84642,1,0,0:0:0:0:
109,192,84642,1,0,0:0:0:0:
182,192,84778,1,0,0:0:0:0:
256,192,84778,1,0,0:0:0:0:
475,192,84778,1,0,0:0:0:0:
36,192,84778,1,0,0:0:0:0:
402,192,84778,1,0,0:0:0:0:
109,192,84914,1,0,0:0:0:0:
329,192,84914,1,0,0:0:0:0:
36,192,85051,1,0,0:0:0:0:
109,192,85051,1,0,0:0:0:0:
475,192,85051,1,0,0:0:0:0:
182,192,85051,1,0,0:0:0:0:
329,192,85051,1,0,0:0:0:0:
256,192,85187,1,0,0:0:0:0:
402,192,85187,1,0,0:0:0:0:
256,192,85324,1,0,0:0:0:0:
109,192,85324,1,0,0:0:0:0:
402,192,85324,1,0,0:0:0:0:
475,192,85324,1,0,0:0:0:0:
36,192,85324,1,0,0:0:0:0:
182,192,85460,1,0,0:0:0:0:
329,192,85460,1,0,0:0:0:0:
256,192,85596,1,0,0:0:0:0:
182,192,85596,1,0,0:0:0:0:
36,192,85596,1,0,0:0:0:0:
402,192,85596,1,0,0:0:0:0:
475,192,85596,1,0,0:0:0:0:
109,192,85733,1,0,0:0:0:0:
402,192,85733,1,0,0:0:0:0:
109,192,85869,1,0,0:0:0:0:
36,192,85869,1,0,0:0:0:0:
329,192,85869,1,0,0:0:0:0:
475,192,85869,1,0,0:0:0:0:
182,192,85869,1,0,0:0:0:0:
256,192,86005,1,0,0:0:0:0:
402,192,86005,1,0,0:0:0:0:
256,192,86142,1,0,0:0:0:0:
475,192,86142,1,0,0:0:0:0:
402,192,86142,1,0,0:0:0:0:
36,192,86142,1,0,0:0:0:0:
182,192,86142,1,0,0:0:0:0:
109,192,86278,1,0,0:0:0:0:
329,192,86278,1,0,0:0:0:0:
182,192,86278,1,0,0:0:0:0:
109,192,86414,1,0,0:0:0:0:
475,192,86414,1,0,0:0:0:0:
329,192,86414,1,0,0:0:0:0:
256,192,86414,1,0,0:0:0:0:
36,192,86414,1,0,0:0:0:0:
182,192,86551,1,0,0:0:0:0:
402,192,86551,1,0,0:0:0:0:
182,192,86687,1,0,0:0:0:0:
256,192,86687,1,0,0:0:0:0:
475,192,86687,1,0,0:0:0:0:
36,192,86687,1,0,0:0:0:0:
329,192,86687,1,0,0:0:0:0:
109,192,86824,1,0,0:0:0:0:
329,192,86824,1,0,0:0:0:0:
36,192,86960,1,0,0:0:0:0:
256,192,86960,1,0,0:0:0:0:
182,192,86960,1,0,0:0:0:0:
402,192,86960,1,0,0:0:0:0:
475,192,86960,1,0,0:0:0:0:
109,192,87096,1,0,0:0:0:0:
329,192,87096,1,0,0:0:0:0:
475,192,87233,1,0,0:0:0:0:
329,192,87233,1,0,0:0:0:0:
36,192,87233,1,0,0:0:0:0:
402,192,87233,1,0,0:0:0:0:
182,192,87233,1,0,0:0:0:0:
256,192,87369,1,0,0:0:0:0:
109,192,87369,1,0,0:0:0:0:
182,192,87505,1,0,0:0:0:0:
329,192,87505,1,0,0:0:0:0:
402,192,87505,1,0,0:0:0:0:
475,192,87505,1,0,0:0:0:0:
36,192,87505,1,0,0:0:0:0:
329,192,87642,1,0,0:0:0:0:
402,192,87642,1,0,0:0:0:0:
475,192,87642,1,0,0:0:0:0:
109,192,87642,1,0,0:0:0:0:
36,192,87778,1,0,0:0:0:0:
182,192,87778,1,0,0:0:0:0:
329,192,87778,1,0,0:0:0:0:
402,192,87778,1,0,0:0:0:0:
475,192,87778,1,0,0:0:0:0:
109,192,87914,1,0,0:0:0:0:
256,192,87914,1,0,0:0:0:0:
36,192,88051,1,0,0:0:0:0:
182,192,88051,1,0,0:0:0:0:
329,192,88051,1,0,0:0:0:0:
475,192,88051,1,0,0:0:0:0:
256,192,88051,1,0,0:0:0:0:
36,192,88187,1,0,0:0:0:0:
109,192,88187,1,0,0:0:0:0:
402,192,88187,1,0,0:0:0:0:
475,192,88187,1,0,0:0:0:0:
182,192,88255,1,0,0:0:0:0:
256,192,88255,1,0,0:0:0:0:
329,192,88255,1,0,0:0:0:0:
109,192,88324,1,0,0:0:0:0:
36,192,88324,1,0,0:0:0:0:
402,192,88324,1,0,0:0:0:0:
475,192,88324,1,0,0:0:0:0:
182,192,88460,1,0,0:0:0:0:
329,192,88460,1,0,0:0:0:0:
256,192,88460,1,0,0:0:0:0:
36,192,88596,1,0,0:0:0:0:
109,192,88596,1,0,0:0:0:0:
182,192,88596,1,0,0:0:0:0:
402,192,88596,1,0,0:0:0:0:
475,192,88596,1,0,0:0:0:0:
329,192,88596,128,0,88733:0:0:0:0:
109,192,88733,1,0,0:0:0:0:
256,192,88733,1,0,0:0:0:0:
36,192,88869,1,0,0:0:0:0:
256,192,88869,1,0,0:0:0:0:
475,192,88869,1,0,0:0:0:0:
402,192,88869,1,0,0:0:0:0:
109,192,88869,128,0,89005:0:0:0:0:
182,192,89005,1,0,0:0:0:0:
329,192,89005,1,0,0:0:0:0:
182,192,89142,1,0,0:0:0:0:
36,192,89142,1,0,0:0:0:0:
256,192,89142,1,0,0:0:0:0:
402,192,89142,1,0,0:0:0:0:
475,192,89142,128,0,89278:0:0:0:0:
109,192,89278,1,0,0:0:0:0:
256,192,89278,1,0,0:0:0:0:
182,192,89414,1,0,0:0:0:0:
36,192,89414,1,0,0:0:0:0:
329,192,89414,1,0,0:0:0:0:
475,192,89414,1,0,0:0:0:0:
402,192,89414,128,0,89551:0:0:0:0:
256,192,89551,1,0,0:0:0:0:
182,192,89551,1,0,0:0:0:0:
36,192,89687,1,0,0:0:0:0:
256,192,89687,1,0,0:0:0:0:
402,192,89687,1,0,0:0:0:0:
475,192,89687,1,0,0:0:0:0:
109,192,89687,128,0,89824:0:0:0:0:
182,192,89824,1,0,0:0:0:0:
329,192,89824,1,0,0:0:0:0:
36,192,89960,1,0,0:0:0:0:
402,192,89960,1,0,0:0:0:0:
256,192,89960,1,0,0:0:0:0:
109,192,89960,1,0,0:0:0:0:
475,192,89960,128,0,90096:0:0:0:0:
329,192,90096,1,0,0:0:0:0:
182,192,90096,1,0,0:0:0:0:
109,192,90233,1,0,0:0:0:0:
475,192,90233,1,0,0:0:0:0:
36,192,90233,1,0,0:0:0:0:
256,192,90233,1,0,0:0:0:0:
402,192,90233,128,0,90369:0:0:0:0:
256,192,90369,1,0,0:0:0:0:
182,192,90369,1,0,0:0:0:0:
109,192,90505,1,0,0:0:0:0:
36,192,90505,1,0,0:0:0:0:
475,192,90505,1,0,0:0:0:0:
402,192,90505,1,0,0:0:0:0:
329,192,90505,128,0,90642:0:0:0:0:
182,192,90642,1,0,0:0:0:0:
256,192,90642,1,0,0:0:0:0:
182,192,90778,1,0,0:0:0:0:
402,192,90778,1,0,0:0:0:0:
475,192,90778,1,0,0:0:0:0:
109,192,90778,1,0,0:0:0:0:
36,192,90778,128,0,90914:0:0:0:0:
256,192,90914,1,0,0:0:0:0:
329,192,90914,1,0,0:0:0:0:
475,192,91051,1,0,0:0:0:0:
109,192,91051,1,0,0:0:0:0:
36,192,91051,1,0,0:0:0:0:
256,192,91051,1,0,0:0:0:0:
182,192,91051,128,0,91187:0:0:0:0:
329,192,91187,1,0,0:0:0:0:
402,192,91187,1,0,0:0:0:0:
109,192,91324,1,0,0:0:0:0:
36,192,91324,1,0,0:0:0:0:
402,192,91324,1,0,0:0:0:0:
182,192,91324,1,0,0:0:0:0:
475,192,91324,128,0,91460:0:0:0:0:
256,192,91460,1,0,0:0:0:0:
329,192,91460,1,0,0:0:0:0:
475,192,91596,1,0,0:0:0:0:
182,192,91596,1,0,0:0:0:0:
36,192,91596,1,0,0:0:0:0:
329,192,91596,1,0,0:0:0:0:
402,192,91596,128,0,91733:0:0:0:0:
109,192,91733,1,0,0:0:0:0:
256,192,91733,1,0,0:0:0:0:
182,192,91869,1,0,0:0:0:0:
475,192,91869,1,0,0:0:0:0:
329,192,91869,1,0,0:0:0:0:
109,192,91869,1,0,0:0:0:0:
36,192,91869,128,0,92005:0:0:0:0:
256,192,92005,1,0,0:0:0:0:
182,192,92005,1,0,0:0:0:0:
36,192,92142,1,0,0:0:0:0:
329,192,92142,1,0,0:0:0:0:
475,192,92142,1,0,0:0:0:0:
109,192,92142,1,0,0:0:0:0:
402,192,92142,128,0,92278:0:0:0:0:
256,192,92278,1,0,0:0:0:0:
182,192,92278,1,0,0:0:0:0:
36,192,92414,1,0,0:0:0:0:
182,192,92414,1,0,0:0:0:0:
475,192,92414,1,0,0:0:0:0:
256,192,92414,1,0,0:0:0:0:
329,192,92414,128,0,92551:0:0:0:0:
109,192,92551,1,0,0:0:0:0:
402,192,92551,1,0,0:0:0:0:
329,192,92687,1,0,0:0:0:0:
182,192,92687,1,0,0:0:0:0:
36,192,92687,1,0,0:0:0:0:
256,192,92687,1,0,0:0:0:0:
475,192,92687,1,0,0:0:0:0:
36,192,92824,1,0,0:0:0:0:
182,192,92824,1,0,0:0:0:0:
329,192,92824,1,0,0:0:0:0:
256,192,92824,1,0,0:0:0:0:
475,192,92824,1,0,0:0:0:0:
182,192,92960,1,0,0:0:0:0:
109,192,92960,1,0,0:0:0:0:
475,192,92960,1,0,0:0:0:0:
36,192,92960,1,0,0:0:0:0:
402,192,92960,1,0,0:0:0:0:
329,192,92960,1,0,0:0:0:0:
329,192,93096,1,0,0:0:0:0:
402,192,93096,1,0,0:0:0:0:
182,192,93096,1,0,0:0:0:0:
329,192,93233,1,0,0:0:0:0:
256,192,93233,1,0,0:0:0:0:
475,192,93233,1,0,0:0:0:0:
36,192,93233,1,0,0:0:0:0:
109,192,93233,1,0,0:0:0:0:
402,192,93369,1,0,0:0:0:0:
256,192,93369,1,0,0:0:0:0:
109,192,93369,1,0,0:0:0:0:
182,192,93505,1,0,0:0:0:0:
36,192,93505,1,0,0:0:0:0:
475,192,93505,1,0,0:0:0:0:
402,192,93505,1,0,0:0:0:0:
256,192,93505,1,0,0:0:0:0:
329,192,93642,1,0,0:0:0:0:
182,192,93642,1,0,0:0:0:0:
109,192,93642,1,0,0:0:0:0:
329,192,93778,1,0,0:0:0:0:
256,192,93778,1,0,0:0:0:0:
36,192,93778,1,0,0:0:0:0:
109,192,93778,1,0,0:0:0:0:
475,192,93778,1,0,0:0:0:0:
182,192,93914,1,0,0:0:0:0:
402,192,93914,1,0,0:0:0:0:
256,192,93914,1,0,0:0:0:0:
182,192,94051,1,0,0:0:0:0:
36,192,94051,1,0,0:0:0:0:
475,192,94051,1,0,0:0:0:0:
329,192,94051,1,0,0:0:0:0:
402,192,94051,1,0,0:0:0:0:
109,192,94187,1,0,0:0:0:0:
256,192,94187,1,0,0:0:0:0:
329,192,94187,1,0,0:0:0:0:
402,192,94324,1,0,0:0:0:0:
256,192,94324,1,0,0:0:0:0:
475,192,94324,1,0,0:0:0:0:
182,192,94324,1,0,0:0:0:0:
36,192,94324,1,0,0:0:0:0:
109,192,94460,1,0,0:0:0:0:
329,192,94460,1,0,0:0:0:0:
402,192,94460,1,0,0:0:0:0:
36,192,94596,1,0,0:0:0:0:
182,192,94596,1,0,0:0:0:0:
475,192,94596,1,0,0:0:0:0:
329,192,94596,1,0,0:0:0:0:
256,192,94596,1,0,0:0:0:0:
402,192,94733,1,0,0:0:0:0:
256,192,94733,1,0,0:0:0:0:
109,192,94733,1,0,0:0:0:0:
402,192,94869,1,0,0:0:0:0:
182,192,94869,1,0,0:0:0:0:
475,192,94869,1,0,0:0:0:0:
36,192,94869,1,0,0:0:0:0:
329,192,94869,1,0,0:0:0:0:
329,192,95005,1,0,0:0:0:0:
36,192,95005,1,0,0:0:0:0:
182,192,95005,1,0,0:0:0:0:
36,192,95142,1,0,0:0:0:0:
109,192,95142,1,0,0:0:0:0:
475,192,95142,1,0,0:0:0:0:
402,192,95142,1,0,0:0:0:0:
256,192,95142,1,0,0:0:0:0:
109,192,95278,1,0,0:0:0:0:
36,192,95278,1,0,0:0:0:0:
256,192,95278,1,0,0:0:0:0:
402,192,95278,1,0,0:0:0:0:
475,192,95278,1,0,0:0:0:0:
475,192,95414,1,0,0:0:0:0:
36,192,95414,1,0,0:0:0:0:
109,192,95414,1,0,0:0:0:0:
256,192,95414,1,0,0:0:0:0:
402,192,95414,1,0,0:0:0:0:
182,192,95551,1,0,0:0:0:0:
329,192,95551,1,0,0:0:0:0:
36,192,95687,1,0,0:0:0:0:
109,192,95687,1,0,0:0:0:0:
475,192,95687,1,0,0:0:0:0:
402,192,95687,1,0,0:0:0:0:
256,192,95687,1,0,0:0:0:0:
36,192,95892,1,0,0:0:0:0:
109,192,95892,1,0,0:0:0:0:
256,192,95892,1,0,0:0:0:0:
402,192,95892,1,0,0:0:0:0:
475,192,95892,1,0,0:0:0:0:
36,192,96096,1,0,0:0:0:0:
182,192,96096,1,0,0:0:0:0:
256,192,96096,1,0,0:0:0:0:
329,192,96096,1,0,0:0:0:0:
475,192,96096,1,0,0:0:0:0:
182,192,96233,1,0,0:0:0:0:
36,192,96233,1,0,0:0:0:0:
109,192,96233,1,0,0:0:0:0:
475,192,96233,1,0,0:0:0:0:
329,192,96233,1,0,0:0:0:0:
402,192,96233,1,0,0:0:0:0:
256,192,96369,128,0,96778:0:0:0:0:
109,192,96369,1,0,0:0:0:0:
402,192,96369,1,0,0:0:0:0:
36,192,96574,1,0,0:0:0:0:
475,192,96574,1,0,0:0:0:0:
36,192,96778,1,0,0:0:0:0:
475,192,96778,1,0,0:0:0:0:
109,192,96778,128,0,96983:0:0:0:0:
402,192,96778,128,0,96983:0:0:0:0:
182,192,96778,128,0,96983:0:0:0:0:
329,192,96778,128,0,96983:0:0:0:0:
36,192,97051,128,0,97255:0:0:0:0:
109,192,97051,128,0,97255:0:0:0:0:
402,192,97051,128,0,97255:0:0:0:0:
475,192,97051,128,0,97255:0:0:0:0:
182,192,97051,1,0,0:0:0:0:
329,192,97051,1,0,0:0:0:0:
36,192,97324,1,0,0:0:0:0:
109,192,97324,1,0,0:0:0:0:
182,192,97324,1,0,0:0:0:0:
329,192,97324,128,0,98346:0:0:0:0:
402,192,97324,128,0,97528:0:0:0:0:
475,192,97324,128,0,97801:0:0:0:0:
36,192,97460,1,0,0:0:0:0:
109,192,97460,1,0,0:0:0:0:
182,192,97460,1,0,0:0:0:0:
182,192,97596,1,0,0:0:0:0:
36,192,97596,1,0,0:0:0:0:
109,192,97596,1,0,0:0:0:0:
402,192,97596,128,0,98074:0:0:0:0:
36,192,97733,1,0,0:0:0:0:
109,192,97733,1,0,0:0:0:0:
182,192,97733,1,0,0:0:0:0:
182,192,97869,1,0,0:0:0:0:
36,192,97869,1,0,0:0:0:0:
109,192,97869,1,0,0:0:0:0:
475,192,97869,128,0,98619:0:0:0:0:
36,192,98005,1,0,0:0:0:0:
109,192,98005,1,0,0:0:0:0:
182,192,98005,1,0,0:0:0:0:
182,192,98142,1,0,0:0:0:0:
36,192,98142,1,0,0:0:0:0:
109,192,98142,1,0,0:0:0:0:
402,192,98142,128,0,98892:0:0:0:0:
36,192,98278,1,0,0:0:0:0:
109,192,98278,1,0,0:0:0:0:
182,192,98278,1,0,0:0:0:0:
182,192,98414,1,0,0:0:0:0:
36,192,98414,1,0,0:0:0:0:
109,192,98414,1,0,0:0:0:0:
329,192,98414,128,0,99164:0:0:0:0:
36,192,98551,1,0,0:0:0:0:
109,192,98551,1,0,0:0:0:0:
182,192,98551,1,0,0:0:0:0:
182,192,98687,1,0,0:0:0:0:
36,192,98687,1,0,0:0:0:0:
109,192,98687,1,0,0:0:0:0:
475,192,98687,128,0,99437:0:0:0:0:
36,192,98824,1,0,0:0:0:0:
109,192,98824,1,0,0:0:0:0:
182,192,98824,1,0,0:0:0:0:
182,192,98960,1,0,0:0:0:0:
36,192,98960,1,0,0:0:0:0:
109,192,98960,1,0,0:0:0:0:
402,192,98960,128,0,99437:0:0:0:0:
36,192,99096,1,0,0:0:0:0:
109,192,99096,1,0,0:0:0:0:
182,192,99096,1,0,0:0:0:0:
182,192,99233,1,0,0:0:0:0:
36,192,99233,1,0,0:0:0:0:
109,192,99233,1,0,0:0:0:0:
329,192,99233,128,0,99369:0:0:0:0:
36,192,99369,1,0,0:0:0:0:
109,192,99369,1,0,0:0:0:0:
182,192,99369,1,0,0:0:0:0:
256,192,99437,1,0,0:0:0:0:
329,192,99437,1,0,0:0:0:0:
182,192,99505,1,0,0:0:0:0:
109,192,99505,1,0,0:0:0:0:
36,192,99505,1,0,0:0:0:0:
475,192,99505,128,0,99778:0:0:0:0:
402,192,99505,1,0,0:0:0:0:
36,192,99642,1,0,0:0:0:0:
109,192,99642,1,0,0:0:0:0:
182,192,99642,1,0,0:0:0:0:
256,192,99642,1,0,0:0:0:0:
329,192,99710,1,0,0:0:0:0:
182,192,99778,1,0,0:0:0:0:
109,192,99778,1,0,0:0:0:0:
36,192,99778,1,0,0:0:0:0:
402,192,99778,128,0,100051:0:0:0:0:
256,192,99846,1,0,0:0:0:0:
36,192,99914,1,0,0:0:0:0:
109,192,99914,1,0,0:0:0:0:
182,192,99914,1,0,0:0:0:0:
329,192,99914,1,0,0:0:0:0:
109,192,100051,1,0,0:0:0:0:
36,192,100051,1,0,0:0:0:0:
182,192,100051,1,0,0:0:0:0:
329,192,100051,1,0,0:0:0:0:
475,192,100051,128,0,100324:0:0:0:0:
182,192,100187,1,0,0:0:0:0:
109,192,100187,1,0,0:0:0:0:
36,192,100187,1,0,0:0:0:0:
402,192,100187,1,0,0:0:0:0:
329,192,100255,1,0,0:0:0:0:
256,192,100255,1,0,0:0:0:0:
36,192,100324,1,0,0:0:0:0:
109,192,100324,1,0,0:0:0:0:
182,192,100324,1,0,0:0:0:0:
402,192,100324,128,0,100596:0:0:0:0:
256,192,100392,1,0,0:0:0:0:
36,192,100460,1,0,0:0:0:0:
109,192,100460,1,0,0:0:0:0:
182,192,100460,1,0,0:0:0:0:
329,192,100460,1,0,0:0:0:0:
182,192,100596,1,0,0:0:0:0:
109,192,100596,1,0,0:0:0:0:
36,192,100596,1,0,0:0:0:0:
329,192,100596,128,0,100869:0:0:0:0:
475,192,100596,1,0,0:0:0:0:
256,192,100596,1,0,0:0:0:0:
36,192,100733,1,0,0:0:0:0:
109,192,100733,1,0,0:0:0:0:
182,192,100733,1,0,0:0:0:0:
256,192,100733,1,0,0:0:0:0:
475,192,100869,128,0,101074:0:0:0:0:
36,192,100869,128,0,101074:0:0:0:0:
256,192,100869,1,0,0:0:0:0:
109,192,100869,1,0,0:0:0:0:
402,192,100869,1,0,0:0:0:0:
182,192,100937,128,0,101074:0:0:0:0:
329,192,101005,128,0,101074:0:0:0:0:
36,192,101142,1,0,0:0:0:0:
109,192,101142,1,0,0:0:0:0:
182,192,101142,1,0,0:0:0:0:
329,192,101142,1,0,0:0:0:0:
475,192,101142,128,0,101619:0:0:0:0:
256,192,101142,1,0,0:0:0:0:
402,192,101210,128,0,101619:0:0:0:0:
329,192,101278,128,0,101619:0:0:0:0:
36,192,101278,1,0,0:0:0:0:
109,192,101278,1,0,0:0:0:0:
182,192,101278,1,0,0:0:0:0:
256,192,101346,128,0,101619:0:0:0:0:
182,192,101414,128,0,101619:0:0:0:0:
36,192,101414,1,0,0:0:0:0:
109,192,101483,128,0,101619:0:0:0:0:
36,192,101551,128,0,101619:0:0:0:0:
329,192,101687,1,0,0:0:0:0:
402,192,101687,1,0,0:0:0:0:
475,192,101687,1,0,0:0:0:0:
36,192,101687,128,0,102710:0:0:0:0:
109,192,101687,128,0,101892:0:0:0:0:
182,192,101687,128,0,102164:0:0:0:0:
329,192,101824,1,0,0:0:0:0:
402,192,101824,1,0,0:0:0:0:
475,192,101824,1,0,0:0:0:0:
329,192,101960,1,0,0:0:0:0:
475,192,101960,1,0,0:0:0:0:
402,192,101960,1,0,0:0:0:0:
109,192,101960,128,0,102437:0:0:0:0:
475,192,102096,1,0,0:0:0:0:
402,192,102096,1,0,0:0:0:0:
329,192,102096,1,0,0:0:0:0:
329,192,102233,1,0,0:0:0:0:
475,192,102233,1,0,0:0:0:0:
402,192,102233,1,0,0:0:0:0:
182,192,102233,128,0,102983:0:0:0:0:
475,192,102369,1,0,0:0:0:0:
329,192,102369,1,0,0:0:0:0:
402,192,102369,1,0,0:0:0:0:
402,192,102505,1,0,0:0:0:0:
475,192,102505,1,0,0:0:0:0:
329,192,102505,1,0,0:0:0:0:
109,192,102505,128,0,103255:0:0:0:0:
402,192,102642,1,0,0:0:0:0:
475,192,102642,1,0,0:0:0:0:
329,192,102642,1,0,0:0:0:0:
402,192,102778,1,0,0:0:0:0:
475,192,102778,1,0,0:0:0:0:
329,192,102778,1,0,0:0:0:0:
36,192,102778,128,0,103528:0:0:0:0:
402,192,102914,1,0,0:0:0:0:
329,192,102914,1,0,0:0:0:0:
475,192,102914,1,0,0:0:0:0:
329,192,103051,1,0,0:0:0:0:
475,192,103051,1,0,0:0:0:0:
402,192,103051,1,0,0:0:0:0:
182,192,103051,128,0,103733:0:0:0:0:
329,192,103187,1,0,0:0:0:0:
475,192,103187,1,0,0:0:0:0:
402,192,103187,1,0,0:0:0:0:
329,192,103324,1,0,0:0:0:0:
475,192,103324,1,0,0:0:0:0:
402,192,103324,1,0,0:0:0:0:
109,192,103324,128,0,103664:0:0:0:0:
475,192,103460,1,0,0:0:0:0:
329,192,103460,1,0,0:0:0:0:
402,192,103460,1,0,0:0:0:0:
402,192,103596,1,0,0:0:0:0:
475,192,103596,1,0,0:0:0:0:
329,192,103596,1,0,0:0:0:0:
36,192,103596,128,0,103664:0:0:0:0:
402,192,103733,1,0,0:0:0:0:
475,192,103733,1,0,0:0:0:0:
329,192,103733,1,0,0:0:0:0:
109,192,103733,1,0,0:0:0:0:
36,192,103733,1,0,0:0:0:0:
182,192,103801,1,0,0:0:0:0:
256,192,103801,1,0,0:0:0:0:
402,192,103869,1,0,0:0:0:0:
475,192,103869,1,0,0:0:0:0:
329,192,103869,1,0,0:0:0:0:
109,192,103869,128,0,104142:0:0:0:0:
36,192,103869,1,0,0:0:0:0:
402,192,104005,1,0,0:0:0:0:
329,192,104005,1,0,0:0:0:0:
475,192,104005,1,0,0:0:0:0:
182,192,104005,1,0,0:0:0:0:
256,192,104074,1,0,0:0:0:0:
329,192,104142,1,0,0:0:0:0:
475,192,104142,1,0,0:0:0:0:
402,192,104142,1,0,0:0:0:0:
36,192,104142,128,0,104414:0:0:0:0:
182,192,104210,1,0,0:0:0:0:
329,192,104278,1,0,0:0:0:0:
475,192,104278,1,0,0:0:0:0:
402,192,104278,1,0,0:0:0:0:
256,192,104278,1,0,0:0:0:0:
329,192,104414,1,0,0:0:0:0:
475,192,104414,1,0,0:0:0:0:
402,192,104414,1,0,0:0:0:0:
256,192,104414,1,0,0:0:0:0:
109,192,104414,128,0,104687:0:0:0:0:
475,192,104551,1,0,0:0:0:0:
329,192,104551,1,0,0:0:0:0:
402,192,104551,1,0,0:0:0:0:
182,192,104551,1,0,0:0:0:0:
256,192,104619,1,0,0:0:0:0:
402,192,104687,1,0,0:0:0:0:
475,192,104687,1,0,0:0:0:0:
329,192,104687,1,0,0:0:0:0:
36,192,104687,128,0,104960:0:0:0:0:
182,192,104755,1,0,0:0:0:0:
402,192,104824,1,0,0:0:0:0:
475,192,104824,1,0,0:0:0:0:
329,192,104824,1,0,0:0:0:0:
256,192,104824,1,0,0:0:0:0:
329,192,104960,1,0,0:0:0:0:
402,192,104960,1,0,0:0:0:0:
475,192,104960,1,0,0:0:0:0:
256,192,104960,1,0,0:0:0:0:
109,192,104960,1,0,0:0:0:0:
475,192,105096,1,0,0:0:0:0:
256,192,105096,1,0,0:0:0:0:
36,192,105096,128,0,105437:0:0:0:0:
182,192,105164,1,0,0:0:0:0:
402,192,105164,1,0,0:0:0:0:
109,192,105233,128,0,105437:0:0:0:0:
182,192,105301,128,0,105437:0:0:0:0:
256,192,105369,128,0,105437:0:0:0:0:
329,192,105437,1,0,0:0:0:0:
36,192,105505,1,0,0:0:0:0:
109,192,105505,1,0,0:0:0:0:
182,192,105505,1,0,0:0:0:0:
256,192,105505,1,0,0:0:0:0:
402,192,105505,1,0,0:0:0:0:
475,192,105505,1,0,0:0:0:0:
329,192,105574,1,0,0:0:0:0:
182,192,105642,1,0,0:0:0:0:
402,192,105642,1,0,0:0:0:0:
475,192,105642,1,0,0:0:0:0:
36,192,105642,1,0,0:0:0:0:
109,192,105642,1,0,0:0:0:0:
256,192,105710,1,0,0:0:0:0:
329,192,105778,1,0,0:0:0:0:
402,192,105778,1,0,0:0:0:0:
182,192,105778,1,0,0:0:0:0:
109,192,105778,1,0,0:0:0:0:
36,192,105778,128,0,105983:0:0:0:0:
475,192,105778,128,0,105983:0:0:0:0:
256,192,105846,128,0,105983:0:0:0:0:
182,192,105914,128,0,105983:0:0:0:0:
329,192,105914,128,0,105983:0:0:0:0:
36,192,106051,1,0,0:0:0:0:
109,192,106051,1,0,0:0:0:0:
182,192,106051,1,0,0:0:0:0:
329,192,106051,1,0,0:0:0:0:
402,192,106051,1,0,0:0:0:0:
475,192,106051,1,0,0:0:0:0:
36,192,106187,1,0,0:0:0:0:
109,192,106187,1,0,0:0:0:0:
329,192,106187,1,0,0:0:0:0:
402,192,106187,1,0,0:0:0:0:
475,192,106187,1,0,0:0:0:0:
182,192,106187,1,0,0:0:0:0:
36,192,106324,1,0,0:0:0:0:
109,192,106324,1,0,0:0:0:0:
256,192,106324,1,0,0:0:0:0:
329,192,106324,1,0,0:0:0:0:
475,192,106324,1,0,0:0:0:0:
402,192,106324,1,0,0:0:0:0:
36,192,106460,1,0,0:0:0:0:
109,192,106460,1,0,0:0:0:0:
256,192,106460,1,0,0:0:0:0:
329,192,106460,1,0,0:0:0:0:
402,192,106460,1,0,0:0:0:0:
475,192,106460,1,0,0:0:0:0:
36,192,106596,1,0,0:0:0:0:
109,192,106596,1,0,0:0:0:0:
182,192,106596,1,0,0:0:0:0:
256,192,106596,1,0,0:0:0:0:
402,192,106596,1,0,0:0:0:0:
475,192,106596,1,0,0:0:0:0:
475,192,106733,1,0,0:0:0:0:
402,192,106733,1,0,0:0:0:0:
256,192,106733,1,0,0:0:0:0:
182,192,106733,1,0,0:0:0:0:
109,192,106733,1,0,0:0:0:0:
36,192,106733,1,0,0:0:0:0:
182,192,106869,1,0,0:0:0:0:
256,192,106869,1,0,0:0:0:0:
329,192,106869,1,0,0:0:0:0:
402,192,106869,1,0,0:0:0:0:
475,192,106869,1,0,0:0:0:0:
36,192,106869,1,0,0:0:0:0:
475,192,107005,1,0,0:0:0:0:
402,192,107005,1,0,0:0:0:0:
329,192,107005,1,0,0:0:0:0:
256,192,107005,1,0,0:0:0:0:
182,192,107005,1,0,0:0:0:0:
36,192,107005,1,0,0:0:0:0:
256,192,107142,1,0,0:0:0:0:
402,192,107142,1,0,0:0:0:0:
475,192,107142,1,0,0:0:0:0:
109,192,107142,1,0,0:0:0:0:
182,192,107142,1,0,0:0:0:0:
329,192,107142,1,0,0:0:0:0:
475,192,107278,1,0,0:0:0:0:
256,192,107278,1,0,0:0:0:0:
329,192,107278,1,0,0:0:0:0:
402,192,107278,1,0,0:0:0:0:
109,192,107278,1,0,0:0:0:0:
182,192,107278,1,0,0:0:0:0:
109,192,107414,1,0,0:0:0:0:
182,192,107414,1,0,0:0:0:0:
329,192,107414,1,0,0:0:0:0:
475,192,107414,1,0,0:0:0:0:
36,192,107414,1,0,0:0:0:0:
256,192,107414,1,0,0:0:0:0:
109,192,107551,1,0,0:0:0:0:
182,192,107551,1,0,0:0:0:0:
329,192,107551,1,0,0:0:0:0:
475,192,107551,1,0,0:0:0:0:
256,192,107551,1,0,0:0:0:0:
36,192,107551,1,0,0:0:0:0:
36,192,107687,1,0,0:0:0:0:
256,192,107687,1,0,0:0:0:0:
402,192,107687,1,0,0:0:0:0:
475,192,107687,1,0,0:0:0:0:
109,192,107687,1,0,0:0:0:0:
182,192,107687,1,0,0:0:0:0:
475,192,107824,1,0,0:0:0:0:
256,192,107824,1,0,0:0:0:0:
36,192,107824,1,0,0:0:0:0:
402,192,107824,1,0,0:0:0:0:
109,192,107824,1,0,0:0:0:0:
182,192,107824,1,0,0:0:0:0:
109,192,107960,1,0,0:0:0:0:
182,192,107960,1,0,0:0:0:0:
329,192,107960,1,0,0:0:0:0:
475,192,107960,1,0,0:0:0:0:
36,192,107960,1,0,0:0:0:0:
402,192,107960,1,0,0:0:0:0:
402,192,108096,1,0,0:0:0:0:
109,192,108096,1,0,0:0:0:0:
182,192,108096,1,0,0:0:0:0:
329,192,108096,1,0,0:0:0:0:
475,192,108096,1,0,0:0:0:0:
36,192,108096,1,0,0:0:0:0:
256,192,108164,1,0,0:0:0:0:
36,192,108233,1,0,0:0:0:0:
402,192,108233,1,0,0:0:0:0:
475,192,108233,1,0,0:0:0:0:
182,192,108233,1,0,0:0:0:0:
329,192,108233,1,0,0:0:0:0:
475,192,108369,1,0,0:0:0:0:
256,192,108369,1,0,0:0:0:0:
36,192,108369,1,0,0:0:0:0:
329,192,108369,1,0,0:0:0:0:
402,192,108369,1,0,0:0:0:0:
182,192,108369,1,0,0:0:0:0:
109,192,108505,1,0,0:0:0:0:
182,192,108505,1,0,0:0:0:0:
329,192,108505,1,0,0:0:0:0:
475,192,108505,1,0,0:0:0:0:
36,192,108505,1,0,0:0:0:0:
402,192,108505,1,0,0:0:0:0:
402,192,108642,1,0,0:0:0:0:
109,192,108642,1,0,0:0:0:0:
182,192,108642,1,0,0:0:0:0:
329,192,108642,1,0,0:0:0:0:
475,192,108642,1,0,0:0:0:0:
36,192,108642,1,0,0:0:0:0:
36,192,108778,1,0,0:0:0:0:
256,192,108778,1,0,0:0:0:0:
475,192,108778,1,0,0:0:0:0:
109,192,108778,1,0,0:0:0:0:
182,192,108778,1,0,0:0:0:0:
329,192,108778,1,0,0:0:0:0:
475,192,108914,1,0,0:0:0:0:
256,192,108914,1,0,0:0:0:0:
36,192,108914,1,0,0:0:0:0:
329,192,108914,1,0,0:0:0:0:
109,192,108914,1,0,0:0:0:0:
182,192,108914,1,0,0:0:0:0:
182,192,108983,1,0,0:0:0:0:
109,192,109051,1,0,0:0:0:0:
329,192,109051,1,0,0:0:0:0:
475,192,109051,1,0,0:0:0:0:
36,192,109051,1,0,0:0:0:0:
256,192,109051,1,0,0:0:0:0:
402,192,109051,1,0,0:0:0:0:
182,192,109119,1,0,0:0:0:0:
402,192,109187,1,0,0:0:0:0:
109,192,109187,1,0,0:0:0:0:
329,192,109187,1,0,0:0:0:0:
475,192,109187,1,0,0:0:0:0:
256,192,109187,1,0,0:0:0:0:
36,192,109187,1,0,0:0:0:0:
36,192,109324,128,0,109528:0:0:0:0:
109,192,109324,128,0,109528:0:0:0:0:
182,192,109324,128,0,109528:0:0:0:0:
329,192,109324,128,0,109528:0:0:0:0:
402,192,109324,128,0,109528:0:0:0:0:
475,192,109324,128,0,109528:0:0:0:0:
36,192,109596,128,0,109664:0:0:0:0:
109,192,109596,128,0,109664:0:0:0:0:
182,192,109596,128,0,109664:0:0:0:0:
329,192,109596,128,0,109664:0:0:0:0:
402,192,109596,128,0,109664:0:0:0:0:
475,192,109596,128,0,109664:0:0:0:0:
36,192,109733,128,0,109801:0:0:0:0:
109,192,109733,128,0,109801:0:0:0:0:
182,192,109733,128,0,109801:0:0:0:0:
402,192,109733,128,0,109801:0:0:0:0:
329,192,109733,128,0,109801:0:0:0:0:
475,192,109733,128,0,109801:0:0:0:0:
36,192,109869,128,0,110074:0:0:0:0:
109,192,109869,128,0,110074:0:0:0:0:
182,192,109869,128,0,110074:0:0:0:0:
329,192,109869,128,0,110074:0:0:0:0:
402,192,109869,128,0,110074:0:0:0:0:
475,192,109869,128,0,110074:0:0:0:0:
36,192,110142,128,0,110346:0:0:0:0:
109,192,110142,128,0,110346:0:0:0:0:
182,192,110142,128,0,110346:0:0:0:0:
329,192,110142,128,0,110346:0:0:0:0:
402,192,110142,128,0,110346:0:0:0:0:
475,192,110142,128,0,110346:0:0:0:0:
475,192,110414,1,0,0:0:0:0:
36,192,110414,128,0,110500:0:0:0:0:
109,192,110414,128,0,110483:0:0:0:0:
182,192,110414,128,0,110466:0:0:0:0:
329,192,110414,128,0,110449:0:0:0:0:
402,192,110414,128,0,110431:0:0:0:0:
36,192,110551,1,0,0:0:0:0:
109,192,110551,128,0,110568:0:0:0:0:
182,192,110551,128,0,110585:0:0:0:0:
329,192,110551,128,0,110602:0:0:0:0:
402,192,110551,128,0,110619:0:0:0:0:
475,192,110551,128,0,110636:0:0:0:0:
402,192,110687,1,0,0:0:0:0:
329,192,110687,128,0,110704:0:0:0:0:
256,192,110687,128,0,110721:0:0:0:0:
182,192,110687,128,0,110738:0:0:0:0:
109,192,110687,128,0,110755:0:0:0:0:
36,192,110687,128,0,110772:0:0:0:0:
182,192,110824,128,0,110858:0:0:0:0:
256,192,110824,128,0,110875:0:0:0:0:
329,192,110824,128,0,110892:0:0:0:0:
402,192,110824,128,0,110909:0:0:0:0:
109,192,110824,128,0,110841:0:0:0:0:
36,192,110824,1,0,0:0:0:0:
475,192,110960,1,0,0:0:0:0:
402,192,110960,128,0,110977:0:0:0:0:
329,192,110960,128,0,110994:0:0:0:0:
182,192,110960,128,0,111011:0:0:0:0:
109,192,110960,128,0,111028:0:0:0:0:
36,192,110960,128,0,111045:0:0:0:0:
36,192,111096,1,0,0:0:0:0:
109,192,111096,128,0,111113:0:0:0:0:
182,192,111096,128,0,111130:0:0:0:0:
329,192,111096,128,0,111147:0:0:0:0:
402,192,111096,128,0,111164:0:0:0:0:
475,192,111096,128,0,111181:0:0:0:0:
475,192,111233,1,0,0:0:0:0:
402,192,111233,128,0,111250:0:0:0:0:
329,192,111233,128,0,111267:0:0:0:0:
256,192,111233,128,0,111284:0:0:0:0:
182,192,111233,128,0,111301:0:0:0:0:
109,192,111233,128,0,111318:0:0:0:0:
109,192,111369,1,0,0:0:0:0:
182,192,111369,128,0,111386:0:0:0:0:
256,192,111369,128,0,111403:0:0:0:0:
329,192,111369,128,0,111420:0:0:0:0:
402,192,111369,128,0,111437:0:0:0:0:
475,192,111369,128,0,111454:0:0:0:0:
475,192,111505,1,0,0:0:0:0:
402,192,111505,128,0,111522:0:0:0:0:
329,192,111505,128,0,111539:0:0:0:0:
182,192,111505,128,0,111556:0:0:0:0:
109,192,111505,128,0,111574:0:0:0:0:
36,192,111505,128,0,111591:0:0:0:0:
36,192,111642,1,0,0:0:0:0:
109,192,111642,128,0,111659:0:0:0:0:
182,192,111642,128,0,111676:0:0:0:0:
329,192,111642,128,0,111693:0:0:0:0:
402,192,111642,128,0,111710:0:0:0:0:
475,192,111642,128,0,111727:0:0:0:0:
402,192,111778,1,0,0:0:0:0:
329,192,111778,128,0,111795:0:0:0:0:
256,192,111778,128,0,111812:0:0:0:0:
182,192,111778,128,0,111829:0:0:0:0:
109,192,111778,128,0,111846:0:0:0:0:
36,192,111778,128,0,111863:0:0:0:0:
36,192,111914,1,0,0:0:0:0:
109,192,111914,128,0,111931:0:0:0:0:
182,192,111914,128,0,111949:0:0:0:0:
256,192,111914,128,0,111966:0:0:0:0:
329,192,111914,128,0,111983:0:0:0:0:
402,192,111914,128,0,112000:0:0:0:0:
475,192,112051,1,0,0:0:0:0:
402,192,112051,128,0,112068:0:0:0:0:
329,192,112051,128,0,112085:0:0:0:0:
182,192,112051,128,0,112102:0:0:0:0:
109,192,112051,128,0,112119:0:0:0:0:
36,192,112051,128,0,112136:0:0:0:0:
36,192,112187,1,0,0:0:0:0:
109,192,112187,128,0,112204:0:0:0:0:
182,192,112187,128,0,112221:0:0:0:0:
329,192,112187,128,0,112238:0:0:0:0:
402,192,112187,128,0,112255:0:0:0:0:
475,192,112187,128,0,112272:0:0:0:0:
475,192,112324,1,0,0:0:0:0:
402,192,112324,128,0,112341:0:0:0:0:
329,192,112324,128,0,112358:0:0:0:0:
256,192,112324,128,0,112375:0:0:0:0:
182,192,112324,128,0,112392:0:0:0:0:
109,192,112324,128,0,112409:0:0:0:0:
109,192,112460,1,0,0:0:0:0:
182,192,112460,128,0,112477:0:0:0:0:
256,192,112460,128,0,112494:0:0:0:0:
329,192,112460,128,0,112511:0:0:0:0:
402,192,112460,128,0,112528:0:0:0:0:
475,192,112460,128,0,112545:0:0:0:0:
36,192,112528,1,0,0:0:0:0:
256,192,112596,1,0,0:0:0:0:
109,192,112596,1,0,0:0:0:0:
402,192,112596,1,0,0:0:0:0:
475,192,112596,1,0,0:0:0:0:
329,192,112664,1,0,0:0:0:0:
182,192,112664,1,0,0:0:0:0:
256,192,112733,1,0,0:0:0:0:
475,192,112733,1,0,0:0:0:0:
36,192,112733,1,0,0:0:0:0:
182,192,112801,1,0,0:0:0:0:
402,192,112801,1,0,0:0:0:0:
329,192,112869,1,0,0:0:0:0:
109,192,112869,1,0,0:0:0:0:
475,192,112869,1,0,0:0:0:0:
36,192,112937,1,0,0:0:0:0:
256,192,112937,1,0,0:0:0:0:
182,192,113005,1,0,0:0:0:0:
475,192,113005,1,0,0:0:0:0:
329,192,113005,1,0,0:0:0:0:
109,192,113074,1,0,0:0:0:0:
402,192,113074,1,0,0:0:0:0:
36,192,113142,1,0,0:0:0:0:
256,192,113142,1,0,0:0:0:0:
475,192,113142,1,0,0:0:0:0:
182,192,113210,1,0,0:0:0:0:
329,192,113210,1,0,0:0:0:0:
109,192,113278,1,0,0:0:0:0:
402,192,113278,1,0,0:0:0:0:
36,192,113278,1,0,0:0:0:0:
182,192,113346,1,0,0:0:0:0:
475,192,113346,1,0,0:0:0:0:
256,192,113414,1,0,0:0:0:0:
329,192,113414,1,0,0:0:0:0:
402,192,113414,1,0,0:0:0:0:
182,192,113483,1,0,0:0:0:0:
36,192,113483,1,0,0:0:0:0:
109,192,113551,1,0,0:0:0:0:
256,192,113551,1,0,0:0:0:0:
475,192,113551,1,0,0:0:0:0:
402,192,113619,1,0,0:0:0:0:
182,192,113619,1,0,0:0:0:0:
36,192,113687,1,0,0:0:0:0:
109,192,113687,1,0,0:0:0:0:
475,192,113687,1,0,0:0:0:0:
256,192,113687,1,0,0:0:0:0:
329,192,113721,1,0,0:0:0:0:
402,192,113755,1,0,0:0:0:0:
182,192,113789,1,0,0:0:0:0:
256,192,113824,1,0,0:0:0:0:
329,192,113858,1,0,0:0:0:0:
109,192,113892,1,0,0:0:0:0:
182,192,113926,1,0,0:0:0:0:
256,192,113960,1,0,0:0:0:0:
475,192,113960,1,0,0:0:0:0:
402,192,113994,1,0,0:0:0:0:
329,192,114028,1,0,0:0:0:0:
182,192,114062,1,0,0:0:0:0:
109,192,114096,1,0,0:0:0:0:
36,192,114130,1,0,0:0:0:0:
475,192,114164,1,0,0:0:0:0:
402,192,114199,1,0,0:0:0:0:
329,192,114233,1,0,0:0:0:0:
256,192,114233,1,0,0:0:0:0:
182,192,114233,1,0,0:0:0:0:
109,192,114233,1,0,0:0:0:0:
36,192,114233,1,0,0:0:0:0:
36,192,114369,1,0,0:0:0:0:
109,192,114369,1,0,0:0:0:0:
182,192,114403,1,0,0:0:0:0:
256,192,114403,1,0,0:0:0:0:
329,192,114437,1,0,0:0:0:0:
402,192,114437,1,0,0:0:0:0:
475,192,114471,1,0,0:0:0:0:
36,192,114471,1,0,0:0:0:0:
109,192,114505,1,0,0:0:0:0:
182,192,114505,1,0,0:0:0:0:
256,192,114539,1,0,0:0:0:0:
329,192,114539,1,0,0:0:0:0:
402,192,114574,1,0,0:0:0:0:
475,192,114574,1,0,0:0:0:0:
36,192,114608,1,0,0:0:0:0:
109,192,114608,1,0,0:0:0:0:
182,192,114642,1,0,0:0:0:0:
256,192,114642,1,0,0:0:0:0:
329,192,114676,1,0,0:0:0:0:
402,192,114676,1,0,0:0:0:0:
475,192,114710,1,0,0:0:0:0:
36,192,114710,1,0,0:0:0:0:
109,192,114744,1,0,0:0:0:0:
182,192,114744,1,0,0:0:0:0:
256,192,114778,1,0,0:0:0:0:
329,192,114778,1,0,0:0:0:0:
402,192,114778,1,0,0:0:0:0:
475,192,114778,1,0,0:0:0:0:
36,192,116960,1,0,0:0:0:0:
109,192,116960,1,0,0:0:0:0:
329,192,116960,1,0,0:0:0:0:
475,192,116960,1,0,0:0:0:0:
182,192,117233,1,0,0:0:0:0:
402,192,117233,1,0,0:0:0:0:
329,192,117505,1,0,0:0:0:0:
109,192,117505,1,0,0:0:0:0:
475,192,117505,1,0,0:0:0:0:
256,192,117505,1,0,0:0:0:0:
36,192,117778,1,0,0:0:0:0:
182,192,117778,1,0,0:0:0:0:
329,192,117960,1,0,0:0:0:0:
475,192,117960,1,0,0:0:0:0:
109,192,118051,1,0,0:0:0:0:
182,192,118051,1,0,0:0:0:0:
329,192,118233,1,0,0:0:0:0:
475,192,118233,1,0,0:0:0:0:
36,192,118324,1,0,0:0:0:0:
36,192,118505,1,0,0:0:0:0:
182,192,118596,1,0,0:0:0:0:
329,192,118596,1,0,0:0:0:0:
402,192,118596,1,0,0:0:0:0:
475,192,118596,1,0,0:0:0:0:
109,192,118869,1,0,0:0:0:0:
36,192,119142,1,0,0:0:0:0:
182,192,119142,1,0,0:0:0:0:
402,192,119142,1,0,0:0:0:0:
475,192,119142,1,0,0:0:0:0:
182,192,119414,1,0,0:0:0:0:
36,192,119414,1,0,0:0:0:0:
109,192,119596,1,0,0:0:0:0:
329,192,119687,1,0,0:0:0:0:
402,192,119687,1,0,0:0:0:0:
475,192,119687,1,0,0:0:0:0:
36,192,119687,1,0,0:0:0:0:
109,192,119960,1,0,0:0:0:0:
182,192,119960,1,0,0:0:0:0:
329,192,120142,1,0,0:0:0:0:
402,192,120142,1,0,0:0:0:0:
109,192,120233,1,0,0:0:0:0:
182,192,120233,1,0,0:0:0:0:
402,192,120414,1,0,0:0:0:0:
475,192,120414,1,0,0:0:0:0:
36,192,120505,1,0,0:0:0:0:
109,192,120687,1,0,0:0:0:0:
256,192,120778,1,0,0:0:0:0:
329,192,120778,1,0,0:0:0:0:
402,192,120778,1,0,0:0:0:0:
475,192,120778,1,0,0:0:0:0:
182,192,121051,1,0,0:0:0:0:
402,192,121051,1,0,0:0:0:0:
36,192,121324,1,0,0:0:0:0:
109,192,121324,1,0,0:0:0:0:
329,192,121324,1,0,0:0:0:0:
475,192,121324,1,0,0:0:0:0:
182,192,121596,1,0,0:0:0:0:
402,192,121596,1,0,0:0:0:0:
109,192,121869,1,0,0:0:0:0:
256,192,121869,1,0,0:0:0:0:
329,192,121869,1,0,0:0:0:0:
475,192,121869,1,0,0:0:0:0:
36,192,122142,1,0,0:0:0:0:
182,192,122142,1,0,0:0:0:0:
329,192,122324,1,0,0:0:0:0:
402,192,122324,1,0,0:0:0:0:
109,192,122414,1,0,0:0:0:0:
182,192,122414,1,0,0:0:0:0:
329,192,122596,1,0,0:0:0:0:
475,192,122596,1,0,0:0:0:0:
182,192,122687,1,0,0:0:0:0:
36,192,122687,1,0,0:0:0:0:
256,192,122869,1,0,0:0:0:0:
329,192,122960,1,0,0:0:0:0:
402,192,122960,1,0,0:0:0:0:
475,192,122960,1,0,0:0:0:0:
109,192,122960,1,0,0:0:0:0:
256,192,123233,1,0,0:0:0:0:
36,192,123233,1,0,0:0:0:0:
109,192,123505,1,0,0:0:0:0:
182,192,123505,1,0,0:0:0:0:
329,192,123505,1,0,0:0:0:0:
402,192,123505,1,0,0:0:0:0:
256,192,123778,1,0,0:0:0:0:
329,192,123960,1,0,0:0:0:0:
402,192,124051,1,0,0:0:0:0:
475,192,124051,1,0,0:0:0:0:
109,192,124051,1,0,0:0:0:0:
36,192,124051,1,0,0:0:0:0:
182,192,124324,1,0,0:0:0:0:
329,192,124324,1,0,0:0:0:0:
109,192,124505,1,0,0:0:0:0:
402,192,124505,1,0,0:0:0:0:
182,192,124596,1,0,0:0:0:0:
329,192,124596,1,0,0:0:0:0:
36,192,124778,1,0,0:0:0:0:
475,192,124778,1,0,0:0:0:0:
182,192,124869,1,0,0:0:0:0:
329,192,124869,1,0,0:0:0:0:
109,192,125051,1,0,0:0:0:0:
182,192,125142,1,0,0:0:0:0:
329,192,125142,1,0,0:0:0:0:
402,192,125142,1,0,0:0:0:0:
475,192,125142,1,0,0:0:0:0:
109,192,125414,1,0,0:0:0:0:
256,192,125414,1,0,0:0:0:0:
36,192,125687,1,0,0:0:0:0:
182,192,125687,1,0,0:0:0:0:
402,192,125687,1,0,0:0:0:0:
475,192,125687,1,0,0:0:0:0:
109,192,125960,1,0,0:0:0:0:
182,192,125960,1,0,0:0:0:0:
402,192,126233,1,0,0:0:0:0:
475,192,126233,1,0,0:0:0:0:
329,192,126233,1,0,0:0:0:0:
36,192,126233,1,0,0:0:0:0:
182,192,126505,1,0,0:0:0:0:
109,192,126505,1,0,0:0:0:0:
402,192,126687,1,0,0:0:0:0:
475,192,126687,1,0,0:0:0:0:
182,192,126778,1,0,0:0:0:0:
36,192,126778,1,0,0:0:0:0:
329,192,126960,1,0,0:0:0:0:
475,192,126960,1,0,0:0:0:0:
109,192,127051,1,0,0:0:0:0:
36,192,127051,1,0,0:0:0:0:
182,192,127233,1,0,0:0:0:0:
329,192,127324,1,0,0:0:0:0:
402,192,127324,1,0,0:0:0:0:
475,192,127324,1,0,0:0:0:0:
36,192,127324,1,0,0:0:0:0:
109,192,127596,1,0,0:0:0:0:
329,192,127596,1,0,0:0:0:0:
36,192,127869,1,0,0:0:0:0:
109,192,127869,1,0,0:0:0:0:
256,192,127869,1,0,0:0:0:0:
402,192,127869,1,0,0:0:0:0:
182,192,128142,1,0,0:0:0:0:
475,192,128142,1,0,0:0:0:0:
256,192,128324,1,0,0:0:0:0:
329,192,128414,1,0,0:0:0:0:
402,192,128414,1,0,0:0:0:0:
475,192,128414,1,0,0:0:0:0:
36,192,128414,1,0,0:0:0:0:
109,192,128687,1,0,0:0:0:0:
402,192,128687,1,0,0:0:0:0:
182,192,128869,1,0,0:0:0:0:
329,192,128869,1,0,0:0:0:0:
36,192,128960,1,0,0:0:0:0:
475,192,128960,1,0,0:0:0:0:
182,192,129142,1,0,0:0:0:0:
329,192,129142,1,0,0:0:0:0:
109,192,129233,1,0,0:0:0:0:
402,192,129233,1,0,0:0:0:0:
256,192,129414,1,0,0:0:0:0:
36,192,129505,1,0,0:0:0:0:
109,192,129505,1,0,0:0:0:0:
182,192,129505,1,0,0:0:0:0:
402,192,129505,1,0,0:0:0:0:
329,192,129778,1,0,0:0:0:0:
475,192,129778,1,0,0:0:0:0:
109,192,130051,1,0,0:0:0:0:
256,192,130051,1,0,0:0:0:0:
402,192,130051,1,0,0:0:0:0:
475,192,130051,1,0,0:0:0:0:
182,192,130324,1,0,0:0:0:0:
329,192,130324,1,0,0:0:0:0:
109,192,130596,1,0,0:0:0:0:
182,192,130596,1,0,0:0:0:0:
402,192,130596,1,0,0:0:0:0:
475,192,130596,1,0,0:0:0:0:
109,192,130869,1,0,0:0:0:0:
329,192,130869,1,0,0:0:0:0:
36,192,131051,1,0,0:0:0:0:
182,192,131051,1,0,0:0:0:0:
402,192,131142,1,0,0:0:0:0:
475,192,131142,1,0,0:0:0:0:
109,192,131324,1,0,0:0:0:0:
182,192,131324,1,0,0:0:0:0:
402,192,131414,1,0,0:0:0:0:
475,192,131414,1,0,0:0:0:0:
329,192,131596,1,0,0:0:0:0:
36,192,131687,1,0,0:0:0:0:
109,192,131687,1,0,0:0:0:0:
182,192,131687,1,0,0:0:0:0:
256,192,131687,128,0,133324:0:0:0:0:
475,192,131960,1,0,0:0:0:0:
402,192,131960,1,0,0:0:0:0:
36,192,132233,1,0,0:0:0:0:
182,192,132233,1,0,0:0:0:0:
329,192,132233,1,0,0:0:0:0:
475,192,132233,1,0,0:0:0:0:
109,192,132505,1,0,0:0:0:0:
329,192,132687,1,0,0:0:0:0:
402,192,132778,1,0,0:0:0:0:
475,192,132778,1,0,0:0:0:0:
36,192,132778,1,0,0:0:0:0:
109,192,133051,1,0,0:0:0:0:
182,192,133051,1,0,0:0:0:0:
329,192,133233,1,0,0:0:0:0:
402,192,133233,1,0,0:0:0:0:
36,192,133324,1,0,0:0:0:0:
109,192,133324,1,0,0:0:0:0:
182,192,133324,1,0,0:0:0:0:
475,192,133392,1,0,0:0:0:0:
402,192,133392,1,0,0:0:0:0:
329,192,133460,1,0,0:0:0:0:
256,192,133460,1,0,0:0:0:0:
182,192,133528,1,0,0:0:0:0:
109,192,133528,1,0,0:0:0:0:
36,192,133596,1,0,0:0:0:0:
329,192,133596,1,0,0:0:0:0:
402,192,133596,1,0,0:0:0:0:
475,192,133596,1,0,0:0:0:0:
182,192,133664,1,0,0:0:0:0:
256,192,133664,1,0,0:0:0:0:
109,192,133733,1,0,0:0:0:0:
36,192,133733,1,0,0:0:0:0:
402,192,133801,1,0,0:0:0:0:
475,192,133801,1,0,0:0:0:0:
329,192,133801,1,0,0:0:0:0:
36,192,133869,1,0,0:0:0:0:
109,192,133869,1,0,0:0:0:0:
256,192,133869,1,0,0:0:0:0:
182,192,133869,1,0,0:0:0:0:
36,192,134005,1,0,0:0:0:0:
109,192,134005,1,0,0:0:0:0:
256,192,134005,1,0,0:0:0:0:
182,192,134005,1,0,0:0:0:0:
36,192,134142,1,0,0:0:0:0:
109,192,134142,1,0,0:0:0:0:
256,192,134142,1,0,0:0:0:0:
182,192,134142,1,0,0:0:0:0:
329,192,134278,1,0,0:0:0:0:
402,192,134278,1,0,0:0:0:0:
475,192,134278,1,0,0:0:0:0:
36,192,134414,1,0,0:0:0:0:
109,192,134414,1,0,0:0:0:0:
402,192,134414,1,0,0:0:0:0:
475,192,134414,1,0,0:0:0:0:
329,192,134414,1,0,0:0:0:0:
182,192,134414,1,0,0:0:0:0:
36,192,134551,1,0,0:0:0:0:
109,192,134551,1,0,0:0:0:0:
182,192,134551,1,0,0:0:0:0:
256,192,134687,1,0,0:0:0:0:
402,192,134687,1,0,0:0:0:0:
475,192,134687,1,0,0:0:0:0:
109,192,134824,1,0,0:0:0:0:
182,192,134858,1,0,0:0:0:0:
256,192,134892,1,0,0:0:0:0:
402,192,134926,1,0,0:0:0:0:
329,192,134960,1,0,0:0:0:0:
36,192,134960,1,0,0:0:0:0:
109,192,134994,1,0,0:0:0:0:
182,192,135028,1,0,0:0:0:0:
475,192,135062,1,0,0:0:0:0:
402,192,135096,1,0,0:0:0:0:
256,192,135096,1,0,0:0:0:0:
36,192,135096,1,0,0:0:0:0:
182,192,135233,1,0,0:0:0:0:
329,192,135233,1,0,0:0:0:0:
256,192,135369,1,0,0:0:0:0:
402,192,135369,1,0,0:0:0:0:
475,192,135369,1,0,0:0:0:0:
109,192,135505,1,0,0:0:0:0:
36,192,135505,1,0,0:0:0:0:
182,192,135505,1,0,0:0:0:0:
36,192,135642,1,0,0:0:0:0:
109,192,135642,1,0,0:0:0:0:
182,192,135642,1,0,0:0:0:0:
329,192,135778,1,0,0:0:0:0:
402,192,135778,1,0,0:0:0:0:
475,192,135778,1,0,0:0:0:0:
109,192,135914,1,0,0:0:0:0:
182,192,135949,1,0,0:0:0:0:
402,192,135983,1,0,0:0:0:0:
329,192,136017,1,0,0:0:0:0:
36,192,136051,1,0,0:0:0:0:
109,192,136085,1,0,0:0:0:0:
182,192,136119,1,0,0:0:0:0:
402,192,136187,1,0,0:0:0:0:
329,192,136187,1,0,0:0:0:0:
36,192,136255,1,0,0:0:0:0:
182,192,136255,1,0,0:0:0:0:
475,192,136324,1,0,0:0:0:0:
329,192,136324,1,0,0:0:0:0:
109,192,136460,1,0,0:0:0:0:
182,192,136460,1,0,0:0:0:0:
256,192,136460,1,0,0:0:0:0:
329,192,136596,1,0,0:0:0:0:
402,192,136596,1,0,0:0:0:0:
475,192,136596,1,0,0:0:0:0:
475,192,136733,1,0,0:0:0:0:
329,192,136733,1,0,0:0:0:0:
402,192,136733,1,0,0:0:0:0:
182,192,136869,1,0,0:0:0:0:
256,192,136869,1,0,0:0:0:0:
36,192,136869,1,0,0:0:0:0:
475,192,137005,1,0,0:0:0:0:
402,192,137005,1,0,0:0:0:0:
329,192,137039,1,0,0:0:0:0:
256,192,137074,1,0,0:0:0:0:
182,192,137074,1,0,0:0:0:0:
109,192,137108,1,0,0:0:0:0:
36,192,137142,1,0,0:0:0:0:
475,192,137142,1,0,0:0:0:0:
402,192,137176,1,0,0:0:0:0:
329,192,137210,1,0,0:0:0:0:
256,192,137210,1,0,0:0:0:0:
182,192,137244,1,0,0:0:0:0:
109,192,137278,1,0,0:0:0:0:
36,192,137278,1,0,0:0:0:0:
402,192,137414,1,0,0:0:0:0:
329,192,137414,1,0,0:0:0:0:
256,192,137551,1,0,0:0:0:0:
402,192,137551,1,0,0:0:0:0:
475,192,137551,1,0,0:0:0:0:
109,192,137687,1,0,0:0:0:0:
36,192,137687,1,0,0:0:0:0:
182,192,137687,1,0,0:0:0:0:
402,192,137755,1,0,0:0:0:0:
329,192,137789,1,0,0:0:0:0:
256,192,137824,1,0,0:0:0:0:
182,192,137858,1,0,0:0:0:0:
109,192,137892,1,0,0:0:0:0:
475,192,137960,1,0,0:0:0:0:
36,192,137960,1,0,0:0:0:0:
402,192,138028,1,0,0:0:0:0:
329,192,138062,1,0,0:0:0:0:
256,192,138096,1,0,0:0:0:0:
182,192,138130,1,0,0:0:0:0:
109,192,138164,1,0,0:0:0:0:
402,192,138233,1,0,0:0:0:0:
36,192,138233,1,0,0:0:0:0:
475,192,138233,1,0,0:0:0:0:
182,192,138369,1,0,0:0:0:0:
36,192,138369,1,0,0:0:0:0:
182,192,138437,1,0,0:0:0:0:
36,192,138437,1,0,0:0:0:0:
329,192,138505,1,0,0:0:0:0:
475,192,138505,1,0,0:0:0:0:
182,192,138574,1,0,0:0:0:0:
109,192,138574,1,0,0:0:0:0:
329,192,138642,1,0,0:0:0:0:
475,192,138642,1,0,0:0:0:0:
182,192,138710,1,0,0:0:0:0:
109,192,138710,1,0,0:0:0:0:
256,192,138778,1,0,0:0:0:0:
402,192,138778,1,0,0:0:0:0:
475,192,138778,1,0,0:0:0:0:
36,192,138914,1,0,0:0:0:0:
109,192,138914,1,0,0:0:0:0:
402,192,139051,1,0,0:0:0:0:
475,192,139051,1,0,0:0:0:0:
182,192,139051,1,0,0:0:0:0:
329,192,139051,1,0,0:0:0:0:
36,192,139187,1,0,0:0:0:0:
182,192,139221,1,0,0:0:0:0:
329,192,139255,1,0,0:0:0:0:
475,192,139289,1,0,0:0:0:0:
109,192,139324,1,0,0:0:0:0:
256,192,139358,1,0,0:0:0:0:
402,192,139392,1,0,0:0:0:0:
182,192,139426,1,0,0:0:0:0:
329,192,139460,1,0,0:0:0:0:
36,192,139460,1,0,0:0:0:0:
475,192,139460,1,0,0:0:0:0:
36,192,139596,1,0,0:0:0:0:
329,192,139596,1,0,0:0:0:0:
402,192,139733,1,0,0:0:0:0:
475,192,139733,1,0,0:0:0:0:
256,192,139733,1,0,0:0:0:0:
36,192,139869,1,0,0:0:0:0:
109,192,139869,1,0,0:0:0:0:
182,192,139869,1,0,0:0:0:0:
36,192,140005,1,0,0:0:0:0:
182,192,140005,1,0,0:0:0:0:
109,192,140005,1,0,0:0:0:0:
256,192,140142,1,0,0:0:0:0:
402,192,140142,1,0,0:0:0:0:
475,192,140142,1,0,0:0:0:0:
36,192,140278,1,0,0:0:0:0:
182,192,140278,1,0,0:0:0:0:
329,192,140312,1,0,0:0:0:0:
402,192,140346,1,0,0:0:0:0:
256,192,140380,1,0,0:0:0:0:
109,192,140414,1,0,0:0:0:0:
182,192,140449,1,0,0:0:0:0:
329,192,140483,1,0,0:0:0:0:
475,192,140483,1,0,0:0:0:0:
36,192,140551,1,0,0:0:0:0:
109,192,140551,1,0,0:0:0:0:
256,192,140619,1,0,0:0:0:0:
402,192,140619,1,0,0:0:0:0:
182,192,140687,1,0,0:0:0:0:
475,192,140687,1,0,0:0:0:0:
36,192,140687,1,0,0:0:0:0:
109,192,140824,1,0,0:0:0:0:
256,192,140824,1,0,0:0:0:0:
402,192,140960,1,0,0:0:0:0:
475,192,140960,1,0,0:0:0:0:
329,192,140960,1,0,0:0:0:0:
402,192,141096,1,0,0:0:0:0:
475,192,141096,1,0,0:0:0:0:
329,192,141096,1,0,0:0:0:0:
109,192,141233,1,0,0:0:0:0:
256,192,141233,1,0,0:0:0:0:
36,192,141233,1,0,0:0:0:0:
475,192,141369,1,0,0:0:0:0:
402,192,141369,1,0,0:0:0:0:
329,192,141403,1,0,0:0:0:0:
182,192,141437,1,0,0:0:0:0:
109,192,141437,1,0,0:0:0:0:
36,192,141471,1,0,0:0:0:0:
475,192,141505,1,0,0:0:0:0:
402,192,141505,1,0,0:0:0:0:
329,192,141539,1,0,0:0:0:0:
182,192,141574,1,0,0:0:0:0:
109,192,141574,1,0,0:0:0:0:
36,192,141608,1,0,0:0:0:0:
475,192,141642,1,0,0:0:0:0:
402,192,141642,1,0,0:0:0:0:
256,192,141642,1,0,0:0:0:0:
182,192,141778,1,0,0:0:0:0:
109,192,141778,1,0,0:0:0:0:
256,192,141914,1,0,0:0:0:0:
402,192,141914,1,0,0:0:0:0:
475,192,141914,1,0,0:0:0:0:
256,192,142051,1,0,0:0:0:0:
402,192,142051,1,0,0:0:0:0:
475,192,142051,1,0,0:0:0:0:
182,192,142187,1,0,0:0:0:0:
329,192,142221,1,0,0:0:0:0:
475,192,142255,1,0,0:0:0:0:
109,192,142289,1,0,0:0:0:0:
402,192,142324,1,0,0:0:0:0:
36,192,142324,1,0,0:0:0:0:
256,192,142324,1,0,0:0:0:0:
402,192,142460,1,0,0:0:0:0:
256,192,142460,1,0,0:0:0:0:
329,192,142596,1,0,0:0:0:0:
182,192,142596,1,0,0:0:0:0:
182,192,142733,1,0,0:0:0:0:
329,192,142733,1,0,0:0:0:0:
329,192,142801,1,0,0:0:0:0:
182,192,142801,1,0,0:0:0:0:
36,192,142869,1,0,0:0:0:0:
109,192,142869,1,0,0:0:0:0:
256,192,142869,1,0,0:0:0:0:
402,192,142869,1,0,0:0:0:0:
475,192,142869,1,0,0:0:0:0:
182,192,142937,1,0,0:0:0:0:
329,192,142937,1,0,0:0:0:0:
36,192,143005,1,0,0:0:0:0:
109,192,143005,1,0,0:0:0:0:
256,192,143005,1,0,0:0:0:0:
402,192,143005,1,0,0:0:0:0:
475,192,143005,1,0,0:0:0:0:
182,192,143074,1,0,0:0:0:0:
329,192,143074,1,0,0:0:0:0:
36,192,143142,1,0,0:0:0:0:
109,192,143142,1,0,0:0:0:0:
256,192,143142,1,0,0:0:0:0:
402,192,143142,1,0,0:0:0:0:
475,192,143142,1,0,0:0:0:0:
182,192,143278,1,0,0:0:0:0:
329,192,143278,1,0,0:0:0:0:
109,192,143346,1,0,0:0:0:0:
256,192,143414,1,0,0:0:0:0:
402,192,143414,1,0,0:0:0:0:
475,192,143414,1,0,0:0:0:0:
36,192,143551,1,0,0:0:0:0:
109,192,143551,1,0,0:0:0:0:
182,192,143585,1,0,0:0:0:0:
475,192,143619,1,0,0:0:0:0:
402,192,143619,1,0,0:0:0:0:
329,192,143653,1,0,0:0:0:0:
36,192,143687,1,0,0:0:0:0:
109,192,143721,1,0,0:0:0:0:
182,192,143755,1,0,0:0:0:0:
475,192,143755,1,0,0:0:0:0:
402,192,143789,1,0,0:0:0:0:
329,192,143824,1,0,0:0:0:0:
256,192,143824,1,0,0:0:0:0:
36,192,143824,1,0,0:0:0:0:
36,192,143960,1,0,0:0:0:0:
256,192,143960,1,0,0:0:0:0:
329,192,143960,1,0,0:0:0:0:
182,192,144096,1,0,0:0:0:0:
402,192,144096,1,0,0:0:0:0:
475,192,144096,1,0,0:0:0:0:
36,192,144233,1,0,0:0:0:0:
109,192,144233,1,0,0:0:0:0:
256,192,144233,1,0,0:0:0:0:
36,192,144369,1,0,0:0:0:0:
109,192,144369,1,0,0:0:0:0:
256,192,144369,1,0,0:0:0:0:
402,192,144505,1,0,0:0:0:0:
329,192,144505,1,0,0:0:0:0:
475,192,144505,1,0,0:0:0:0:
109,192,144642,1,0,0:0:0:0:
36,192,144642,1,0,0:0:0:0:
182,192,144676,1,0,0:0:0:0:
329,192,144710,1,0,0:0:0:0:
402,192,144744,1,0,0:0:0:0:
475,192,144778,1,0,0:0:0:0:
109,192,144778,1,0,0:0:0:0:
256,192,144812,1,0,0:0:0:0:
329,192,144846,1,0,0:0:0:0:
36,192,144846,1,0,0:0:0:0:
109,192,144914,1,0,0:0:0:0:
402,192,144914,1,0,0:0:0:0:
182,192,144983,1,0,0:0:0:0:
475,192,144983,1,0,0:0:0:0:
329,192,145051,1,0,0:0:0:0:
36,192,145051,1,0,0:0:0:0:
256,192,145051,1,0,0:0:0:0:
182,192,145187,1,0,0:0:0:0:
402,192,145187,1,0,0:0:0:0:
36,192,145324,1,0,0:0:0:0:
256,192,145324,1,0,0:0:0:0:
109,192,145324,1,0,0:0:0:0:
36,192,145460,1,0,0:0:0:0:
109,192,145460,1,0,0:0:0:0:
256,192,145460,1,0,0:0:0:0:
329,192,145596,1,0,0:0:0:0:
402,192,145596,1,0,0:0:0:0:
475,192,145596,1,0,0:0:0:0:
36,192,145733,1,0,0:0:0:0:
109,192,145733,1,0,0:0:0:0:
182,192,145767,1,0,0:0:0:0:
256,192,145801,1,0,0:0:0:0:
475,192,145801,1,0,0:0:0:0:
402,192,145835,1,0,0:0:0:0:
329,192,145869,1,0,0:0:0:0:
36,192,145869,1,0,0:0:0:0:
109,192,145903,1,0,0:0:0:0:
182,192,145937,1,0,0:0:0:0:
475,192,145937,1,0,0:0:0:0:
402,192,145971,1,0,0:0:0:0:
329,192,146005,1,0,0:0:0:0:
256,192,146005,1,0,0:0:0:0:
36,192,146005,1,0,0:0:0:0:
36,192,146142,1,0,0:0:0:0:
256,192,146142,1,0,0:0:0:0:
329,192,146278,1,0,0:0:0:0:
475,192,146278,1,0,0:0:0:0:
402,192,146278,1,0,0:0:0:0:
109,192,146414,1,0,0:0:0:0:
182,192,146414,1,0,0:0:0:0:
256,192,146414,1,0,0:0:0:0:
36,192,146414,1,0,0:0:0:0:
329,192,146449,1,0,0:0:0:0:
402,192,146483,1,0,0:0:0:0:
182,192,146551,1,0,0:0:0:0:
109,192,146551,1,0,0:0:0:0:
256,192,146585,1,0,0:0:0:0:
329,192,146619,1,0,0:0:0:0:
402,192,146619,1,0,0:0:0:0:
475,192,146653,1,0,0:0:0:0:
36,192,146687,1,0,0:0:0:0:
109,192,146687,1,0,0:0:0:0:
182,192,146687,1,0,0:0:0:0:
256,192,146721,1,0,0:0:0:0:
329,192,146755,1,0,0:0:0:0:
475,192,146824,1,0,0:0:0:0:
36,192,146824,1,0,0:0:0:0:
109,192,146858,1,0,0:0:0:0:
182,192,146892,1,0,0:0:0:0:
402,192,146892,1,0,0:0:0:0:
256,192,146926,1,0,0:0:0:0:
329,192,146960,1,0,0:0:0:0:
475,192,146960,1,0,0:0:0:0:
36,192,146960,1,0,0:0:0:0:
109,192,147096,1,0,0:0:0:0:
182,192,147096,1,0,0:0:0:0:
109,192,147164,1,0,0:0:0:0:
182,192,147164,1,0,0:0:0:0:
475,192,147233,1,0,0:0:0:0:
402,192,147250,1,0,0:0:0:0:
329,192,147267,1,0,0:0:0:0:
256,192,147284,1,0,0:0:0:0:
182,192,147301,1,0,0:0:0:0:
109,192,147318,1,0,0:0:0:0:
36,192,147335,1,0,0:0:0:0:
475,192,147352,1,0,0:0:0:0:
402,192,147369,1,0,0:0:0:0:
329,192,147386,1,0,0:0:0:0:
256,192,147403,1,0,0:0:0:0:
182,192,147420,1,0,0:0:0:0:
109,192,147437,1,0,0:0:0:0:
36,192,147454,1,0,0:0:0:0:
475,192,147471,1,0,0:0:0:0:
402,192,147488,1,0,0:0:0:0:
329,192,147505,1,0,0:0:0:0:
256,192,147505,1,0,0:0:0:0:
109,192,147642,1,0,0:0:0:0:
182,192,147642,1,0,0:0:0:0:
329,192,147642,1,0,0:0:0:0:
256,192,147778,1,0,0:0:0:0:
402,192,147778,1,0,0:0:0:0:
475,192,147778,1,0,0:0:0:0:
36,192,147914,1,0,0:0:0:0:
109,192,147914,1,0,0:0:0:0:
182,192,147949,1,0,0:0:0:0:
256,192,147983,1,0,0:0:0:0:
329,192,147983,1,0,0:0:0:0:
402,192,148017,1,0,0:0:0:0:
36,192,148051,1,0,0:0:0:0:
475,192,148085,1,0,0:0:0:0:
402,192,148119,1,0,0:0:0:0:
329,192,148119,1,0,0:0:0:0:
256,192,148153,1,0,0:0:0:0:
182,192,148187,1,0,0:0:0:0:
109,192,148187,1,0,0:0:0:0:
36,192,148187,1,0,0:0:0:0:
256,192,148324,1,0,0:0:0:0:
329,192,148324,1,0,0:0:0:0:
402,192,148324,1,0,0:0:0:0:
475,192,148460,1,0,0:0:0:0:
402,192,148460,1,0,0:0:0:0:
329,192,148460,1,0,0:0:0:0:
182,192,148596,1,0,0:0:0:0:
36,192,148596,1,0,0:0:0:0:
109,192,148596,1,0,0:0:0:0:
36,192,148733,1,0,0:0:0:0:
109,192,148733,1,0,0:0:0:0:
182,192,148733,1,0,0:0:0:0:
329,192,148869,1,0,0:0:0:0:
402,192,148869,1,0,0:0:0:0:
475,192,148869,1,0,0:0:0:0:
36,192,149005,1,0,0:0:0:0:
109,192,149005,1,0,0:0:0:0:
182,192,149039,1,0,0:0:0:0:
256,192,149039,1,0,0:0:0:0:
402,192,149074,1,0,0:0:0:0:
329,192,149074,1,0,0:0:0:0:
475,192,149108,1,0,0:0:0:0:
36,192,149142,1,0,0:0:0:0:
182,192,149142,1,0,0:0:0:0:
109,192,149142,1,0,0:0:0:0:
256,192,149176,1,0,0:0:0:0:
329,192,149210,1,0,0:0:0:0:
402,192,149210,1,0,0:0:0:0:
475,192,149244,1,0,0:0:0:0:
36,192,149278,1,0,0:0:0:0:
109,192,149278,1,0,0:0:0:0:
182,192,149312,1,0,0:0:0:0:
256,192,149346,1,0,0:0:0:0:
329,192,149346,1,0,0:0:0:0:
402,192,149380,1,0,0:0:0:0:
475,192,149414,1,0,0:0:0:0:
36,192,149414,1,0,0:0:0:0:
109,192,149449,1,0,0:0:0:0:
182,192,149483,1,0,0:0:0:0:
256,192,149483,1,0,0:0:0:0:
329,192,149517,1,0,0:0:0:0:
402,192,149551,1,0,0:0:0:0:
475,192,149551,1,0,0:0:0:0:
36,192,149551,1,0,0:0:0:0:
36,192,149687,128,0,150778:0:0:0:0:
475,192,149687,128,0,150778:0:0:0:0:
109,192,149824,128,0,149960:0:0:0:0:
402,192,149824,128,0,149960:0:0:0:0:
182,192,149960,128,0,150096:0:0:0:0:
329,192,149960,128,0,150096:0:0:0:0:
109,192,150096,128,0,150233:0:0:0:0:
402,192,150096,128,0,150233:0:0:0:0:
256,192,150233,128,0,150369:0:0:0:0:
182,192,150369,128,0,150505:0:0:0:0:
329,192,150369,128,0,150505:0:0:0:0:
109,192,150505,128,0,150642:0:0:0:0:
402,192,150505,128,0,150642:0:0:0:0:
182,192,150642,128,0,150778:0:0:0:0:
329,192,150642,128,0,150778:0:0:0:0:
256,192,150778,1,0,0:0:0:0:
109,192,150778,128,0,151051:0:0:0:0:
329,192,150914,1,0,0:0:0:0:
402,192,151051,128,0,151324:0:0:0:0:
475,192,151051,1,0,0:0:0:0:
256,192,151187,1,0,0:0:0:0:
36,192,151324,1,0,0:0:0:0:
475,192,151324,1,0,0:0:0:0:
182,192,151324,1,0,0:0:0:0:
36,192,151460,1,0,0:0:0:0:
475,192,151460,1,0,0:0:0:0:
256,192,151460,1,0,0:0:0:0:
36,192,151596,1,0,0:0:0:0:
475,192,151596,1,0,0:0:0:0:
329,192,151596,1,0,0:0:0:0:
36,192,151733,1,0,0:0:0:0:
475,192,151733,1,0,0:0:0:0:
256,192,151733,1,0,0:0:0:0:
36,192,151869,1,0,0:0:0:0:
182,192,151869,1,0,0:0:0:0:
475,192,151869,1,0,0:0:0:0:
402,192,151869,1,0,0:0:0:0:
329,192,151869,128,0,152005:0:0:0:0:
182,192,152005,128,0,152142:0:0:0:0:
329,192,152142,128,0,152278:0:0:0:0:
402,192,152278,128,0,152414:0:0:0:0:
475,192,152414,128,0,152551:0:0:0:0:
36,192,152551,128,0,152687:0:0:0:0:
182,192,152687,128,0,152824:0:0:0:0:
329,192,152824,128,0,152960:0:0:0:0:
256,192,152960,128,0,153096:0:0:0:0:
36,192,153096,128,0,153233:0:0:0:0:
109,192,153233,128,0,153369:0:0:0:0:
182,192,153369,128,0,153505:0:0:0:0:
475,192,153505,128,0,153642:0:0:0:0:
329,192,153642,128,0,153778:0:0:0:0:
402,192,153778,128,0,153914:0:0:0:0:
475,192,153914,128,0,154051:0:0:0:0:
182,192,154051,128,0,154187:0:0:0:0:
109,192,154187,128,0,154324:0:0:0:0:
329,192,154324,128,0,154460:0:0:0:0:
182,192,154460,128,0,154596:0:0:0:0:
402,192,154596,128,0,154733:0:0:0:0:
109,192,154733,128,0,154869:0:0:0:0:
329,192,154869,128,0,155005:0:0:0:0:
36,192,155005,128,0,155142:0:0:0:0:
475,192,155142,128,0,155278:0:0:0:0:
109,192,155278,128,0,155414:0:0:0:0:
182,192,155414,128,0,155551:0:0:0:0:
256,192,155551,128,0,155687:0:0:0:0:
329,192,155687,128,0,155824:0:0:0:0:
182,192,155824,128,0,155960:0:0:0:0:
256,192,155960,128,0,156096:0:0:0:0:
329,192,156096,128,0,156233:0:0:0:0:
402,192,156164,128,0,156233:0:0:0:0:
475,192,156233,128,0,156369:0:0:0:0:
36,192,156369,128,0,156505:0:0:0:0:
182,192,156505,128,0,156642:0:0:0:0:
329,192,156642,128,0,156778:0:0:0:0:
402,192,156778,128,0,156914:0:0:0:0:
109,192,156914,128,0,157051:0:0:0:0:
256,192,157051,128,0,157187:0:0:0:0:
402,192,157187,128,0,157324:0:0:0:0:
475,192,157324,128,0,157460:0:0:0:0:
182,192,157460,128,0,157596:0:0:0:0:
329,192,157596,128,0,157733:0:0:0:0:
182,192,157733,128,0,157869:0:0:0:0:
402,192,157869,128,0,158005:0:0:0:0:
329,192,158005,128,0,158142:0:0:0:0:
182,192,158142,128,0,158278:0:0:0:0:
109,192,158278,128,0,158414:0:0:0:0:
475,192,158414,128,0,158551:0:0:0:0:
182,192,158551,128,0,158687:0:0:0:0:
329,192,158687,128,0,158824:0:0:0:0:
402,192,158824,128,0,158960:0:0:0:0:
475,192,158960,128,0,159096:0:0:0:0:
109,192,159096,128,0,159233:0:0:0:0:
402,192,159233,128,0,159369:0:0:0:0:
36,192,159369,128,0,159505:0:0:0:0:
329,192,159505,128,0,159642:0:0:0:0:
109,192,159642,128,0,159778:0:0:0:0:
182,192,159778,128,0,159914:0:0:0:0:
256,192,159914,128,0,160051:0:0:0:0:
402,192,160051,128,0,160187:0:0:0:0:
182,192,160187,128,0,160324:0:0:0:0:
329,192,160324,128,0,160460:0:0:0:0:
475,192,160460,128,0,160596:0:0:0:0:
36,192,160596,1,0,0:0:0:0:
182,192,160596,128,0,160733:0:0:0:0:
109,192,160733,128,0,160869:0:0:0:0:
256,192,160869,128,0,161005:0:0:0:0:
402,192,161005,128,0,161142:0:0:0:0:
475,192,161142,128,0,161278:0:0:0:0:
36,192,161278,128,0,161414:0:0:0:0:
182,192,161414,128,0,161551:0:0:0:0:
329,192,161551,128,0,161687:0:0:0:0:
256,192,161687,128,0,161824:0:0:0:0:
109,192,161824,128,0,161960:0:0:0:0:
182,192,161960,128,0,162096:0:0:0:0:
329,192,162096,128,0,162233:0:0:0:0:
475,192,162233,128,0,162369:0:0:0:0:
36,192,162369,128,0,162505:0:0:0:0:
182,192,162505,128,0,162642:0:0:0:0:
329,192,162642,128,0,162778:0:0:0:0:
402,192,162778,128,0,162914:0:0:0:0:
109,192,162914,128,0,163051:0:0:0:0:
256,192,163051,128,0,163187:0:0:0:0:
36,192,163187,128,0,163324:0:0:0:0:
402,192,163324,128,0,163460:0:0:0:0:
182,192,163460,128,0,163596:0:0:0:0:
475,192,163596,128,0,163733:0:0:0:0:
182,192,163733,128,0,163869:0:0:0:0:
402,192,163869,128,0,164005:0:0:0:0:
109,192,164005,128,0,164142:0:0:0:0:
182,192,164142,128,0,164278:0:0:0:0:
256,192,164278,128,0,164414:0:0:0:0:
329,192,164414,128,0,164551:0:0:0:0:
182,192,164551,128,0,164687:0:0:0:0:
256,192,164687,128,0,164824:0:0:0:0:
329,192,164824,128,0,164960:0:0:0:0:
402,192,164960,128,0,165096:0:0:0:0:
109,192,165096,128,0,165233:0:0:0:0:
182,192,165233,128,0,165369:0:0:0:0:
329,192,165369,128,0,165505:0:0:0:0:
402,192,165505,128,0,165642:0:0:0:0:
109,192,165642,128,0,165778:0:0:0:0:
475,192,165778,128,0,165914:0:0:0:0:
109,192,165914,128,0,166051:0:0:0:0:
329,192,166051,128,0,166187:0:0:0:0:
182,192,166187,128,0,166324:0:0:0:0:
256,192,166324,128,0,166460:0:0:0:0:
109,192,166460,128,0,166596:0:0:0:0:
402,192,166596,128,0,166733:0:0:0:0:
329,192,166733,128,0,166869:0:0:0:0:
182,192,166869,128,0,167005:0:0:0:0:
109,192,167005,128,0,167142:0:0:0:0:
475,192,167142,128,0,167278:0:0:0:0:
36,192,167278,128,0,167414:0:0:0:0:
182,192,167414,128,0,167551:0:0:0:0:
329,192,167551,128,0,167687:0:0:0:0:
256,192,167687,128,0,167824:0:0:0:0:
109,192,167824,128,0,167960:0:0:0:0:
329,192,167960,128,0,168096:0:0:0:0:
182,192,168096,128,0,168233:0:0:0:0:
256,192,168164,128,0,168233:0:0:0:0:
329,192,168233,128,0,168369:0:0:0:0:
475,192,168233,128,0,168505:0:0:0:0:
36,192,168369,128,0,168505:0:0:0:0:
256,192,168505,128,0,168778:0:0:0:0:
109,192,168505,128,0,168642:0:0:0:0:
402,192,168642,128,0,168778:0:0:0:0:
36,192,168778,128,0,168846:0:0:0:0:
475,192,168778,128,0,168846:0:0:0:0:
329,192,168778,128,0,168914:0:0:0:0:
36,192,168914,128,0,168983:0:0:0:0:
475,192,168914,128,0,168983:0:0:0:0:
182,192,168914,128,0,169051:0:0:0:0:
109,192,169051,128,0,169119:0:0:0:0:
402,192,169051,128,0,169119:0:0:0:0:
256,192,169051,128,0,169187:0:0:0:0:
109,192,169187,128,0,169255:0:0:0:0:
402,192,169187,128,0,169255:0:0:0:0:
329,192,169187,128,0,169324:0:0:0:0:
36,192,169324,128,0,169528:0:0:0:0:
475,192,169324,128,0,169528:0:0:0:0:
256,192,169324,1,0,0:0:0:0:
109,192,169460,1,0,0:0:0:0:
36,192,169596,128,0,169801:0:0:0:0:
475,192,169596,128,0,169801:0:0:0:0:
182,192,169596,1,0,0:0:0:0:
256,192,169733,1,0,0:0:0:0:
475,192,169869,128,0,170074:0:0:0:0:
36,192,169869,128,0,170074:0:0:0:0:
402,192,169869,1,0,0:0:0:0:
182,192,170005,1,0,0:0:0:0:
36,192,170142,128,0,170346:0:0:0:0:
475,192,170142,128,0,170346:0:0:0:0:
329,192,170142,1,0,0:0:0:0:
402,192,170278,1,0,0:0:0:0:
475,192,170414,128,0,170619:0:0:0:0:
36,192,170414,128,0,170619:0:0:0:0:
256,192,170414,1,0,0:0:0:0:
109,192,170551,1,0,0:0:0:0:
36,192,170687,128,0,170892:0:0:0:0:
475,192,170687,128,0,170892:0:0:0:0:
182,192,170687,1,0,0:0:0:0:
329,192,170824,1,0,0:0:0:0:
475,192,170960,128,0,171164:0:0:0:0:
36,192,170960,128,0,171164:0:0:0:0:
402,192,170960,1,0,0:0:0:0:
182,192,171096,1,0,0:0:0:0:
36,192,171233,128,0,171437:0:0:0:0:
475,192,171233,128,0,171437:0:0:0:0:
329,192,171233,1,0,0:0:0:0:
256,192,171233,128,0,171437:0:0:0:0:
182,192,171369,1,0,0:0:0:0:
475,192,171505,128,0,171710:0:0:0:0:
36,192,171505,128,0,171710:0:0:0:0:
329,192,171505,1,0,0:0:0:0:
109,192,171642,1,0,0:0:0:0:
36,192,171778,128,0,171983:0:0:0:0:
475,192,171778,128,0,171983:0:0:0:0:
256,192,171778,1,0,0:0:0:0:
109,192,171914,1,0,0:0:0:0:
475,192,172051,128,0,172255:0:0:0:0:
36,192,172051,128,0,172255:0:0:0:0:
402,192,172051,1,0,0:0:0:0:
182,192,172187,1,0,0:0:0:0:
36,192,172324,128,0,172528:0:0:0:0:
475,192,172324,128,0,172528:0:0:0:0:
329,192,172324,1,0,0:0:0:0:
109,192,172460,1,0,0:0:0:0:
402,192,172596,1,0,0:0:0:0:
36,192,172596,128,0,172664:0:0:0:0:
475,192,172596,128,0,172664:0:0:0:0:
109,192,172733,1,0,0:0:0:0:
36,192,172733,128,0,172801:0:0:0:0:
475,192,172733,128,0,172801:0:0:0:0:
36,192,172869,128,0,173074:0:0:0:0:
256,192,172869,128,0,173074:0:0:0:0:
475,192,172869,128,0,173074:0:0:0:0:
182,192,172869,1,0,0:0:0:0:
329,192,173005,1,0,0:0:0:0:
402,192,173142,1,0,0:0:0:0:
36,192,173142,128,0,173278:0:0:0:0:
475,192,173142,128,0,173278:0:0:0:0:
109,192,173278,1,0,0:0:0:0:
36,192,173346,128,0,173483:0:0:0:0:
475,192,173346,128,0,173483:0:0:0:0:
256,192,173346,128,0,173483:0:0:0:0:
182,192,173414,1,0,0:0:0:0:
36,192,173551,128,0,173619:0:0:0:0:
475,192,173551,128,0,173619:0:0:0:0:
329,192,173551,1,0,0:0:0:0:
402,192,173619,1,0,0:0:0:0:
475,192,173687,1,0,0:0:0:0:
182,192,173687,128,0,173892:0:0:0:0:
329,192,173687,128,0,173892:0:0:0:0:
36,192,173824,1,0,0:0:0:0:
182,192,173960,128,0,174164:0:0:0:0:
329,192,173960,128,0,174164:0:0:0:0:
109,192,173960,1,0,0:0:0:0:
402,192,174096,1,0,0:0:0:0:
329,192,174233,128,0,174437:0:0:0:0:
182,192,174233,128,0,174437:0:0:0:0:
475,192,174233,1,0,0:0:0:0:
36,192,174369,1,0,0:0:0:0:
182,192,174505,128,0,174710:0:0:0:0:
329,192,174505,128,0,174710:0:0:0:0:
109,192,174505,1,0,0:0:0:0:
256,192,174642,1,0,0:0:0:0:
329,192,174778,128,0,174983:0:0:0:0:
182,192,174778,128,0,174983:0:0:0:0:
475,192,174778,1,0,0:0:0:0:
109,192,174914,1,0,0:0:0:0:
256,192,175051,1,0,0:0:0:0:
182,192,175051,128,0,175119:0:0:0:0:
329,192,175051,128,0,175119:0:0:0:0:
402,192,175187,1,0,0:0:0:0:
182,192,175187,128,0,175255:0:0:0:0:
329,192,175187,128,0,175255:0:0:0:0:
329,192,175324,128,0,175528:0:0:0:0:
182,192,175324,128,0,175528:0:0:0:0:
475,192,175324,1,0,0:0:0:0:
36,192,175460,1,0,0:0:0:0:
182,192,175596,128,0,175801:0:0:0:0:
329,192,175596,128,0,175801:0:0:0:0:
402,192,175596,1,0,0:0:0:0:
256,192,175596,128,0,175801:0:0:0:0:
36,192,175733,1,0,0:0:0:0:
329,192,175869,128,0,176074:0:0:0:0:
182,192,175869,128,0,176074:0:0:0:0:
475,192,175869,1,0,0:0:0:0:
36,192,176005,1,0,0:0:0:0:
182,192,176142,128,0,176346:0:0:0:0:
329,192,176142,128,0,176346:0:0:0:0:
109,192,176142,1,0,0:0:0:0:
36,192,176278,1,0,0:0:0:0:
329,192,176414,128,0,176619:0:0:0:0:
182,192,176414,128,0,176619:0:0:0:0:
402,192,176414,1,0,0:0:0:0:
109,192,176551,1,0,0:0:0:0:
182,192,176687,128,0,176892:0:0:0:0:
329,192,176687,128,0,176892:0:0:0:0:
475,192,176687,1,0,0:0:0:0:
109,192,176824,1,0,0:0:0:0:
36,192,176960,1,0,0:0:0:0:
182,192,176960,128,0,177028:0:0:0:0:
329,192,176960,128,0,177028:0:0:0:0:
182,192,177096,128,0,177164:0:0:0:0:
329,192,177096,128,0,177164:0:0:0:0:
109,192,177096,1,0,0:0:0:0:
182,192,177233,128,0,177437:0:0:0:0:
256,192,177233,128,0,177437:0:0:0:0:
329,192,177233,128,0,177437:0:0:0:0:
402,192,177233,1,0,0:0:0:0:
475,192,177369,1,0,0:0:0:0:
182,192,177505,128,0,177983:0:0:0:0:
36,192,177505,1,0,0:0:0:0:
329,192,177642,1,0,0:0:0:0:
256,192,177710,128,0,177983:0:0:0:0:
402,192,177778,1,0,0:0:0:0:
329,192,177914,128,0,177983:0:0:0:0:
475,192,177914,1,0,0:0:0:0:
402,192,178051,1,0,0:0:0:0:
36,192,178051,1,0,0:0:0:0:
109,192,178051,1,0,0:0:0:0:
475,192,178051,1,0,0:0:0:0:
182,192,178187,1,0,0:0:0:0:
36,192,178324,128,0,179414:0:0:0:0:
256,192,178324,1,0,0:0:0:0:
329,192,178460,1,0,0:0:0:0:
109,192,178596,128,0,179687:0:0:0:0:
475,192,178596,1,0,0:0:0:0:
256,192,178733,1,0,0:0:0:0:
182,192,178869,128,0,179892:0:0:0:0:
329,192,178869,1,0,0:0:0:0:
402,192,179005,1,0,0:0:0:0:
256,192,179142,128,0,179892:0:0:0:0:
475,192,179142,1,0,0:0:0:0:
329,192,179278,1,0,0:0:0:0:
329,192,179414,128,0,179892:0:0:0:0:
402,192,179414,1,0,0:0:0:0:
475,192,179551,1,0,0:0:0:0:
402,192,179687,128,0,179892:0:0:0:0:
36,192,179687,1,0,0:0:0:0:
109,192,179824,1,0,0:0:0:0:
36,192,179960,1,0,0:0:0:0:
182,192,179960,1,0,0:0:0:0:
256,192,179960,1,0,0:0:0:0:
329,192,179960,1,0,0:0:0:0:
475,192,179960,1,0,0:0:0:0:
109,192,180096,1,0,0:0:0:0:
402,192,180096,1,0,0:0:0:0:
36,192,180233,1,0,0:0:0:0:
182,192,180233,1,0,0:0:0:0:
256,192,180233,1,0,0:0:0:0:
329,192,180233,1,0,0:0:0:0:
475,192,180233,1,0,0:0:0:0:
109,192,180369,1,0,0:0:0:0:
475,192,180505,128,0,181596:0:0:0:0:
182,192,180505,1,0,0:0:0:0:
256,192,180642,1,0,0:0:0:0:
402,192,180778,128,0,181869:0:0:0:0:
329,192,180778,1,0,0:0:0:0:
36,192,180914,1,0,0:0:0:0:
329,192,181051,128,0,182074:0:0:0:0:
182,192,181051,1,0,0:0:0:0:
109,192,181187,1,0,0:0:0:0:
256,192,181324,128,0,182074:0:0:0:0:
182,192,181324,1,0,0:0:0:0:
36,192,181460,1,0,0:0:0:0:
182,192,181596,128,0,182074:0:0:0:0:
109,192,181596,1,0,0:0:0:0:
36,192,181733,1,0,0:0:0:0:
109,192,181869,128,0,182074:0:0:0:0:
475,192,181869,1,0,0:0:0:0:
402,192,182005,1,0,0:0:0:0:
36,192,182142,1,0,0:0:0:0:
182,192,182142,1,0,0:0:0:0:
256,192,182142,1,0,0:0:0:0:
329,192,182142,1,0,0:0:0:0:
475,192,182142,1,0,0:0:0:0:
402,192,182278,1,0,0:0:0:0:
109,192,182278,1,0,0:0:0:0:
36,192,182414,1,0,0:0:0:0:
182,192,182414,1,0,0:0:0:0:
256,192,182414,1,0,0:0:0:0:
329,192,182414,1,0,0:0:0:0:
475,192,182414,1,0,0:0:0:0:
109,192,182483,1,0,0:0:0:0:
182,192,182551,1,0,0:0:0:0:
256,192,182619,1,0,0:0:0:0:
475,192,182687,128,0,182960:0:0:0:0:
402,192,182687,128,0,182960:0:0:0:0:
329,192,182687,1,0,0:0:0:0:
256,192,182755,1,0,0:0:0:0:
182,192,182824,1,0,0:0:0:0:
109,192,182892,1,0,0:0:0:0:
36,192,182960,1,0,0:0:0:0:
256,192,182960,1,0,0:0:0:0:
329,192,182960,1,0,0:0:0:0:
182,192,183028,1,0,0:0:0:0:
109,192,183096,1,0,0:0:0:0:
36,192,183164,1,0,0:0:0:0:
329,192,183233,128,0,183505:0:0:0:0:
402,192,183233,128,0,183505:0:0:0:0:
109,192,183233,1,0,0:0:0:0:
182,192,183301,1,0,0:0:0:0:
256,192,183369,1,0,0:0:0:0:
475,192,183437,1,0,0:0:0:0:
109,192,183505,1,0,0:0:0:0:
36,192,183505,1,0,0:0:0:0:
182,192,183505,1,0,0:0:0:0:
256,192,183574,1,0,0:0:0:0:
329,192,183642,1,0,0:0:0:0:
402,192,183710,1,0,0:0:0:0:
256,192,183778,128,0,184051:0:0:0:0:
329,192,183778,128,0,184051:0:0:0:0:
36,192,183778,1,0,0:0:0:0:
109,192,183846,1,0,0:0:0:0:
182,192,183914,1,0,0:0:0:0:
109,192,183983,1,0,0:0:0:0:
36,192,184051,1,0,0:0:0:0:
402,192,184051,1,0,0:0:0:0:
475,192,184051,1,0,0:0:0:0:
182,192,184119,1,0,0:0:0:0:
109,192,184187,1,0,0:0:0:0:
36,192,184255,1,0,0:0:0:0:
182,192,184324,128,0,184596:0:0:0:0:
256,192,184324,128,0,184596:0:0:0:0:
475,192,184324,1,0,0:0:0:0:
402,192,184392,1,0,0:0:0:0:
329,192,184460,1,0,0:0:0:0:
402,192,184528,1,0,0:0:0:0:
36,192,184596,1,0,0:0:0:0:
109,192,184596,1,0,0:0:0:0:
475,192,184596,1,0,0:0:0:0:
182,192,184664,1,0,0:0:0:0:
256,192,184733,1,0,0:0:0:0:
329,192,184801,1,0,0:0:0:0:
36,192,184869,1,0,0:0:0:0:
109,192,184869,1,0,0:0:0:0:
402,192,184869,1,0,0:0:0:0:
475,192,184869,1,0,0:0:0:0:
182,192,184937,1,0,0:0:0:0:
256,192,185005,1,0,0:0:0:0:
329,192,185074,1,0,0:0:0:0:
36,192,185142,1,0,0:0:0:0:
109,192,185142,1,0,0:0:0:0:
402,192,185142,1,0,0:0:0:0:
475,192,185142,1,0,0:0:0:0:
329,192,185210,1,0,0:0:0:0:
256,192,185278,1,0,0:0:0:0:
182,192,185346,1,0,0:0:0:0:
109,192,185414,1,0,0:0:0:0:
36,192,185414,1,0,0:0:0:0:
402,192,185414,1,0,0:0:0:0:
475,192,185414,1,0,0:0:0:0:
329,192,185483,1,0,0:0:0:0:
256,192,185551,1,0,0:0:0:0:
182,192,185619,1,0,0:0:0:0:
36,192,185687,1,0,0:0:0:0:
109,192,185687,1,0,0:0:0:0:
402,192,185687,1,0,0:0:0:0:
475,192,185687,1,0,0:0:0:0:
329,192,185755,1,0,0:0:0:0:
182,192,185824,1,0,0:0:0:0:
256,192,185824,1,0,0:0:0:0:
36,192,185892,1,0,0:0:0:0:
109,192,185892,1,0,0:0:0:0:
475,192,185892,1,0,0:0:0:0:
256,192,185960,1,0,0:0:0:0:
329,192,185960,1,0,0:0:0:0:
402,192,185960,1,0,0:0:0:0:
182,192,186028,1,0,0:0:0:0:
36,192,186096,1,0,0:0:0:0:
109,192,186096,1,0,0:0:0:0:
475,192,186096,1,0,0:0:0:0:
256,192,186164,1,0,0:0:0:0:
402,192,186164,1,0,0:0:0:0:
182,192,186233,1,0,0:0:0:0:
36,192,186233,1,0,0:0:0:0:
329,192,186233,1,0,0:0:0:0:
475,192,186233,1,0,0:0:0:0:
109,192,186301,1,0,0:0:0:0:
182,192,186369,1,0,0:0:0:0:
402,192,186369,1,0,0:0:0:0:
256,192,186437,1,0,0:0:0:0:
329,192,186437,1,0,0:0:0:0:
475,192,186505,1,0,0:0:0:0:
36,192,186505,1,0,0:0:0:0:
109,192,186505,1,0,0:0:0:0:
402,192,186505,1,0,0:0:0:0:
182,192,186574,1,0,0:0:0:0:
256,192,186642,1,0,0:0:0:0:
329,192,186642,1,0,0:0:0:0:
109,192,186710,1,0,0:0:0:0:
402,192,186710,1,0,0:0:0:0:
475,192,186778,1,0,0:0:0:0:
36,192,186778,1,0,0:0:0:0:
182,192,186778,1,0,0:0:0:0:
256,192,186778,1,0,0:0:0:0:
109,192,186914,128,0,187051:0:0:0:0:
402,192,186914,1,0,0:0:0:0:
182,192,186983,128,0,187119:0:0:0:0:
256,192,187051,128,0,187187:0:0:0:0:
329,192,187119,128,0,187255:0:0:0:0:
402,192,187187,128,0,187324:0:0:0:0:
475,192,187255,128,0,187324:0:0:0:0:
36,192,187324,1,0,0:0:0:0:
109,192,187324,1,0,0:0:0:0:
182,192,187324,1,0,0:0:0:0:
256,192,187324,1,0,0:0:0:0:
329,192,187324,1,0,0:0:0:0:
475,192,187460,1,0,0:0:0:0:
402,192,187460,1,0,0:0:0:0:
329,192,187494,1,0,0:0:0:0:
256,192,187494,1,0,0:0:0:0:
182,192,187528,1,0,0:0:0:0:
109,192,187528,1,0,0:0:0:0:
36,192,187562,1,0,0:0:0:0:
475,192,187562,1,0,0:0:0:0:
402,192,187596,1,0,0:0:0:0:
329,192,187596,1,0,0:0:0:0:
256,192,187630,1,0,0:0:0:0:
182,192,187630,1,0,0:0:0:0:
109,192,187664,1,0,0:0:0:0:
36,192,187664,1,0,0:0:0:0:
402,192,187699,1,0,0:0:0:0:
475,192,187699,1,0,0:0:0:0:
329,192,187733,1,0,0:0:0:0:
256,192,187733,1,0,0:0:0:0:
182,192,187767,1,0,0:0:0:0:
109,192,187767,1,0,0:0:0:0:
36,192,187801,1,0,0:0:0:0:
475,192,187801,1,0,0:0:0:0:
402,192,187835,1,0,0:0:0:0:
329,192,187835,1,0,0:0:0:0:
109,192,187869,1,0,0:0:0:0:
36,192,187869,1,0,0:0:0:0:
182,192,187869,1,0,0:0:0:0:
256,192,187869,1,0,0:0:0:0:
475,192,187937,1,0,0:0:0:0:
109,192,188005,1,0,0:0:0:0:
329,192,188074,1,0,0:0:0:0:
182,192,188142,1,0,0:0:0:0:
402,192,188210,1,0,0:0:0:0:
36,192,188278,1,0,0:0:0:0:
256,192,188346,1,0,0:0:0:0:
182,192,188414,1,0,0:0:0:0:
402,192,188483,1,0,0:0:0:0:
109,192,188551,1,0,0:0:0:0:
329,192,188619,1,0,0:0:0:0:
182,192,188687,1,0,0:0:0:0:
475,192,188755,1,0,0:0:0:0:
36,192,188824,1,0,0:0:0:0:
256,192,188892,1,0,0:0:0:0:
109,192,188960,1,0,0:0:0:0:
402,192,189028,1,0,0:0:0:0:
182,192,189096,1,0,0:0:0:0:
329,192,189164,1,0,0:0:0:0:
109,192,189233,1,0,0:0:0:0:
475,192,189301,1,0,0:0:0:0:
256,192,189369,1,0,0:0:0:0:
402,192,189437,1,0,0:0:0:0:
36,192,189505,1,0,0:0:0:0:
329,192,189574,1,0,0:0:0:0:
109,192,189642,1,0,0:0:0:0:
256,192,189710,1,0,0:0:0:0:
182,192,189778,1,0,0:0:0:0:
402,192,189846,1,0,0:0:0:0:
256,192,189914,1,0,0:0:0:0:
329,192,189983,1,0,0:0:0:0:
109,192,190051,1,0,0:0:0:0:
36,192,190051,1,0,0:0:0:0:
182,192,190051,1,0,0:0:0:0:
402,192,190051,1,0,0:0:0:0:
475,192,190051,1,0,0:0:0:0:
256,192,190119,1,0,0:0:0:0:
182,192,190187,1,0,0:0:0:0:
329,192,190255,1,0,0:0:0:0:
36,192,190324,1,0,0:0:0:0:
256,192,190392,1,0,0:0:0:0:
109,192,190460,1,0,0:0:0:0:
402,192,190528,1,0,0:0:0:0:
182,192,190596,1,0,0:0:0:0:
329,192,190664,1,0,0:0:0:0:
109,192,190733,1,0,0:0:0:0:
256,192,190801,1,0,0:0:0:0:
182,192,190869,1,0,0:0:0:0:
402,192,190937,1,0,0:0:0:0:
36,192,191005,1,0,0:0:0:0:
329,192,191074,1,0,0:0:0:0:
182,192,191142,1,0,0:0:0:0:
475,192,191210,1,0,0:0:0:0:
256,192,191278,1,0,0:0:0:0:
402,192,191346,1,0,0:0:0:0:
109,192,191414,1,0,0:0:0:0:
329,192,191483,1,0,0:0:0:0:
182,192,191551,1,0,0:0:0:0:
475,192,191619,1,0,0:0:0:0:
36,192,191687,1,0,0:0:0:0:
329,192,191755,1,0,0:0:0:0:
109,192,191824,1,0,0:0:0:0:
329,192,191892,1,0,0:0:0:0:
182,192,191960,1,0,0:0:0:0:
36,192,191960,1,0,0:0:0:0:
256,192,191960,1,0,0:0:0:0:
402,192,191960,1,0,0:0:0:0:
475,192,191960,1,0,0:0:0:0:
329,192,192028,1,0,0:0:0:0:
109,192,192096,1,0,0:0:0:0:
256,192,192164,1,0,0:0:0:0:
182,192,192233,1,0,0:0:0:0:
329,192,192233,1,0,0:0:0:0:
475,192,192233,1,0,0:0:0:0:
109,192,192233,1,0,0:0:0:0:
36,192,192233,1,0,0:0:0:0:
402,192,192301,1,0,0:0:0:0:
109,192,192369,1,0,0:0:0:0:
329,192,192437,1,0,0:0:0:0:
36,192,192505,1,0,0:0:0:0:
256,192,192574,1,0,0:0:0:0:
182,192,192642,1,0,0:0:0:0:
402,192,192710,1,0,0:0:0:0:
109,192,192778,1,0,0:0:0:0:
475,192,192846,1,0,0:0:0:0:
182,192,192914,1,0,0:0:0:0:
329,192,192983,1,0,0:0:0:0:
36,192,193051,1,0,0:0:0:0:
256,192,193119,1,0,0:0:0:0:
109,192,193187,1,0,0:0:0:0:
475,192,193255,1,0,0:0:0:0:
329,192,193324,1,0,0:0:0:0:
182,192,193392,1,0,0:0:0:0:
402,192,193460,1,0,0:0:0:0:
109,192,193528,1,0,0:0:0:0:
256,192,193596,1,0,0:0:0:0:
36,192,193664,1,0,0:0:0:0:
329,192,193733,1,0,0:0:0:0:
182,192,193801,1,0,0:0:0:0:
402,192,193869,1,0,0:0:0:0:
109,192,193937,1,0,0:0:0:0:
256,192,194005,1,0,0:0:0:0:
475,192,194074,1,0,0:0:0:0:
329,192,194142,1,0,0:0:0:0:
36,192,194210,1,0,0:0:0:0:
182,192,194278,1,0,0:0:0:0:
329,192,194346,1,0,0:0:0:0:
109,192,194414,1,0,0:0:0:0:
36,192,194414,1,0,0:0:0:0:
256,192,194414,1,0,0:0:0:0:
402,192,194414,1,0,0:0:0:0:
475,192,194414,1,0,0:0:0:0:
182,192,194483,1,0,0:0:0:0:
329,192,194551,1,0,0:0:0:0:
475,192,194619,1,0,0:0:0:0:
256,192,194687,1,0,0:0:0:0:
182,192,194755,1,0,0:0:0:0:
109,192,194824,1,0,0:0:0:0:
329,192,194892,1,0,0:0:0:0:
36,192,194960,1,0,0:0:0:0:
402,192,195028,1,0,0:0:0:0:
182,192,195096,1,0,0:0:0:0:
475,192,195164,1,0,0:0:0:0:
256,192,195233,1,0,0:0:0:0:
402,192,195301,1,0,0:0:0:0:
182,192,195369,1,0,0:0:0:0:
256,192,195437,1,0,0:0:0:0:
36,192,195505,128,0,195778:0:0:0:0:
109,192,195505,1,0,0:0:0:0:
329,192,195505,128,0,195778:0:0:0:0:
475,192,195505,1,0,0:0:0:0:
256,192,195642,1,0,0:0:0:0:
182,192,195642,1,0,0:0:0:0:
256,192,195778,1,0,0:0:0:0:
402,192,195778,128,0,196051:0:0:0:0:
109,192,195778,128,0,196051:0:0:0:0:
475,192,195778,1,0,0:0:0:0:
329,192,195914,1,0,0:0:0:0:
182,192,195914,1,0,0:0:0:0:
475,192,196051,1,0,0:0:0:0:
256,192,196051,1,0,0:0:0:0:
36,192,196051,1,0,0:0:0:0:
329,192,196187,1,0,0:0:0:0:
182,192,196187,1,0,0:0:0:0:
109,192,196324,1,0,0:0:0:0:
36,192,196324,1,0,0:0:0:0:
402,192,196324,1,0,0:0:0:0:
475,192,196324,1,0,0:0:0:0:
256,192,196324,1,0,0:0:0:0:
329,192,196460,1,0,0:0:0:0:
182,192,196460,1,0,0:0:0:0:
109,192,196596,1,0,0:0:0:0:
329,192,196596,1,0,0:0:0:0:
475,192,196596,1,0,0:0:0:0:
36,192,196596,1,0,0:0:0:0:
402,192,196596,1,0,0:0:0:0:
182,192,196596,1,0,0:0:0:0:
36,192,196733,1,0,0:0:0:0:
109,192,196733,1,0,0:0:0:0:
182,192,196733,1,0,0:0:0:0:
256,192,196733,1,0,0:0:0:0:
109,192,196869,1,0,0:0:0:0:
182,192,196869,1,0,0:0:0:0:
256,192,196869,1,0,0:0:0:0:
329,192,196869,1,0,0:0:0:0:
182,192,197005,1,0,0:0:0:0:
256,192,197005,1,0,0:0:0:0:
329,192,197005,1,0,0:0:0:0:
402,192,197005,1,0,0:0:0:0:
256,192,197142,1,0,0:0:0:0:
329,192,197142,1,0,0:0:0:0:
402,192,197142,1,0,0:0:0:0:
475,192,197142,1,0,0:0:0:0:
256,192,197278,1,0,0:0:0:0:
329,192,197278,1,0,0:0:0:0:
402,192,197278,1,0,0:0:0:0:
475,192,197278,1,0,0:0:0:0:
182,192,197414,1,0,0:0:0:0:
256,192,197414,1,0,0:0:0:0:
329,192,197414,1,0,0:0:0:0:
402,192,197414,1,0,0:0:0:0:
329,192,197551,1,0,0:0:0:0:
256,192,197551,1,0,0:0:0:0:
182,192,197551,1,0,0:0:0:0:
109,192,197551,1,0,0:0:0:0:
36,192,197687,1,0,0:0:0:0:
109,192,197687,1,0,0:0:0:0:
402,192,197687,1,0,0:0:0:0:
475,192,197687,1,0,0:0:0:0:
329,192,197824,1,0,0:0:0:0:
402,192,197824,1,0,0:0:0:0:
182,192,197824,1,0,0:0:0:0:
109,192,197824,1,0,0:0:0:0:
36,192,197960,1,0,0:0:0:0:
182,192,197960,1,0,0:0:0:0:
329,192,197960,1,0,0:0:0:0:
475,192,197960,1,0,0:0:0:0:
36,192,198096,1,0,0:0:0:0:
109,192,198096,1,0,0:0:0:0:
402,192,198096,1,0,0:0:0:0:
475,192,198096,1,0,0:0:0:0:
182,192,198233,1,0,0:0:0:0:
256,192,198233,1,0,0:0:0:0:
329,192,198233,1,0,0:0:0:0:
402,192,198233,1,0,0:0:0:0:
109,192,198369,1,0,0:0:0:0:
182,192,198369,1,0,0:0:0:0:
256,192,198369,1,0,0:0:0:0:
329,192,198369,1,0,0:0:0:0:
36,192,198505,1,0,0:0:0:0:
109,192,198505,1,0,0:0:0:0:
329,192,198505,1,0,0:0:0:0:
402,192,198505,1,0,0:0:0:0:
109,192,198642,1,0,0:0:0:0:
182,192,198642,1,0,0:0:0:0:
402,192,198642,1,0,0:0:0:0:
475,192,198642,1,0,0:0:0:0:
109,192,198778,1,0,0:0:0:0:
182,192,198778,1,0,0:0:0:0:
329,192,198778,1,0,0:0:0:0:
402,192,198778,1,0,0:0:0:0:
475,192,198778,1,0,0:0:0:0:
36,192,198778,1,0,0:0:0:0:
36,192,198914,1,0,0:0:0:0:
182,192,198914,1,0,0:0:0:0:
256,192,198914,1,0,0:0:0:0:
402,192,198914,1,0,0:0:0:0:
36,192,199051,1,0,0:0:0:0:
109,192,199051,1,0,0:0:0:0:
329,192,199051,1,0,0:0:0:0:
475,192,199051,1,0,0:0:0:0:
109,192,199187,1,0,0:0:0:0:
182,192,199187,1,0,0:0:0:0:
402,192,199187,1,0,0:0:0:0:
475,192,199187,1,0,0:0:0:0:
36,192,199324,1,0,0:0:0:0:
182,192,199324,1,0,0:0:0:0:
256,192,199324,1,0,0:0:0:0:
329,192,199324,1,0,0:0:0:0:
36,192,199460,1,0,0:0:0:0:
182,192,199460,1,0,0:0:0:0:
256,192,199460,1,0,0:0:0:0:
329,192,199460,1,0,0:0:0:0:
109,192,199596,1,0,0:0:0:0:
256,192,199596,1,0,0:0:0:0:
329,192,199596,1,0,0:0:0:0:
402,192,199596,1,0,0:0:0:0:
329,192,199733,1,0,0:0:0:0:
402,192,199733,1,0,0:0:0:0:
475,192,199733,1,0,0:0:0:0:
182,192,199733,1,0,0:0:0:0:
36,192,199869,1,0,0:0:0:0:
109,192,199869,1,0,0:0:0:0:
256,192,199869,1,0,0:0:0:0:
475,192,199869,1,0,0:0:0:0:
402,192,200005,1,0,0:0:0:0:
256,192,200005,1,0,0:0:0:0:
109,192,200005,1,0,0:0:0:0:
36,192,200005,1,0,0:0:0:0:
36,192,200142,1,0,0:0:0:0:
109,192,200142,1,0,0:0:0:0:
256,192,200142,1,0,0:0:0:0:
329,192,200142,1,0,0:0:0:0:
36,192,200278,1,0,0:0:0:0:
109,192,200278,1,0,0:0:0:0:
256,192,200278,1,0,0:0:0:0:
182,192,200278,1,0,0:0:0:0:
36,192,200414,1,0,0:0:0:0:
109,192,200414,1,0,0:0:0:0:
182,192,200414,1,0,0:0:0:0:
329,192,200414,1,0,0:0:0:0:
36,192,200551,1,0,0:0:0:0:
109,192,200551,1,0,0:0:0:0:
182,192,200551,1,0,0:0:0:0:
475,192,200551,1,0,0:0:0:0:
36,192,200687,1,0,0:0:0:0:
109,192,200687,1,0,0:0:0:0:
182,192,200687,1,0,0:0:0:0:
402,192,200687,1,0,0:0:0:0:
329,192,200687,1,0,0:0:0:0:
475,192,200687,1,0,0:0:0:0:
329,192,200824,1,0,0:0:0:0:
182,192,200824,1,0,0:0:0:0:
109,192,200824,1,0,0:0:0:0:
36,192,200824,1,0,0:0:0:0:
475,192,200960,1,0,0:0:0:0:
402,192,200960,1,0,0:0:0:0:
329,192,200960,1,0,0:0:0:0:
256,192,200960,1,0,0:0:0:0:
36,192,201028,1,0,0:0:0:0:
109,192,201028,1,0,0:0:0:0:
256,192,201096,1,0,0:0:0:0:
329,192,201096,1,0,0:0:0:0:
109,192,201164,1,0,0:0:0:0:
36,192,201164,1,0,0:0:0:0:
402,192,201233,1,0,0:0:0:0:
329,192,201233,1,0,0:0:0:0:
109,192,201301,1,0,0:0:0:0:
36,192,201301,1,0,0:0:0:0:
402,192,201369,1,0,0:0:0:0:
475,192,201369,1,0,0:0:0:0:
109,192,201437,1,0,0:0:0:0:
36,192,201437,1,0,0:0:0:0:
256,192,201505,1,0,0:0:0:0:
329,192,201505,1,0,0:0:0:0:
109,192,201574,1,0,0:0:0:0:
36,192,201574,1,0,0:0:0:0:
256,192,201642,1,0,0:0:0:0:
329,192,201642,1,0,0:0:0:0:
109,192,201710,1,0,0:0:0:0:
36,192,201710,1,0,0:0:0:0:
329,192,201778,1,0,0:0:0:0:
402,192,201778,1,0,0:0:0:0:
109,192,201846,1,0,0:0:0:0:
36,192,201846,1,0,0:0:0:0:
402,192,201914,1,0,0:0:0:0:
475,192,201914,1,0,0:0:0:0:
109,192,201983,1,0,0:0:0:0:
36,192,201983,1,0,0:0:0:0:
329,192,202051,1,0,0:0:0:0:
402,192,202051,1,0,0:0:0:0:
182,192,202119,1,0,0:0:0:0:
109,192,202119,1,0,0:0:0:0:
329,192,202187,1,0,0:0:0:0:
402,192,202187,1,0,0:0:0:0:
182,192,202255,1,0,0:0:0:0:
109,192,202255,1,0,0:0:0:0:
329,192,202324,1,0,0:0:0:0:
475,192,202324,1,0,0:0:0:0:
182,192,202392,1,0,0:0:0:0:
109,192,202392,1,0,0:0:0:0:
329,192,202460,1,0,0:0:0:0:
475,192,202460,1,0,0:0:0:0:
182,192,202528,1,0,0:0:0:0:
109,192,202528,1,0,0:0:0:0:
256,192,202596,1,0,0:0:0:0:
402,192,202596,1,0,0:0:0:0:
36,192,202664,1,0,0:0:0:0:
182,192,202664,1,0,0:0:0:0:
329,192,202733,1,0,0:0:0:0:
475,192,202733,1,0,0:0:0:0:
256,192,202801,1,0,0:0:0:0:
109,192,202801,1,0,0:0:0:0:
329,192,202869,1,0,0:0:0:0:
475,192,202869,1,0,0:0:0:0:
36,192,202937,1,0,0:0:0:0:
182,192,202937,1,0,0:0:0:0:
256,192,203005,1,0,0:0:0:0:
402,192,203005,1,0,0:0:0:0:
36,192,203074,1,0,0:0:0:0:
182,192,203074,1,0,0:0:0:0:
256,192,203142,1,0,0:0:0:0:
329,192,203142,1,0,0:0:0:0:
402,192,203142,1,0,0:0:0:0:
475,192,203142,1,0,0:0:0:0:
109,192,203210,1,0,0:0:0:0:
182,192,203210,1,0,0:0:0:0:
329,192,203278,1,0,0:0:0:0:
402,192,203278,1,0,0:0:0:0:
109,192,203346,1,0,0:0:0:0:
182,192,203346,1,0,0:0:0:0:
329,192,203414,1,0,0:0:0:0:
475,192,203414,1,0,0:0:0:0:
109,192,203483,1,0,0:0:0:0:
182,192,203483,1,0,0:0:0:0:
402,192,203551,1,0,0:0:0:0:
475,192,203551,1,0,0:0:0:0:
109,192,203619,1,0,0:0:0:0:
182,192,203619,1,0,0:0:0:0:
329,192,203687,1,0,0:0:0:0:
402,192,203687,1,0,0:0:0:0:
36,192,203755,1,0,0:0:0:0:
182,192,203755,1,0,0:0:0:0:
329,192,203824,1,0,0:0:0:0:
402,192,203824,1,0,0:0:0:0:
36,192,203892,1,0,0:0:0:0:
182,192,203892,1,0,0:0:0:0:
402,192,203960,1,0,0:0:0:0:
475,192,203960,1,0,0:0:0:0:
36,192,204028,1,0,0:0:0:0:
182,192,204028,1,0,0:0:0:0:
402,192,204096,1,0,0:0:0:0:
475,192,204096,1,0,0:0:0:0:
36,192,204164,1,0,0:0:0:0:
182,192,204164,1,0,0:0:0:0:
329,192,204233,1,0,0:0:0:0:
475,192,204233,1,0,0:0:0:0:
256,192,204233,128,0,204437:0:0:0:0:
36,192,204301,1,0,0:0:0:0:
182,192,204301,1,0,0:0:0:0:
329,192,204369,1,0,0:0:0:0:
475,192,204369,1,0,0:0:0:0:
182,192,204437,1,0,0:0:0:0:
36,192,204437,1,0,0:0:0:0:
256,192,204505,128,0,204710:0:0:0:0:
402,192,204505,1,0,0:0:0:0:
329,192,204505,1,0,0:0:0:0:
109,192,204574,1,0,0:0:0:0:
182,192,204574,1,0,0:0:0:0:
329,192,204642,1,0,0:0:0:0:
402,192,204642,1,0,0:0:0:0:
109,192,204710,1,0,0:0:0:0:
182,192,204710,1,0,0:0:0:0:
256,192,204778,1,0,0:0:0:0:
329,192,204778,1,0,0:0:0:0:
402,192,204778,1,0,0:0:0:0:
475,192,204778,1,0,0:0:0:0:
182,192,204846,1,0,0:0:0:0:
36,192,204846,1,0,0:0:0:0:
109,192,204846,1,0,0:0:0:0:
256,192,204914,1,0,0:0:0:0:
329,192,204914,1,0,0:0:0:0:
402,192,204914,1,0,0:0:0:0:
475,192,204914,1,0,0:0:0:0:
182,192,204983,1,0,0:0:0:0:
109,192,204983,1,0,0:0:0:0:
36,192,204983,1,0,0:0:0:0:
329,192,205051,1,0,0:0:0:0:
402,192,205051,1,0,0:0:0:0:
475,192,205051,1,0,0:0:0:0:
256,192,205051,1,0,0:0:0:0:
182,192,205119,1,0,0:0:0:0:
109,192,205119,1,0,0:0:0:0:
36,192,205119,1,0,0:0:0:0:
329,192,205187,1,0,0:0:0:0:
402,192,205187,1,0,0:0:0:0:
475,192,205187,1,0,0:0:0:0:
256,192,205255,1,0,0:0:0:0:
109,192,205255,1,0,0:0:0:0:
182,192,205255,1,0,0:0:0:0:
36,192,205324,128,0,206346:0:0:0:0:
475,192,205324,128,0,206346:0:0:0:0:
329,192,205324,1,0,0:0:0:0:
402,192,205324,1,0,0:0:0:0:
182,192,205460,128,0,205869:0:0:0:0:
256,192,205596,128,0,205664:0:0:0:0:
329,192,205664,128,0,205733:0:0:0:0:
402,192,205733,128,0,205801:0:0:0:0:
329,192,205801,128,0,205869:0:0:0:0:
109,192,205869,1,0,0:0:0:0:
256,192,205869,1,0,0:0:0:0:
402,192,206005,1,0,0:0:0:0:
329,192,206005,1,0,0:0:0:0:
256,192,206022,1,0,0:0:0:0:
182,192,206039,1,0,0:0:0:0:
109,192,206056,1,0,0:0:0:0:
402,192,206074,1,0,0:0:0:0:
329,192,206091,1,0,0:0:0:0:
256,192,206108,1,0,0:0:0:0:
182,192,206125,1,0,0:0:0:0:
109,192,206142,1,0,0:0:0:0:
402,192,206142,1,0,0:0:0:0:
329,192,206176,1,0,0:0:0:0:
256,192,206210,1,0,0:0:0:0:
182,192,206244,1,0,0:0:0:0:
109,192,206278,1,0,0:0:0:0:
402,192,206278,1,0,0:0:0:0:
329,192,206312,1,0,0:0:0:0:
256,192,206346,1,0,0:0:0:0:
182,192,206380,1,0,0:0:0:0:
36,192,206414,1,0,0:0:0:0:
109,192,206414,1,0,0:0:0:0:
402,192,206414,1,0,0:0:0:0:
475,192,206414,1,0,0:0:0:0:
329,192,206483,1,0,0:0:0:0:
256,192,206551,1,0,0:0:0:0:
182,192,206551,1,0,0:0:0:0:
109,192,206551,1,0,0:0:0:0:
402,192,206619,1,0,0:0:0:0:
329,192,206687,1,0,0:0:0:0:
256,192,206687,1,0,0:0:0:0:
182,192,206687,1,0,0:0:0:0:
475,192,206755,1,0,0:0:0:0:
402,192,206824,1,0,0:0:0:0:
329,192,206824,1,0,0:0:0:0:
256,192,206824,1,0,0:0:0:0:
109,192,206892,1,0,0:0:0:0:
329,192,206960,1,0,0:0:0:0:
402,192,206960,1,0,0:0:0:0:
475,192,206960,1,0,0:0:0:0:
256,192,207028,1,0,0:0:0:0:
36,192,207096,1,0,0:0:0:0:
109,192,207096,1,0,0:0:0:0:
182,192,207096,1,0,0:0:0:0:
329,192,207164,1,0,0:0:0:0:
182,192,207233,1,0,0:0:0:0:
109,192,207233,1,0,0:0:0:0:
36,192,207233,1,0,0:0:0:0:
402,192,207301,1,0,0:0:0:0:
182,192,207369,1,0,0:0:0:0:
109,192,207369,1,0,0:0:0:0:
36,192,207369,1,0,0:0:0:0:
329,192,207437,1,0,0:0:0:0:
256,192,207505,1,0,0:0:0:0:
402,192,207505,1,0,0:0:0:0:
475,192,207505,1,0,0:0:0:0:
182,192,207574,1,0,0:0:0:0:
109,192,207642,1,0,0:0:0:0:
36,192,207642,1,0,0:0:0:0:
329,192,207642,1,0,0:0:0:0:
402,192,207710,1,0,0:0:0:0:
256,192,207778,1,0,0:0:0:0:
475,192,207778,1,0,0:0:0:0:
182,192,207778,1,0,0:0:0:0:
329,192,207846,1,0,0:0:0:0:
402,192,207914,1,0,0:0:0:0:
109,192,207914,1,0,0:0:0:0:
36,192,207914,1,0,0:0:0:0:
182,192,207983,1,0,0:0:0:0:
256,192,208051,1,0,0:0:0:0:
475,192,208051,1,0,0:0:0:0:
109,192,208119,1,0,0:0:0:0:
182,192,208187,1,0,0:0:0:0:
329,192,208187,1,0,0:0:0:0:
402,192,208187,1,0,0:0:0:0:
475,192,208255,1,0,0:0:0:0:
36,192,208324,1,0,0:0:0:0:
109,192,208324,1,0,0:0:0:0:
256,192,208324,1,0,0:0:0:0:
329,192,208392,1,0,0:0:0:0:
402,192,208460,1,0,0:0:0:0:
475,192,208460,1,0,0:0:0:0:
182,192,208460,1,0,0:0:0:0:
36,192,208528,1,0,0:0:0:0:
109,192,208528,1,0,0:0:0:0:
256,192,208528,1,0,0:0:0:0:
329,192,208596,1,0,0:0:0:0:
402,192,208596,1,0,0:0:0:0:
475,192,208596,1,0,0:0:0:0:
182,192,208664,1,0,0:0:0:0:
329,192,208733,1,0,0:0:0:0:
402,192,208733,1,0,0:0:0:0:
475,192,208733,1,0,0:0:0:0:
36,192,208801,1,0,0:0:0:0:
109,192,208869,1,0,0:0:0:0:
182,192,208869,1,0,0:0:0:0:
256,192,208869,1,0,0:0:0:0:
402,192,208937,1,0,0:0:0:0:
182,192,209005,1,0,0:0:0:0:
256,192,209005,1,0,0:0:0:0:
329,192,209005,1,0,0:0:0:0:
475,192,209074,1,0,0:0:0:0:
36,192,209142,1,0,0:0:0:0:
109,192,209142,1,0,0:0:0:0:
402,192,209142,1,0,0:0:0:0:
256,192,209210,1,0,0:0:0:0:
109,192,209278,1,0,0:0:0:0:
182,192,209278,1,0,0:0:0:0:
475,192,209278,1,0,0:0:0:0:
329,192,209346,1,0,0:0:0:0:
256,192,209414,1,0,0:0:0:0:
182,192,209414,1,0,0:0:0:0:
36,192,209414,1,0,0:0:0:0:
402,192,209483,1,0,0:0:0:0:
109,192,209551,1,0,0:0:0:0:
329,192,209551,1,0,0:0:0:0:
256,192,209551,1,0,0:0:0:0:
475,192,209619,1,0,0:0:0:0:
36,192,209687,1,0,0:0:0:0:
109,192,209687,1,0,0:0:0:0:
182,192,209687,1,0,0:0:0:0:
329,192,209755,1,0,0:0:0:0:
475,192,209755,1,0,0:0:0:0:
36,192,209824,1,0,0:0:0:0:
109,192,209824,1,0,0:0:0:0:
182,192,209858,1,0,0:0:0:0:
256,192,209892,1,0,0:0:0:0:
329,192,209926,1,0,0:0:0:0:
402,192,209960,1,0,0:0:0:0:
475,192,209960,1,0,0:0:0:0:
36,192,209960,1,0,0:0:0:0:
109,192,210028,1,0,0:0:0:0:
182,192,210028,1,0,0:0:0:0:
402,192,210096,1,0,0:0:0:0:
475,192,210096,1,0,0:0:0:0:
329,192,210130,1,0,0:0:0:0:
256,192,210164,1,0,0:0:0:0:
182,192,210199,1,0,0:0:0:0:
109,192,210233,1,0,0:0:0:0:
36,192,210233,1,0,0:0:0:0:
475,192,210233,1,0,0:0:0:0:
402,192,210301,1,0,0:0:0:0:
329,192,210301,1,0,0:0:0:0:
36,192,210369,1,0,0:0:0:0:
182,192,210369,1,0,0:0:0:0:
475,192,210403,1,0,0:0:0:0:
329,192,210437,1,0,0:0:0:0:
182,192,210471,1,0,0:0:0:0:
36,192,210505,1,0,0:0:0:0:
109,192,210505,1,0,0:0:0:0:
402,192,210505,1,0,0:0:0:0:
256,192,210642,128,0,210778:0:0:0:0:
475,192,210642,128,0,210778:0:0:0:0:
402,192,210642,128,0,210778:0:0:0:0:
36,192,210778,1,0,0:0:0:0:
109,192,210778,1,0,0:0:0:0:
182,192,210778,1,0,0:0:0:0:
256,192,210846,1,0,0:0:0:0:
329,192,210914,1,0,0:0:0:0:
402,192,210914,1,0,0:0:0:0:
475,192,210914,1,0,0:0:0:0:
109,192,210983,1,0,0:0:0:0:
182,192,211051,1,0,0:0:0:0:
256,192,211051,1,0,0:0:0:0:
329,192,211051,1,0,0:0:0:0:
402,192,211119,1,0,0:0:0:0:
36,192,211187,1,0,0:0:0:0:
182,192,211187,1,0,0:0:0:0:
109,192,211187,1,0,0:0:0:0:
256,192,211255,1,0,0:0:0:0:
329,192,211324,1,0,0:0:0:0:
402,192,211324,1,0,0:0:0:0:
475,192,211324,1,0,0:0:0:0:
256,192,211392,1,0,0:0:0:0:
182,192,211460,1,0,0:0:0:0:
109,192,211460,1,0,0:0:0:0:
36,192,211460,1,0,0:0:0:0:
402,192,211528,1,0,0:0:0:0:
329,192,211596,1,0,0:0:0:0:
256,192,211596,1,0,0:0:0:0:
182,192,211596,1,0,0:0:0:0:
109,192,211664,1,0,0:0:0:0:
475,192,211733,1,0,0:0:0:0:
402,192,211733,1,0,0:0:0:0:
329,192,211733,1,0,0:0:0:0:
256,192,211801,1,0,0:0:0:0:
109,192,211869,1,0,0:0:0:0:
402,192,211869,1,0,0:0:0:0:
36,192,211869,1,0,0:0:0:0:
475,192,211869,1,0,0:0:0:0:
36,192,212005,1,0,0:0:0:0:
182,192,212005,1,0,0:0:0:0:
329,192,212005,1,0,0:0:0:0:
475,192,212005,1,0,0:0:0:0:
109,192,212142,1,0,0:0:0:0:
182,192,212142,1,0,0:0:0:0:
329,192,212142,1,0,0:0:0:0:
402,192,212142,1,0,0:0:0:0:
109,192,212278,1,0,0:0:0:0:
402,192,212278,1,0,0:0:0:0:
182,192,212278,1,0,0:0:0:0:
329,192,212278,1,0,0:0:0:0:
36,192,212414,1,0,0:0:0:0:
109,192,212414,1,0,0:0:0:0:
402,192,212414,1,0,0:0:0:0:
475,192,212414,1,0,0:0:0:0:
36,192,212551,1,0,0:0:0:0:
182,192,212551,1,0,0:0:0:0:
329,192,212551,1,0,0:0:0:0:
475,192,212551,1,0,0:0:0:0:
109,192,212687,1,0,0:0:0:0:
402,192,212687,1,0,0:0:0:0:
182,192,212687,1,0,0:0:0:0:
329,192,212687,1,0,0:0:0:0:
36,192,212824,1,0,0:0:0:0:
109,192,212824,1,0,0:0:0:0:
402,192,212824,1,0,0:0:0:0:
475,192,212824,1,0,0:0:0:0:
182,192,212892,1,0,0:0:0:0:
256,192,212892,1,0,0:0:0:0:
329,192,212892,1,0,0:0:0:0:
109,192,212960,1,0,0:0:0:0:
36,192,212960,1,0,0:0:0:0:
402,192,212960,1,0,0:0:0:0:
475,192,212960,1,0,0:0:0:0:
182,192,213028,1,0,0:0:0:0:
256,192,213096,1,0,0:0:0:0:
402,192,213096,1,0,0:0:0:0:
329,192,213096,1,0,0:0:0:0:
109,192,213164,1,0,0:0:0:0:
182,192,213233,1,0,0:0:0:0:
329,192,213233,1,0,0:0:0:0:
475,192,213233,1,0,0:0:0:0:
36,192,213301,1,0,0:0:0:0:
109,192,213369,1,0,0:0:0:0:
256,192,213369,1,0,0:0:0:0:
402,192,213369,1,0,0:0:0:0:
475,192,213437,1,0,0:0:0:0:
36,192,213505,1,0,0:0:0:0:
182,192,213505,1,0,0:0:0:0:
329,192,213505,1,0,0:0:0:0:
402,192,213574,1,0,0:0:0:0:
475,192,213642,1,0,0:0:0:0:
256,192,213642,1,0,0:0:0:0:
109,192,213642,1,0,0:0:0:0:
36,192,213710,1,0,0:0:0:0:
182,192,213778,1,0,0:0:0:0:
329,192,213778,1,0,0:0:0:0:
402,192,213778,1,0,0:0:0:0:
109,192,213846,1,0,0:0:0:0:
256,192,213914,1,0,0:0:0:0:
475,192,213914,1,0,0:0:0:0:
36,192,213914,1,0,0:0:0:0:
182,192,213983,1,0,0:0:0:0:
329,192,214051,1,0,0:0:0:0:
402,192,214051,1,0,0:0:0:0:
109,192,214051,1,0,0:0:0:0:
256,192,214187,128,0,214596:0:0:0:0:
36,192,214187,128,0,214324:0:0:0:0:
329,192,214187,128,0,214324:0:0:0:0:
402,192,214187,128,0,214255:0:0:0:0:
109,192,214255,128,0,214324:0:0:0:0:
182,192,214324,128,0,214460:0:0:0:0:
402,192,214324,128,0,214460:0:0:0:0:
475,192,214324,128,0,214392:0:0:0:0:
109,192,214392,128,0,214460:0:0:0:0:
36,192,214460,128,0,214596:0:0:0:0:
475,192,214460,128,0,214596:0:0:0:0:
329,192,214460,128,0,214528:0:0:0:0:
109,192,214528,128,0,214596:0:0:0:0:
182,192,214596,1,0,0:0:0:0:
402,192,214596,1,0,0:0:0:0:
329,192,214596,1,0,0:0:0:0:
256,192,214733,1,0,0:0:0:0:
182,192,214767,1,0,0:0:0:0:
109,192,214801,1,0,0:0:0:0:
36,192,214835,1,0,0:0:0:0:
475,192,214869,1,0,0:0:0:0:
402,192,214869,1,0,0:0:0:0:
329,192,214903,1,0,0:0:0:0:
256,192,214937,1,0,0:0:0:0:
182,192,214971,1,0,0:0:0:0:
475,192,215005,1,0,0:0:0:0:
109,192,215005,1,0,0:0:0:0:
402,192,215039,1,0,0:0:0:0:
329,192,215074,1,0,0:0:0:0:
256,192,215108,1,0,0:0:0:0:
475,192,215142,1,0,0:0:0:0:
36,192,215142,1,0,0:0:0:0:
402,192,215142,1,0,0:0:0:0:
182,192,215142,128,0,215278:0:0:0:0:
109,192,215142,1,0,0:0:0:0:
256,192,215278,128,0,215414:0:0:0:0:
36,192,215278,1,0,0:0:0:0:
109,192,215278,1,0,0:0:0:0:
402,192,215278,1,0,0:0:0:0:
475,192,215278,1,0,0:0:0:0:
329,192,215278,1,0,0:0:0:0:
329,192,215414,128,0,215551:0:0:0:0:
475,192,215414,1,0,0:0:0:0:
182,192,215414,1,0,0:0:0:0:
109,192,215414,1,0,0:0:0:0:
36,192,215414,1,0,0:0:0:0:
402,192,215414,1,0,0:0:0:0:
402,192,215551,128,0,215687:0:0:0:0:
36,192,215551,1,0,0:0:0:0:
182,192,215551,1,0,0:0:0:0:
256,192,215551,1,0,0:0:0:0:
475,192,215551,1,0,0:0:0:0:
109,192,215551,1,0,0:0:0:0:
109,192,215687,128,0,215824:0:0:0:0:
182,192,215687,1,0,0:0:0:0:
256,192,215687,1,0,0:0:0:0:
329,192,215687,1,0,0:0:0:0:
475,192,215687,1,0,0:0:0:0:
36,192,215687,1,0,0:0:0:0:
182,192,215824,128,0,215960:0:0:0:0:
329,192,215824,1,0,0:0:0:0:
402,192,215824,1,0,0:0:0:0:
475,192,215824,1,0,0:0:0:0:
36,192,215824,1,0,0:0:0:0:
256,192,215824,1,0,0:0:0:0:
256,192,215960,128,0,216096:0:0:0:0:
36,192,215960,1,0,0:0:0:0:
109,192,215960,1,0,0:0:0:0:
402,192,215960,1,0,0:0:0:0:
475,192,215960,1,0,0:0:0:0:
329,192,215960,1,0,0:0:0:0:
329,192,216096,128,0,216233:0:0:0:0:
475,192,216096,1,0,0:0:0:0:
182,192,216096,1,0,0:0:0:0:
109,192,216096,1,0,0:0:0:0:
36,192,216096,1,0,0:0:0:0:
402,192,216096,1,0,0:0:0:0:
475,192,216233,128,0,216369:0:0:0:0:
36,192,216233,1,0,0:0:0:0:
109,192,216233,1,0,0:0:0:0:
182,192,216233,1,0,0:0:0:0:
256,192,216233,1,0,0:0:0:0:
402,192,216233,1,0,0:0:0:0:
402,192,216369,128,0,216505:0:0:0:0:
256,192,216369,1,0,0:0:0:0:
182,192,216369,1,0,0:0:0:0:
109,192,216369,1,0,0:0:0:0:
36,192,216369,1,0,0:0:0:0:
329,192,216369,1,0,0:0:0:0:
329,192,216505,128,0,216642:0:0:0:0:
36,192,216505,1,0,0:0:0:0:
109,192,216505,1,0,0:0:0:0:
182,192,216505,1,0,0:0:0:0:
475,192,216505,1,0,0:0:0:0:
256,192,216505,1,0,0:0:0:0:
256,192,216642,128,0,216778:0:0:0:0:
475,192,216642,1,0,0:0:0:0:
402,192,216642,1,0,0:0:0:0:
109,192,216642,1,0,0:0:0:0:
36,192,216642,1,0,0:0:0:0:
182,192,216642,1,0,0:0:0:0:
182,192,216778,128,0,216914:0:0:0:0:
475,192,216778,1,0,0:0:0:0:
402,192,216778,1,0,0:0:0:0:
329,192,216778,1,0,0:0:0:0:
109,192,216778,1,0,0:0:0:0:
36,192,216778,1,0,0:0:0:0:
36,192,216914,128,0,217051:0:0:0:0:
256,192,216914,1,0,0:0:0:0:
329,192,216914,1,0,0:0:0:0:
402,192,216914,1,0,0:0:0:0:
475,192,216914,1,0,0:0:0:0:
109,192,216914,1,0,0:0:0:0:
109,192,217051,128,0,217187:0:0:0:0:
256,192,217051,1,0,0:0:0:0:
329,192,217051,1,0,0:0:0:0:
402,192,217051,1,0,0:0:0:0:
475,192,217051,1,0,0:0:0:0:
182,192,217051,1,0,0:0:0:0:
182,192,217187,128,0,217324:0:0:0:0:
402,192,217187,1,0,0:0:0:0:
475,192,217187,1,0,0:0:0:0:
329,192,217255,1,0,0:0:0:0:
256,192,217255,1,0,0:0:0:0:
402,192,217324,1,0,0:0:0:0:
475,192,217324,1,0,0:0:0:0:
36,192,217324,128,0,217460:0:0:0:0:
182,192,217460,128,0,217596:0:0:0:0:
256,192,217460,1,0,0:0:0:0:
329,192,217460,1,0,0:0:0:0:
402,192,217460,1,0,0:0:0:0:
475,192,217460,1,0,0:0:0:0:
109,192,217460,1,0,0:0:0:0:
256,192,217596,128,0,217733:0:0:0:0:
36,192,217596,1,0,0:0:0:0:
109,192,217596,1,0,0:0:0:0:
402,192,217596,1,0,0:0:0:0:
475,192,217596,1,0,0:0:0:0:
329,192,217596,1,0,0:0:0:0:
329,192,217733,128,0,217869:0:0:0:0:
402,192,217733,1,0,0:0:0:0:
475,192,217733,1,0,0:0:0:0:
109,192,217733,1,0,0:0:0:0:
36,192,217733,1,0,0:0:0:0:
182,192,217733,1,0,0:0:0:0:
109,192,217869,128,0,218005:0:0:0:0:
182,192,217869,1,0,0:0:0:0:
256,192,217869,1,0,0:0:0:0:
402,192,217869,1,0,0:0:0:0:
475,192,217869,1,0,0:0:0:0:
36,192,217869,1,0,0:0:0:0:
256,192,218005,128,0,218142:0:0:0:0:
329,192,218005,1,0,0:0:0:0:
402,192,218005,1,0,0:0:0:0:
475,192,218005,1,0,0:0:0:0:
36,192,218005,1,0,0:0:0:0:
182,192,218005,1,0,0:0:0:0:
329,192,218142,128,0,218278:0:0:0:0:
36,192,218142,1,0,0:0:0:0:
109,192,218142,1,0,0:0:0:0:
182,192,218142,1,0,0:0:0:0:
475,192,218142,1,0,0:0:0:0:
402,192,218142,1,0,0:0:0:0:
402,192,218278,128,0,218414:0:0:0:0:
36,192,218278,1,0,0:0:0:0:
109,192,218278,1,0,0:0:0:0:
182,192,218278,1,0,0:0:0:0:
256,192,218278,1,0,0:0:0:0:
475,192,218278,1,0,0:0:0:0:
475,192,218414,128,0,218551:0:0:0:0:
256,192,218414,1,0,0:0:0:0:
182,192,218414,1,0,0:0:0:0:
109,192,218414,1,0,0:0:0:0:
36,192,218414,1,0,0:0:0:0:
329,192,218483,1,0,0:0:0:0:
402,192,218551,128,0,218687:0:0:0:0:
36,192,218551,1,0,0:0:0:0:
109,192,218551,1,0,0:0:0:0:
182,192,218551,1,0,0:0:0:0:
256,192,218551,1,0,0:0:0:0:
329,192,218687,128,0,218824:0:0:0:0:
109,192,218687,1,0,0:0:0:0:
36,192,218687,1,0,0:0:0:0:
475,192,218687,1,0,0:0:0:0:
256,192,218687,1,0,0:0:0:0:
182,192,218755,1,0,0:0:0:0:
256,192,218824,128,0,218960:0:0:0:0:
36,192,218824,1,0,0:0:0:0:
109,192,218824,1,0,0:0:0:0:
475,192,218824,1,0,0:0:0:0:
402,192,218824,1,0,0:0:0:0:
182,192,218960,128,0,219096:0:0:0:0:
36,192,218960,1,0,0:0:0:0:
475,192,218960,1,0,0:0:0:0:
109,192,218960,1,0,0:0:0:0:
402,192,218960,1,0,0:0:0:0:
329,192,219028,1,0,0:0:0:0:
402,192,219096,128,0,219233:0:0:0:0:
256,192,219096,1,0,0:0:0:0:
36,192,219096,128,0,219437:0:0:0:0:
329,192,219233,128,0,219369:0:0:0:0:
109,192,219233,1,0,0:0:0:0:
182,192,219233,1,0,0:0:0:0:
475,192,219233,1,0,0:0:0:0:
256,192,219369,128,0,222710:0:0:0:0:
109,192,219505,128,0,219574:0:0:0:0:
182,192,219505,128,0,219574:0:0:0:0:
329,192,219505,128,0,219574:0:0:0:0:
402,192,219505,128,0,219710:0:0:0:0:
475,192,219505,128,0,219846:0:0:0:0:
36,192,219505,128,0,219574:0:0:0:0:
36,192,219642,128,0,219710:0:0:0:0:
109,192,219642,128,0,219710:0:0:0:0:
182,192,219642,128,0,219710:0:0:0:0:
329,192,219642,128,0,219983:0:0:0:0:
36,192,219778,128,0,219846:0:0:0:0:
109,192,219778,128,0,219846:0:0:0:0:
182,192,219778,128,0,219846:0:0:0:0:
402,192,219778,128,0,220255:0:0:0:0:
182,192,219914,128,0,219983:0:0:0:0:
109,192,219914,128,0,219983:0:0:0:0:
36,192,219914,128,0,219983:0:0:0:0:
475,192,219914,128,0,220392:0:0:0:0:
36,192,220051,128,0,220119:0:0:0:0:
109,192,220051,128,0,220119:0:0:0:0:
182,192,220051,128,0,220119:0:0:0:0:
329,192,220051,128,0,220119:0:0:0:0:
182,192,220187,128,0,220255:0:0:0:0:
109,192,220187,128,0,220255:0:0:0:0:
36,192,220187,128,0,220255:0:0:0:0:
329,192,220187,128,0,220528:0:0:0:0:
36,192,220324,128,0,220392:0:0:0:0:
109,192,220324,128,0,220392:0:0:0:0:
182,192,220324,128,0,220392:0:0:0:0:
402,192,220324,128,0,220528:0:0:0:0:
182,192,220460,128,0,220528:0:0:0:0:
36,192,220460,128,0,220801:0:0:0:0:
109,192,220460,128,0,220664:0:0:0:0:
475,192,220460,128,0,220528:0:0:0:0:
182,192,220596,128,0,220937:0:0:0:0:
329,192,220596,128,0,220664:0:0:0:0:
402,192,220596,128,0,220664:0:0:0:0:
475,192,220596,128,0,220664:0:0:0:0:
109,192,220733,128,0,221074:0:0:0:0:
329,192,220733,128,0,220801:0:0:0:0:
402,192,220733,128,0,220801:0:0:0:0:
475,192,220733,128,0,220801:0:0:0:0:
36,192,220869,128,0,221210:0:0:0:0:
329,192,220869,128,0,220937:0:0:0:0:
402,192,220869,128,0,220937:0:0:0:0:
475,192,220869,128,0,220937:0:0:0:0:
182,192,221005,128,0,221483:0:0:0:0:
329,192,221005,128,0,221074:0:0:0:0:
402,192,221005,128,0,221074:0:0:0:0:
475,192,221005,128,0,221074:0:0:0:0:
109,192,221142,128,0,221346:0:0:0:0:
329,192,221142,128,0,221210:0:0:0:0:
402,192,221142,128,0,221210:0:0:0:0:
475,192,221142,128,0,221210:0:0:0:0:
329,192,221278,128,0,221346:0:0:0:0:
402,192,221278,128,0,221346:0:0:0:0:
475,192,221278,128,0,221346:0:0:0:0:
36,192,221278,128,0,221619:0:0:0:0:
329,192,221414,128,0,221483:0:0:0:0:
402,192,221414,128,0,221483:0:0:0:0:
475,192,221414,128,0,221483:0:0:0:0:
109,192,221414,128,0,221619:0:0:0:0:
182,192,221551,128,0,221619:0:0:0:0:
329,192,221551,128,0,221619:0:0:0:0:
402,192,221551,128,0,221892:0:0:0:0:
475,192,221551,128,0,222028:0:0:0:0:
182,192,221687,128,0,221755:0:0:0:0:
36,192,221687,128,0,221755:0:0:0:0:
109,192,221687,128,0,221755:0:0:0:0:
329,192,221687,128,0,221755:0:0:0:0:
36,192,221824,128,0,221892:0:0:0:0:
109,192,221824,128,0,221892:0:0:0:0:
182,192,221824,128,0,221892:0:0:0:0:
329,192,221824,128,0,222164:0:0:0:0:
36,192,221960,128,0,222028:0:0:0:0:
182,192,221960,128,0,222028:0:0:0:0:
109,192,221960,128,0,222028:0:0:0:0:
402,192,221960,128,0,222437:0:0:0:0:
182,192,222096,128,0,222164:0:0:0:0:
109,192,222096,128,0,222164:0:0:0:0:
36,192,222096,128,0,222164:0:0:0:0:
475,192,222096,128,0,222574:0:0:0:0:
109,192,222233,128,0,222301:0:0:0:0:
182,192,222233,128,0,222301:0:0:0:0:
36,192,222233,128,0,222301:0:0:0:0:
329,192,222233,128,0,222301:0:0:0:0:
109,192,222369,128,0,222437:0:0:0:0:
182,192,222369,128,0,222437:0:0:0:0:
36,192,222369,128,0,222437:0:0:0:0:
329,192,222369,128,0,222710:0:0:0:0:
182,192,222505,128,0,222574:0:0:0:0:
109,192,222505,128,0,222574:0:0:0:0:
36,192,222505,128,0,222574:0:0:0:0:
402,192,222505,128,0,222710:0:0:0:0:
36,192,222642,128,0,222710:0:0:0:0:
109,192,222642,128,0,222710:0:0:0:0:
182,192,222642,128,0,222710:0:0:0:0:
475,192,222642,128,0,222710:0:0:0:0:
36,192,222778,1,0,0:0:0:0:
109,192,222778,1,0,0:0:0:0:
182,192,222778,1,0,0:0:0:0:
256,192,222778,1,0,0:0:0:0:
329,192,222778,1,0,0:0:0:0:
402,192,222778,1,0,0:0:0:0:
475,192,222778,1,0,0:0:0:0:
256,192,222914,1,0,0:0:0:0:
36,192,222914,128,0,223051:0:0:0:0:
329,192,222983,1,0,0:0:0:0:
109,192,222983,128,0,223119:0:0:0:0:
402,192,223051,1,0,0:0:0:0:
182,192,223051,128,0,223187:0:0:0:0:
475,192,223119,1,0,0:0:0:0:
256,192,223119,128,0,223255:0:0:0:0:
36,192,223119,1,0,0:0:0:0:
329,192,223187,128,0,223324:0:0:0:0:
109,192,223187,1,0,0:0:0:0:
402,192,223255,128,0,223392:0:0:0:0:
182,192,223255,1,0,0:0:0:0:
256,192,223324,1,0,0:0:0:0:
475,192,223324,128,0,223733:0:0:0:0:
36,192,223324,1,0,0:0:0:0:
109,192,223324,1,0,0:0:0:0:
329,192,223392,1,0,0:0:0:0:
182,192,223460,1,0,0:0:0:0:
256,192,223494,1,0,0:0:0:0:
329,192,223528,1,0,0:0:0:0:
402,192,223562,1,0,0:0:0:0:
36,192,223596,1,0,0:0:0:0:
109,192,223630,1,0,0:0:0:0:
182,192,223664,1,0,0:0:0:0:
256,192,223699,1,0,0:0:0:0:
329,192,223733,1,0,0:0:0:0:
402,192,223767,1,0,0:0:0:0:
256,192,223801,1,0,0:0:0:0:
36,192,223869,5,0,0:0:0:0:
109,192,223869,1,0,0:0:0:0:
182,192,223869,1,0,0:0:0:0:
329,192,223869,1,0,0:0:0:0:
475,192,223869,1,0,0:0:0:0:
402,192,223869,1,0,0:0:0:0:
256,192,223937,1,0,0:0:0:0:
109,192,224005,1,0,0:0:0:0:
0,0,224074,1,0,0:0:0:0:
182,192,224142,1,0,0:0:0:0:
329,192,224210,1,0,0:0:0:0:
109,192,224278,1,0,0:0:0:0:
402,192,224346,1,0,0:0:0:0:
36,192,224414,1,0,0:0:0:0:
109,192,224414,1,0,0:0:0:0:
182,192,224414,1,0,0:0:0:0:
329,192,224414,1,0,0:0:0:0:
475,192,224414,1,0,0:0:0:0:
256,192,224414,1,0,0:0:0:0:
402,192,224483,1,0,0:0:0:0:
182,192,224551,1,0,0:0:0:0:
36,192,224619,1,0,0:0:0:0:
329,192,224687,1,0,0:0:0:0:
109,192,224755,1,0,0:0:0:0:
402,192,224824,1,0,0:0:0:0:
256,192,224892,1,0,0:0:0:0:
36,192,224960,1,0,0:0:0:0:
182,192,224960,1,0,0:0:0:0:
109,192,224960,1,0,0:0:0:0:
329,192,224960,1,0,0:0:0:0:
402,192,224960,1,0,0:0:0:0:
475,192,224960,1,0,0:0:0:0:
256,192,225028,1,0,0:0:0:0:
402,192,225096,1,0,0:0:0:0:
329,192,225164,1,0,0:0:0:0:
182,192,225233,1,0,0:0:0:0:
109,192,225233,1,0,0:0:0:0:
36,192,225233,1,0,0:0:0:0:
402,192,225233,1,0,0:0:0:0:
475,192,225233,1,0,0:0:0:0:
256,192,225233,1,0,0:0:0:0:
329,192,225301,1,0,0:0:0:0:
109,192,225369,1,0,0:0:0:0:
182,192,225437,1,0,0:0:0:0:
329,192,225505,1,0,0:0:0:0:
109,192,225505,1,0,0:0:0:0:
36,192,225505,1,0,0:0:0:0:
402,192,225505,1,0,0:0:0:0:
475,192,225505,1,0,0:0:0:0:
256,192,225505,1,0,0:0:0:0:
182,192,225574,1,0,0:0:0:0:
402,192,225642,1,0,0:0:0:0:
109,192,225710,1,0,0:0:0:0:
329,192,225778,1,0,0:0:0:0:
182,192,225846,1,0,0:0:0:0:
402,192,225914,1,0,0:0:0:0:
256,192,225983,1,0,0:0:0:0:
182,192,226051,1,0,0:0:0:0:
109,192,226051,1,0,0:0:0:0:
36,192,226051,1,0,0:0:0:0:
329,192,226051,1,0,0:0:0:0:
402,192,226051,1,0,0:0:0:0:
475,192,226051,1,0,0:0:0:0:
256,192,226119,1,0,0:0:0:0:
36,192,226187,1,0,0:0:0:0:
329,192,226255,1,0,0:0:0:0:
109,192,226324,1,0,0:0:0:0:
402,192,226392,1,0,0:0:0:0:
182,192,226460,1,0,0:0:0:0:
475,192,226528,1,0,0:0:0:0:
36,192,226596,1,0,0:0:0:0:
109,192,226596,1,0,0:0:0:0:
182,192,226596,1,0,0:0:0:0:
256,192,226596,1,0,0:0:0:0:
329,192,226596,1,0,0:0:0:0:
402,192,226596,1,0,0:0:0:0:
475,192,226664,1,0,0:0:0:0:
36,192,226733,1,0,0:0:0:0:
329,192,226801,1,0,0:0:0:0:
109,192,226869,1,0,0:0:0:0:
402,192,226937,1,0,0:0:0:0:
182,192,227005,1,0,0:0:0:0:
475,192,227074,1,0,0:0:0:0:
36,192,227142,1,0,0:0:0:0:
109,192,227142,1,0,0:0:0:0:
182,192,227142,1,0,0:0:0:0:
256,192,227142,1,0,0:0:0:0:
329,192,227142,1,0,0:0:0:0:
402,192,227142,1,0,0:0:0:0:
475,192,227210,1,0,0:0:0:0:
109,192,227278,1,0,0:0:0:0:
256,192,227346,1,0,0:0:0:0:
36,192,227414,1,0,0:0:0:0:
109,192,227414,1,0,0:0:0:0:
182,192,227414,1,0,0:0:0:0:
475,192,227414,1,0,0:0:0:0:
329,192,227414,1,0,0:0:0:0:
402,192,227414,1,0,0:0:0:0:
256,192,227483,1,0,0:0:0:0:
36,192,227551,1,0,0:0:0:0:
182,192,227551,1,0,0:0:0:0:
109,192,227551,1,0,0:0:0:0:
329,192,227551,1,0,0:0:0:0:
402,192,227551,1,0,0:0:0:0:
475,192,227551,1,0,0:0:0:0:
256,192,227619,1,0,0:0:0:0:
182,192,227687,1,0,0:0:0:0:
109,192,227687,1,0,0:0:0:0:
36,192,227687,1,0,0:0:0:0:
329,192,227687,1,0,0:0:0:0:
402,192,227687,1,0,0:0:0:0:
475,192,227687,1,0,0:0:0:0:
256,192,227755,1,0,0:0:0:0:
475,192,227824,1,0,0:0:0:0:
109,192,227892,1,0,0:0:0:0:
402,192,227960,1,0,0:0:0:0:
36,192,228028,1,0,0:0:0:0:
329,192,228096,1,0,0:0:0:0:
182,192,228164,1,0,0:0:0:0:
36,192,228233,1,0,0:0:0:0:
109,192,228233,1,0,0:0:0:0:
256,192,228233,1,0,0:0:0:0:
329,192,228233,1,0,0:0:0:0:
402,192,228233,1,0,0:0:0:0:
475,192,228233,1,0,0:0:0:0:
182,192,228301,1,0,0:0:0:0:
402,192,228369,1,0,0:0:0:0:
109,192,228437,1,0,0:0:0:0:
475,192,228505,1,0,0:0:0:0:
36,192,228505,1,0,0:0:0:0:
182,192,228574,1,0,0:0:0:0:
402,192,228642,1,0,0:0:0:0:
256,192,228710,1,0,0:0:0:0:
36,192,228778,1,0,0:0:0:0:
109,192,228778,1,0,0:0:0:0:
182,192,228778,1,0,0:0:0:0:
329,192,228778,1,0,0:0:0:0:
402,192,228778,1,0,0:0:0:0:
475,192,228778,1,0,0:0:0:0:
256,192,228846,1,0,0:0:0:0:
36,192,228914,1,0,0:0:0:0:
329,192,228983,1,0,0:0:0:0:
109,192,229051,1,0,0:0:0:0:
475,192,229051,1,0,0:0:0:0:
402,192,229119,1,0,0:0:0:0:
182,192,229187,1,0,0:0:0:0:
329,192,229255,1,0,0:0:0:0:
36,192,229324,1,0,0:0:0:0:
109,192,229324,1,0,0:0:0:0:
182,192,229324,1,0,0:0:0:0:
256,192,229324,1,0,0:0:0:0:
402,192,229324,1,0,0:0:0:0:
475,192,229324,1,0,0:0:0:0:
329,192,229392,1,0,0:0:0:0:
36,192,229460,1,0,0:0:0:0:
475,192,229460,1,0,0:0:0:0:
182,192,229528,1,0,0:0:0:0:
36,192,229596,1,0,0:0:0:0:
109,192,229596,1,0,0:0:0:0:
256,192,229596,1,0,0:0:0:0:
329,192,229596,1,0,0:0:0:0:
402,192,229596,1,0,0:0:0:0:
475,192,229596,1,0,0:0:0:0:
182,192,229664,1,0,0:0:0:0:
402,192,229733,1,0,0:0:0:0:
109,192,229733,1,0,0:0:0:0:
329,192,229801,1,0,0:0:0:0:
256,192,229869,1,0,0:0:0:0:
182,192,229869,1,0,0:0:0:0:
109,192,229869,1,0,0:0:0:0:
36,192,229869,1,0,0:0:0:0:
402,192,229869,1,0,0:0:0:0:
475,192,229869,1,0,0:0:0:0:
329,192,229937,1,0,0:0:0:0:
36,192,230005,1,0,0:0:0:0:
182,192,230074,1,0,0:0:0:0:
36,192,230142,1,0,0:0:0:0:
475,192,230142,1,0,0:0:0:0:
329,192,230210,1,0,0:0:0:0:
182,192,230278,1,0,0:0:0:0:
36,192,230346,1,0,0:0:0:0:
109,192,230414,1,0,0:0:0:0:
182,192,230414,1,0,0:0:0:0:
256,192,230414,1,0,0:0:0:0:
329,192,230414,1,0,0:0:0:0:
402,192,230414,1,0,0:0:0:0:
475,192,230414,1,0,0:0:0:0:
36,192,230483,1,0,0:0:0:0:
329,192,230551,1,0,0:0:0:0:
109,192,230619,1,0,0:0:0:0:
402,192,230687,1,0,0:0:0:0:
475,192,230687,1,0,0:0:0:0:
182,192,230755,1,0,0:0:0:0:
36,192,230824,1,0,0:0:0:0:
109,192,230824,1,0,0:0:0:0:
256,192,230824,1,0,0:0:0:0:
329,192,230824,1,0,0:0:0:0:
402,192,230824,1,0,0:0:0:0:
475,192,230824,1,0,0:0:0:0:
182,192,230892,1,0,0:0:0:0:
36,192,230960,1,0,0:0:0:0:
109,192,230960,1,0,0:0:0:0:
256,192,230960,1,0,0:0:0:0:
329,192,230960,1,0,0:0:0:0:
402,192,230960,1,0,0:0:0:0:
475,192,230960,1,0,0:0:0:0:
182,192,231028,1,0,0:0:0:0:
329,192,231096,1,0,0:0:0:0:
36,192,231164,1,0,0:0:0:0:
182,192,231233,1,0,0:0:0:0:
475,192,231233,1,0,0:0:0:0:
329,192,231301,1,0,0:0:0:0:
402,192,231369,1,0,0:0:0:0:
475,192,231369,1,0,0:0:0:0:
256,192,231369,1,0,0:0:0:0:
182,192,231369,1,0,0:0:0:0:
109,192,231369,1,0,0:0:0:0:
36,192,231369,1,0,0:0:0:0:
329,192,231437,1,0,0:0:0:0:
402,192,231505,1,0,0:0:0:0:
475,192,231505,1,0,0:0:0:0:
256,192,231505,1,0,0:0:0:0:
182,192,231505,1,0,0:0:0:0:
109,192,231505,1,0,0:0:0:0:
36,192,231505,1,0,0:0:0:0:
329,192,231574,1,0,0:0:0:0:
256,192,231642,1,0,0:0:0:0:
182,192,231710,1,0,0:0:0:0:
329,192,231710,1,0,0:0:0:0:
36,192,231778,1,0,0:0:0:0:
109,192,231778,1,0,0:0:0:0:
256,192,231778,1,0,0:0:0:0:
402,192,231778,1,0,0:0:0:0:
475,192,231778,1,0,0:0:0:0:
182,192,231846,1,0,0:0:0:0:
329,192,231914,1,0,0:0:0:0:
109,192,231983,1,0,0:0:0:0:
402,192,231983,1,0,0:0:0:0:
36,192,232051,1,0,0:0:0:0:
182,192,232051,1,0,0:0:0:0:
256,192,232051,1,0,0:0:0:0:
329,192,232051,1,0,0:0:0:0:
475,192,232051,1,0,0:0:0:0:
109,192,232119,1,0,0:0:0:0:
182,192,232187,128,0,232324:0:0:0:0:
256,192,232187,1,0,0:0:0:0:
329,192,232255,1,0,0:0:0:0:
256,192,232324,128,0,232460:0:0:0:0:
402,192,232324,1,0,0:0:0:0:
475,192,232392,1,0,0:0:0:0:
329,192,232460,128,0,232596:0:0:0:0:
36,192,232460,1,0,0:0:0:0:
109,192,232528,1,0,0:0:0:0:
256,192,232596,1,0,0:0:0:0:
182,192,232596,1,0,0:0:0:0:
36,192,232596,1,0,0:0:0:0:
402,192,232596,1,0,0:0:0:0:
475,192,232596,1,0,0:0:0:0:
36,192,232733,1,0,0:0:0:0:
256,192,232733,1,0,0:0:0:0:
329,192,232733,1,0,0:0:0:0:
402,192,232733,1,0,0:0:0:0:
475,192,232733,1,0,0:0:0:0:
182,192,232733,1,0,0:0:0:0:
329,192,232869,1,0,0:0:0:0:
475,192,232869,1,0,0:0:0:0:
109,192,232869,1,0,0:0:0:0:
402,192,232869,1,0,0:0:0:0:
256,192,232869,1,0,0:0:0:0:
36,192,232869,1,0,0:0:0:0:
402,192,233005,1,0,0:0:0:0:
36,192,233005,1,0,0:0:0:0:
182,192,233005,1,0,0:0:0:0:
329,192,233005,1,0,0:0:0:0:
475,192,233005,1,0,0:0:0:0:
109,192,233005,1,0,0:0:0:0:
329,192,233142,1,0,0:0:0:0:
475,192,233142,1,0,0:0:0:0:
109,192,233142,1,0,0:0:0:0:
182,192,233142,1,0,0:0:0:0:
402,192,233142,1,0,0:0:0:0:
36,192,233142,1,0,0:0:0:0:
329,192,233278,1,0,0:0:0:0:
475,192,233278,1,0,0:0:0:0:
109,192,233278,1,0,0:0:0:0:
182,192,233278,1,0,0:0:0:0:
402,192,233278,1,0,0:0:0:0:
36,192,233278,1,0,0:0:0:0:
475,192,233414,1,0,0:0:0:0:
109,192,233414,1,0,0:0:0:0:
182,192,233414,1,0,0:0:0:0:
402,192,233414,1,0,0:0:0:0:
256,192,233414,1,0,0:0:0:0:
36,192,233414,1,0,0:0:0:0:
256,192,233551,1,0,0:0:0:0:
36,192,233551,1,0,0:0:0:0:
182,192,233551,1,0,0:0:0:0:
329,192,233551,1,0,0:0:0:0:
475,192,233551,1,0,0:0:0:0:
109,192,233551,1,0,0:0:0:0:
329,192,233687,1,0,0:0:0:0:
109,192,233687,1,0,0:0:0:0:
182,192,233687,1,0,0:0:0:0:
402,192,233687,1,0,0:0:0:0:
256,192,233687,1,0,0:0:0:0:
36,192,233687,1,0,0:0:0:0:
256,192,233824,1,0,0:0:0:0:
36,192,233824,1,0,0:0:0:0:
182,192,233824,1,0,0:0:0:0:
329,192,233824,1,0,0:0:0:0:
475,192,233824,1,0,0:0:0:0:
109,192,233824,1,0,0:0:0:0:
475,192,233960,1,0,0:0:0:0:
109,192,233960,1,0,0:0:0:0:
182,192,233960,1,0,0:0:0:0:
402,192,233960,1,0,0:0:0:0:
256,192,233960,1,0,0:0:0:0:
36,192,233960,1,0,0:0:0:0:
402,192,234096,1,0,0:0:0:0:
36,192,234096,1,0,0:0:0:0:
182,192,234096,1,0,0:0:0:0:
329,192,234096,1,0,0:0:0:0:
475,192,234096,1,0,0:0:0:0:
109,192,234096,1,0,0:0:0:0:
329,192,234233,1,0,0:0:0:0:
475,192,234233,1,0,0:0:0:0:
109,192,234233,1,0,0:0:0:0:
402,192,234233,1,0,0:0:0:0:
256,192,234233,1,0,0:0:0:0:
36,192,234233,1,0,0:0:0:0:
402,192,234369,1,0,0:0:0:0:
256,192,234369,1,0,0:0:0:0:
36,192,234369,1,0,0:0:0:0:
182,192,234369,1,0,0:0:0:0:
329,192,234369,1,0,0:0:0:0:
475,192,234369,1,0,0:0:0:0:
329,192,234505,1,0,0:0:0:0:
475,192,234505,1,0,0:0:0:0:
109,192,234505,1,0,0:0:0:0:
402,192,234505,1,0,0:0:0:0:
256,192,234505,1,0,0:0:0:0:
36,192,234505,1,0,0:0:0:0:
475,192,234642,1,0,0:0:0:0:
109,192,234642,1,0,0:0:0:0:
182,192,234642,1,0,0:0:0:0:
402,192,234642,1,0,0:0:0:0:
256,192,234642,1,0,0:0:0:0:
36,192,234642,1,0,0:0:0:0:
402,192,234778,1,0,0:0:0:0:
36,192,234778,1,0,0:0:0:0:
182,192,234778,1,0,0:0:0:0:
329,192,234778,1,0,0:0:0:0:
475,192,234778,1,0,0:0:0:0:
109,192,234778,1,0,0:0:0:0:
402,192,234914,1,0,0:0:0:0:
36,192,234914,1,0,0:0:0:0:
182,192,234914,1,0,0:0:0:0:
329,192,234914,1,0,0:0:0:0:
475,192,234914,1,0,0:0:0:0:
109,192,234914,1,0,0:0:0:0:
475,192,235051,1,0,0:0:0:0:
109,192,235051,1,0,0:0:0:0:
182,192,235051,1,0,0:0:0:0:
402,192,235051,1,0,0:0:0:0:
256,192,235051,1,0,0:0:0:0:
36,192,235051,1,0,0:0:0:0:
256,192,235187,1,0,0:0:0:0:
36,192,235187,1,0,0:0:0:0:
182,192,235187,1,0,0:0:0:0:
329,192,235187,1,0,0:0:0:0:
475,192,235187,1,0,0:0:0:0:
109,192,235187,1,0,0:0:0:0:
329,192,235324,1,0,0:0:0:0:
475,192,235324,1,0,0:0:0:0:
182,192,235324,1,0,0:0:0:0:
402,192,235324,1,0,0:0:0:0:
256,192,235324,1,0,0:0:0:0:
36,192,235324,1,0,0:0:0:0:
329,192,235460,1,0,0:0:0:0:
475,192,235460,1,0,0:0:0:0:
182,192,235460,1,0,0:0:0:0:
402,192,235460,1,0,0:0:0:0:
256,192,235460,1,0,0:0:0:0:
36,192,235460,1,0,0:0:0:0:
402,192,235596,1,0,0:0:0:0:
256,192,235596,1,0,0:0:0:0:
36,192,235596,1,0,0:0:0:0:
329,192,235596,1,0,0:0:0:0:
475,192,235596,1,0,0:0:0:0:
109,192,235596,1,0,0:0:0:0:
402,192,235733,1,0,0:0:0:0:
36,192,235733,1,0,0:0:0:0:
182,192,235733,1,0,0:0:0:0:
329,192,235733,1,0,0:0:0:0:
475,192,235733,1,0,0:0:0:0:
109,192,235733,1,0,0:0:0:0:
329,192,235869,1,0,0:0:0:0:
109,192,235869,1,0,0:0:0:0:
182,192,235869,1,0,0:0:0:0:
402,192,235869,1,0,0:0:0:0:
256,192,235869,1,0,0:0:0:0:
36,192,235869,1,0,0:0:0:0:
256,192,236005,1,0,0:0:0:0:
36,192,236005,1,0,0:0:0:0:
182,192,236005,1,0,0:0:0:0:
329,192,236005,1,0,0:0:0:0:
475,192,236005,1,0,0:0:0:0:
109,192,236005,1,0,0:0:0:0:
475,192,236142,1,0,0:0:0:0:
109,192,236142,1,0,0:0:0:0:
182,192,236142,1,0,0:0:0:0:
402,192,236142,1,0,0:0:0:0:
256,192,236142,1,0,0:0:0:0:
36,192,236142,1,0,0:0:0:0:
402,192,236278,1,0,0:0:0:0:
36,192,236278,1,0,0:0:0:0:
182,192,236278,1,0,0:0:0:0:
329,192,236278,1,0,0:0:0:0:
475,192,236278,1,0,0:0:0:0:
109,192,236278,1,0,0:0:0:0:
329,192,236414,1,0,0:0:0:0:
475,192,236414,1,0,0:0:0:0:
109,192,236414,1,0,0:0:0:0:
402,192,236414,1,0,0:0:0:0:
256,192,236414,1,0,0:0:0:0:
36,192,236414,1,0,0:0:0:0:
402,192,236551,1,0,0:0:0:0:
256,192,236551,1,0,0:0:0:0:
36,192,236551,1,0,0:0:0:0:
182,192,236551,1,0,0:0:0:0:
329,192,236551,1,0,0:0:0:0:
109,192,236551,1,0,0:0:0:0:
329,192,236687,1,0,0:0:0:0:
475,192,236687,1,0,0:0:0:0:
109,192,236687,1,0,0:0:0:0:
182,192,236687,1,0,0:0:0:0:
256,192,236687,1,0,0:0:0:0:
36,192,236687,1,0,0:0:0:0:
402,192,236824,1,0,0:0:0:0:
256,192,236824,1,0,0:0:0:0:
36,192,236824,1,0,0:0:0:0:
182,192,236824,1,0,0:0:0:0:
475,192,236824,1,0,0:0:0:0:
109,192,236824,1,0,0:0:0:0:
109,192,236960,1,0,0:0:0:0:
182,192,236960,1,0,0:0:0:0:
36,192,236960,1,0,0:0:0:0:
256,192,236960,1,0,0:0:0:0:
329,192,237028,1,0,0:0:0:0:
402,192,237028,1,0,0:0:0:0:
475,192,237028,1,0,0:0:0:0:
36,192,237096,1,0,0:0:0:0:
109,192,237096,1,0,0:0:0:0:
182,192,237096,1,0,0:0:0:0:
329,192,237164,1,0,0:0:0:0:
402,192,237164,1,0,0:0:0:0:
475,192,237164,1,0,0:0:0:0:
36,192,237233,1,0,0:0:0:0:
109,192,237233,1,0,0:0:0:0:
182,192,237233,1,0,0:0:0:0:
329,192,237301,1,0,0:0:0:0:
402,192,237301,1,0,0:0:0:0:
475,192,237301,1,0,0:0:0:0:
36,192,237369,1,0,0:0:0:0:
109,192,237369,1,0,0:0:0:0:
182,192,237369,1,0,0:0:0:0:
329,192,237437,1,0,0:0:0:0:
402,192,237437,1,0,0:0:0:0:
475,192,237437,1,0,0:0:0:0:
109,192,237505,1,0,0:0:0:0:
182,192,237505,1,0,0:0:0:0:
36,192,237505,1,0,0:0:0:0:
475,192,237574,1,0,0:0:0:0:
402,192,237574,1,0,0:0:0:0:
329,192,237574,1,0,0:0:0:0:
109,192,237642,1,0,0:0:0:0:
182,192,237642,1,0,0:0:0:0:
36,192,237642,1,0,0:0:0:0:
402,192,237710,1,0,0:0:0:0:
329,192,237710,1,0,0:0:0:0:
475,192,237710,1,0,0:0:0:0:
36,192,237778,1,0,0:0:0:0:
182,192,237778,1,0,0:0:0:0:
109,192,237778,1,0,0:0:0:0:
329,192,237846,1,0,0:0:0:0:
402,192,237846,1,0,0:0:0:0:
475,192,237846,1,0,0:0:0:0:
36,192,237914,1,0,0:0:0:0:
182,192,237914,1,0,0:0:0:0:
109,192,237914,1,0,0:0:0:0:
475,192,237983,1,0,0:0:0:0:
329,192,237983,1,0,0:0:0:0:
402,192,237983,1,0,0:0:0:0:
109,192,238051,1,0,0:0:0:0:
182,192,238051,1,0,0:0:0:0:
36,192,238051,1,0,0:0:0:0:
475,192,238119,1,0,0:0:0:0:
402,192,238119,1,0,0:0:0:0:
329,192,238119,1,0,0:0:0:0:
109,192,238187,1,0,0:0:0:0:
182,192,238187,1,0,0:0:0:0:
36,192,238187,1,0,0:0:0:0:
402,192,238255,1,0,0:0:0:0:
329,192,238255,1,0,0:0:0:0:
475,192,238255,1,0,0:0:0:0:
36,192,238324,1,0,0:0:0:0:
182,192,238324,1,0,0:0:0:0:
109,192,238324,1,0,0:0:0:0:
329,192,238392,1,0,0:0:0:0:
402,192,238392,1,0,0:0:0:0:
475,192,238392,1,0,0:0:0:0:
36,192,238460,1,0,0:0:0:0:
182,192,238460,1,0,0:0:0:0:
109,192,238460,1,0,0:0:0:0:
475,192,238528,1,0,0:0:0:0:
329,192,238528,1,0,0:0:0:0:
402,192,238528,1,0,0:0:0:0:
109,192,238596,1,0,0:0:0:0:
182,192,238596,1,0,0:0:0:0:
36,192,238596,1,0,0:0:0:0:
475,192,238664,1,0,0:0:0:0:
402,192,238664,1,0,0:0:0:0:
329,192,238664,1,0,0:0:0:0:
109,192,238733,1,0,0:0:0:0:
182,192,238733,1,0,0:0:0:0:
36,192,238733,1,0,0:0:0:0:
402,192,238801,1,0,0:0:0:0:
329,192,238801,1,0,0:0:0:0:
475,192,238801,1,0,0:0:0:0:
36,192,238869,1,0,0:0:0:0:
182,192,238869,1,0,0:0:0:0:
109,192,238869,1,0,0:0:0:0:
329,192,238937,1,0,0:0:0:0:
402,192,238937,1,0,0:0:0:0:
475,192,238937,1,0,0:0:0:0:
36,192,239005,1,0,0:0:0:0:
182,192,239005,1,0,0:0:0:0:
109,192,239005,1,0,0:0:0:0:
475,192,239074,1,0,0:0:0:0:
329,192,239074,1,0,0:0:0:0:
402,192,239074,1,0,0:0:0:0:
36,192,239142,1,0,0:0:0:0:
109,192,239142,1,0,0:0:0:0:
182,192,239142,1,0,0:0:0:0:
256,192,239159,1,0,0:0:0:0:
329,192,239176,1,0,0:0:0:0:
402,192,239193,1,0,0:0:0:0:
475,192,239210,1,0,0:0:0:0:
36,192,239227,1,0,0:0:0:0:
109,192,239244,1,0,0:0:0:0:
182,192,239261,1,0,0:0:0:0:
256,192,239278,1,0,0:0:0:0:
329,192,239295,1,0,0:0:0:0:
402,192,239312,1,0,0:0:0:0:
475,192,239329,1,0,0:0:0:0:
36,192,239346,1,0,0:0:0:0:
109,192,239363,1,0,0:0:0:0:
182,192,239380,1,0,0:0:0:0:
256,192,239397,1,0,0:0:0:0:
329,192,239414,1,0,0:0:0:0:
402,192,239431,1,0,0:0:0:0:
475,192,239449,1,0,0:0:0:0:
36,192,239466,1,0,0:0:0:0:
109,192,239483,1,0,0:0:0:0:
182,192,239500,1,0,0:0:0:0:
256,192,239517,1,0,0:0:0:0:
329,192,239534,1,0,0:0:0:0:
402,192,239551,1,0,0:0:0:0:
475,192,239568,1,0,0:0:0:0:
36,192,239585,128,0,239619:0:0:0:0:
109,192,239602,128,0,239636:0:0:0:0:
182,192,239619,128,0,239653:0:0:0:0:
256,192,239636,128,0,239670:0:0:0:0:
329,192,239653,128,0,239687:0:0:0:0:
402,192,239670,128,0,239704:0:0:0:0:
475,192,239687,128,0,239721:0:0:0:0:
36,192,239704,128,0,239738:0:0:0:0:
109,192,239721,128,0,239755:0:0:0:0:
182,192,239738,128,0,239772:0:0:0:0:
256,192,239755,128,0,239789:0:0:0:0:
329,192,239772,128,0,239806:0:0:0:0:
402,192,239789,128,0,239824:0:0:0:0:
475,192,239806,128,0,239841:0:0:0:0:
36,192,239824,128,0,239875:0:0:0:0:
109,192,239841,128,0,239892:0:0:0:0:
182,192,239858,128,0,239909:0:0:0:0:
256,192,239875,128,0,239926:0:0:0:0:
329,192,239892,128,0,239943:0:0:0:0:
402,192,239909,128,0,239960:0:0:0:0:
475,192,239926,128,0,239977:0:0:0:0:
36,192,239943,128,0,239994:0:0:0:0:
109,192,239960,128,0,240011:0:0:0:0:
182,192,239977,128,0,240028:0:0:0:0:
256,192,239994,128,0,240045:0:0:0:0:
329,192,240011,128,0,240062:0:0:0:0:
402,192,240028,128,0,240079:0:0:0:0:
475,192,240045,128,0,240096:0:0:0:0:
36,192,240062,128,0,240130:0:0:0:0:
109,192,240079,128,0,240147:0:0:0:0:
182,192,240096,128,0,240164:0:0:0:0:
256,192,240113,128,0,240181:0:0:0:0:
329,192,240130,128,0,240199:0:0:0:0:
402,192,240147,128,0,240216:0:0:0:0:
475,192,240164,128,0,240233:0:0:0:0:
36,192,240181,128,0,240250:0:0:0:0:
109,192,240199,128,0,240267:0:0:0:0:
182,192,240216,128,0,240284:0:0:0:0:
256,192,240233,128,0,240301:0:0:0:0:
329,192,240250,128,0,240318:0:0:0:0:
402,192,240267,128,0,240335:0:0:0:0:
475,192,240284,128,0,240352:0:0:0:0:
36,192,240301,128,0,240386:0:0:0:0:
109,192,240318,128,0,240403:0:0:0:0:
182,192,240335,128,0,240420:0:0:0:0:
256,192,240352,128,0,240437:0:0:0:0:
329,192,240369,128,0,240454:0:0:0:0:
402,192,240386,128,0,240471:0:0:0:0:
475,192,240403,128,0,240488:0:0:0:0:
36,192,240420,128,0,240505:0:0:0:0:
109,192,240437,128,0,240522:0:0:0:0:
182,192,240454,128,0,240539:0:0:0:0:
256,192,240471,128,0,240556:0:0:0:0:
329,192,240488,128,0,240574:0:0:0:0:
402,192,240505,128,0,240591:0:0:0:0:
475,192,240522,128,0,240608:0:0:0:0:
36,192,240539,128,0,240642:0:0:0:0:
109,192,240556,128,0,240659:0:0:0:0:
182,192,240574,128,0,240676:0:0:0:0:
256,192,240591,128,0,240693:0:0:0:0:
329,192,240608,128,0,240710:0:0:0:0:
402,192,240625,128,0,240727:0:0:0:0:
475,192,240642,128,0,240744:0:0:0:0:
36,192,240659,128,0,240761:0:0:0:0:
109,192,240676,128,0,240778:0:0:0:0:
182,192,240693,128,0,240795:0:0:0:0:
256,192,240710,128,0,240812:0:0:0:0:
329,192,240727,128,0,240829:0:0:0:0:
402,192,240744,128,0,240846:0:0:0:0:
475,192,240761,128,0,240863:0:0:0:0:
36,192,240778,128,0,240812:0:0:0:0:
109,192,240795,128,0,240846:0:0:0:0:
182,192,240812,128,0,240846:0:0:0:0:
256,192,240829,1,0,0:0:0:0:
329,192,240846,128,0,240880:0:0:0:0:
36,192,240863,1,0,0:0:0:0:
402,192,240863,128,0,240914:0:0:0:0:
475,192,240880,128,0,240914:0:0:0:0:
109,192,240880,128,0,240914:0:0:0:0:
182,192,240897,128,0,240949:0:0:0:0:
256,192,240914,128,0,240949:0:0:0:0:
329,192,240931,128,0,240983:0:0:0:0:
402,192,240949,128,0,240983:0:0:0:0:
36,192,240949,128,0,240983:0:0:0:0:
475,192,240966,1,0,0:0:0:0:
109,192,240966,128,0,241017:0:0:0:0:
182,192,240983,128,0,241017:0:0:0:0:
256,192,241000,1,0,0:0:0:0:
329,192,241017,128,0,241051:0:0:0:0:
36,192,241034,1,0,0:0:0:0:
402,192,241034,128,0,241085:0:0:0:0:
475,192,241051,128,0,241085:0:0:0:0:
109,192,241051,128,0,241085:0:0:0:0:
182,192,241068,128,0,241119:0:0:0:0:
256,192,241085,128,0,241119:0:0:0:0:
329,192,241102,128,0,241153:0:0:0:0:
402,192,241119,128,0,241153:0:0:0:0:
36,192,241119,128,0,241153:0:0:0:0:
475,192,241136,1,0,0:0:0:0:
109,192,241136,128,0,241187:0:0:0:0:
182,192,241153,128,0,241187:0:0:0:0:
256,192,241170,1,0,0:0:0:0:
329,192,241187,128,0,241221:0:0:0:0:
36,192,241204,128,0,241238:0:0:0:0:
402,192,241204,128,0,241255:0:0:0:0:
475,192,241221,128,0,241255:0:0:0:0:
109,192,241221,128,0,241255:0:0:0:0:
182,192,241238,128,0,241272:0:0:0:0:
256,192,241255,128,0,241289:0:0:0:0:
329,192,241272,128,0,241306:0:0:0:0:
402,192,241289,128,0,241324:0:0:0:0:
475,192,241306,128,0,241341:0:0:0:0:
