osu file format v14

[General]
AudioFilename: Yu_Asahina - Ongaku.mp3
AudioLeadIn: 0
PreviewTime: 17861
Countdown: 0
SampleSet: None
StackLeniency: 0.7
Mode: 3
LetterboxInBreaks: 1
SpecialStyle: 0
WidescreenStoryboard: 1

[Editor]
DistanceSpacing: 1
BeatDivisor: 6
GridSize: 4
TimelineZoom: 2.899999

[Metadata]
Title:Jinjin's Classics Pack
TitleUnicode:Jinjin's Classics Pack
Artist:Various Artists
ArtistUnicode:Various Artists
Creator:Jinjin
Version:Yu_Asahina - Ongaku -resolve- [GRAVITY]
Source:
Tags:
BeatmapID:1063062
BeatmapSetID:362285

[Difficulty]
HPDrainRate:9
CircleSize:7
OverallDifficulty:7
ApproachRate:5
SliderMultiplier:1.4
SliderTickRate:1

[Events]
//Background and Video events
0,0,"PianoBG.png",0,0
//Break Periods
//Storyboard Layer 0 (Background)
//Storyboard Layer 1 (Fail)
//Storyboard Layer 2 (Pass)
//Storyboard Layer 3 (Foreground)
//Storyboard Sound Samples

[TimingPoints]
792,500,4,2,1,40,1,0
792,-72.7272727272727,4,2,1,40,0,0
9792,452.830188679245,4,2,1,40,1,0
9792,-80.6451612903226,4,2,1,40,0,0
11150,444.444444444444,4,2,1,40,1,0
11150,-81.9672131147541,4,2,1,40,0,0
11372,400,4,2,1,40,1,0
11372,-90.9090909090909,4,2,1,40,0,0
14528,500,4,2,1,40,1,0
14528,-72.7272727272727,4,2,1,40,0,0
16528,444.444444444444,4,2,1,40,1,0
16528,-81.8181818181819,4,2,1,40,0,0
17861,413.793103448276,4,2,1,40,1,0
17861,-87.8787878787878,4,2,1,40,0,0
18274,400,4,2,1,40,1,0
18274,-90.9090909090909,4,2,1,40,0,0
18688,387.096774193548,4,2,1,40,1,0
18688,-93.939393939394,4,2,1,40,0,0
21784,384.615384615385,4,2,1,40,1,0
21784,-94.5454545454545,4,2,1,40,0,0
22553,379.746835443038,4,2,1,40,1,0
22553,-95.7575757575758,4,2,1,40,0,0
23312,375,4,2,1,40,1,0
23312,-96.969696969697,4,2,1,40,0,0
28562,379.746835443038,4,2,1,40,1,0
28562,-95.7575757575758,4,2,1,40,0,0
29321,387.096774193548,4,2,1,40,1,0
29321,-93.939393939394,4,2,1,40,0,0
32417,382.165605095541,4,2,1,40,1,0
32417,-95.1515151515152,4,2,1,40,0,0
41588,375,4,2,1,40,1,0
41588,-96.969696969697,4,2,1,40,0,0
44588,363.636363636364,4,2,1,40,1,0
44588,-99.9999999999999,4,2,1,40,0,0
54769,400,4,2,1,40,1,0
54769,-90.9090909090909,4,2,1,40,0,0
55569,413.793103448276,4,2,1,40,1,0
55569,-87.8787878787878,4,2,1,40,0,0
55982,444.444444444444,4,2,1,40,1,0
55982,-81.8181818181819,4,2,1,40,0,0
56426,387.096774193548,4,2,1,40,1,0
56426,-93.939393939394,4,2,1,40,0,0
57200,375,4,2,1,40,1,0
57200,-96.969696969697,4,2,1,40,0,0
57950,370.37037037037,4,2,1,40,1,0
57950,-98.1818181818183,4,2,1,40,0,0
59431,365.853658536585,4,2,1,40,1,0
59431,-99.3939393939395,4,2,1,40,0,0
60894,363.636363636364,4,2,1,40,1,0
60894,-99.9999999999999,4,2,1,40,0,0
63075,361.44578313253,4,2,1,40,1,0
63075,-100.606060606061,4,2,1,40,0,0
63797,359.281437125748,4,2,1,40,1,0
63797,-101.212121212121,4,2,1,40,0,0
64515,357.142857142857,4,2,1,40,1,0
64515,-101.818181818182,4,2,1,40,0,0
64872,355.029585798817,4,2,1,40,1,0
64872,-102.424242424242,4,2,1,40,0,0
65227,352.941176470588,4,2,1,40,1,0
65227,-103.030303030303,4,2,1,40,0,0
68050,363.636363636364,4,2,1,40,1,0
68050,-99.9999999999999,4,2,1,40,0,0
72413,361.44578313253,4,2,1,40,1,0
72413,-100.606060606061,4,2,1,40,0,0
73135,359.281437125748,4,2,1,40,1,0
73135,-101.212121212121,4,2,1,40,0,0
73853,357.142857142857,4,2,1,40,1,0
73853,-101.818181818182,4,2,1,40,0,0
74567,355.029585798817,4,2,1,40,1,0
74567,-102.424242424242,4,2,1,40,0,0
75277,352.941176470588,4,2,1,40,1,0
75277,-103.030303030303,4,2,1,40,0,0
75629,363.636363636364,4,2,1,40,1,0
75629,-99.9999999999999,4,2,1,40,0,0
75992,375,4,2,1,40,1,0
75992,-96.969696969697,4,2,1,40,0,0
76367,387.096774193548,4,2,1,40,1,0
76367,-93.939393939394,4,2,1,40,0,0
76754,451.127819548872,4,2,1,40,1,0
76754,-80.6060606060606,4,2,1,40,0,0
78558,461.538461538462,4,2,1,40,1,0
78558,-78.7878787878787,4,2,1,40,0,0
79481,444.444444444444,4,2,1,40,1,0
79481,-81.8181818181819,4,2,1,40,0,0
80369,472.44094488189,4,2,1,40,1,0
80369,-76.9696969696969,4,2,1,40,0,0
80841,526.315789473684,4,2,1,40,1,0
80841,-69.0909090909091,4,2,1,40,0,0
81367,363.636363636364,4,2,1,40,1,0
81367,-99.9999999999999,4,2,1,40,0,0
81730,361.44578313253,4,2,1,40,1,0
81730,-100.606060606061,4,2,1,40,0,0
82091,359.281437125748,4,2,1,40,1,0
82091,-101.212121212121,4,2,1,40,0,0
82450,363.636363636364,4,2,1,40,1,0
82450,-99.9999999999999,4,2,1,40,0,0
82813,352.941176470588,4,2,1,40,1,0
82813,-103.030303030303,4,2,1,40,0,0
99754,350.877192982456,4,2,1,40,1,0
99754,-103.636363636364,4,2,1,40,0,0
100104,348.837209302326,4,2,1,40,1,0
100104,-104.242424242424,4,2,1,40,0,0
100452,346.820809248555,4,2,1,40,1,0
100452,-104.848484848485,4,2,1,40,0,0
100798,344.827586206897,4,2,1,40,1,0
100798,-105.454545454545,4,2,1,40,0,0
101142,342.857142857143,4,2,1,40,1,0
101142,-106.060606060606,4,2,1,40,0,0
102513,352.941176470588,4,2,1,40,1,0
102513,-103.030303030303,4,2,1,40,0,0
103218,350.877192982456,4,2,1,40,1,0
103218,-103.636363636364,4,2,1,40,0,0
103919,348.837209302326,4,2,1,40,1,0
103919,-104.242424242424,4,2,1,40,0,0
104616,346.820809248555,4,2,1,40,1,0
104616,-104.848484848485,4,2,1,40,0,0
105309,344.827586206897,4,2,1,40,1,0
105309,-105.454545454545,4,2,1,40,0,0
105998,342.857142857143,4,2,1,40,1,0
105998,-106.060606060606,4,2,1,40,0,0
106683,340.909090909091,4,2,1,40,1,0
106683,-106.666666666667,4,2,1,40,0,0
107364,338.983050847458,4,2,1,40,1,0
107364,-107.272727272727,4,2,1,40,0,0
108041,337.078651685393,4,2,1,40,1,0
108041,-107.878787878788,4,2,1,40,0,0
108715,335.195530726257,4,2,1,40,1,0
108715,-108.484848484848,4,2,1,40,0,0
109385,333.333333333333,4,2,1,40,1,0
109385,-109.090909090909,4,2,1,40,0,0
112385,331.491712707182,4,2,1,40,1,0
112385,-109.69696969697,4,2,1,40,0,0
112716,329.67032967033,4,2,1,40,1,0
112716,-110.30303030303,4,2,1,40,0,0
113045,327.868852459016,4,2,1,40,1,0
113045,-110.909090909091,4,2,1,40,0,0
113372,326.086956521739,4,2,1,40,1,0
113372,-111.515151515152,4,2,1,40,0,0
114024,324.324324324324,4,2,1,40,1,0
114024,-112.121212121212,4,2,1,40,0,0
114672,322.58064516129,4,2,1,40,1,0
114672,-112.727272727273,4,2,1,40,0,0
114994,320.855614973262,4,2,1,40,1,0
114994,-113.333333333333,4,2,1,40,0,0
115956,319.148936170213,4,2,1,40,1,0
115956,-113.939393939394,4,2,1,40,0,0
116594,317.460317460317,4,2,1,40,1,0
116594,-114.545454545455,4,2,1,40,0,0
117228,315.789473684211,4,2,1,40,1,0
117228,-115.151515151515,4,2,1,40,0,0
117859,333.333333333333,4,2,1,40,1,0
117859,-109.090909090909,4,2,1,40,0,0
118192,352.941176470588,4,2,1,40,1,0
118192,-103.030303030303,4,2,1,40,0,0
118544,272.727272727273,4,2,1,40,1,0
118544,-133.333333333333,4,2,1,40,0,0
119634,363.636363636364,4,2,1,40,1,0
119634,-99.9999999999999,4,2,1,40,0,0

[HitObjects]
329,192,792,128,0,2292:0:0:0:0:
36,192,792,1,0,0:0:0:0:
182,192,1042,1,0,0:0:0:0:
36,192,1292,1,0,0:0:0:0:
182,192,1542,1,0,0:0:0:0:
109,192,1708,1,0,0:0:0:0:
36,192,1792,1,0,0:0:0:0:
182,192,2042,1,0,0:0:0:0:
36,192,2292,1,0,0:0:0:0:
109,192,2292,1,0,0:0:0:0:
402,192,2292,1,0,0:0:0:0:
475,192,2542,1,0,0:0:0:0:
256,192,2792,1,0,0:0:0:0:
329,192,3042,1,0,0:0:0:0:
475,192,3042,1,0,0:0:0:0:
182,192,3042,1,0,0:0:0:0:
109,192,3542,1,0,0:0:0:0:
402,192,3792,1,0,0:0:0:0:
256,192,3792,1,0,0:0:0:0:
475,192,4042,1,0,0:0:0:0:
329,192,4292,1,0,0:0:0:0:
182,192,4542,1,0,0:0:0:0:
36,192,4542,1,0,0:0:0:0:
256,192,4542,1,0,0:0:0:0:
402,192,4542,128,0,5167:0:0:0:0:
475,192,4792,128,0,5167:0:0:0:0:
109,192,5042,128,0,5292:0:0:0:0:
256,192,5292,1,0,0:0:0:0:
402,192,5292,1,0,0:0:0:0:
475,192,5292,1,0,0:0:0:0:
329,192,5542,1,0,0:0:0:0:
182,192,5792,1,0,0:0:0:0:
182,192,6042,1,0,0:0:0:0:
402,192,6042,1,0,0:0:0:0:
256,192,6292,1,0,0:0:0:0:
109,192,6542,1,0,0:0:0:0:
329,192,6542,1,0,0:0:0:0:
36,192,6792,1,0,0:0:0:0:
182,192,6792,1,0,0:0:0:0:
256,192,6792,1,0,0:0:0:0:
256,192,7292,1,0,0:0:0:0:
36,192,7604,1,0,0:0:0:0:
109,192,7667,1,0,0:0:0:0:
182,192,7667,1,0,0:0:0:0:
329,192,7708,1,0,0:0:0:0:
402,192,7750,1,0,0:0:0:0:
475,192,7792,128,0,9792:0:0:0:0:
36,192,8792,128,0,9792:0:0:0:0:
109,192,9792,1,0,0:0:0:0:
329,192,9792,1,0,0:0:0:0:
402,192,9792,1,0,0:0:0:0:
182,192,9876,1,0,0:0:0:0:
256,192,9989,1,0,0:0:0:0:
329,192,10131,1,0,0:0:0:0:
402,192,10244,1,0,0:0:0:0:
475,192,10358,1,0,0:0:0:0:
182,192,10471,1,0,0:0:0:0:
256,192,10584,1,0,0:0:0:0:
329,192,10697,1,0,0:0:0:0:
402,192,10811,1,0,0:0:0:0:
109,192,10924,1,0,0:0:0:0:
256,192,11037,1,0,0:0:0:0:
329,192,11148,1,0,0:0:0:0:
402,192,11261,1,0,0:0:0:0:
256,192,11370,1,0,0:0:0:0:
475,192,11370,1,0,0:0:0:0:
182,192,11469,1,0,0:0:0:0:
402,192,11469,1,0,0:0:0:0:
109,192,11597,1,0,0:0:0:0:
329,192,11597,1,0,0:0:0:0:
182,192,11672,1,0,0:0:0:0:
402,192,11672,1,0,0:0:0:0:
36,192,11772,1,0,0:0:0:0:
256,192,11772,1,0,0:0:0:0:
109,192,11897,1,0,0:0:0:0:
329,192,11897,1,0,0:0:0:0:
182,192,11997,1,0,0:0:0:0:
36,192,11997,1,0,0:0:0:0:
256,192,12072,1,0,0:0:0:0:
402,192,12072,1,0,0:0:0:0:
109,192,12172,1,0,0:0:0:0:
329,192,12172,1,0,0:0:0:0:
182,192,12297,1,0,0:0:0:0:
402,192,12297,1,0,0:0:0:0:
256,192,12397,1,0,0:0:0:0:
109,192,12397,1,0,0:0:0:0:
182,192,12497,1,0,0:0:0:0:
475,192,12497,1,0,0:0:0:0:
402,192,12547,1,0,0:0:0:0:
329,192,12622,1,0,0:0:0:0:
256,192,12672,1,0,0:0:0:0:
182,192,12747,1,0,0:0:0:0:
109,192,12822,1,0,0:0:0:0:
36,192,12897,1,0,0:0:0:0:
329,192,12938,1,0,0:0:0:0:
256,192,12972,1,0,0:0:0:0:
182,192,12999,1,0,0:0:0:0:
402,192,13047,1,0,0:0:0:0:
109,192,13048,1,0,0:0:0:0:
475,192,13122,1,0,0:0:0:0:
182,192,13122,1,0,0:0:0:0:
256,192,13196,1,0,0:0:0:0:
36,192,13196,1,0,0:0:0:0:
329,192,13272,1,0,0:0:0:0:
109,192,13295,1,0,0:0:0:0:
402,192,13297,1,0,0:0:0:0:
182,192,13372,1,0,0:0:0:0:
256,192,13422,1,0,0:0:0:0:
402,192,13497,1,0,0:0:0:0:
109,192,13497,1,0,0:0:0:0:
182,192,13547,1,0,0:0:0:0:
329,192,13597,1,0,0:0:0:0:
36,192,13672,1,0,0:0:0:0:
182,192,13722,1,0,0:0:0:0:
329,192,13772,1,0,0:0:0:0:
475,192,13822,1,0,0:0:0:0:
109,192,13897,1,0,0:0:0:0:
182,192,13972,1,0,0:0:0:0:
329,192,14022,1,0,0:0:0:0:
256,192,14097,1,0,0:0:0:0:
402,192,14147,1,0,0:0:0:0:
475,192,14222,1,0,0:0:0:0:
329,192,14272,1,0,0:0:0:0:
182,192,14347,1,0,0:0:0:0:
109,192,14447,1,0,0:0:0:0:
256,192,14447,1,0,0:0:0:0:
329,192,14447,1,0,0:0:0:0:
475,192,14447,1,0,0:0:0:0:
36,192,14590,1,0,0:0:0:0:
182,192,14590,1,0,0:0:0:0:
109,192,14590,1,0,0:0:0:0:
36,192,15028,1,0,0:0:0:0:
109,192,15028,1,0,0:0:0:0:
256,192,15028,1,0,0:0:0:0:
475,192,15028,1,0,0:0:0:0:
402,192,15028,1,0,0:0:0:0:
182,192,15153,1,0,0:0:0:0:
329,192,15153,1,0,0:0:0:0:
256,192,15236,1,0,0:0:0:0:
402,192,15236,1,0,0:0:0:0:
36,192,15319,1,0,0:0:0:0:
109,192,15403,1,0,0:0:0:0:
329,192,15403,1,0,0:0:0:0:
182,192,15486,1,0,0:0:0:0:
402,192,15486,1,0,0:0:0:0:
109,192,15569,1,0,0:0:0:0:
329,192,15569,1,0,0:0:0:0:
256,192,15653,1,0,0:0:0:0:
475,192,15653,1,0,0:0:0:0:
182,192,15736,1,0,0:0:0:0:
402,192,15736,1,0,0:0:0:0:
256,192,15819,1,0,0:0:0:0:
36,192,15819,1,0,0:0:0:0:
109,192,15903,1,0,0:0:0:0:
329,192,15903,1,0,0:0:0:0:
182,192,15986,1,0,0:0:0:0:
402,192,15986,1,0,0:0:0:0:
36,192,16028,128,0,17861:0:0:0:0:
256,192,16069,1,0,0:0:0:0:
475,192,16069,1,0,0:0:0:0:
109,192,16153,1,0,0:0:0:0:
329,192,16153,1,0,0:0:0:0:
182,192,16236,1,0,0:0:0:0:
402,192,16236,1,0,0:0:0:0:
329,192,16319,1,0,0:0:0:0:
109,192,16319,1,0,0:0:0:0:
182,192,16403,1,0,0:0:0:0:
402,192,16403,1,0,0:0:0:0:
256,192,16486,1,0,0:0:0:0:
475,192,16486,1,0,0:0:0:0:
182,192,16555,1,0,0:0:0:0:
402,192,16555,1,0,0:0:0:0:
256,192,16666,1,0,0:0:0:0:
475,192,16666,1,0,0:0:0:0:
182,192,16778,1,0,0:0:0:0:
402,192,16778,1,0,0:0:0:0:
109,192,16889,1,0,0:0:0:0:
329,192,16889,1,0,0:0:0:0:
256,192,17000,1,0,0:0:0:0:
475,192,17000,1,0,0:0:0:0:
182,192,17111,1,0,0:0:0:0:
402,192,17111,1,0,0:0:0:0:
329,192,17222,1,0,0:0:0:0:
109,192,17222,1,0,0:0:0:0:
182,192,17333,1,0,0:0:0:0:
402,192,17333,1,0,0:0:0:0:
329,192,17444,1,0,0:0:0:0:
109,192,17444,1,0,0:0:0:0:
182,192,17555,1,0,0:0:0:0:
402,192,17555,1,0,0:0:0:0:
256,192,17666,1,0,0:0:0:0:
475,192,17666,1,0,0:0:0:0:
109,192,17778,1,0,0:0:0:0:
329,192,17778,1,0,0:0:0:0:
475,192,17861,128,0,18574:0:0:0:0:
182,192,17895,1,0,0:0:0:0:
402,192,17895,1,0,0:0:0:0:
329,192,17964,1,0,0:0:0:0:
109,192,17964,1,0,0:0:0:0:
256,192,18033,1,0,0:0:0:0:
36,192,18033,1,0,0:0:0:0:
182,192,18102,1,0,0:0:0:0:
402,192,18102,1,0,0:0:0:0:
109,192,18171,1,0,0:0:0:0:
329,192,18171,1,0,0:0:0:0:
36,192,18240,1,0,0:0:0:0:
256,192,18240,1,0,0:0:0:0:
402,192,18307,1,0,0:0:0:0:
182,192,18307,1,0,0:0:0:0:
36,192,18374,1,0,0:0:0:0:
109,192,18374,1,0,0:0:0:0:
256,192,18440,1,0,0:0:0:0:
329,192,18440,1,0,0:0:0:0:
109,192,18507,1,0,0:0:0:0:
182,192,18507,1,0,0:0:0:0:
402,192,18574,1,0,0:0:0:0:
329,192,18574,1,0,0:0:0:0:
182,192,18640,1,0,0:0:0:0:
256,192,18640,1,0,0:0:0:0:
109,192,18688,1,0,0:0:0:0:
475,192,18688,1,0,0:0:0:0:
36,192,18688,1,0,0:0:0:0:
402,192,18688,1,0,0:0:0:0:
329,192,18688,1,0,0:0:0:0:
329,192,19075,1,0,0:0:0:0:
182,192,19075,1,0,0:0:0:0:
36,192,19365,1,0,0:0:0:0:
256,192,19462,1,0,0:0:0:0:
402,192,19462,1,0,0:0:0:0:
475,192,19849,1,0,0:0:0:0:
329,192,19849,1,0,0:0:0:0:
182,192,20107,1,0,0:0:0:0:
329,192,20236,1,0,0:0:0:0:
475,192,20236,1,0,0:0:0:0:
182,192,20623,1,0,0:0:0:0:
109,192,20881,1,0,0:0:0:0:
36,192,21010,1,0,0:0:0:0:
329,192,21204,1,0,0:0:0:0:
475,192,21204,1,0,0:0:0:0:
182,192,21300,1,0,0:0:0:0:
256,192,21397,1,0,0:0:0:0:
402,192,21397,1,0,0:0:0:0:
109,192,21494,1,0,0:0:0:0:
182,192,21591,1,0,0:0:0:0:
329,192,21591,1,0,0:0:0:0:
36,192,21687,1,0,0:0:0:0:
256,192,21784,1,0,0:0:0:0:
402,192,21784,1,0,0:0:0:0:
182,192,22168,1,0,0:0:0:0:
329,192,22168,1,0,0:0:0:0:
402,192,22264,1,0,0:0:0:0:
329,192,22360,1,0,0:0:0:0:
402,192,22457,1,0,0:0:0:0:
475,192,22553,1,0,0:0:0:0:
256,192,22553,1,0,0:0:0:0:
109,192,22553,1,0,0:0:0:0:
329,192,22742,1,0,0:0:0:0:
182,192,22932,1,0,0:0:0:0:
36,192,22932,1,0,0:0:0:0:
402,192,23122,1,0,0:0:0:0:
182,192,23312,1,0,0:0:0:0:
36,192,23312,1,0,0:0:0:0:
256,192,23312,1,0,0:0:0:0:
475,192,23312,1,0,0:0:0:0:
329,192,23405,1,0,0:0:0:0:
109,192,23499,1,0,0:0:0:0:
402,192,23593,1,0,0:0:0:0:
182,192,23687,1,0,0:0:0:0:
329,192,23687,1,0,0:0:0:0:
36,192,23780,1,0,0:0:0:0:
256,192,23874,1,0,0:0:0:0:
182,192,23968,1,0,0:0:0:0:
329,192,24062,1,0,0:0:0:0:
475,192,24062,1,0,0:0:0:0:
36,192,24062,1,0,0:0:0:0:
402,192,24155,1,0,0:0:0:0:
182,192,24249,1,0,0:0:0:0:
109,192,24343,1,0,0:0:0:0:
256,192,24437,1,0,0:0:0:0:
402,192,24437,1,0,0:0:0:0:
182,192,24530,1,0,0:0:0:0:
109,192,24624,1,0,0:0:0:0:
329,192,24687,1,0,0:0:0:0:
475,192,24687,1,0,0:0:0:0:
256,192,24812,1,0,0:0:0:0:
402,192,24812,1,0,0:0:0:0:
36,192,24812,1,0,0:0:0:0:
182,192,24905,1,0,0:0:0:0:
329,192,24999,1,0,0:0:0:0:
182,192,25093,1,0,0:0:0:0:
256,192,25187,1,0,0:0:0:0:
109,192,25187,1,0,0:0:0:0:
402,192,25280,1,0,0:0:0:0:
182,192,25374,1,0,0:0:0:0:
329,192,25468,1,0,0:0:0:0:
109,192,25562,1,0,0:0:0:0:
36,192,25562,1,0,0:0:0:0:
256,192,25655,1,0,0:0:0:0:
402,192,25749,1,0,0:0:0:0:
475,192,25749,1,0,0:0:0:0:
182,192,25749,1,0,0:0:0:0:
256,192,25843,1,0,0:0:0:0:
109,192,25937,1,0,0:0:0:0:
329,192,25937,1,0,0:0:0:0:
402,192,25937,1,0,0:0:0:0:
182,192,26030,1,0,0:0:0:0:
256,192,26124,1,0,0:0:0:0:
329,192,26124,1,0,0:0:0:0:
36,192,26124,1,0,0:0:0:0:
109,192,26218,1,0,0:0:0:0:
182,192,26312,1,0,0:0:0:0:
402,192,26312,1,0,0:0:0:0:
256,192,26312,1,0,0:0:0:0:
36,192,26405,1,0,0:0:0:0:
109,192,26499,1,0,0:0:0:0:
329,192,26499,1,0,0:0:0:0:
182,192,26593,1,0,0:0:0:0:
256,192,26687,1,0,0:0:0:0:
402,192,26687,1,0,0:0:0:0:
475,192,26687,1,0,0:0:0:0:
36,192,26780,1,0,0:0:0:0:
109,192,26874,1,0,0:0:0:0:
329,192,26874,1,0,0:0:0:0:
182,192,26968,1,0,0:0:0:0:
256,192,27062,1,0,0:0:0:0:
36,192,27062,1,0,0:0:0:0:
475,192,27062,1,0,0:0:0:0:
402,192,27155,1,0,0:0:0:0:
329,192,27249,1,0,0:0:0:0:
182,192,27249,1,0,0:0:0:0:
109,192,27249,1,0,0:0:0:0:
402,192,27343,1,0,0:0:0:0:
36,192,27437,1,0,0:0:0:0:
256,192,27437,1,0,0:0:0:0:
475,192,27437,1,0,0:0:0:0:
182,192,27437,1,0,0:0:0:0:
402,192,27530,1,0,0:0:0:0:
256,192,27624,1,0,0:0:0:0:
329,192,27624,1,0,0:0:0:0:
109,192,27624,1,0,0:0:0:0:
402,192,27718,1,0,0:0:0:0:
475,192,27812,1,0,0:0:0:0:
182,192,27812,1,0,0:0:0:0:
36,192,27812,1,0,0:0:0:0:
256,192,27812,1,0,0:0:0:0:
329,192,27905,1,0,0:0:0:0:
109,192,27937,1,0,0:0:0:0:
402,192,27999,1,0,0:0:0:0:
182,192,28062,1,0,0:0:0:0:
329,192,28093,1,0,0:0:0:0:
256,192,28187,1,0,0:0:0:0:
36,192,28187,1,0,0:0:0:0:
475,192,28187,1,0,0:0:0:0:
182,192,28280,1,0,0:0:0:0:
329,192,28312,1,0,0:0:0:0:
109,192,28374,1,0,0:0:0:0:
402,192,28437,1,0,0:0:0:0:
182,192,28468,1,0,0:0:0:0:
36,192,28562,1,0,0:0:0:0:
475,192,28562,1,0,0:0:0:0:
109,192,28562,1,0,0:0:0:0:
256,192,28562,1,0,0:0:0:0:
329,192,28656,1,0,0:0:0:0:
36,192,28751,1,0,0:0:0:0:
402,192,28751,1,0,0:0:0:0:
475,192,28751,1,0,0:0:0:0:
256,192,28751,1,0,0:0:0:0:
182,192,28846,1,0,0:0:0:0:
36,192,28941,1,0,0:0:0:0:
109,192,28941,1,0,0:0:0:0:
329,192,28941,1,0,0:0:0:0:
475,192,28941,1,0,0:0:0:0:
256,192,29036,1,0,0:0:0:0:
182,192,29131,1,0,0:0:0:0:
36,192,29131,1,0,0:0:0:0:
402,192,29131,1,0,0:0:0:0:
475,192,29131,1,0,0:0:0:0:
329,192,29226,1,0,0:0:0:0:
36,192,29321,1,0,0:0:0:0:
109,192,29321,1,0,0:0:0:0:
475,192,29321,1,0,0:0:0:0:
256,192,29321,1,0,0:0:0:0:
36,192,29514,128,0,30482:0:0:0:0:
475,192,29514,128,0,30482:0:0:0:0:
256,192,29514,1,0,0:0:0:0:
109,192,29514,1,0,0:0:0:0:
402,192,29514,1,0,0:0:0:0:
256,192,29708,1,0,0:0:0:0:
402,192,29708,1,0,0:0:0:0:
182,192,29804,1,0,0:0:0:0:
329,192,29901,1,0,0:0:0:0:
109,192,29901,1,0,0:0:0:0:
256,192,29998,1,0,0:0:0:0:
109,192,30095,1,0,0:0:0:0:
402,192,30095,1,0,0:0:0:0:
182,192,30159,1,0,0:0:0:0:
329,192,30224,1,0,0:0:0:0:
402,192,30288,1,0,0:0:0:0:
109,192,30288,1,0,0:0:0:0:
182,192,30337,1,0,0:0:0:0:
256,192,30385,1,0,0:0:0:0:
329,192,30433,1,0,0:0:0:0:
402,192,30482,1,0,0:0:0:0:
109,192,30482,1,0,0:0:0:0:
329,192,30579,1,0,0:0:0:0:
182,192,30675,1,0,0:0:0:0:
329,192,30772,1,0,0:0:0:0:
109,192,30869,1,0,0:0:0:0:
36,192,30869,1,0,0:0:0:0:
402,192,30869,1,0,0:0:0:0:
475,192,30869,1,0,0:0:0:0:
36,192,31062,128,0,32030:0:0:0:0:
475,192,31062,128,0,32030:0:0:0:0:
256,192,31062,1,0,0:0:0:0:
109,192,31062,1,0,0:0:0:0:
402,192,31062,1,0,0:0:0:0:
182,192,31256,1,0,0:0:0:0:
329,192,31256,1,0,0:0:0:0:
402,192,31353,1,0,0:0:0:0:
256,192,31450,1,0,0:0:0:0:
109,192,31450,1,0,0:0:0:0:
329,192,31546,1,0,0:0:0:0:
109,192,31643,1,0,0:0:0:0:
402,192,31643,1,0,0:0:0:0:
329,192,31708,1,0,0:0:0:0:
182,192,31772,1,0,0:0:0:0:
109,192,31837,1,0,0:0:0:0:
402,192,31837,1,0,0:0:0:0:
329,192,31885,1,0,0:0:0:0:
256,192,31933,1,0,0:0:0:0:
182,192,31982,1,0,0:0:0:0:
109,192,32030,1,0,0:0:0:0:
402,192,32030,1,0,0:0:0:0:
182,192,32127,1,0,0:0:0:0:
329,192,32224,1,0,0:0:0:0:
182,192,32320,1,0,0:0:0:0:
36,192,32417,1,0,0:0:0:0:
109,192,32417,1,0,0:0:0:0:
329,192,32417,1,0,0:0:0:0:
475,192,32417,1,0,0:0:0:0:
36,192,32608,1,0,0:0:0:0:
256,192,32608,1,0,0:0:0:0:
109,192,32703,1,0,0:0:0:0:
329,192,32703,1,0,0:0:0:0:
182,192,32799,1,0,0:0:0:0:
402,192,32799,1,0,0:0:0:0:
475,192,32799,1,0,0:0:0:0:
36,192,32799,1,0,0:0:0:0:
109,192,32990,1,0,0:0:0:0:
329,192,32990,1,0,0:0:0:0:
256,192,33181,1,0,0:0:0:0:
36,192,33181,1,0,0:0:0:0:
182,192,33181,1,0,0:0:0:0:
475,192,33181,1,0,0:0:0:0:
182,192,33372,1,0,0:0:0:0:
402,192,33372,1,0,0:0:0:0:
109,192,33563,1,0,0:0:0:0:
36,192,33563,1,0,0:0:0:0:
256,192,33563,1,0,0:0:0:0:
402,192,33563,1,0,0:0:0:0:
182,192,33754,1,0,0:0:0:0:
329,192,33754,1,0,0:0:0:0:
36,192,33754,1,0,0:0:0:0:
36,192,33945,1,0,0:0:0:0:
109,192,33945,1,0,0:0:0:0:
256,192,33945,1,0,0:0:0:0:
402,192,33945,1,0,0:0:0:0:
182,192,34136,1,0,0:0:0:0:
329,192,34136,1,0,0:0:0:0:
475,192,34327,1,0,0:0:0:0:
36,192,34327,1,0,0:0:0:0:
329,192,34327,1,0,0:0:0:0:
109,192,34327,1,0,0:0:0:0:
402,192,34518,1,0,0:0:0:0:
256,192,34518,1,0,0:0:0:0:
182,192,34614,1,0,0:0:0:0:
109,192,34709,1,0,0:0:0:0:
36,192,34709,1,0,0:0:0:0:
256,192,34709,1,0,0:0:0:0:
402,192,34709,1,0,0:0:0:0:
475,192,34901,1,0,0:0:0:0:
182,192,34901,1,0,0:0:0:0:
329,192,34901,1,0,0:0:0:0:
36,192,35092,1,0,0:0:0:0:
402,192,35092,1,0,0:0:0:0:
475,192,35092,1,0,0:0:0:0:
109,192,35092,1,0,0:0:0:0:
329,192,35139,1,0,0:0:0:0:
256,192,35187,1,0,0:0:0:0:
182,192,35235,1,0,0:0:0:0:
109,192,35283,1,0,0:0:0:0:
402,192,35283,1,0,0:0:0:0:
36,192,35283,1,0,0:0:0:0:
402,192,35474,1,0,0:0:0:0:
475,192,35474,1,0,0:0:0:0:
36,192,35474,1,0,0:0:0:0:
182,192,35474,1,0,0:0:0:0:
109,192,35665,128,0,36238:0:0:0:0:
402,192,35665,128,0,36047:0:0:0:0:
36,192,35665,1,0,0:0:0:0:
475,192,35665,1,0,0:0:0:0:
182,192,35856,1,0,0:0:0:0:
329,192,35856,1,0,0:0:0:0:
256,192,35856,1,0,0:0:0:0:
182,192,36047,1,0,0:0:0:0:
256,192,36047,1,0,0:0:0:0:
329,192,36111,1,0,0:0:0:0:
402,192,36111,1,0,0:0:0:0:
256,192,36174,1,0,0:0:0:0:
182,192,36174,1,0,0:0:0:0:
402,192,36238,1,0,0:0:0:0:
475,192,36238,1,0,0:0:0:0:
36,192,36238,1,0,0:0:0:0:
329,192,36238,1,0,0:0:0:0:
36,192,36429,128,0,37002:0:0:0:0:
329,192,36429,128,0,36811:0:0:0:0:
182,192,36429,1,0,0:0:0:0:
475,192,36429,1,0,0:0:0:0:
256,192,36620,1,0,0:0:0:0:
109,192,36620,1,0,0:0:0:0:
402,192,36620,1,0,0:0:0:0:
182,192,36811,1,0,0:0:0:0:
256,192,37002,1,0,0:0:0:0:
109,192,37002,1,0,0:0:0:0:
475,192,37002,1,0,0:0:0:0:
402,192,37002,1,0,0:0:0:0:
182,192,37194,128,0,37576:0:0:0:0:
475,192,37194,128,0,37767:0:0:0:0:
36,192,37194,1,0,0:0:0:0:
109,192,37194,1,0,0:0:0:0:
256,192,37385,1,0,0:0:0:0:
329,192,37385,1,0,0:0:0:0:
402,192,37385,1,0,0:0:0:0:
256,192,37576,1,0,0:0:0:0:
329,192,37576,1,0,0:0:0:0:
182,192,37639,1,0,0:0:0:0:
109,192,37639,1,0,0:0:0:0:
256,192,37703,1,0,0:0:0:0:
329,192,37703,1,0,0:0:0:0:
36,192,37767,1,0,0:0:0:0:
109,192,37767,1,0,0:0:0:0:
182,192,37767,1,0,0:0:0:0:
402,192,37767,1,0,0:0:0:0:
109,192,37958,1,0,0:0:0:0:
36,192,37958,128,0,38340:0:0:0:0:
475,192,37958,128,0,38531:0:0:0:0:
402,192,37958,1,0,0:0:0:0:
182,192,37958,1,0,0:0:0:0:
256,192,38053,1,0,0:0:0:0:
329,192,38149,1,0,0:0:0:0:
402,192,38149,1,0,0:0:0:0:
109,192,38245,1,0,0:0:0:0:
182,192,38245,1,0,0:0:0:0:
329,192,38340,1,0,0:0:0:0:
402,192,38340,1,0,0:0:0:0:
182,192,38436,1,0,0:0:0:0:
109,192,38436,1,0,0:0:0:0:
36,192,38531,1,0,0:0:0:0:
256,192,38531,1,0,0:0:0:0:
402,192,38531,1,0,0:0:0:0:
36,192,38722,128,0,39295:0:0:0:0:
182,192,38722,1,0,0:0:0:0:
329,192,38722,1,0,0:0:0:0:
256,192,38818,1,0,0:0:0:0:
329,192,38913,1,0,0:0:0:0:
475,192,38913,1,0,0:0:0:0:
182,192,39009,1,0,0:0:0:0:
256,192,39104,1,0,0:0:0:0:
402,192,39104,1,0,0:0:0:0:
182,192,39200,1,0,0:0:0:0:
329,192,39295,1,0,0:0:0:0:
475,192,39295,1,0,0:0:0:0:
109,192,39295,1,0,0:0:0:0:
256,192,39391,1,0,0:0:0:0:
182,192,39487,1,0,0:0:0:0:
36,192,39487,128,0,39678:0:0:0:0:
256,192,39582,1,0,0:0:0:0:
329,192,39678,128,0,39869:0:0:0:0:
475,192,39678,1,0,0:0:0:0:
109,192,39678,1,0,0:0:0:0:
256,192,39773,1,0,0:0:0:0:
182,192,39869,1,0,0:0:0:0:
109,192,39869,128,0,40060:0:0:0:0:
256,192,39964,1,0,0:0:0:0:
329,192,40060,1,0,0:0:0:0:
36,192,40060,1,0,0:0:0:0:
475,192,40060,1,0,0:0:0:0:
182,192,40060,1,0,0:0:0:0:
109,192,40187,1,0,0:0:0:0:
256,192,40187,1,0,0:0:0:0:
402,192,40187,1,0,0:0:0:0:
256,192,40315,1,0,0:0:0:0:
402,192,40315,1,0,0:0:0:0:
109,192,40315,1,0,0:0:0:0:
402,192,40442,1,0,0:0:0:0:
256,192,40442,1,0,0:0:0:0:
36,192,40442,1,0,0:0:0:0:
475,192,40442,1,0,0:0:0:0:
109,192,40569,1,0,0:0:0:0:
182,192,40569,1,0,0:0:0:0:
329,192,40569,1,0,0:0:0:0:
182,192,40697,1,0,0:0:0:0:
109,192,40697,1,0,0:0:0:0:
329,192,40697,1,0,0:0:0:0:
109,192,40824,1,0,0:0:0:0:
475,192,40824,1,0,0:0:0:0:
256,192,40824,1,0,0:0:0:0:
36,192,40824,1,0,0:0:0:0:
329,192,40952,1,0,0:0:0:0:
402,192,40952,1,0,0:0:0:0:
182,192,40952,1,0,0:0:0:0:
182,192,41079,1,0,0:0:0:0:
329,192,41079,1,0,0:0:0:0:
402,192,41079,1,0,0:0:0:0:
36,192,41206,1,0,0:0:0:0:
256,192,41206,1,0,0:0:0:0:
475,192,41206,1,0,0:0:0:0:
109,192,41270,1,0,0:0:0:0:
329,192,41270,1,0,0:0:0:0:
182,192,41334,1,0,0:0:0:0:
402,192,41334,1,0,0:0:0:0:
256,192,41397,1,0,0:0:0:0:
36,192,41397,1,0,0:0:0:0:
109,192,41461,1,0,0:0:0:0:
329,192,41461,1,0,0:0:0:0:
182,192,41525,1,0,0:0:0:0:
402,192,41525,1,0,0:0:0:0:
475,192,41588,1,0,0:0:0:0:
36,192,41588,128,0,41963:0:0:0:0:
256,192,41588,128,0,41681:0:0:0:0:
329,192,41681,128,0,41775:0:0:0:0:
182,192,41775,128,0,41869:0:0:0:0:
256,192,41869,128,0,41963:0:0:0:0:
475,192,41963,128,0,42338:0:0:0:0:
402,192,41963,128,0,42056:0:0:0:0:
109,192,42056,128,0,42150:0:0:0:0:
329,192,42150,128,0,42244:0:0:0:0:
36,192,42244,128,0,42338:0:0:0:0:
182,192,42338,128,0,42713:0:0:0:0:
402,192,42338,128,0,42431:0:0:0:0:
256,192,42431,128,0,42525:0:0:0:0:
475,192,42525,128,0,42619:0:0:0:0:
402,192,42619,128,0,42713:0:0:0:0:
329,192,42713,128,0,43088:0:0:0:0:
109,192,42713,128,0,42806:0:0:0:0:
256,192,42806,128,0,42900:0:0:0:0:
36,192,42900,128,0,42994:0:0:0:0:
182,192,42994,128,0,43088:0:0:0:0:
109,192,43088,128,0,43463:0:0:0:0:
402,192,43088,1,0,0:0:0:0:
475,192,43088,1,0,0:0:0:0:
256,192,43088,128,0,43181:0:0:0:0:
329,192,43181,128,0,43275:0:0:0:0:
182,192,43275,128,0,43369:0:0:0:0:
256,192,43369,128,0,43463:0:0:0:0:
402,192,43463,128,0,43838:0:0:0:0:
36,192,43463,1,0,0:0:0:0:
329,192,43463,128,0,43556:0:0:0:0:
182,192,43556,128,0,43650:0:0:0:0:
256,192,43650,128,0,43744:0:0:0:0:
36,192,43650,1,0,0:0:0:0:
329,192,43744,128,0,43838:0:0:0:0:
109,192,43744,1,0,0:0:0:0:
182,192,43838,1,0,0:0:0:0:
475,192,43838,1,0,0:0:0:0:
36,192,43838,1,0,0:0:0:0:
256,192,43931,128,0,44213:0:0:0:0:
36,192,44213,1,0,0:0:0:0:
182,192,44213,1,0,0:0:0:0:
402,192,44213,1,0,0:0:0:0:
475,192,44213,1,0,0:0:0:0:
109,192,44588,1,0,0:0:0:0:
256,192,44588,1,0,0:0:0:0:
402,192,44588,1,0,0:0:0:0:
475,192,44588,1,0,0:0:0:0:
36,192,44588,128,0,45860:0:0:0:0:
329,192,44769,1,0,0:0:0:0:
402,192,44769,1,0,0:0:0:0:
329,192,44860,1,0,0:0:0:0:
402,192,44860,1,0,0:0:0:0:
109,192,44951,1,0,0:0:0:0:
182,192,44951,1,0,0:0:0:0:
329,192,45042,1,0,0:0:0:0:
402,192,45042,1,0,0:0:0:0:
182,192,45133,1,0,0:0:0:0:
329,192,45224,1,0,0:0:0:0:
402,192,45224,1,0,0:0:0:0:
109,192,45315,1,0,0:0:0:0:
182,192,45315,1,0,0:0:0:0:
329,192,45406,1,0,0:0:0:0:
402,192,45406,1,0,0:0:0:0:
182,192,45497,1,0,0:0:0:0:
329,192,45588,1,0,0:0:0:0:
402,192,45588,1,0,0:0:0:0:
256,192,45678,1,0,0:0:0:0:
475,192,45678,1,0,0:0:0:0:
109,192,45678,1,0,0:0:0:0:
475,192,45860,1,0,0:0:0:0:
109,192,45860,1,0,0:0:0:0:
329,192,45860,1,0,0:0:0:0:
182,192,45921,1,0,0:0:0:0:
256,192,45981,1,0,0:0:0:0:
36,192,46042,1,0,0:0:0:0:
109,192,46042,1,0,0:0:0:0:
329,192,46042,1,0,0:0:0:0:
475,192,46042,128,0,47315:0:0:0:0:
402,192,46042,1,0,0:0:0:0:
256,192,46224,1,0,0:0:0:0:
36,192,46315,1,0,0:0:0:0:
109,192,46315,1,0,0:0:0:0:
329,192,46406,1,0,0:0:0:0:
402,192,46406,1,0,0:0:0:0:
109,192,46497,1,0,0:0:0:0:
36,192,46497,1,0,0:0:0:0:
256,192,46588,1,0,0:0:0:0:
109,192,46678,1,0,0:0:0:0:
36,192,46678,1,0,0:0:0:0:
329,192,46769,1,0,0:0:0:0:
402,192,46769,1,0,0:0:0:0:
109,192,46860,1,0,0:0:0:0:
36,192,46860,1,0,0:0:0:0:
256,192,46951,1,0,0:0:0:0:
109,192,47042,1,0,0:0:0:0:
36,192,47042,1,0,0:0:0:0:
329,192,47133,1,0,0:0:0:0:
402,192,47133,1,0,0:0:0:0:
182,192,47133,1,0,0:0:0:0:
329,192,47315,1,0,0:0:0:0:
402,192,47315,1,0,0:0:0:0:
256,192,47315,1,0,0:0:0:0:
182,192,47375,1,0,0:0:0:0:
109,192,47436,1,0,0:0:0:0:
475,192,47497,1,0,0:0:0:0:
329,192,47497,1,0,0:0:0:0:
402,192,47497,1,0,0:0:0:0:
36,192,47497,1,0,0:0:0:0:
256,192,47497,128,0,48588:0:0:0:0:
329,192,47678,1,0,0:0:0:0:
475,192,47678,1,0,0:0:0:0:
109,192,47678,1,0,0:0:0:0:
329,192,47769,1,0,0:0:0:0:
475,192,47769,1,0,0:0:0:0:
36,192,47860,1,0,0:0:0:0:
182,192,47860,1,0,0:0:0:0:
329,192,47951,1,0,0:0:0:0:
475,192,47951,1,0,0:0:0:0:
109,192,48042,1,0,0:0:0:0:
329,192,48133,1,0,0:0:0:0:
475,192,48133,1,0,0:0:0:0:
182,192,48224,1,0,0:0:0:0:
36,192,48224,1,0,0:0:0:0:
329,192,48315,1,0,0:0:0:0:
475,192,48315,1,0,0:0:0:0:
109,192,48406,1,0,0:0:0:0:
329,192,48497,1,0,0:0:0:0:
475,192,48497,1,0,0:0:0:0:
36,192,48588,1,0,0:0:0:0:
109,192,48588,1,0,0:0:0:0:
402,192,48588,1,0,0:0:0:0:
182,192,48588,128,0,48678:0:0:0:0:
329,192,48678,128,0,48769:0:0:0:0:
182,192,48769,128,0,48951:0:0:0:0:
475,192,48769,1,0,0:0:0:0:
402,192,48951,1,0,0:0:0:0:
36,192,48951,1,0,0:0:0:0:
256,192,48951,128,0,49678:0:0:0:0:
109,192,49133,1,0,0:0:0:0:
182,192,49315,1,0,0:0:0:0:
329,192,49315,1,0,0:0:0:0:
475,192,49315,1,0,0:0:0:0:
109,192,49497,1,0,0:0:0:0:
402,192,49497,1,0,0:0:0:0:
329,192,49588,1,0,0:0:0:0:
475,192,49678,128,0,50406:0:0:0:0:
36,192,49678,1,0,0:0:0:0:
182,192,49678,1,0,0:0:0:0:
402,192,49678,1,0,0:0:0:0:
256,192,49860,1,0,0:0:0:0:
182,192,50042,1,0,0:0:0:0:
36,192,50042,1,0,0:0:0:0:
402,192,50042,1,0,0:0:0:0:
329,192,50224,1,0,0:0:0:0:
36,192,50406,128,0,50497:0:0:0:0:
109,192,50406,128,0,50497:0:0:0:0:
256,192,50406,128,0,50497:0:0:0:0:
402,192,50406,128,0,50497:0:0:0:0:
36,192,50588,128,0,51042:0:0:0:0:
109,192,50588,128,0,51042:0:0:0:0:
256,192,50588,128,0,50678:0:0:0:0:
329,192,50588,128,0,50678:0:0:0:0:
256,192,50769,1,0,0:0:0:0:
402,192,50769,1,0,0:0:0:0:
329,192,50769,1,0,0:0:0:0:
475,192,50769,1,0,0:0:0:0:
36,192,51133,128,0,51224:0:0:0:0:
182,192,51133,128,0,51224:0:0:0:0:
329,192,51133,128,0,51224:0:0:0:0:
402,192,51133,128,0,51224:0:0:0:0:
109,192,51315,128,0,51406:0:0:0:0:
256,192,51315,128,0,51406:0:0:0:0:
402,192,51315,128,0,51769:0:0:0:0:
475,192,51315,128,0,51769:0:0:0:0:
109,192,51497,1,0,0:0:0:0:
182,192,51497,1,0,0:0:0:0:
36,192,51497,1,0,0:0:0:0:
256,192,51497,1,0,0:0:0:0:
36,192,51860,128,0,51951:0:0:0:0:
182,192,51860,128,0,51951:0:0:0:0:
329,192,51860,128,0,51951:0:0:0:0:
402,192,51860,128,0,51951:0:0:0:0:
36,192,52042,128,0,52497:0:0:0:0:
182,192,52042,128,0,52133:0:0:0:0:
329,192,52042,128,0,52133:0:0:0:0:
475,192,52042,128,0,52497:0:0:0:0:
182,192,52224,1,0,0:0:0:0:
109,192,52224,1,0,0:0:0:0:
329,192,52224,1,0,0:0:0:0:
402,192,52224,1,0,0:0:0:0:
475,192,52588,128,0,52678:0:0:0:0:
329,192,52588,128,0,52678:0:0:0:0:
182,192,52588,128,0,52678:0:0:0:0:
109,192,52588,128,0,52678:0:0:0:0:
402,192,52769,128,0,52860:0:0:0:0:
109,192,52769,128,0,52860:0:0:0:0:
182,192,52769,128,0,53224:0:0:0:0:
329,192,52769,128,0,53224:0:0:0:0:
475,192,52951,1,0,0:0:0:0:
109,192,52951,1,0,0:0:0:0:
402,192,52951,1,0,0:0:0:0:
36,192,52951,1,0,0:0:0:0:
36,192,53315,128,0,53406:0:0:0:0:
109,192,53315,128,0,53406:0:0:0:0:
256,192,53315,128,0,53406:0:0:0:0:
402,192,53315,128,0,53406:0:0:0:0:
402,192,53497,128,0,53588:0:0:0:0:
475,192,53497,128,0,53588:0:0:0:0:
182,192,53497,128,0,53951:0:0:0:0:
329,192,53497,128,0,53951:0:0:0:0:
36,192,53678,1,0,0:0:0:0:
109,192,53678,1,0,0:0:0:0:
402,192,53678,1,0,0:0:0:0:
475,192,53678,1,0,0:0:0:0:
36,192,54042,1,0,0:0:0:0:
182,192,54042,1,0,0:0:0:0:
256,192,54042,1,0,0:0:0:0:
402,192,54042,1,0,0:0:0:0:
109,192,54224,1,0,0:0:0:0:
256,192,54224,1,0,0:0:0:0:
329,192,54224,1,0,0:0:0:0:
475,192,54224,1,0,0:0:0:0:
182,192,54406,1,0,0:0:0:0:
329,192,54406,1,0,0:0:0:0:
402,192,54406,1,0,0:0:0:0:
36,192,54406,1,0,0:0:0:0:
109,192,54588,1,0,0:0:0:0:
256,192,54588,1,0,0:0:0:0:
402,192,54588,1,0,0:0:0:0:
475,192,54588,1,0,0:0:0:0:
182,192,54769,1,0,0:0:0:0:
329,192,54769,1,0,0:0:0:0:
475,192,54769,1,0,0:0:0:0:
36,192,54769,1,0,0:0:0:0:
109,192,55069,1,0,0:0:0:0:
256,192,55069,1,0,0:0:0:0:
329,192,55069,1,0,0:0:0:0:
36,192,55069,1,0,0:0:0:0:
256,192,55369,1,0,0:0:0:0:
329,192,55369,1,0,0:0:0:0:
475,192,55369,1,0,0:0:0:0:
182,192,55369,1,0,0:0:0:0:
36,192,55569,128,0,56426:0:0:0:0:
402,192,55569,128,0,55775:0:0:0:0:
109,192,55569,1,0,0:0:0:0:
329,192,55775,128,0,55982:0:0:0:0:
256,192,55982,128,0,56204:0:0:0:0:
182,192,56204,128,0,56426:0:0:0:0:
475,192,56426,128,0,57006:0:0:0:0:
256,192,56426,1,0,0:0:0:0:
329,192,56522,1,0,0:0:0:0:
182,192,56619,1,0,0:0:0:0:
256,192,56716,1,0,0:0:0:0:
402,192,56813,1,0,0:0:0:0:
329,192,56909,1,0,0:0:0:0:
109,192,57006,128,0,57200:0:0:0:0:
182,192,57006,1,0,0:0:0:0:
256,192,57103,1,0,0:0:0:0:
402,192,57200,128,0,57762:0:0:0:0:
36,192,57200,1,0,0:0:0:0:
109,192,57293,1,0,0:0:0:0:
256,192,57387,1,0,0:0:0:0:
182,192,57481,1,0,0:0:0:0:
329,192,57575,1,0,0:0:0:0:
256,192,57668,1,0,0:0:0:0:
36,192,57762,128,0,57950:0:0:0:0:
109,192,57762,1,0,0:0:0:0:
182,192,57856,1,0,0:0:0:0:
329,192,57950,128,0,58505:0:0:0:0:
256,192,57950,1,0,0:0:0:0:
109,192,58042,1,0,0:0:0:0:
182,192,58135,1,0,0:0:0:0:
256,192,58227,1,0,0:0:0:0:
475,192,58320,1,0,0:0:0:0:
402,192,58412,1,0,0:0:0:0:
109,192,58505,128,0,58690:0:0:0:0:
182,192,58505,1,0,0:0:0:0:
256,192,58598,1,0,0:0:0:0:
402,192,58690,128,0,59246:0:0:0:0:
329,192,58690,1,0,0:0:0:0:
182,192,58783,1,0,0:0:0:0:
256,192,58875,1,0,0:0:0:0:
109,192,58968,1,0,0:0:0:0:
182,192,59061,1,0,0:0:0:0:
329,192,59061,1,0,0:0:0:0:
475,192,59061,1,0,0:0:0:0:
36,192,59153,1,0,0:0:0:0:
256,192,59246,128,0,59431:0:0:0:0:
109,192,59246,1,0,0:0:0:0:
402,192,59338,1,0,0:0:0:0:
109,192,59431,128,0,59979:0:0:0:0:
329,192,59431,1,0,0:0:0:0:
36,192,59431,1,0,0:0:0:0:
475,192,59431,1,0,0:0:0:0:
182,192,59522,1,0,0:0:0:0:
256,192,59613,1,0,0:0:0:0:
329,192,59705,1,0,0:0:0:0:
402,192,59796,1,0,0:0:0:0:
329,192,59888,1,0,0:0:0:0:
256,192,59979,1,0,0:0:0:0:
402,192,59979,128,0,60162:0:0:0:0:
182,192,60071,1,0,0:0:0:0:
109,192,60162,1,0,0:0:0:0:
36,192,60162,1,0,0:0:0:0:
475,192,60162,1,0,0:0:0:0:
329,192,60162,128,0,60711:0:0:0:0:
256,192,60254,1,0,0:0:0:0:
182,192,60345,1,0,0:0:0:0:
256,192,60437,1,0,0:0:0:0:
109,192,60528,1,0,0:0:0:0:
256,192,60620,1,0,0:0:0:0:
182,192,60711,128,0,60894:0:0:0:0:
475,192,60711,1,0,0:0:0:0:
402,192,60802,1,0,0:0:0:0:
329,192,60894,128,0,61621:0:0:0:0:
36,192,60894,1,0,0:0:0:0:
109,192,60984,1,0,0:0:0:0:
256,192,61075,1,0,0:0:0:0:
182,192,61136,1,0,0:0:0:0:
256,192,61197,1,0,0:0:0:0:
36,192,61257,1,0,0:0:0:0:
402,192,61257,1,0,0:0:0:0:
475,192,61257,1,0,0:0:0:0:
109,192,61318,1,0,0:0:0:0:
36,192,61378,1,0,0:0:0:0:
256,192,61439,1,0,0:0:0:0:
182,192,61500,1,0,0:0:0:0:
109,192,61560,1,0,0:0:0:0:
256,192,61621,128,0,62166:0:0:0:0:
36,192,61621,1,0,0:0:0:0:
402,192,61621,1,0,0:0:0:0:
475,192,61621,1,0,0:0:0:0:
109,192,61803,1,0,0:0:0:0:
182,192,61803,1,0,0:0:0:0:
329,192,61894,1,0,0:0:0:0:
402,192,61894,1,0,0:0:0:0:
109,192,61984,1,0,0:0:0:0:
36,192,61984,1,0,0:0:0:0:
402,192,62075,1,0,0:0:0:0:
475,192,62075,1,0,0:0:0:0:
182,192,62166,1,0,0:0:0:0:
109,192,62166,1,0,0:0:0:0:
329,192,62257,1,0,0:0:0:0:
36,192,62348,128,0,62712:0:0:0:0:
109,192,62348,128,0,62712:0:0:0:0:
256,192,62348,128,0,62712:0:0:0:0:
475,192,62348,128,0,62712:0:0:0:0:
402,192,62348,128,0,62712:0:0:0:0:
109,192,62894,1,0,0:0:0:0:
182,192,62894,1,0,0:0:0:0:
329,192,62894,1,0,0:0:0:0:
36,192,63075,128,0,63436:0:0:0:0:
182,192,63075,128,0,63436:0:0:0:0:
256,192,63075,128,0,63436:0:0:0:0:
402,192,63075,128,0,63436:0:0:0:0:
475,192,63075,128,0,63436:0:0:0:0:
182,192,63617,1,0,0:0:0:0:
256,192,63617,1,0,0:0:0:0:
402,192,63617,1,0,0:0:0:0:
36,192,63797,1,0,0:0:0:0:
109,192,63797,1,0,0:0:0:0:
182,192,63797,1,0,0:0:0:0:
329,192,63797,1,0,0:0:0:0:
475,192,63797,1,0,0:0:0:0:
36,192,64156,1,0,0:0:0:0:
109,192,64156,1,0,0:0:0:0:
256,192,64156,1,0,0:0:0:0:
402,192,64156,1,0,0:0:0:0:
475,192,64156,1,0,0:0:0:0:
36,192,64515,1,0,0:0:0:0:
182,192,64515,1,0,0:0:0:0:
329,192,64515,1,0,0:0:0:0:
402,192,64515,1,0,0:0:0:0:
475,192,64515,1,0,0:0:0:0:
36,192,64872,1,0,0:0:0:0:
182,192,64872,1,0,0:0:0:0:
109,192,64872,1,0,0:0:0:0:
475,192,64872,1,0,0:0:0:0:
256,192,64872,1,0,0:0:0:0:
36,192,65227,1,0,0:0:0:0:
182,192,65227,1,0,0:0:0:0:
402,192,65227,1,0,0:0:0:0:
475,192,65227,1,0,0:0:0:0:
256,192,65227,1,0,0:0:0:0:
109,192,65315,1,0,0:0:0:0:
329,192,65315,1,0,0:0:0:0:
182,192,65403,1,0,0:0:0:0:
402,192,65403,1,0,0:0:0:0:
109,192,65491,1,0,0:0:0:0:
329,192,65491,1,0,0:0:0:0:
36,192,65579,1,0,0:0:0:0:
256,192,65579,1,0,0:0:0:0:
475,192,65579,1,0,0:0:0:0:
402,192,65579,1,0,0:0:0:0:
109,192,65668,1,0,0:0:0:0:
329,192,65668,1,0,0:0:0:0:
402,192,65756,1,0,0:0:0:0:
182,192,65756,1,0,0:0:0:0:
256,192,65844,1,0,0:0:0:0:
475,192,65844,1,0,0:0:0:0:
36,192,65932,1,0,0:0:0:0:
182,192,65932,1,0,0:0:0:0:
329,192,65932,1,0,0:0:0:0:
109,192,65932,1,0,0:0:0:0:
256,192,66021,1,0,0:0:0:0:
402,192,66021,1,0,0:0:0:0:
182,192,66109,1,0,0:0:0:0:
329,192,66109,1,0,0:0:0:0:
109,192,66197,1,0,0:0:0:0:
402,192,66197,1,0,0:0:0:0:
256,192,66285,1,0,0:0:0:0:
475,192,66285,1,0,0:0:0:0:
36,192,66285,1,0,0:0:0:0:
182,192,66285,1,0,0:0:0:0:
109,192,66374,1,0,0:0:0:0:
329,192,66374,1,0,0:0:0:0:
402,192,66462,1,0,0:0:0:0:
182,192,66462,1,0,0:0:0:0:
109,192,66550,1,0,0:0:0:0:
329,192,66550,1,0,0:0:0:0:
36,192,66638,1,0,0:0:0:0:
256,192,66638,1,0,0:0:0:0:
402,192,66638,1,0,0:0:0:0:
475,192,66638,1,0,0:0:0:0:
182,192,66727,1,0,0:0:0:0:
329,192,66727,1,0,0:0:0:0:
109,192,66815,1,0,0:0:0:0:
36,192,66815,1,0,0:0:0:0:
256,192,66815,1,0,0:0:0:0:
182,192,66903,1,0,0:0:0:0:
329,192,66903,1,0,0:0:0:0:
256,192,66991,1,0,0:0:0:0:
402,192,66991,1,0,0:0:0:0:
475,192,66991,1,0,0:0:0:0:
36,192,66991,1,0,0:0:0:0:
109,192,67079,1,0,0:0:0:0:
182,192,67079,1,0,0:0:0:0:
256,192,67168,1,0,0:0:0:0:
402,192,67168,1,0,0:0:0:0:
329,192,67168,1,0,0:0:0:0:
109,192,67256,1,0,0:0:0:0:
182,192,67256,1,0,0:0:0:0:
475,192,67344,1,0,0:0:0:0:
402,192,67344,1,0,0:0:0:0:
36,192,67344,1,0,0:0:0:0:
329,192,67344,1,0,0:0:0:0:
182,192,67432,1,0,0:0:0:0:
109,192,67432,1,0,0:0:0:0:
402,192,67521,1,0,0:0:0:0:
329,192,67521,1,0,0:0:0:0:
256,192,67521,1,0,0:0:0:0:
109,192,67609,1,0,0:0:0:0:
36,192,67609,1,0,0:0:0:0:
182,192,67697,1,0,0:0:0:0:
402,192,67697,1,0,0:0:0:0:
329,192,67697,1,0,0:0:0:0:
109,192,67785,1,0,0:0:0:0:
256,192,67785,1,0,0:0:0:0:
36,192,67785,1,0,0:0:0:0:
402,192,67874,1,0,0:0:0:0:
329,192,67874,1,0,0:0:0:0:
475,192,67874,1,0,0:0:0:0:
109,192,67962,1,0,0:0:0:0:
182,192,67962,1,0,0:0:0:0:
36,192,67962,1,0,0:0:0:0:
256,192,68050,128,0,68322:0:0:0:0:
329,192,68050,128,0,68504:0:0:0:0:
402,192,68050,128,0,68504:0:0:0:0:
475,192,68050,128,0,68504:0:0:0:0:
182,192,68413,1,0,0:0:0:0:
109,192,68413,1,0,0:0:0:0:
256,192,68413,1,0,0:0:0:0:
256,192,68595,1,0,0:0:0:0:
329,192,68595,1,0,0:0:0:0:
402,192,68595,1,0,0:0:0:0:
475,192,68595,1,0,0:0:0:0:
36,192,68777,128,0,69231:0:0:0:0:
109,192,68777,128,0,69231:0:0:0:0:
256,192,68777,128,0,69231:0:0:0:0:
329,192,68777,128,0,69050:0:0:0:0:
329,192,69140,1,0,0:0:0:0:
402,192,69140,1,0,0:0:0:0:
475,192,69140,1,0,0:0:0:0:
36,192,69322,1,0,0:0:0:0:
109,192,69322,1,0,0:0:0:0:
256,192,69322,1,0,0:0:0:0:
329,192,69322,1,0,0:0:0:0:
109,192,69504,1,0,0:0:0:0:
182,192,69504,1,0,0:0:0:0:
329,192,69504,1,0,0:0:0:0:
402,192,69504,1,0,0:0:0:0:
36,192,69504,1,0,0:0:0:0:
109,192,69868,1,0,0:0:0:0:
182,192,69868,1,0,0:0:0:0:
329,192,69868,1,0,0:0:0:0:
402,192,69868,1,0,0:0:0:0:
475,192,69868,1,0,0:0:0:0:
182,192,70231,1,0,0:0:0:0:
256,192,70231,1,0,0:0:0:0:
402,192,70231,1,0,0:0:0:0:
475,192,70231,1,0,0:0:0:0:
36,192,70231,1,0,0:0:0:0:
256,192,70595,1,0,0:0:0:0:
329,192,70595,1,0,0:0:0:0:
402,192,70595,1,0,0:0:0:0:
475,192,70595,1,0,0:0:0:0:
109,192,70595,1,0,0:0:0:0:
182,192,70959,128,0,71140:0:0:0:0:
329,192,70959,128,0,71140:0:0:0:0:
109,192,71140,1,0,0:0:0:0:
36,192,71140,1,0,0:0:0:0:
256,192,71322,128,0,71504:0:0:0:0:
402,192,71322,128,0,71504:0:0:0:0:
182,192,71504,1,0,0:0:0:0:
109,192,71504,1,0,0:0:0:0:
256,192,71686,128,0,71868:0:0:0:0:
402,192,71686,128,0,71868:0:0:0:0:
109,192,71868,1,0,0:0:0:0:
36,192,71868,1,0,0:0:0:0:
329,192,72050,128,0,72231:0:0:0:0:
475,192,72050,128,0,72231:0:0:0:0:
182,192,72140,1,0,0:0:0:0:
109,192,72231,1,0,0:0:0:0:
36,192,72322,1,0,0:0:0:0:
256,192,72413,1,0,0:0:0:0:
475,192,72413,128,0,72774:0:0:0:0:
329,192,72413,1,0,0:0:0:0:
182,192,72413,1,0,0:0:0:0:
36,192,72503,1,0,0:0:0:0:
109,192,72503,1,0,0:0:0:0:
329,192,72593,1,0,0:0:0:0:
402,192,72593,1,0,0:0:0:0:
182,192,72684,1,0,0:0:0:0:
109,192,72684,1,0,0:0:0:0:
36,192,72774,1,0,0:0:0:0:
256,192,72774,1,0,0:0:0:0:
402,192,72774,1,0,0:0:0:0:
109,192,72864,1,0,0:0:0:0:
182,192,72864,1,0,0:0:0:0:
329,192,72955,1,0,0:0:0:0:
402,192,72955,1,0,0:0:0:0:
109,192,73045,1,0,0:0:0:0:
182,192,73045,1,0,0:0:0:0:
36,192,73135,128,0,73494:0:0:0:0:
402,192,73135,1,0,0:0:0:0:
475,192,73135,1,0,0:0:0:0:
329,192,73135,1,0,0:0:0:0:
182,192,73224,1,0,0:0:0:0:
256,192,73224,1,0,0:0:0:0:
402,192,73314,1,0,0:0:0:0:
475,192,73314,1,0,0:0:0:0:
109,192,73404,1,0,0:0:0:0:
182,192,73404,1,0,0:0:0:0:
329,192,73494,1,0,0:0:0:0:
402,192,73494,1,0,0:0:0:0:
256,192,73494,1,0,0:0:0:0:
109,192,73584,1,0,0:0:0:0:
182,192,73584,1,0,0:0:0:0:
256,192,73673,1,0,0:0:0:0:
329,192,73673,1,0,0:0:0:0:
36,192,73763,1,0,0:0:0:0:
109,192,73763,1,0,0:0:0:0:
475,192,73853,128,0,74210:0:0:0:0:
182,192,73853,1,0,0:0:0:0:
256,192,73853,1,0,0:0:0:0:
402,192,73853,1,0,0:0:0:0:
109,192,73942,1,0,0:0:0:0:
36,192,73942,1,0,0:0:0:0:
256,192,74031,1,0,0:0:0:0:
329,192,74031,1,0,0:0:0:0:
182,192,74120,1,0,0:0:0:0:
109,192,74120,1,0,0:0:0:0:
329,192,74210,1,0,0:0:0:0:
402,192,74210,1,0,0:0:0:0:
36,192,74210,1,0,0:0:0:0:
256,192,74299,1,0,0:0:0:0:
182,192,74299,1,0,0:0:0:0:
402,192,74388,1,0,0:0:0:0:
475,192,74388,1,0,0:0:0:0:
256,192,74478,1,0,0:0:0:0:
329,192,74478,1,0,0:0:0:0:
36,192,74567,128,0,74655:0:0:0:0:
109,192,74567,128,0,74655:0:0:0:0:
182,192,74567,128,0,74655:0:0:0:0:
402,192,74567,128,0,74655:0:0:0:0:
475,192,74567,128,0,74655:0:0:0:0:
36,192,74744,128,0,74833:0:0:0:0:
109,192,74744,128,0,74833:0:0:0:0:
329,192,74744,128,0,74833:0:0:0:0:
256,192,74744,128,0,74833:0:0:0:0:
402,192,74744,128,0,74833:0:0:0:0:
36,192,74922,128,0,75010:0:0:0:0:
109,192,74922,128,0,75010:0:0:0:0:
182,192,74922,128,0,75010:0:0:0:0:
329,192,74922,128,0,75010:0:0:0:0:
475,192,74922,128,0,75010:0:0:0:0:
36,192,75099,128,0,75188:0:0:0:0:
182,192,75099,128,0,75188:0:0:0:0:
256,192,75099,128,0,75188:0:0:0:0:
402,192,75099,128,0,75188:0:0:0:0:
475,192,75099,128,0,75188:0:0:0:0:
36,192,75277,1,0,0:0:0:0:
109,192,75277,1,0,0:0:0:0:
182,192,75277,1,0,0:0:0:0:
329,192,75277,1,0,0:0:0:0:
475,192,75277,1,0,0:0:0:0:
109,192,75394,1,0,0:0:0:0:
256,192,75394,1,0,0:0:0:0:
402,192,75394,1,0,0:0:0:0:
182,192,75512,1,0,0:0:0:0:
329,192,75512,1,0,0:0:0:0:
475,192,75512,1,0,0:0:0:0:
109,192,75629,1,0,0:0:0:0:
256,192,75629,1,0,0:0:0:0:
402,192,75629,1,0,0:0:0:0:
36,192,75629,1,0,0:0:0:0:
182,192,75750,1,0,0:0:0:0:
329,192,75750,1,0,0:0:0:0:
475,192,75750,1,0,0:0:0:0:
256,192,75871,1,0,0:0:0:0:
402,192,75871,1,0,0:0:0:0:
109,192,75871,1,0,0:0:0:0:
36,192,75992,1,0,0:0:0:0:
182,192,75992,1,0,0:0:0:0:
329,192,75992,1,0,0:0:0:0:
475,192,75992,1,0,0:0:0:0:
109,192,76117,1,0,0:0:0:0:
256,192,76117,1,0,0:0:0:0:
402,192,76117,1,0,0:0:0:0:
182,192,76242,1,0,0:0:0:0:
475,192,76242,1,0,0:0:0:0:
329,192,76242,1,0,0:0:0:0:
36,192,76367,1,0,0:0:0:0:
109,192,76367,1,0,0:0:0:0:
256,192,76367,1,0,0:0:0:0:
402,192,76367,1,0,0:0:0:0:
109,192,76496,1,0,0:0:0:0:
329,192,76496,1,0,0:0:0:0:
475,192,76496,1,0,0:0:0:0:
36,192,76496,1,0,0:0:0:0:
36,192,76625,1,0,0:0:0:0:
109,192,76625,1,0,0:0:0:0:
256,192,76625,1,0,0:0:0:0:
402,192,76625,1,0,0:0:0:0:
109,192,76754,1,0,0:0:0:0:
36,192,76754,1,0,0:0:0:0:
329,192,76754,1,0,0:0:0:0:
475,192,76754,1,0,0:0:0:0:
182,192,76754,1,0,0:0:0:0:
36,192,77205,128,0,78332:0:0:0:0:
109,192,77205,128,0,78332:0:0:0:0:
182,192,77205,128,0,78332:0:0:0:0:
256,192,77205,128,0,78332:0:0:0:0:
402,192,77205,1,0,0:0:0:0:
329,192,77205,1,0,0:0:0:0:
329,192,77881,1,0,0:0:0:0:
402,192,78107,1,0,0:0:0:0:
475,192,78332,1,0,0:0:0:0:
402,192,78558,1,0,0:0:0:0:
182,192,78558,1,0,0:0:0:0:
109,192,79019,1,0,0:0:0:0:
329,192,79019,1,0,0:0:0:0:
256,192,79481,1,0,0:0:0:0:
475,192,79481,1,0,0:0:0:0:
36,192,79481,1,0,0:0:0:0:
109,192,79555,1,0,0:0:0:0:
182,192,79629,1,0,0:0:0:0:
329,192,79703,1,0,0:0:0:0:
402,192,79777,1,0,0:0:0:0:
109,192,79851,1,0,0:0:0:0:
182,192,79925,1,0,0:0:0:0:
256,192,79999,1,0,0:0:0:0:
402,192,80073,1,0,0:0:0:0:
475,192,80147,1,0,0:0:0:0:
109,192,80221,1,0,0:0:0:0:
182,192,80295,1,0,0:0:0:0:
329,192,80369,1,0,0:0:0:0:
475,192,80369,1,0,0:0:0:0:
36,192,80369,1,0,0:0:0:0:
256,192,80487,1,0,0:0:0:0:
402,192,80487,1,0,0:0:0:0:
329,192,80605,1,0,0:0:0:0:
182,192,80605,1,0,0:0:0:0:
109,192,80723,1,0,0:0:0:0:
256,192,80723,1,0,0:0:0:0:
402,192,80762,1,0,0:0:0:0:
182,192,80841,1,0,0:0:0:0:
36,192,80841,1,0,0:0:0:0:
475,192,80841,1,0,0:0:0:0:
256,192,80906,1,0,0:0:0:0:
329,192,80972,1,0,0:0:0:0:
402,192,81038,1,0,0:0:0:0:
109,192,81104,1,0,0:0:0:0:
182,192,81169,1,0,0:0:0:0:
256,192,81235,1,0,0:0:0:0:
329,192,81301,1,0,0:0:0:0:
36,192,81367,1,0,0:0:0:0:
109,192,81367,1,0,0:0:0:0:
182,192,81367,1,0,0:0:0:0:
402,192,81367,1,0,0:0:0:0:
475,192,81367,1,0,0:0:0:0:
256,192,81548,1,0,0:0:0:0:
109,192,81548,1,0,0:0:0:0:
329,192,81639,1,0,0:0:0:0:
182,192,81639,1,0,0:0:0:0:
256,192,81730,1,0,0:0:0:0:
402,192,81730,1,0,0:0:0:0:
36,192,81730,1,0,0:0:0:0:
182,192,81820,1,0,0:0:0:0:
329,192,81820,1,0,0:0:0:0:
256,192,81910,1,0,0:0:0:0:
402,192,81910,1,0,0:0:0:0:
329,192,82001,1,0,0:0:0:0:
475,192,82001,1,0,0:0:0:0:
402,192,82091,1,0,0:0:0:0:
36,192,82091,1,0,0:0:0:0:
182,192,82091,1,0,0:0:0:0:
109,192,82180,1,0,0:0:0:0:
256,192,82180,1,0,0:0:0:0:
182,192,82270,1,0,0:0:0:0:
329,192,82270,1,0,0:0:0:0:
256,192,82360,1,0,0:0:0:0:
402,192,82360,1,0,0:0:0:0:
109,192,82450,1,0,0:0:0:0:
36,192,82450,1,0,0:0:0:0:
329,192,82450,1,0,0:0:0:0:
475,192,82450,1,0,0:0:0:0:
182,192,82540,1,0,0:0:0:0:
402,192,82540,1,0,0:0:0:0:
36,192,82631,1,0,0:0:0:0:
475,192,82631,1,0,0:0:0:0:
109,192,82677,1,0,0:0:0:0:
402,192,82677,1,0,0:0:0:0:
182,192,82722,1,0,0:0:0:0:
329,192,82722,1,0,0:0:0:0:
256,192,82768,1,0,0:0:0:0:
36,192,82813,1,0,0:0:0:0:
109,192,82813,1,0,0:0:0:0:
402,192,82813,1,0,0:0:0:0:
475,192,82813,1,0,0:0:0:0:
329,192,82901,1,0,0:0:0:0:
182,192,82989,1,0,0:0:0:0:
256,192,83077,1,0,0:0:0:0:
329,192,83165,1,0,0:0:0:0:
475,192,83165,1,0,0:0:0:0:
36,192,83165,1,0,0:0:0:0:
109,192,83165,1,0,0:0:0:0:
182,192,83254,1,0,0:0:0:0:
256,192,83342,1,0,0:0:0:0:
182,192,83430,1,0,0:0:0:0:
329,192,83518,1,0,0:0:0:0:
475,192,83518,1,0,0:0:0:0:
109,192,83518,1,0,0:0:0:0:
36,192,83518,1,0,0:0:0:0:
256,192,83607,1,0,0:0:0:0:
182,192,83695,1,0,0:0:0:0:
329,192,83783,1,0,0:0:0:0:
402,192,83871,1,0,0:0:0:0:
475,192,83871,1,0,0:0:0:0:
36,192,83871,1,0,0:0:0:0:
109,192,83871,1,0,0:0:0:0:
182,192,83960,1,0,0:0:0:0:
256,192,84048,1,0,0:0:0:0:
329,192,84136,1,0,0:0:0:0:
402,192,84224,1,0,0:0:0:0:
475,192,84224,1,0,0:0:0:0:
36,192,84224,1,0,0:0:0:0:
182,192,84224,1,0,0:0:0:0:
256,192,84313,1,0,0:0:0:0:
109,192,84401,1,0,0:0:0:0:
182,192,84489,1,0,0:0:0:0:
256,192,84577,1,0,0:0:0:0:
402,192,84577,1,0,0:0:0:0:
475,192,84577,1,0,0:0:0:0:
36,192,84577,1,0,0:0:0:0:
109,192,84665,1,0,0:0:0:0:
329,192,84754,1,0,0:0:0:0:
256,192,84842,1,0,0:0:0:0:
182,192,84930,1,0,0:0:0:0:
36,192,84930,1,0,0:0:0:0:
402,192,84930,1,0,0:0:0:0:
475,192,84930,1,0,0:0:0:0:
329,192,85018,1,0,0:0:0:0:
109,192,85107,1,0,0:0:0:0:
256,192,85195,1,0,0:0:0:0:
36,192,85283,1,0,0:0:0:0:
182,192,85283,1,0,0:0:0:0:
475,192,85283,1,0,0:0:0:0:
402,192,85283,1,0,0:0:0:0:
329,192,85371,1,0,0:0:0:0:
109,192,85460,1,0,0:0:0:0:
182,192,85548,1,0,0:0:0:0:
256,192,85636,1,0,0:0:0:0:
475,192,85636,1,0,0:0:0:0:
36,192,85636,1,0,0:0:0:0:
402,192,85636,1,0,0:0:0:0:
109,192,85724,1,0,0:0:0:0:
329,192,85813,1,0,0:0:0:0:
182,192,85901,1,0,0:0:0:0:
36,192,85989,1,0,0:0:0:0:
256,192,85989,1,0,0:0:0:0:
475,192,85989,1,0,0:0:0:0:
402,192,86077,1,0,0:0:0:0:
182,192,86165,1,0,0:0:0:0:
329,192,86254,1,0,0:0:0:0:
109,192,86342,1,0,0:0:0:0:
36,192,86342,1,0,0:0:0:0:
256,192,86342,1,0,0:0:0:0:
475,192,86342,1,0,0:0:0:0:
402,192,86430,1,0,0:0:0:0:
182,192,86518,1,0,0:0:0:0:
329,192,86607,1,0,0:0:0:0:
36,192,86695,1,0,0:0:0:0:
109,192,86695,1,0,0:0:0:0:
475,192,86695,1,0,0:0:0:0:
256,192,86783,1,0,0:0:0:0:
109,192,86871,1,0,0:0:0:0:
329,192,86871,1,0,0:0:0:0:
182,192,86960,1,0,0:0:0:0:
402,192,86960,1,0,0:0:0:0:
256,192,87048,1,0,0:0:0:0:
475,192,87048,1,0,0:0:0:0:
36,192,87048,1,0,0:0:0:0:
109,192,87048,1,0,0:0:0:0:
329,192,87136,1,0,0:0:0:0:
182,192,87224,1,0,0:0:0:0:
402,192,87313,1,0,0:0:0:0:
256,192,87401,1,0,0:0:0:0:
36,192,87401,128,0,87930:0:0:0:0:
109,192,87401,128,0,87930:0:0:0:0:
475,192,87401,128,0,87930:0:0:0:0:
329,192,87489,1,0,0:0:0:0:
182,192,87577,1,0,0:0:0:0:
256,192,87665,1,0,0:0:0:0:
402,192,87754,1,0,0:0:0:0:
329,192,87842,1,0,0:0:0:0:
182,192,87930,1,0,0:0:0:0:
256,192,88018,1,0,0:0:0:0:
329,192,88107,1,0,0:0:0:0:
36,192,88107,1,0,0:0:0:0:
475,192,88107,1,0,0:0:0:0:
109,192,88195,1,0,0:0:0:0:
256,192,88195,1,0,0:0:0:0:
182,192,88283,1,0,0:0:0:0:
402,192,88283,1,0,0:0:0:0:
475,192,88283,1,0,0:0:0:0:
109,192,88371,1,0,0:0:0:0:
329,192,88371,1,0,0:0:0:0:
36,192,88460,1,0,0:0:0:0:
256,192,88460,1,0,0:0:0:0:
402,192,88460,128,0,88724:0:0:0:0:
475,192,88460,128,0,88724:0:0:0:0:
109,192,88548,1,0,0:0:0:0:
182,192,88636,1,0,0:0:0:0:
256,192,88724,1,0,0:0:0:0:
329,192,88813,1,0,0:0:0:0:
402,192,88813,1,0,0:0:0:0:
36,192,88813,128,0,89077:0:0:0:0:
109,192,88813,128,0,89077:0:0:0:0:
182,192,88901,1,0,0:0:0:0:
256,192,88989,1,0,0:0:0:0:
329,192,89077,1,0,0:0:0:0:
109,192,89165,1,0,0:0:0:0:
182,192,89165,1,0,0:0:0:0:
402,192,89165,128,0,89430:0:0:0:0:
475,192,89165,128,0,89430:0:0:0:0:
329,192,89254,1,0,0:0:0:0:
256,192,89342,1,0,0:0:0:0:
182,192,89430,1,0,0:0:0:0:
329,192,89518,1,0,0:0:0:0:
402,192,89518,1,0,0:0:0:0:
36,192,89518,128,0,89783:0:0:0:0:
109,192,89518,128,0,89783:0:0:0:0:
256,192,89607,1,0,0:0:0:0:
329,192,89695,1,0,0:0:0:0:
402,192,89783,1,0,0:0:0:0:
182,192,89871,1,0,0:0:0:0:
256,192,89871,1,0,0:0:0:0:
475,192,89871,128,0,90136:0:0:0:0:
109,192,89871,128,0,90136:0:0:0:0:
329,192,89960,1,0,0:0:0:0:
256,192,90048,1,0,0:0:0:0:
182,192,90136,1,0,0:0:0:0:
109,192,90224,1,0,0:0:0:0:
329,192,90224,1,0,0:0:0:0:
36,192,90224,128,0,90489:0:0:0:0:
402,192,90224,128,0,90489:0:0:0:0:
256,192,90313,1,0,0:0:0:0:
182,192,90401,1,0,0:0:0:0:
109,192,90489,1,0,0:0:0:0:
329,192,90577,1,0,0:0:0:0:
402,192,90577,1,0,0:0:0:0:
36,192,90577,128,0,90842:0:0:0:0:
475,192,90577,128,0,90842:0:0:0:0:
256,192,90665,1,0,0:0:0:0:
182,192,90754,1,0,0:0:0:0:
329,192,90842,1,0,0:0:0:0:
402,192,90886,1,0,0:0:0:0:
36,192,90930,1,0,0:0:0:0:
256,192,90930,128,0,91195:0:0:0:0:
475,192,90930,128,0,91195:0:0:0:0:
109,192,90952,1,0,0:0:0:0:
182,192,90974,1,0,0:0:0:0:
36,192,91283,1,0,0:0:0:0:
109,192,91283,1,0,0:0:0:0:
256,192,91283,1,0,0:0:0:0:
402,192,91283,1,0,0:0:0:0:
475,192,91283,1,0,0:0:0:0:
109,192,91460,1,0,0:0:0:0:
475,192,91460,1,0,0:0:0:0:
402,192,91460,1,0,0:0:0:0:
36,192,91460,1,0,0:0:0:0:
256,192,91460,1,0,0:0:0:0:
329,192,91636,1,0,0:0:0:0:
475,192,91636,1,0,0:0:0:0:
109,192,91636,1,0,0:0:0:0:
256,192,91724,1,0,0:0:0:0:
182,192,91813,1,0,0:0:0:0:
109,192,91901,1,0,0:0:0:0:
36,192,91989,1,0,0:0:0:0:
329,192,91989,1,0,0:0:0:0:
402,192,91989,1,0,0:0:0:0:
256,192,91989,1,0,0:0:0:0:
475,192,91989,1,0,0:0:0:0:
36,192,92165,1,0,0:0:0:0:
329,192,92165,1,0,0:0:0:0:
402,192,92165,1,0,0:0:0:0:
475,192,92165,1,0,0:0:0:0:
256,192,92165,1,0,0:0:0:0:
182,192,92342,1,0,0:0:0:0:
109,192,92342,1,0,0:0:0:0:
402,192,92342,1,0,0:0:0:0:
256,192,92430,1,0,0:0:0:0:
329,192,92518,1,0,0:0:0:0:
402,192,92607,1,0,0:0:0:0:
475,192,92695,1,0,0:0:0:0:
36,192,92695,1,0,0:0:0:0:
182,192,92695,1,0,0:0:0:0:
256,192,92695,1,0,0:0:0:0:
109,192,92695,1,0,0:0:0:0:
109,192,92871,1,0,0:0:0:0:
182,192,92871,1,0,0:0:0:0:
36,192,92871,1,0,0:0:0:0:
402,192,92871,1,0,0:0:0:0:
475,192,92871,1,0,0:0:0:0:
109,192,93048,1,0,0:0:0:0:
182,192,93048,1,0,0:0:0:0:
256,192,93048,1,0,0:0:0:0:
329,192,93136,1,0,0:0:0:0:
402,192,93224,1,0,0:0:0:0:
329,192,93313,1,0,0:0:0:0:
256,192,93401,1,0,0:0:0:0:
109,192,93401,1,0,0:0:0:0:
182,192,93401,1,0,0:0:0:0:
475,192,93401,1,0,0:0:0:0:
36,192,93401,1,0,0:0:0:0:
402,192,93489,1,0,0:0:0:0:
36,192,93577,1,0,0:0:0:0:
109,192,93577,1,0,0:0:0:0:
182,192,93577,1,0,0:0:0:0:
329,192,93577,1,0,0:0:0:0:
256,192,93577,1,0,0:0:0:0:
402,192,93665,1,0,0:0:0:0:
256,192,93754,1,0,0:0:0:0:
475,192,93754,1,0,0:0:0:0:
109,192,93754,1,0,0:0:0:0:
182,192,93842,1,0,0:0:0:0:
256,192,93930,1,0,0:0:0:0:
182,192,94018,1,0,0:0:0:0:
329,192,94107,1,0,0:0:0:0:
475,192,94107,1,0,0:0:0:0:
36,192,94107,1,0,0:0:0:0:
109,192,94107,1,0,0:0:0:0:
256,192,94195,1,0,0:0:0:0:
402,192,94195,1,0,0:0:0:0:
329,192,94283,1,0,0:0:0:0:
182,192,94283,1,0,0:0:0:0:
402,192,94371,1,0,0:0:0:0:
256,192,94371,1,0,0:0:0:0:
36,192,94460,1,0,0:0:0:0:
182,192,94460,1,0,0:0:0:0:
329,192,94460,1,0,0:0:0:0:
475,192,94460,1,0,0:0:0:0:
109,192,94548,1,0,0:0:0:0:
256,192,94548,1,0,0:0:0:0:
329,192,94636,1,0,0:0:0:0:
182,192,94636,1,0,0:0:0:0:
109,192,94695,1,0,0:0:0:0:
402,192,94724,1,0,0:0:0:0:
256,192,94724,1,0,0:0:0:0:
36,192,94754,1,0,0:0:0:0:
475,192,94813,1,0,0:0:0:0:
182,192,94813,1,0,0:0:0:0:
329,192,94813,1,0,0:0:0:0:
109,192,94901,1,0,0:0:0:0:
36,192,94901,1,0,0:0:0:0:
256,192,94989,1,0,0:0:0:0:
402,192,94989,1,0,0:0:0:0:
475,192,94989,1,0,0:0:0:0:
109,192,95077,1,0,0:0:0:0:
36,192,95077,1,0,0:0:0:0:
182,192,95165,1,0,0:0:0:0:
329,192,95165,1,0,0:0:0:0:
402,192,95165,1,0,0:0:0:0:
109,192,95254,1,0,0:0:0:0:
36,192,95254,1,0,0:0:0:0:
256,192,95342,1,0,0:0:0:0:
329,192,95342,1,0,0:0:0:0:
475,192,95342,1,0,0:0:0:0:
109,192,95430,1,0,0:0:0:0:
36,192,95430,1,0,0:0:0:0:
182,192,95518,1,0,0:0:0:0:
256,192,95518,1,0,0:0:0:0:
402,192,95518,1,0,0:0:0:0:
475,192,95518,1,0,0:0:0:0:
329,192,95871,128,0,96518:0:0:0:0:
402,192,95871,128,0,96518:0:0:0:0:
475,192,95871,128,0,96518:0:0:0:0:
256,192,95871,1,0,0:0:0:0:
36,192,95871,1,0,0:0:0:0:
109,192,95930,1,0,0:0:0:0:
182,192,95989,1,0,0:0:0:0:
36,192,96048,1,0,0:0:0:0:
109,192,96107,1,0,0:0:0:0:
182,192,96165,1,0,0:0:0:0:
36,192,96224,1,0,0:0:0:0:
109,192,96283,1,0,0:0:0:0:
182,192,96342,1,0,0:0:0:0:
36,192,96401,1,0,0:0:0:0:
109,192,96460,1,0,0:0:0:0:
182,192,96518,1,0,0:0:0:0:
329,192,96577,128,0,96754:0:0:0:0:
402,192,96577,128,0,96754:0:0:0:0:
475,192,96577,128,0,96754:0:0:0:0:
256,192,96577,1,0,0:0:0:0:
109,192,96930,1,0,0:0:0:0:
182,192,96930,1,0,0:0:0:0:
329,192,96930,1,0,0:0:0:0:
402,192,96930,1,0,0:0:0:0:
36,192,97283,128,0,97930:0:0:0:0:
109,192,97283,128,0,97930:0:0:0:0:
182,192,97283,128,0,97930:0:0:0:0:
256,192,97283,1,0,0:0:0:0:
475,192,97283,1,0,0:0:0:0:
402,192,97342,1,0,0:0:0:0:
329,192,97401,1,0,0:0:0:0:
475,192,97460,1,0,0:0:0:0:
402,192,97518,1,0,0:0:0:0:
329,192,97577,1,0,0:0:0:0:
475,192,97636,1,0,0:0:0:0:
402,192,97695,1,0,0:0:0:0:
329,192,97754,1,0,0:0:0:0:
475,192,97812,1,0,0:0:0:0:
402,192,97871,1,0,0:0:0:0:
329,192,97930,1,0,0:0:0:0:
36,192,97989,128,0,98165:0:0:0:0:
109,192,97989,128,0,98165:0:0:0:0:
182,192,97989,128,0,98165:0:0:0:0:
256,192,97989,1,0,0:0:0:0:
109,192,98342,1,0,0:0:0:0:
182,192,98342,1,0,0:0:0:0:
329,192,98342,1,0,0:0:0:0:
402,192,98342,1,0,0:0:0:0:
36,192,98695,128,0,99342:0:0:0:0:
256,192,98695,128,0,99342:0:0:0:0:
475,192,98695,128,0,99342:0:0:0:0:
109,192,98695,128,0,99342:0:0:0:0:
402,192,98695,128,0,99342:0:0:0:0:
36,192,99401,128,0,99489:0:0:0:0:
256,192,99401,128,0,99489:0:0:0:0:
475,192,99401,128,0,99489:0:0:0:0:
182,192,99401,128,0,99489:0:0:0:0:
329,192,99401,128,0,99489:0:0:0:0:
36,192,99577,1,0,0:0:0:0:
475,192,99577,1,0,0:0:0:0:
109,192,99636,1,0,0:0:0:0:
402,192,99636,1,0,0:0:0:0:
329,192,99695,1,0,0:0:0:0:
182,192,99695,1,0,0:0:0:0:
256,192,99754,1,0,0:0:0:0:
36,192,99754,1,0,0:0:0:0:
475,192,99754,1,0,0:0:0:0:
109,192,99929,1,0,0:0:0:0:
329,192,99929,1,0,0:0:0:0:
182,192,100017,1,0,0:0:0:0:
402,192,100017,1,0,0:0:0:0:
256,192,100104,1,0,0:0:0:0:
475,192,100104,1,0,0:0:0:0:
36,192,100104,1,0,0:0:0:0:
182,192,100278,1,0,0:0:0:0:
329,192,100278,1,0,0:0:0:0:
109,192,100365,1,0,0:0:0:0:
402,192,100365,1,0,0:0:0:0:
256,192,100452,1,0,0:0:0:0:
36,192,100452,1,0,0:0:0:0:
475,192,100452,1,0,0:0:0:0:
109,192,100625,1,0,0:0:0:0:
182,192,100625,1,0,0:0:0:0:
402,192,100625,1,0,0:0:0:0:
36,192,100798,1,0,0:0:0:0:
329,192,100798,1,0,0:0:0:0:
475,192,100798,1,0,0:0:0:0:
182,192,100798,1,0,0:0:0:0:
256,192,100884,1,0,0:0:0:0:
109,192,100970,1,0,0:0:0:0:
329,192,100970,1,0,0:0:0:0:
182,192,100970,1,0,0:0:0:0:
402,192,101056,1,0,0:0:0:0:
36,192,101142,1,0,0:0:0:0:
256,192,101142,1,0,0:0:0:0:
475,192,101142,128,0,101656:0:0:0:0:
329,192,101656,128,0,101827:0:0:0:0:
182,192,101827,128,0,102170:0:0:0:0:
36,192,102170,128,0,102513:0:0:0:0:
402,192,102513,128,0,102865:0:0:0:0:
329,192,102865,128,0,102983:0:0:0:0:
402,192,102983,128,0,103101:0:0:0:0:
329,192,103101,128,0,103218:0:0:0:0:
182,192,103218,128,0,103568:0:0:0:0:
109,192,103568,128,0,103744:0:0:0:0:
36,192,103919,1,0,0:0:0:0:
109,192,103919,1,0,0:0:0:0:
256,192,103919,1,0,0:0:0:0:
329,192,103919,1,0,0:0:0:0:
36,192,104180,1,0,0:0:0:0:
109,192,104180,1,0,0:0:0:0:
402,192,104180,1,0,0:0:0:0:
475,192,104180,1,0,0:0:0:0:
36,192,104442,1,0,0:0:0:0:
109,192,104442,1,0,0:0:0:0:
256,192,104442,1,0,0:0:0:0:
329,192,104442,1,0,0:0:0:0:
109,192,104616,128,0,105136:0:0:0:0:
182,192,104616,128,0,105136:0:0:0:0:
329,192,104616,128,0,105136:0:0:0:0:
402,192,104616,128,0,105136:0:0:0:0:
36,192,104962,1,0,0:0:0:0:
475,192,104962,1,0,0:0:0:0:
109,192,105309,1,0,0:0:0:0:
182,192,105309,1,0,0:0:0:0:
329,192,105309,1,0,0:0:0:0:
402,192,105309,1,0,0:0:0:0:
402,192,105567,1,0,0:0:0:0:
475,192,105567,1,0,0:0:0:0:
109,192,105567,1,0,0:0:0:0:
182,192,105567,1,0,0:0:0:0:
109,192,105826,1,0,0:0:0:0:
182,192,105826,1,0,0:0:0:0:
402,192,105826,1,0,0:0:0:0:
329,192,105826,1,0,0:0:0:0:
256,192,105998,128,0,106512:0:0:0:0:
182,192,105998,128,0,106512:0:0:0:0:
402,192,105998,128,0,106512:0:0:0:0:
475,192,105998,128,0,106512:0:0:0:0:
36,192,106340,1,0,0:0:0:0:
109,192,106340,1,0,0:0:0:0:
36,192,106512,1,0,0:0:0:0:
109,192,106512,1,0,0:0:0:0:
182,192,106598,1,0,0:0:0:0:
329,192,106598,1,0,0:0:0:0:
402,192,106683,1,0,0:0:0:0:
475,192,106683,1,0,0:0:0:0:
36,192,106683,1,0,0:0:0:0:
109,192,106683,1,0,0:0:0:0:
402,192,106938,1,0,0:0:0:0:
475,192,106938,1,0,0:0:0:0:
182,192,106938,1,0,0:0:0:0:
256,192,106938,1,0,0:0:0:0:
402,192,107194,1,0,0:0:0:0:
109,192,107194,1,0,0:0:0:0:
182,192,107194,1,0,0:0:0:0:
329,192,107194,1,0,0:0:0:0:
109,192,107364,128,0,107872:0:0:0:0:
256,192,107364,128,0,107872:0:0:0:0:
402,192,107364,128,0,107872:0:0:0:0:
36,192,107364,128,0,107872:0:0:0:0:
182,192,107702,1,0,0:0:0:0:
329,192,107702,1,0,0:0:0:0:
329,192,107872,128,0,108041:0:0:0:0:
109,192,108041,128,0,108546:0:0:0:0:
256,192,108041,128,0,108546:0:0:0:0:
402,192,108041,128,0,108546:0:0:0:0:
475,192,108041,128,0,108546:0:0:0:0:
182,192,108293,1,0,0:0:0:0:
329,192,108293,1,0,0:0:0:0:
329,192,108546,1,0,0:0:0:0:
182,192,108546,128,0,108715:0:0:0:0:
36,192,108715,128,0,109217:0:0:0:0:
109,192,108715,128,0,109217:0:0:0:0:
402,192,108715,128,0,109217:0:0:0:0:
475,192,108715,128,0,109217:0:0:0:0:
329,192,108715,1,0,0:0:0:0:
256,192,108715,1,0,0:0:0:0:
182,192,108882,1,0,0:0:0:0:
256,192,108882,1,0,0:0:0:0:
256,192,109050,1,0,0:0:0:0:
329,192,109050,1,0,0:0:0:0:
182,192,109217,1,0,0:0:0:0:
256,192,109217,1,0,0:0:0:0:
256,192,109301,1,0,0:0:0:0:
36,192,109385,128,0,109551:0:0:0:0:
182,192,109385,128,0,109551:0:0:0:0:
329,192,109385,128,0,109551:0:0:0:0:
475,192,109385,128,0,109551:0:0:0:0:
36,192,109635,128,0,109801:0:0:0:0:
182,192,109635,128,0,109801:0:0:0:0:
329,192,109635,128,0,109801:0:0:0:0:
475,192,109635,128,0,109801:0:0:0:0:
109,192,109885,128,0,109968:0:0:0:0:
256,192,109885,128,0,109968:0:0:0:0:
402,192,109885,128,0,109968:0:0:0:0:
475,192,109885,128,0,109968:0:0:0:0:
36,192,110051,1,0,0:0:0:0:
182,192,110051,1,0,0:0:0:0:
329,192,110051,1,0,0:0:0:0:
402,192,110051,1,0,0:0:0:0:
182,192,110218,1,0,0:0:0:0:
329,192,110218,1,0,0:0:0:0:
402,192,110218,1,0,0:0:0:0:
36,192,110218,128,0,110385:0:0:0:0:
475,192,110385,128,0,110718:0:0:0:0:
109,192,110385,1,0,0:0:0:0:
256,192,110385,1,0,0:0:0:0:
402,192,110385,1,0,0:0:0:0:
182,192,110468,1,0,0:0:0:0:
329,192,110551,1,0,0:0:0:0:
182,192,110635,1,0,0:0:0:0:
36,192,110718,1,0,0:0:0:0:
109,192,110718,1,0,0:0:0:0:
256,192,110718,1,0,0:0:0:0:
402,192,110718,1,0,0:0:0:0:
109,192,110968,1,0,0:0:0:0:
182,192,110968,1,0,0:0:0:0:
329,192,110968,1,0,0:0:0:0:
109,192,111218,1,0,0:0:0:0:
182,192,111218,1,0,0:0:0:0:
402,192,111218,1,0,0:0:0:0:
109,192,111385,1,0,0:0:0:0:
182,192,111385,1,0,0:0:0:0:
329,192,111385,1,0,0:0:0:0:
36,192,111385,1,0,0:0:0:0:
109,192,111635,1,0,0:0:0:0:
182,192,111635,1,0,0:0:0:0:
402,192,111635,1,0,0:0:0:0:
109,192,111885,1,0,0:0:0:0:
182,192,111885,1,0,0:0:0:0:
329,192,111885,1,0,0:0:0:0:
402,192,112051,1,0,0:0:0:0:
36,192,112051,1,0,0:0:0:0:
182,192,112051,1,0,0:0:0:0:
329,192,112051,1,0,0:0:0:0:
402,192,112301,1,0,0:0:0:0:
329,192,112301,1,0,0:0:0:0:
109,192,112301,1,0,0:0:0:0:
256,192,112385,1,0,0:0:0:0:
36,192,112385,1,0,0:0:0:0:
475,192,112385,1,0,0:0:0:0:
329,192,112550,1,0,0:0:0:0:
402,192,112550,1,0,0:0:0:0:
182,192,112550,1,0,0:0:0:0:
109,192,112716,1,0,0:0:0:0:
36,192,112716,1,0,0:0:0:0:
256,192,112716,1,0,0:0:0:0:
402,192,112716,1,0,0:0:0:0:
475,192,112716,1,0,0:0:0:0:
36,192,112880,1,0,0:0:0:0:
109,192,112880,1,0,0:0:0:0:
256,192,112880,1,0,0:0:0:0:
402,192,112880,1,0,0:0:0:0:
475,192,112880,1,0,0:0:0:0:
329,192,112963,1,0,0:0:0:0:
182,192,112963,1,0,0:0:0:0:
36,192,113045,1,0,0:0:0:0:
109,192,113045,1,0,0:0:0:0:
256,192,113045,1,0,0:0:0:0:
329,192,113126,1,0,0:0:0:0:
402,192,113126,1,0,0:0:0:0:
475,192,113126,1,0,0:0:0:0:
109,192,113208,1,0,0:0:0:0:
36,192,113208,1,0,0:0:0:0:
256,192,113208,1,0,0:0:0:0:
182,192,113290,1,0,0:0:0:0:
329,192,113290,1,0,0:0:0:0:
109,192,113372,1,0,0:0:0:0:
36,192,113372,1,0,0:0:0:0:
475,192,113372,1,0,0:0:0:0:
256,192,113372,1,0,0:0:0:0:
402,192,113372,1,0,0:0:0:0:
256,192,113535,1,0,0:0:0:0:
329,192,113589,1,0,0:0:0:0:
402,192,113589,1,0,0:0:0:0:
475,192,113589,1,0,0:0:0:0:
182,192,113698,1,0,0:0:0:0:
36,192,113698,1,0,0:0:0:0:
109,192,113698,1,0,0:0:0:0:
36,192,113806,1,0,0:0:0:0:
109,192,113806,1,0,0:0:0:0:
182,192,113806,1,0,0:0:0:0:
36,192,113915,1,0,0:0:0:0:
182,192,113915,1,0,0:0:0:0:
109,192,113915,1,0,0:0:0:0:
256,192,114024,1,0,0:0:0:0:
329,192,114024,1,0,0:0:0:0:
402,192,114024,1,0,0:0:0:0:
402,192,114132,1,0,0:0:0:0:
256,192,114132,1,0,0:0:0:0:
329,192,114132,1,0,0:0:0:0:
256,192,114240,1,0,0:0:0:0:
329,192,114240,1,0,0:0:0:0:
402,192,114240,1,0,0:0:0:0:
182,192,114348,1,0,0:0:0:0:
109,192,114348,1,0,0:0:0:0:
36,192,114348,1,0,0:0:0:0:
36,192,114456,1,0,0:0:0:0:
109,192,114456,1,0,0:0:0:0:
182,192,114456,1,0,0:0:0:0:
329,192,114510,1,0,0:0:0:0:
402,192,114510,1,0,0:0:0:0:
475,192,114510,1,0,0:0:0:0:
182,192,114564,1,0,0:0:0:0:
109,192,114564,1,0,0:0:0:0:
36,192,114564,1,0,0:0:0:0:
402,192,114672,1,0,0:0:0:0:
475,192,114672,1,0,0:0:0:0:
36,192,114672,1,0,0:0:0:0:
329,192,114672,1,0,0:0:0:0:
109,192,114672,1,0,0:0:0:0:
182,192,114672,1,0,0:0:0:0:
256,192,114833,1,0,0:0:0:0:
36,192,114887,1,0,0:0:0:0:
109,192,114887,1,0,0:0:0:0:
182,192,114887,1,0,0:0:0:0:
329,192,114994,1,0,0:0:0:0:
402,192,114994,1,0,0:0:0:0:
475,192,114994,1,0,0:0:0:0:
36,192,114994,1,0,0:0:0:0:
109,192,114994,1,0,0:0:0:0:
182,192,114994,1,0,0:0:0:0:
329,192,115100,1,0,0:0:0:0:
402,192,115100,1,0,0:0:0:0:
475,192,115100,1,0,0:0:0:0:
329,192,115207,1,0,0:0:0:0:
402,192,115207,1,0,0:0:0:0:
475,192,115207,1,0,0:0:0:0:
109,192,115314,1,0,0:0:0:0:
182,192,115314,1,0,0:0:0:0:
256,192,115314,1,0,0:0:0:0:
36,192,115314,1,0,0:0:0:0:
256,192,115421,1,0,0:0:0:0:
182,192,115421,1,0,0:0:0:0:
109,192,115421,1,0,0:0:0:0:
109,192,115528,1,0,0:0:0:0:
182,192,115528,1,0,0:0:0:0:
256,192,115528,1,0,0:0:0:0:
329,192,115635,1,0,0:0:0:0:
402,192,115635,1,0,0:0:0:0:
475,192,115635,1,0,0:0:0:0:
36,192,115635,1,0,0:0:0:0:
329,192,115742,1,0,0:0:0:0:
402,192,115742,1,0,0:0:0:0:
475,192,115742,1,0,0:0:0:0:
182,192,115796,1,0,0:0:0:0:
109,192,115796,1,0,0:0:0:0:
36,192,115796,1,0,0:0:0:0:
329,192,115849,1,0,0:0:0:0:
402,192,115849,1,0,0:0:0:0:
475,192,115849,1,0,0:0:0:0:
36,192,115956,1,0,0:0:0:0:
109,192,115956,1,0,0:0:0:0:
256,192,115956,1,0,0:0:0:0:
402,192,115956,1,0,0:0:0:0:
475,192,115956,1,0,0:0:0:0:
329,192,115956,1,0,0:0:0:0:
36,192,116062,1,0,0:0:0:0:
109,192,116062,1,0,0:0:0:0:
256,192,116062,1,0,0:0:0:0:
402,192,116115,1,0,0:0:0:0:
475,192,116115,1,0,0:0:0:0:
182,192,116168,1,0,0:0:0:0:
329,192,116168,1,0,0:0:0:0:
256,192,116275,1,0,0:0:0:0:
402,192,116275,1,0,0:0:0:0:
475,192,116275,1,0,0:0:0:0:
109,192,116275,1,0,0:0:0:0:
36,192,116275,1,0,0:0:0:0:
256,192,116381,1,0,0:0:0:0:
402,192,116381,1,0,0:0:0:0:
475,192,116381,1,0,0:0:0:0:
36,192,116434,1,0,0:0:0:0:
109,192,116434,1,0,0:0:0:0:
182,192,116487,1,0,0:0:0:0:
329,192,116487,1,0,0:0:0:0:
256,192,116594,1,0,0:0:0:0:
36,192,116594,1,0,0:0:0:0:
109,192,116594,1,0,0:0:0:0:
475,192,116594,1,0,0:0:0:0:
402,192,116594,1,0,0:0:0:0:
36,192,116699,1,0,0:0:0:0:
109,192,116699,1,0,0:0:0:0:
256,192,116699,1,0,0:0:0:0:
402,192,116752,1,0,0:0:0:0:
475,192,116752,1,0,0:0:0:0:
329,192,116805,1,0,0:0:0:0:
182,192,116805,1,0,0:0:0:0:
256,192,116911,1,0,0:0:0:0:
402,192,116911,1,0,0:0:0:0:
475,192,116911,1,0,0:0:0:0:
109,192,116911,1,0,0:0:0:0:
36,192,116911,1,0,0:0:0:0:
256,192,117017,1,0,0:0:0:0:
402,192,117017,1,0,0:0:0:0:
475,192,117017,1,0,0:0:0:0:
109,192,117070,1,0,0:0:0:0:
36,192,117070,1,0,0:0:0:0:
182,192,117123,1,0,0:0:0:0:
256,192,117176,1,0,0:0:0:0:
36,192,117228,1,0,0:0:0:0:
475,192,117228,1,0,0:0:0:0:
109,192,117228,1,0,0:0:0:0:
329,192,117228,1,0,0:0:0:0:
256,192,117333,1,0,0:0:0:0:
182,192,117333,1,0,0:0:0:0:
36,192,117438,1,0,0:0:0:0:
402,192,117438,1,0,0:0:0:0:
475,192,117438,1,0,0:0:0:0:
329,192,117438,1,0,0:0:0:0:
109,192,117464,1,0,0:0:0:0:
182,192,117491,1,0,0:0:0:0:
256,192,117517,1,0,0:0:0:0:
329,192,117543,1,0,0:0:0:0:
475,192,117543,1,0,0:0:0:0:
402,192,117543,1,0,0:0:0:0:
256,192,117649,1,0,0:0:0:0:
182,192,117754,1,0,0:0:0:0:
36,192,117754,1,0,0:0:0:0:
109,192,117754,1,0,0:0:0:0:
475,192,117754,1,0,0:0:0:0:
402,192,117780,1,0,0:0:0:0:
329,192,117806,1,0,0:0:0:0:
256,192,117833,1,0,0:0:0:0:
109,192,117859,1,0,0:0:0:0:
36,192,117859,1,0,0:0:0:0:
182,192,117859,1,0,0:0:0:0:
109,192,117970,1,0,0:0:0:0:
329,192,117970,1,0,0:0:0:0:
256,192,117970,1,0,0:0:0:0:
329,192,118081,1,0,0:0:0:0:
182,192,118081,1,0,0:0:0:0:
402,192,118081,1,0,0:0:0:0:
36,192,118192,1,0,0:0:0:0:
402,192,118192,1,0,0:0:0:0:
475,192,118192,1,0,0:0:0:0:
329,192,118192,1,0,0:0:0:0:
109,192,118221,1,0,0:0:0:0:
182,192,118250,1,0,0:0:0:0:
256,192,118280,1,0,0:0:0:0:
329,192,118309,1,0,0:0:0:0:
36,192,118309,1,0,0:0:0:0:
402,192,118309,1,0,0:0:0:0:
475,192,118309,1,0,0:0:0:0:
109,192,118339,1,0,0:0:0:0:
182,192,118368,1,0,0:0:0:0:
256,192,118397,1,0,0:0:0:0:
329,192,118427,1,0,0:0:0:0:
475,192,118427,1,0,0:0:0:0:
402,192,118427,1,0,0:0:0:0:
36,192,118427,1,0,0:0:0:0:
109,192,118456,1,0,0:0:0:0:
182,192,118486,1,0,0:0:0:0:
256,192,118515,1,0,0:0:0:0:
36,192,118544,1,0,0:0:0:0:
329,192,118544,1,0,0:0:0:0:
475,192,118544,1,0,0:0:0:0:
109,192,118544,1,0,0:0:0:0:
402,192,118544,1,0,0:0:0:0:
109,192,119089,1,0,0:0:0:0:
329,192,119089,1,0,0:0:0:0:
182,192,119157,1,0,0:0:0:0:
402,192,119157,1,0,0:0:0:0:
109,192,119634,128,0,123452:0:0:0:0:
182,192,119634,128,0,123452:0:0:0:0:
475,192,119634,128,0,123452:0:0:0:0:
329,192,119634,128,0,123452:0:0:0:0:
402,192,119634,128,0,123452:0:0:0:0:
36,192,119634,128,0,123452:0:0:0:0:
