osu file format v14

[General]
AudioFilename: M2Ustudio - .mp3
AudioLeadIn: 0
PreviewTime: 59375
Countdown: 0
SampleSet: None
StackLeniency: 0.7
Mode: 3
LetterboxInBreaks: 0
SpecialStyle: 0
WidescreenStoryboard: 1

[Editor]
DistanceSpacing: 1
BeatDivisor: 4
GridSize: 4
TimelineZoom: 2.899999

[Metadata]
Title:Jinjin's Classics Pack
TitleUnicode:Jinjin's Classics Pack
Artist:Various Artists
ArtistUnicode:Various Artists
Creator:Jinjin
Version:M2U - Promise [Yaksok]
Source:
Tags:
BeatmapID:1063061
BeatmapSetID:362285

[Difficulty]
HPDrainRate:7
CircleSize:7
OverallDifficulty:7
ApproachRate:5
SliderMultiplier:1.4
SliderTickRate:1

[Events]
//Background and Video events
0,0,"plum_04.jpg",0,0
//Break Periods
//Storyboard Layer 0 (Background)
//Storyboard Layer 1 (Fail)
//Storyboard Layer 2 (Pass)
//Storyboard Layer 3 (Foreground)
//Storyboard Sound Samples

[TimingPoints]
1775,300,6,2,0,0,1,0

[HitObjects]
182,192,1775,128,0,2675:0:0:0:0:
329,192,1775,1,0,0:0:0:0:
402,192,2075,1,0,0:0:0:0:
475,192,2375,1,0,0:0:0:0:
36,192,2675,1,0,0:0:0:0:
402,192,2675,1,0,0:0:0:0:
256,192,2675,1,0,0:0:0:0:
182,192,2975,1,0,0:0:0:0:
36,192,3425,1,0,0:0:0:0:
109,192,3500,1,0,0:0:0:0:
182,192,3575,128,0,4475:0:0:0:0:
402,192,3575,1,0,0:0:0:0:
475,192,3875,1,0,0:0:0:0:
329,192,4175,1,0,0:0:0:0:
36,192,4475,1,0,0:0:0:0:
256,192,4475,1,0,0:0:0:0:
402,192,4775,1,0,0:0:0:0:
109,192,5075,1,0,0:0:0:0:
256,192,5375,128,0,6275:0:0:0:0:
36,192,5375,1,0,0:0:0:0:
182,192,5375,1,0,0:0:0:0:
329,192,5675,1,0,0:0:0:0:
402,192,5975,1,0,0:0:0:0:
475,192,6275,128,0,6875:0:0:0:0:
36,192,6275,1,0,0:0:0:0:
109,192,6575,1,0,0:0:0:0:
182,192,6575,1,0,0:0:0:0:
329,192,6875,128,0,7175:0:0:0:0:
109,192,6875,1,0,0:0:0:0:
256,192,6875,1,0,0:0:0:0:
182,192,7175,128,0,8075:0:0:0:0:
36,192,7175,1,0,0:0:0:0:
402,192,7175,1,0,0:0:0:0:
329,192,7475,1,0,0:0:0:0:
475,192,7475,1,0,0:0:0:0:
402,192,7775,1,0,0:0:0:0:
256,192,7775,1,0,0:0:0:0:
36,192,8075,128,0,8825:0:0:0:0:
329,192,8075,1,0,0:0:0:0:
475,192,8075,1,0,0:0:0:0:
109,192,8375,128,0,8825:0:0:0:0:
256,192,8375,1,0,0:0:0:0:
182,192,8675,128,0,8825:0:0:0:0:
475,192,8675,1,0,0:0:0:0:
402,192,8675,1,0,0:0:0:0:
109,192,8975,1,0,0:0:0:0:
36,192,8975,1,0,0:0:0:0:
182,192,8975,1,0,0:0:0:0:
329,192,8975,1,0,0:0:0:0:
402,192,9275,1,0,0:0:0:0:
256,192,9275,1,0,0:0:0:0:
36,192,9425,1,0,0:0:0:0:
475,192,9575,1,0,0:0:0:0:
329,192,9575,1,0,0:0:0:0:
109,192,9575,128,0,9875:0:0:0:0:
256,192,9875,1,0,0:0:0:0:
402,192,9875,1,0,0:0:0:0:
36,192,9875,1,0,0:0:0:0:
182,192,10175,1,0,0:0:0:0:
329,192,10175,1,0,0:0:0:0:
36,192,10475,1,0,0:0:0:0:
109,192,10625,1,0,0:0:0:0:
182,192,10700,1,0,0:0:0:0:
256,192,10775,1,0,0:0:0:0:
402,192,10775,1,0,0:0:0:0:
475,192,11075,1,0,0:0:0:0:
329,192,11075,1,0,0:0:0:0:
36,192,11225,1,0,0:0:0:0:
256,192,11375,1,0,0:0:0:0:
109,192,11375,1,0,0:0:0:0:
402,192,11375,128,0,11675:0:0:0:0:
182,192,11675,1,0,0:0:0:0:
36,192,11675,1,0,0:0:0:0:
329,192,11675,1,0,0:0:0:0:
475,192,11975,1,0,0:0:0:0:
256,192,11975,1,0,0:0:0:0:
182,192,12275,1,0,0:0:0:0:
36,192,12575,1,0,0:0:0:0:
329,192,12575,1,0,0:0:0:0:
109,192,12575,128,0,12875:0:0:0:0:
182,192,12875,128,0,13175:0:0:0:0:
402,192,12875,1,0,0:0:0:0:
256,192,13025,1,0,0:0:0:0:
329,192,13175,128,0,13475:0:0:0:0:
475,192,13175,1,0,0:0:0:0:
36,192,13175,1,0,0:0:0:0:
182,192,13475,128,0,13775:0:0:0:0:
109,192,13475,1,0,0:0:0:0:
402,192,13475,1,0,0:0:0:0:
256,192,13775,128,0,14075:0:0:0:0:
36,192,13775,1,0,0:0:0:0:
475,192,13775,1,0,0:0:0:0:
329,192,14075,128,0,14375:0:0:0:0:
109,192,14075,1,0,0:0:0:0:
36,192,14225,1,0,0:0:0:0:
402,192,14375,128,0,14675:0:0:0:0:
182,192,14375,1,0,0:0:0:0:
256,192,14375,1,0,0:0:0:0:
109,192,14525,1,0,0:0:0:0:
475,192,14675,128,0,14975:0:0:0:0:
256,192,14675,1,0,0:0:0:0:
182,192,14825,1,0,0:0:0:0:
402,192,14975,128,0,15175:0:0:0:0:
109,192,14975,1,0,0:0:0:0:
182,192,15125,1,0,0:0:0:0:
329,192,15175,128,0,15275:0:0:0:0:
36,192,15275,128,0,16025:0:0:0:0:
475,192,15275,1,0,0:0:0:0:
256,192,15275,1,0,0:0:0:0:
182,192,15575,128,0,16025:0:0:0:0:
329,192,15575,1,0,0:0:0:0:
402,192,15575,1,0,0:0:0:0:
256,192,15725,1,0,0:0:0:0:
329,192,15875,128,0,16025:0:0:0:0:
402,192,15875,1,0,0:0:0:0:
475,192,15875,1,0,0:0:0:0:
256,192,16025,1,0,0:0:0:0:
182,192,16175,1,0,0:0:0:0:
329,192,16175,1,0,0:0:0:0:
402,192,16175,1,0,0:0:0:0:
475,192,16175,1,0,0:0:0:0:
36,192,16175,1,0,0:0:0:0:
256,192,16475,1,0,0:0:0:0:
109,192,16775,1,0,0:0:0:0:
182,192,16775,1,0,0:0:0:0:
329,192,16775,1,0,0:0:0:0:
475,192,16775,1,0,0:0:0:0:
475,192,17075,128,0,17975:0:0:0:0:
36,192,17075,1,0,0:0:0:0:
182,192,17075,1,0,0:0:0:0:
329,192,17075,1,0,0:0:0:0:
109,192,17375,1,0,0:0:0:0:
256,192,17675,1,0,0:0:0:0:
36,192,17675,1,0,0:0:0:0:
402,192,17975,128,0,18875:0:0:0:0:
109,192,17975,1,0,0:0:0:0:
182,192,17975,1,0,0:0:0:0:
329,192,17975,1,0,0:0:0:0:
36,192,18275,128,0,18425:0:0:0:0:
109,192,18275,128,0,18425:0:0:0:0:
256,192,18575,1,0,0:0:0:0:
475,192,18575,1,0,0:0:0:0:
182,192,18875,128,0,19775:0:0:0:0:
36,192,18875,1,0,0:0:0:0:
109,192,18875,1,0,0:0:0:0:
329,192,18875,1,0,0:0:0:0:
402,192,19175,1,0,0:0:0:0:
256,192,19175,1,0,0:0:0:0:
329,192,19475,1,0,0:0:0:0:
109,192,19475,1,0,0:0:0:0:
256,192,19775,1,0,0:0:0:0:
402,192,19775,1,0,0:0:0:0:
475,192,19775,1,0,0:0:0:0:
36,192,19775,128,0,21575:0:0:0:0:
182,192,20075,1,0,0:0:0:0:
329,192,20075,1,0,0:0:0:0:
109,192,20225,1,0,0:0:0:0:
475,192,20375,128,0,21575:0:0:0:0:
256,192,20375,1,0,0:0:0:0:
402,192,20375,1,0,0:0:0:0:
109,192,20675,128,0,21575:0:0:0:0:
182,192,20675,1,0,0:0:0:0:
329,192,20675,1,0,0:0:0:0:
256,192,20825,1,0,0:0:0:0:
402,192,20975,128,0,21575:0:0:0:0:
182,192,20975,1,0,0:0:0:0:
329,192,21125,1,0,0:0:0:0:
256,192,21275,128,0,21575:0:0:0:0:
182,192,21275,1,0,0:0:0:0:
329,192,21425,1,0,0:0:0:0:
329,192,21575,128,0,22475:0:0:0:0:
182,192,21575,128,0,22475:0:0:0:0:
36,192,21875,1,0,0:0:0:0:
475,192,21875,1,0,0:0:0:0:
109,192,22025,1,0,0:0:0:0:
402,192,22025,1,0,0:0:0:0:
475,192,22175,1,0,0:0:0:0:
36,192,22175,1,0,0:0:0:0:
256,192,22325,1,0,0:0:0:0:
36,192,22475,128,0,23225:0:0:0:0:
109,192,22475,1,0,0:0:0:0:
402,192,22475,1,0,0:0:0:0:
329,192,22625,1,0,0:0:0:0:
182,192,22625,1,0,0:0:0:0:
256,192,22775,128,0,23225:0:0:0:0:
109,192,22775,1,0,0:0:0:0:
402,192,22775,1,0,0:0:0:0:
475,192,22775,1,0,0:0:0:0:
182,192,22925,1,0,0:0:0:0:
329,192,22925,1,0,0:0:0:0:
475,192,23075,128,0,23225:0:0:0:0:
109,192,23075,1,0,0:0:0:0:
182,192,23075,1,0,0:0:0:0:
402,192,23075,1,0,0:0:0:0:
256,192,23375,1,0,0:0:0:0:
475,192,23375,1,0,0:0:0:0:
402,192,23375,1,0,0:0:0:0:
36,192,23375,128,0,24125:0:0:0:0:
109,192,23375,128,0,24125:0:0:0:0:
182,192,23675,1,0,0:0:0:0:
329,192,23825,1,0,0:0:0:0:
402,192,23975,128,0,24725:0:0:0:0:
475,192,23975,128,0,24725:0:0:0:0:
182,192,23975,1,0,0:0:0:0:
109,192,24275,128,0,25025:0:0:0:0:
36,192,24275,128,0,25025:0:0:0:0:
182,192,24275,1,0,0:0:0:0:
329,192,24275,1,0,0:0:0:0:
256,192,24425,1,0,0:0:0:0:
329,192,24575,1,0,0:0:0:0:
182,192,24725,1,0,0:0:0:0:
402,192,24875,128,0,25025:0:0:0:0:
475,192,24875,128,0,25025:0:0:0:0:
329,192,24875,1,0,0:0:0:0:
256,192,25025,1,0,0:0:0:0:
109,192,25175,1,0,0:0:0:0:
402,192,25175,1,0,0:0:0:0:
475,192,25175,1,0,0:0:0:0:
36,192,25175,128,0,25775:0:0:0:0:
182,192,25175,128,0,25775:0:0:0:0:
329,192,25325,1,0,0:0:0:0:
256,192,25475,1,0,0:0:0:0:
109,192,25625,1,0,0:0:0:0:
329,192,25775,128,0,26075:0:0:0:0:
475,192,25775,128,0,26075:0:0:0:0:
256,192,25775,1,0,0:0:0:0:
109,192,25925,1,0,0:0:0:0:
182,192,25925,1,0,0:0:0:0:
36,192,26075,128,0,26975:0:0:0:0:
402,192,26075,128,0,26375:0:0:0:0:
256,192,26075,1,0,0:0:0:0:
256,192,26375,128,0,26675:0:0:0:0:
182,192,26375,1,0,0:0:0:0:
329,192,26375,1,0,0:0:0:0:
109,192,26675,128,0,26975:0:0:0:0:
402,192,26675,1,0,0:0:0:0:
475,192,26675,1,0,0:0:0:0:
329,192,26825,1,0,0:0:0:0:
256,192,26975,1,0,0:0:0:0:
402,192,26975,1,0,0:0:0:0:
475,192,26975,1,0,0:0:0:0:
182,192,27275,1,0,0:0:0:0:
329,192,27275,1,0,0:0:0:0:
402,192,27275,1,0,0:0:0:0:
256,192,27425,1,0,0:0:0:0:
109,192,27425,1,0,0:0:0:0:
36,192,27425,1,0,0:0:0:0:
402,192,27575,1,0,0:0:0:0:
182,192,27575,128,0,27875:0:0:0:0:
329,192,27575,128,0,27875:0:0:0:0:
36,192,27875,1,0,0:0:0:0:
109,192,27875,1,0,0:0:0:0:
256,192,27875,1,0,0:0:0:0:
475,192,27875,1,0,0:0:0:0:
182,192,28175,1,0,0:0:0:0:
329,192,28175,1,0,0:0:0:0:
402,192,28175,1,0,0:0:0:0:
256,192,28325,1,0,0:0:0:0:
475,192,28325,1,0,0:0:0:0:
109,192,28325,1,0,0:0:0:0:
402,192,28475,1,0,0:0:0:0:
182,192,28475,128,0,28775:0:0:0:0:
329,192,28475,128,0,28775:0:0:0:0:
36,192,28775,1,0,0:0:0:0:
256,192,28775,1,0,0:0:0:0:
475,192,28775,1,0,0:0:0:0:
109,192,28775,1,0,0:0:0:0:
182,192,28925,1,0,0:0:0:0:
329,192,28925,1,0,0:0:0:0:
36,192,29075,1,0,0:0:0:0:
475,192,29125,1,0,0:0:0:0:
402,192,29175,1,0,0:0:0:0:
329,192,29225,1,0,0:0:0:0:
256,192,29275,1,0,0:0:0:0:
182,192,29325,1,0,0:0:0:0:
109,192,29375,1,0,0:0:0:0:
36,192,29375,1,0,0:0:0:0:
329,192,29525,1,0,0:0:0:0:
36,192,29675,1,0,0:0:0:0:
109,192,29675,1,0,0:0:0:0:
256,192,29675,1,0,0:0:0:0:
402,192,29675,1,0,0:0:0:0:
475,192,29675,1,0,0:0:0:0:
329,192,29975,1,0,0:0:0:0:
182,192,29975,1,0,0:0:0:0:
402,192,29975,1,0,0:0:0:0:
475,192,29975,1,0,0:0:0:0:
36,192,29975,1,0,0:0:0:0:
36,192,30575,128,0,31325:0:0:0:0:
182,192,30575,1,0,0:0:0:0:
256,192,30575,1,0,0:0:0:0:
475,192,30575,1,0,0:0:0:0:
109,192,30875,128,0,31025:0:0:0:0:
182,192,30875,128,0,31025:0:0:0:0:
329,192,30875,1,0,0:0:0:0:
475,192,30875,1,0,0:0:0:0:
402,192,31025,1,0,0:0:0:0:
109,192,31175,128,0,31325:0:0:0:0:
182,192,31175,128,0,31625:0:0:0:0:
329,192,31175,1,0,0:0:0:0:
475,192,31175,1,0,0:0:0:0:
109,192,31475,128,0,31625:0:0:0:0:
36,192,31475,128,0,32375:0:0:0:0:
256,192,31475,1,0,0:0:0:0:
402,192,31475,1,0,0:0:0:0:
475,192,31475,1,0,0:0:0:0:
109,192,31775,128,0,31925:0:0:0:0:
182,192,31775,128,0,31925:0:0:0:0:
329,192,31775,1,0,0:0:0:0:
329,192,31925,1,0,0:0:0:0:
109,192,32075,128,0,32375:0:0:0:0:
182,192,32075,128,0,32375:0:0:0:0:
402,192,32075,1,0,0:0:0:0:
475,192,32075,1,0,0:0:0:0:
475,192,32375,128,0,33125:0:0:0:0:
256,192,32375,1,0,0:0:0:0:
402,192,32375,1,0,0:0:0:0:
182,192,32675,1,0,0:0:0:0:
36,192,32675,1,0,0:0:0:0:
109,192,32825,1,0,0:0:0:0:
329,192,32975,128,0,33275:0:0:0:0:
402,192,32975,128,0,33125:0:0:0:0:
182,192,32975,1,0,0:0:0:0:
36,192,32975,1,0,0:0:0:0:
402,192,33275,128,0,33425:0:0:0:0:
475,192,33275,128,0,34025:0:0:0:0:
109,192,33275,1,0,0:0:0:0:
256,192,33275,1,0,0:0:0:0:
36,192,33275,1,0,0:0:0:0:
402,192,33575,128,0,34025:0:0:0:0:
109,192,33575,1,0,0:0:0:0:
182,192,33575,1,0,0:0:0:0:
329,192,33575,128,0,34025:0:0:0:0:
36,192,33725,1,0,0:0:0:0:
256,192,33875,1,0,0:0:0:0:
109,192,33875,1,0,0:0:0:0:
182,192,34025,1,0,0:0:0:0:
475,192,34175,1,0,0:0:0:0:
329,192,34175,1,0,0:0:0:0:
36,192,34175,128,0,34925:0:0:0:0:
256,192,34175,1,0,0:0:0:0:
182,192,34475,128,0,34925:0:0:0:0:
329,192,34475,128,0,34625:0:0:0:0:
475,192,34475,1,0,0:0:0:0:
402,192,34625,1,0,0:0:0:0:
475,192,34775,128,0,35525:0:0:0:0:
329,192,34775,128,0,35525:0:0:0:0:
109,192,34775,1,0,0:0:0:0:
256,192,34925,1,0,0:0:0:0:
36,192,35075,128,0,35825:0:0:0:0:
182,192,35075,128,0,35825:0:0:0:0:
109,192,35075,1,0,0:0:0:0:
402,192,35075,1,0,0:0:0:0:
256,192,35375,1,0,0:0:0:0:
109,192,35525,1,0,0:0:0:0:
329,192,35675,128,0,35825:0:0:0:0:
475,192,35675,128,0,35825:0:0:0:0:
256,192,35675,1,0,0:0:0:0:
36,192,35975,1,0,0:0:0:0:
182,192,35975,1,0,0:0:0:0:
329,192,35975,1,0,0:0:0:0:
475,192,35975,1,0,0:0:0:0:
109,192,35975,128,0,36875:0:0:0:0:
256,192,36275,128,0,37175:0:0:0:0:
402,192,36275,1,0,0:0:0:0:
329,192,36425,1,0,0:0:0:0:
402,192,36575,128,0,37475:0:0:0:0:
182,192,36575,1,0,0:0:0:0:
475,192,36575,1,0,0:0:0:0:
329,192,36725,1,0,0:0:0:0:
36,192,36875,128,0,37775:0:0:0:0:
182,192,36875,1,0,0:0:0:0:
475,192,36875,1,0,0:0:0:0:
329,192,37025,1,0,0:0:0:0:
182,192,37175,128,0,37775:0:0:0:0:
109,192,37175,1,0,0:0:0:0:
475,192,37175,1,0,0:0:0:0:
329,192,37475,128,0,37775:0:0:0:0:
256,192,37475,1,0,0:0:0:0:
475,192,37775,1,0,0:0:0:0:
109,192,37775,128,0,37925:0:0:0:0:
256,192,37775,128,0,37925:0:0:0:0:
182,192,38075,128,0,38225:0:0:0:0:
329,192,38075,128,0,38225:0:0:0:0:
109,192,38225,1,0,0:0:0:0:
256,192,38375,128,0,38525:0:0:0:0:
402,192,38375,128,0,38525:0:0:0:0:
182,192,38525,1,0,0:0:0:0:
109,192,38675,1,0,0:0:0:0:
329,192,38675,128,0,38825:0:0:0:0:
475,192,38675,128,0,38825:0:0:0:0:
36,192,38675,128,0,39575:0:0:0:0:
182,192,38975,128,0,39575:0:0:0:0:
329,192,38975,1,0,0:0:0:0:
475,192,38975,1,0,0:0:0:0:
402,192,39125,1,0,0:0:0:0:
475,192,39275,128,0,39575:0:0:0:0:
256,192,39275,1,0,0:0:0:0:
109,192,39275,1,0,0:0:0:0:
329,192,39575,128,0,40175:0:0:0:0:
402,192,39575,128,0,40175:0:0:0:0:
256,192,39575,1,0,0:0:0:0:
36,192,39875,128,0,40025:0:0:0:0:
109,192,39875,128,0,40025:0:0:0:0:
109,192,40175,128,0,40475:0:0:0:0:
182,192,40175,128,0,40475:0:0:0:0:
256,192,40175,1,0,0:0:0:0:
329,192,40475,1,0,0:0:0:0:
402,192,40475,128,0,40625:0:0:0:0:
475,192,40475,128,0,40625:0:0:0:0:
109,192,40775,128,0,41375:0:0:0:0:
256,192,40775,128,0,41075:0:0:0:0:
329,192,40775,1,0,0:0:0:0:
402,192,41075,128,0,41375:0:0:0:0:
36,192,41075,1,0,0:0:0:0:
182,192,41375,128,0,43175:0:0:0:0:
475,192,41375,128,0,42125:0:0:0:0:
329,192,41375,1,0,0:0:0:0:
256,192,41375,1,0,0:0:0:0:
402,192,41675,128,0,42425:0:0:0:0:
256,192,41675,1,0,0:0:0:0:
329,192,41975,128,0,42725:0:0:0:0:
256,192,41975,1,0,0:0:0:0:
36,192,42275,128,0,43025:0:0:0:0:
475,192,42275,128,0,43025:0:0:0:0:
109,192,42275,1,0,0:0:0:0:
402,192,42575,128,0,43025:0:0:0:0:
109,192,42575,1,0,0:0:0:0:
329,192,42875,128,0,43175:0:0:0:0:
109,192,42875,1,0,0:0:0:0:
109,192,43175,1,0,0:0:0:0:
475,192,43175,128,0,43325:0:0:0:0:
402,192,43175,128,0,43325:0:0:0:0:
36,192,43175,1,0,0:0:0:0:
329,192,43325,1,0,0:0:0:0:
182,192,43325,1,0,0:0:0:0:
402,192,43475,1,0,0:0:0:0:
109,192,43475,128,0,43625:0:0:0:0:
36,192,43475,128,0,43625:0:0:0:0:
475,192,43475,1,0,0:0:0:0:
182,192,43625,1,0,0:0:0:0:
329,192,43625,1,0,0:0:0:0:
109,192,43775,1,0,0:0:0:0:
402,192,43775,128,0,43925:0:0:0:0:
475,192,43775,128,0,43925:0:0:0:0:
36,192,43775,1,0,0:0:0:0:
256,192,43925,1,0,0:0:0:0:
329,192,44075,1,0,0:0:0:0:
475,192,44075,1,0,0:0:0:0:
182,192,44075,128,0,44225:0:0:0:0:
36,192,44075,128,0,44225:0:0:0:0:
329,192,44375,1,0,0:0:0:0:
475,192,44375,1,0,0:0:0:0:
402,192,44375,1,0,0:0:0:0:
109,192,44525,1,0,0:0:0:0:
182,192,44525,1,0,0:0:0:0:
329,192,44675,1,0,0:0:0:0:
182,192,44825,1,0,0:0:0:0:
36,192,44975,1,0,0:0:0:0:
109,192,44975,1,0,0:0:0:0:
329,192,44975,1,0,0:0:0:0:
402,192,44975,1,0,0:0:0:0:
475,192,44975,128,0,45425:0:0:0:0:
182,192,45275,1,0,0:0:0:0:
475,192,45575,128,0,45875:0:0:0:0:
36,192,45575,1,0,0:0:0:0:
256,192,45575,1,0,0:0:0:0:
109,192,45725,1,0,0:0:0:0:
329,192,45875,128,0,46775:0:0:0:0:
182,192,45875,1,0,0:0:0:0:
109,192,46025,1,0,0:0:0:0:
36,192,46175,1,0,0:0:0:0:
109,192,46325,1,0,0:0:0:0:
182,192,46475,128,0,46775:0:0:0:0:
256,192,46475,1,0,0:0:0:0:
402,192,46625,1,0,0:0:0:0:
36,192,46775,128,0,47675:0:0:0:0:
475,192,46775,1,0,0:0:0:0:
109,192,46775,1,0,0:0:0:0:
182,192,47075,1,0,0:0:0:0:
329,192,47075,1,0,0:0:0:0:
475,192,47375,128,0,47675:0:0:0:0:
256,192,47375,1,0,0:0:0:0:
402,192,47375,1,0,0:0:0:0:
109,192,47525,1,0,0:0:0:0:
182,192,47675,128,0,48575:0:0:0:0:
402,192,47675,1,0,0:0:0:0:
329,192,47825,1,0,0:0:0:0:
256,192,47975,1,0,0:0:0:0:
329,192,48275,128,0,48575:0:0:0:0:
402,192,48275,1,0,0:0:0:0:
36,192,48575,128,0,49625:0:0:0:0:
109,192,48575,128,0,49625:0:0:0:0:
256,192,48575,1,0,0:0:0:0:
402,192,48575,1,0,0:0:0:0:
182,192,48875,128,0,49325:0:0:0:0:
329,192,48875,128,0,49325:0:0:0:0:
475,192,48875,128,0,49325:0:0:0:0:
402,192,49175,1,0,0:0:0:0:
256,192,49325,1,0,0:0:0:0:
402,192,49475,128,0,49925:0:0:0:0:
329,192,49475,128,0,49925:0:0:0:0:
182,192,49475,128,0,50075:0:0:0:0:
36,192,49775,128,0,50375:0:0:0:0:
109,192,49775,128,0,50375:0:0:0:0:
256,192,49775,1,0,0:0:0:0:
329,192,50075,1,0,0:0:0:0:
402,192,50075,1,0,0:0:0:0:
329,192,50375,128,0,51125:0:0:0:0:
402,192,50375,128,0,51125:0:0:0:0:
475,192,50375,128,0,51125:0:0:0:0:
182,192,50375,1,0,0:0:0:0:
36,192,50825,128,0,51575:0:0:0:0:
109,192,50825,128,0,51575:0:0:0:0:
182,192,50825,128,0,51575:0:0:0:0:
256,192,51275,128,0,52025:0:0:0:0:
402,192,51275,128,0,52025:0:0:0:0:
475,192,51275,128,0,52025:0:0:0:0:
36,192,51725,128,0,52025:0:0:0:0:
329,192,51725,128,0,52025:0:0:0:0:
182,192,51725,128,0,52025:0:0:0:0:
109,192,52175,1,0,0:0:0:0:
36,192,52175,1,0,0:0:0:0:
256,192,52175,1,0,0:0:0:0:
402,192,52175,1,0,0:0:0:0:
475,192,52175,128,0,53225:0:0:0:0:
109,192,52475,1,0,0:0:0:0:
256,192,52475,1,0,0:0:0:0:
402,192,52475,1,0,0:0:0:0:
402,192,52625,1,0,0:0:0:0:
182,192,52775,128,0,53975:0:0:0:0:
329,192,52775,1,0,0:0:0:0:
36,192,52775,1,0,0:0:0:0:
109,192,52775,1,0,0:0:0:0:
329,192,53075,128,0,53225:0:0:0:0:
36,192,53075,1,0,0:0:0:0:
256,192,53075,1,0,0:0:0:0:
402,192,53075,1,0,0:0:0:0:
109,192,53375,1,0,0:0:0:0:
329,192,53375,128,0,53825:0:0:0:0:
475,192,53375,128,0,53825:0:0:0:0:
402,192,53375,128,0,53825:0:0:0:0:
36,192,53375,1,0,0:0:0:0:
36,192,53675,128,0,53975:0:0:0:0:
256,192,53675,1,0,0:0:0:0:
109,192,53825,1,0,0:0:0:0:
402,192,53975,1,0,0:0:0:0:
475,192,53975,1,0,0:0:0:0:
329,192,53975,128,0,54275:0:0:0:0:
109,192,54125,128,0,54425:0:0:0:0:
256,192,54275,1,0,0:0:0:0:
182,192,54275,1,0,0:0:0:0:
402,192,54275,128,0,54575:0:0:0:0:
182,192,54425,128,0,54725:0:0:0:0:
256,192,54575,1,0,0:0:0:0:
329,192,54575,1,0,0:0:0:0:
475,192,54575,128,0,55025:0:0:0:0:
256,192,54725,128,0,54875:0:0:0:0:
36,192,54875,1,0,0:0:0:0:
109,192,54875,1,0,0:0:0:0:
182,192,54875,128,0,55175:0:0:0:0:
329,192,54875,1,0,0:0:0:0:
402,192,55025,128,0,55325:0:0:0:0:
109,192,55175,128,0,55475:0:0:0:0:
475,192,55175,1,0,0:0:0:0:
256,192,55175,1,0,0:0:0:0:
36,192,55175,1,0,0:0:0:0:
329,192,55325,128,0,55625:0:0:0:0:
182,192,55475,128,0,55775:0:0:0:0:
36,192,55475,1,0,0:0:0:0:
475,192,55475,1,0,0:0:0:0:
402,192,55625,128,0,55775:0:0:0:0:
256,192,55775,1,0,0:0:0:0:
329,192,55775,1,0,0:0:0:0:
475,192,55775,1,0,0:0:0:0:
36,192,55775,128,0,55925:0:0:0:0:
109,192,55775,128,0,55925:0:0:0:0:
36,192,56075,1,0,0:0:0:0:
109,192,56075,1,0,0:0:0:0:
182,192,56075,128,0,56525:0:0:0:0:
256,192,56075,128,0,56525:0:0:0:0:
402,192,56075,128,0,56225:0:0:0:0:
475,192,56075,128,0,56225:0:0:0:0:
329,192,56375,128,0,56525:0:0:0:0:
402,192,56375,128,0,56525:0:0:0:0:
475,192,56375,1,0,0:0:0:0:
109,192,56375,1,0,0:0:0:0:
182,192,56675,128,0,56825:0:0:0:0:
402,192,56675,1,0,0:0:0:0:
475,192,56675,1,0,0:0:0:0:
36,192,56675,1,0,0:0:0:0:
329,192,56675,128,0,56825:0:0:0:0:
109,192,56675,1,0,0:0:0:0:
36,192,56975,1,0,0:0:0:0:
182,192,56975,128,0,57125:0:0:0:0:
109,192,56975,128,0,57125:0:0:0:0:
256,192,56975,128,0,57425:0:0:0:0:
329,192,56975,128,0,57425:0:0:0:0:
402,192,56975,1,0,0:0:0:0:
109,192,57275,128,0,57425:0:0:0:0:
36,192,57275,128,0,57425:0:0:0:0:
402,192,57275,1,0,0:0:0:0:
475,192,57275,1,0,0:0:0:0:
36,192,57575,1,0,0:0:0:0:
402,192,57575,1,0,0:0:0:0:
475,192,57575,1,0,0:0:0:0:
109,192,57575,1,0,0:0:0:0:
256,192,57575,1,0,0:0:0:0:
329,192,57725,1,0,0:0:0:0:
182,192,57725,1,0,0:0:0:0:
256,192,57875,1,0,0:0:0:0:
402,192,57875,1,0,0:0:0:0:
475,192,57875,1,0,0:0:0:0:
36,192,57875,1,0,0:0:0:0:
109,192,58025,1,0,0:0:0:0:
329,192,58025,1,0,0:0:0:0:
256,192,58175,1,0,0:0:0:0:
36,192,58175,1,0,0:0:0:0:
182,192,58175,1,0,0:0:0:0:
475,192,58175,1,0,0:0:0:0:
329,192,58325,1,0,0:0:0:0:
402,192,58325,1,0,0:0:0:0:
36,192,58475,1,0,0:0:0:0:
182,192,58475,1,0,0:0:0:0:
329,192,58475,1,0,0:0:0:0:
256,192,58475,1,0,0:0:0:0:
475,192,58475,1,0,0:0:0:0:
109,192,58625,1,0,0:0:0:0:
256,192,58625,1,0,0:0:0:0:
402,192,58625,1,0,0:0:0:0:
182,192,58775,1,0,0:0:0:0:
36,192,58775,1,0,0:0:0:0:
329,192,58775,1,0,0:0:0:0:
402,192,58775,1,0,0:0:0:0:
475,192,58775,1,0,0:0:0:0:
256,192,58925,1,0,0:0:0:0:
109,192,58925,1,0,0:0:0:0:
329,192,58925,1,0,0:0:0:0:
36,192,59075,1,0,0:0:0:0:
475,192,59075,1,0,0:0:0:0:
182,192,59075,1,0,0:0:0:0:
109,192,59075,1,0,0:0:0:0:
402,192,59075,1,0,0:0:0:0:
329,192,59225,1,0,0:0:0:0:
256,192,59225,1,0,0:0:0:0:
182,192,59225,1,0,0:0:0:0:
256,192,59375,1,0,0:0:0:0:
402,192,59375,1,0,0:0:0:0:
475,192,59375,1,0,0:0:0:0:
36,192,59375,128,0,60125:0:0:0:0:
109,192,59375,128,0,60125:0:0:0:0:
182,192,59675,128,0,59825:0:0:0:0:
329,192,59675,128,0,59825:0:0:0:0:
329,192,59975,128,0,60725:0:0:0:0:
402,192,59975,128,0,60725:0:0:0:0:
256,192,59975,1,0,0:0:0:0:
475,192,59975,1,0,0:0:0:0:
36,192,60275,128,0,61025:0:0:0:0:
109,192,60275,128,0,61025:0:0:0:0:
182,192,60275,1,0,0:0:0:0:
256,192,60275,1,0,0:0:0:0:
256,192,60575,128,0,60725:0:0:0:0:
475,192,60575,128,0,60725:0:0:0:0:
329,192,60875,128,0,61175:0:0:0:0:
402,192,60875,128,0,61175:0:0:0:0:
475,192,60875,1,0,0:0:0:0:
256,192,60875,1,0,0:0:0:0:
182,192,61175,128,0,61925:0:0:0:0:
256,192,61175,128,0,61925:0:0:0:0:
36,192,61175,1,0,0:0:0:0:
109,192,61175,1,0,0:0:0:0:
329,192,61475,128,0,61625:0:0:0:0:
402,192,61475,128,0,61625:0:0:0:0:
109,192,61625,1,0,0:0:0:0:
402,192,61775,128,0,62225:0:0:0:0:
475,192,61775,128,0,62225:0:0:0:0:
36,192,61775,1,0,0:0:0:0:
329,192,61775,1,0,0:0:0:0:
109,192,62075,128,0,62525:0:0:0:0:
182,192,62075,128,0,62525:0:0:0:0:
256,192,62075,1,0,0:0:0:0:
329,192,62075,1,0,0:0:0:0:
329,192,62375,128,0,62825:0:0:0:0:
402,192,62375,128,0,62825:0:0:0:0:
475,192,62375,1,0,0:0:0:0:
36,192,62375,1,0,0:0:0:0:
36,192,62675,128,0,62825:0:0:0:0:
109,192,62675,128,0,62825:0:0:0:0:
182,192,62675,1,0,0:0:0:0:
256,192,62675,1,0,0:0:0:0:
402,192,62975,1,0,0:0:0:0:
475,192,62975,1,0,0:0:0:0:
256,192,62975,1,0,0:0:0:0:
36,192,62975,128,0,63425:0:0:0:0:
109,192,62975,128,0,63425:0:0:0:0:
182,192,63125,128,0,63725:0:0:0:0:
329,192,63275,128,0,64025:0:0:0:0:
402,192,63425,128,0,64325:0:0:0:0:
475,192,63575,128,0,64625:0:0:0:0:
36,192,63575,128,0,63875:0:0:0:0:
109,192,63575,128,0,63725:0:0:0:0:
109,192,63875,128,0,64625:0:0:0:0:
182,192,63875,128,0,64025:0:0:0:0:
256,192,63875,128,0,64025:0:0:0:0:
182,192,64175,128,0,64625:0:0:0:0:
256,192,64175,128,0,64325:0:0:0:0:
329,192,64175,128,0,64325:0:0:0:0:
256,192,64475,128,0,64625:0:0:0:0:
329,192,64475,128,0,64625:0:0:0:0:
402,192,64475,128,0,64625:0:0:0:0:
402,192,64775,1,0,0:0:0:0:
475,192,64775,1,0,0:0:0:0:
109,192,64775,1,0,0:0:0:0:
36,192,64775,1,0,0:0:0:0:
329,192,64775,1,0,0:0:0:0:
182,192,64925,1,0,0:0:0:0:
329,192,64925,1,0,0:0:0:0:
256,192,65075,1,0,0:0:0:0:
36,192,65075,1,0,0:0:0:0:
109,192,65075,1,0,0:0:0:0:
402,192,65075,1,0,0:0:0:0:
475,192,65075,1,0,0:0:0:0:
182,192,65225,1,0,0:0:0:0:
109,192,65225,1,0,0:0:0:0:
36,192,65375,1,0,0:0:0:0:
256,192,65375,1,0,0:0:0:0:
329,192,65375,1,0,0:0:0:0:
402,192,65375,1,0,0:0:0:0:
475,192,65375,1,0,0:0:0:0:
182,192,65525,1,0,0:0:0:0:
329,192,65525,1,0,0:0:0:0:
36,192,65675,128,0,66125:0:0:0:0:
109,192,65675,128,0,66125:0:0:0:0:
402,192,65675,128,0,65825:0:0:0:0:
475,192,65675,128,0,65825:0:0:0:0:
256,192,65675,128,0,65975:0:0:0:0:
182,192,65975,128,0,66425:0:0:0:0:
329,192,65975,128,0,66425:0:0:0:0:
402,192,65975,128,0,66125:0:0:0:0:
475,192,65975,128,0,66125:0:0:0:0:
402,192,66275,128,0,66425:0:0:0:0:
256,192,66275,128,0,66425:0:0:0:0:
109,192,66275,128,0,66425:0:0:0:0:
36,192,66275,128,0,66425:0:0:0:0:
36,192,66575,1,0,0:0:0:0:
402,192,66575,1,0,0:0:0:0:
475,192,66575,1,0,0:0:0:0:
109,192,66575,128,0,67025:0:0:0:0:
256,192,66575,128,0,67025:0:0:0:0:
182,192,66875,1,0,0:0:0:0:
329,192,66875,1,0,0:0:0:0:
475,192,67025,1,0,0:0:0:0:
256,192,67175,128,0,67325:0:0:0:0:
402,192,67175,128,0,67325:0:0:0:0:
36,192,67175,1,0,0:0:0:0:
109,192,67175,1,0,0:0:0:0:
329,192,67175,1,0,0:0:0:0:
109,192,67475,128,0,67925:0:0:0:0:
256,192,67475,128,0,67925:0:0:0:0:
36,192,67475,1,0,0:0:0:0:
329,192,67475,1,0,0:0:0:0:
475,192,67475,1,0,0:0:0:0:
402,192,67625,1,0,0:0:0:0:
182,192,67775,1,0,0:0:0:0:
329,192,67775,1,0,0:0:0:0:
36,192,67925,1,0,0:0:0:0:
256,192,68075,128,0,68225:0:0:0:0:
402,192,68075,128,0,68225:0:0:0:0:
109,192,68075,1,0,0:0:0:0:
475,192,68075,1,0,0:0:0:0:
182,192,68225,1,0,0:0:0:0:
36,192,68375,128,0,69125:0:0:0:0:
329,192,68375,128,0,69125:0:0:0:0:
109,192,68375,1,0,0:0:0:0:
256,192,68375,1,0,0:0:0:0:
402,192,68375,1,0,0:0:0:0:
109,192,68675,1,0,0:0:0:0:
182,192,68675,1,0,0:0:0:0:
256,192,68825,1,0,0:0:0:0:
182,192,68975,128,0,69425:0:0:0:0:
475,192,68975,128,0,69425:0:0:0:0:
402,192,68975,1,0,0:0:0:0:
109,192,68975,1,0,0:0:0:0:
36,192,69275,128,0,69725:0:0:0:0:
329,192,69275,128,0,69725:0:0:0:0:
109,192,69275,1,0,0:0:0:0:
402,192,69275,1,0,0:0:0:0:
182,192,69575,128,0,70025:0:0:0:0:
475,192,69575,128,0,70025:0:0:0:0:
109,192,69575,1,0,0:0:0:0:
402,192,69575,1,0,0:0:0:0:
256,192,69725,1,0,0:0:0:0:
36,192,69875,128,0,70025:0:0:0:0:
329,192,69875,128,0,70025:0:0:0:0:
109,192,69875,1,0,0:0:0:0:
402,192,69875,1,0,0:0:0:0:
109,192,70175,1,0,0:0:0:0:
402,192,70175,1,0,0:0:0:0:
36,192,70175,128,0,70475:0:0:0:0:
475,192,70175,128,0,70475:0:0:0:0:
182,192,70175,1,0,0:0:0:0:
329,192,70175,1,0,0:0:0:0:
256,192,70325,1,0,0:0:0:0:
182,192,70475,128,0,70775:0:0:0:0:
329,192,70475,128,0,70775:0:0:0:0:
109,192,70475,1,0,0:0:0:0:
402,192,70475,1,0,0:0:0:0:
36,192,70625,1,0,0:0:0:0:
475,192,70625,1,0,0:0:0:0:
109,192,70775,128,0,71075:0:0:0:0:
402,192,70775,128,0,71075:0:0:0:0:
256,192,70775,1,0,0:0:0:0:
36,192,71075,128,0,71825:0:0:0:0:
475,192,71075,128,0,71825:0:0:0:0:
182,192,71075,1,0,0:0:0:0:
329,192,71075,1,0,0:0:0:0:
182,192,71375,128,0,71825:0:0:0:0:
329,192,71375,128,0,71825:0:0:0:0:
402,192,71375,1,0,0:0:0:0:
109,192,71375,1,0,0:0:0:0:
256,192,71525,1,0,0:0:0:0:
109,192,71675,128,0,71825:0:0:0:0:
402,192,71675,128,0,71825:0:0:0:0:
36,192,71975,128,0,72425:0:0:0:0:
109,192,71975,128,0,72425:0:0:0:0:
182,192,71975,128,0,72725:0:0:0:0:
329,192,71975,128,0,72725:0:0:0:0:
402,192,71975,128,0,72425:0:0:0:0:
475,192,71975,128,0,72425:0:0:0:0:
36,192,72575,128,0,73025:0:0:0:0:
109,192,72575,128,0,72725:0:0:0:0:
402,192,72575,128,0,72725:0:0:0:0:
475,192,72575,128,0,73025:0:0:0:0:
109,192,72875,128,0,73025:0:0:0:0:
182,192,72875,128,0,73325:0:0:0:0:
329,192,72875,128,0,73325:0:0:0:0:
402,192,72875,128,0,73025:0:0:0:0:
36,192,73175,128,0,73625:0:0:0:0:
109,192,73175,128,0,73325:0:0:0:0:
402,192,73175,128,0,73325:0:0:0:0:
475,192,73175,128,0,73625:0:0:0:0:
109,192,73475,128,0,73625:0:0:0:0:
182,192,73475,128,0,73625:0:0:0:0:
402,192,73475,128,0,73625:0:0:0:0:
329,192,73475,128,0,73625:0:0:0:0:
256,192,73775,1,0,0:0:0:0:
402,192,73775,1,0,0:0:0:0:
475,192,73775,1,0,0:0:0:0:
36,192,73775,128,0,74225:0:0:0:0:
109,192,73775,128,0,74225:0:0:0:0:
182,192,73925,1,0,0:0:0:0:
329,192,73925,1,0,0:0:0:0:
256,192,74075,1,0,0:0:0:0:
402,192,74075,1,0,0:0:0:0:
182,192,74225,1,0,0:0:0:0:
329,192,74225,1,0,0:0:0:0:
256,192,74375,1,0,0:0:0:0:
109,192,74375,1,0,0:0:0:0:
36,192,74375,1,0,0:0:0:0:
402,192,74375,128,0,74525:0:0:0:0:
475,192,74375,128,0,74525:0:0:0:0:
182,192,74525,1,0,0:0:0:0:
329,192,74525,1,0,0:0:0:0:
329,192,74675,1,0,0:0:0:0:
109,192,74675,1,0,0:0:0:0:
182,192,74675,1,0,0:0:0:0:
36,192,74675,128,0,75125:0:0:0:0:
475,192,74675,128,0,75125:0:0:0:0:
256,192,74825,1,0,0:0:0:0:
402,192,74825,1,0,0:0:0:0:
329,192,74975,1,0,0:0:0:0:
182,192,74975,1,0,0:0:0:0:
109,192,75125,1,0,0:0:0:0:
256,192,75125,1,0,0:0:0:0:
182,192,75275,1,0,0:0:0:0:
36,192,75275,1,0,0:0:0:0:
475,192,75275,1,0,0:0:0:0:
402,192,75275,128,0,75425:0:0:0:0:
329,192,75275,128,0,75425:0:0:0:0:
256,192,75425,1,0,0:0:0:0:
109,192,75425,1,0,0:0:0:0:
182,192,75575,1,0,0:0:0:0:
402,192,75575,1,0,0:0:0:0:
329,192,75575,1,0,0:0:0:0:
36,192,75575,128,0,76025:0:0:0:0:
475,192,75575,128,0,76025:0:0:0:0:
109,192,75725,1,0,0:0:0:0:
256,192,75725,1,0,0:0:0:0:
182,192,75875,1,0,0:0:0:0:
329,192,75875,1,0,0:0:0:0:
402,192,76025,1,0,0:0:0:0:
256,192,76025,1,0,0:0:0:0:
329,192,76175,1,0,0:0:0:0:
36,192,76175,1,0,0:0:0:0:
475,192,76175,1,0,0:0:0:0:
109,192,76175,128,0,76325:0:0:0:0:
182,192,76175,128,0,76325:0:0:0:0:
256,192,76325,1,0,0:0:0:0:
402,192,76325,1,0,0:0:0:0:
329,192,76475,1,0,0:0:0:0:
475,192,76475,1,0,0:0:0:0:
36,192,76475,128,0,76625:0:0:0:0:
109,192,76475,128,0,76625:0:0:0:0:
182,192,76625,1,0,0:0:0:0:
402,192,76625,1,0,0:0:0:0:
256,192,76775,1,0,0:0:0:0:
36,192,76775,1,0,0:0:0:0:
329,192,76775,128,0,76925:0:0:0:0:
475,192,76775,128,0,76925:0:0:0:0:
109,192,76925,1,0,0:0:0:0:
182,192,76925,1,0,0:0:0:0:
475,192,77075,1,0,0:0:0:0:
36,192,77075,1,0,0:0:0:0:
402,192,77075,128,0,77225:0:0:0:0:
329,192,77075,128,0,77225:0:0:0:0:
182,192,77225,1,0,0:0:0:0:
256,192,77225,1,0,0:0:0:0:
109,192,77375,1,0,0:0:0:0:
36,192,77375,1,0,0:0:0:0:
329,192,77375,128,0,78125:0:0:0:0:
402,192,77375,128,0,77975:0:0:0:0:
475,192,77375,128,0,77825:0:0:0:0:
182,192,77525,128,0,78125:0:0:0:0:
109,192,77675,128,0,78125:0:0:0:0:
36,192,77825,128,0,78125:0:0:0:0:
475,192,77975,128,0,78725:0:0:0:0:
402,192,78125,128,0,78425:0:0:0:0:
329,192,78275,128,0,78425:0:0:0:0:
36,192,78275,128,0,79025:0:0:0:0:
109,192,78275,128,0,78425:0:0:0:0:
182,192,78275,128,0,78425:0:0:0:0:
109,192,78575,128,0,79025:0:0:0:0:
182,192,78575,128,0,78725:0:0:0:0:
329,192,78575,128,0,78725:0:0:0:0:
402,192,78575,128,0,78725:0:0:0:0:
182,192,78875,128,0,79025:0:0:0:0:
329,192,78875,128,0,79025:0:0:0:0:
402,192,78875,128,0,79025:0:0:0:0:
475,192,78875,128,0,79025:0:0:0:0:
36,192,79175,1,0,0:0:0:0:
329,192,79175,1,0,0:0:0:0:
182,192,79175,1,0,0:0:0:0:
109,192,79175,1,0,0:0:0:0:
475,192,79175,1,0,0:0:0:0:
256,192,79325,1,0,0:0:0:0:
36,192,79475,1,0,0:0:0:0:
402,192,79475,1,0,0:0:0:0:
475,192,79475,1,0,0:0:0:0:
182,192,79475,1,0,0:0:0:0:
329,192,79625,1,0,0:0:0:0:
109,192,79625,1,0,0:0:0:0:
256,192,79625,1,0,0:0:0:0:
475,192,79625,1,0,0:0:0:0:
182,192,79775,1,0,0:0:0:0:
36,192,79775,1,0,0:0:0:0:
402,192,79775,1,0,0:0:0:0:
256,192,79775,1,0,0:0:0:0:
109,192,79925,1,0,0:0:0:0:
329,192,79925,1,0,0:0:0:0:
182,192,79925,1,0,0:0:0:0:
475,192,79925,1,0,0:0:0:0:
256,192,80075,1,0,0:0:0:0:
36,192,80075,128,0,80525:0:0:0:0:
109,192,80075,128,0,80225:0:0:0:0:
402,192,80075,128,0,80225:0:0:0:0:
475,192,80075,128,0,80225:0:0:0:0:
182,192,80225,1,0,0:0:0:0:
329,192,80225,1,0,0:0:0:0:
256,192,80375,1,0,0:0:0:0:
475,192,80375,128,0,80825:0:0:0:0:
402,192,80375,128,0,80525:0:0:0:0:
109,192,80375,128,0,80525:0:0:0:0:
182,192,80525,1,0,0:0:0:0:
329,192,80525,1,0,0:0:0:0:
109,192,80675,1,0,0:0:0:0:
256,192,80675,1,0,0:0:0:0:
402,192,80675,1,0,0:0:0:0:
36,192,80675,128,0,80825:0:0:0:0:
182,192,80825,1,0,0:0:0:0:
329,192,80825,1,0,0:0:0:0:
109,192,80975,1,0,0:0:0:0:
256,192,80975,1,0,0:0:0:0:
475,192,80975,1,0,0:0:0:0:
36,192,80975,128,0,81575:0:0:0:0:
402,192,80975,128,0,81875:0:0:0:0:
109,192,81275,1,0,0:0:0:0:
329,192,81275,1,0,0:0:0:0:
256,192,81425,1,0,0:0:0:0:
182,192,81575,128,0,82475:0:0:0:0:
475,192,81575,128,0,82175:0:0:0:0:
109,192,81575,1,0,0:0:0:0:
329,192,81575,1,0,0:0:0:0:
256,192,81875,128,0,82775:0:0:0:0:
109,192,81875,128,0,82175:0:0:0:0:
36,192,81875,1,0,0:0:0:0:
329,192,82175,1,0,0:0:0:0:
402,192,82175,1,0,0:0:0:0:
109,192,82325,1,0,0:0:0:0:
36,192,82475,128,0,83375:0:0:0:0:
475,192,82475,128,0,83075:0:0:0:0:
329,192,82475,1,0,0:0:0:0:
402,192,82475,1,0,0:0:0:0:
182,192,82775,128,0,83975:0:0:0:0:
402,192,82775,128,0,83075:0:0:0:0:
329,192,82775,1,0,0:0:0:0:
109,192,82775,1,0,0:0:0:0:
256,192,82925,1,0,0:0:0:0:
109,192,83075,1,0,0:0:0:0:
329,192,83075,1,0,0:0:0:0:
402,192,83225,1,0,0:0:0:0:
475,192,83375,128,0,84425:0:0:0:0:
109,192,83375,128,0,84275:0:0:0:0:
256,192,83375,1,0,0:0:0:0:
329,192,83375,1,0,0:0:0:0:
402,192,83675,128,0,83975:0:0:0:0:
36,192,83675,128,0,84425:0:0:0:0:
329,192,83675,1,0,0:0:0:0:
256,192,83975,128,0,84425:0:0:0:0:
329,192,83975,128,0,84275:0:0:0:0:
182,192,84125,1,0,0:0:0:0:
182,192,84275,128,0,84425:0:0:0:0:
402,192,84275,128,0,84425:0:0:0:0:
36,192,84575,1,0,0:0:0:0:
182,192,84575,1,0,0:0:0:0:
256,192,84575,1,0,0:0:0:0:
402,192,84575,1,0,0:0:0:0:
475,192,84575,1,0,0:0:0:0:
36,192,84875,1,0,0:0:0:0:
109,192,84875,1,0,0:0:0:0:
256,192,84875,1,0,0:0:0:0:
329,192,84875,1,0,0:0:0:0:
475,192,84875,1,0,0:0:0:0:
36,192,85025,1,0,0:0:0:0:
109,192,85025,1,0,0:0:0:0:
329,192,85175,1,0,0:0:0:0:
402,192,85175,1,0,0:0:0:0:
475,192,85175,1,0,0:0:0:0:
36,192,85175,128,0,85625:0:0:0:0:
109,192,85175,128,0,85625:0:0:0:0:
182,192,85325,1,0,0:0:0:0:
256,192,85325,1,0,0:0:0:0:
329,192,85475,1,0,0:0:0:0:
402,192,85475,1,0,0:0:0:0:
182,192,85475,1,0,0:0:0:0:
475,192,85475,1,0,0:0:0:0:
256,192,85625,1,0,0:0:0:0:
36,192,85775,1,0,0:0:0:0:
402,192,85775,1,0,0:0:0:0:
475,192,85775,1,0,0:0:0:0:
109,192,85775,1,0,0:0:0:0:
182,192,85775,1,0,0:0:0:0:
402,192,85925,1,0,0:0:0:0:
475,192,85925,1,0,0:0:0:0:
256,192,86075,1,0,0:0:0:0:
109,192,86075,1,0,0:0:0:0:
36,192,86075,1,0,0:0:0:0:
402,192,86075,128,0,87125:0:0:0:0:
475,192,86075,128,0,87125:0:0:0:0:
182,192,86225,1,0,0:0:0:0:
329,192,86225,1,0,0:0:0:0:
109,192,86375,1,0,0:0:0:0:
36,192,86375,1,0,0:0:0:0:
256,192,86375,1,0,0:0:0:0:
182,192,86525,1,0,0:0:0:0:
329,192,86525,1,0,0:0:0:0:
36,192,86675,1,0,0:0:0:0:
256,192,86675,1,0,0:0:0:0:
109,192,86750,1,0,0:0:0:0:
182,192,86825,1,0,0:0:0:0:
256,192,86900,1,0,0:0:0:0:
329,192,86975,1,0,0:0:0:0:
109,192,86975,1,0,0:0:0:0:
182,192,87050,1,0,0:0:0:0:
256,192,87125,1,0,0:0:0:0:
329,192,87200,1,0,0:0:0:0:
402,192,87275,1,0,0:0:0:0:
475,192,87275,1,0,0:0:0:0:
36,192,87275,1,0,0:0:0:0:
109,192,87275,1,0,0:0:0:0:
182,192,87275,1,0,0:0:0:0:
109,192,87575,1,0,0:0:0:0:
36,192,87575,1,0,0:0:0:0:
329,192,87575,1,0,0:0:0:0:
402,192,87575,1,0,0:0:0:0:
475,192,87575,1,0,0:0:0:0:
256,192,87875,1,0,0:0:0:0:
109,192,88175,128,0,88925:0:0:0:0:
182,192,88475,128,0,90125:0:0:0:0:
402,192,88775,128,0,89675:0:0:0:0:
329,192,89075,128,0,89825:0:0:0:0:
109,192,89075,128,0,89825:0:0:0:0:
256,192,89375,128,0,90725:0:0:0:0:
475,192,89675,128,0,91025:0:0:0:0:
402,192,89825,128,0,90425:0:0:0:0:
109,192,89975,128,0,90725:0:0:0:0:
329,192,89975,128,0,92825:0:0:0:0:
182,192,90275,128,0,91325:0:0:0:0:
402,192,90575,128,0,91625:0:0:0:0:
109,192,90875,128,0,91925:0:0:0:0:
256,192,90875,128,0,92225:0:0:0:0:
475,192,91175,128,0,91625:0:0:0:0:
182,192,91475,128,0,92525:0:0:0:0:
402,192,91775,128,0,93725:0:0:0:0:
36,192,91775,128,0,92525:0:0:0:0:
109,192,92075,128,0,93275:0:0:0:0:
256,192,92375,128,0,93425:0:0:0:0:
182,192,92675,128,0,93425:0:0:0:0:
36,192,92675,128,0,94325:0:0:0:0:
329,192,92975,128,0,93125:0:0:0:0:
329,192,93275,128,0,94025:0:0:0:0:
109,192,93425,128,0,95075:0:0:0:0:
182,192,93575,128,0,94325:0:0:0:0:
256,192,93575,128,0,94775:0:0:0:0:
402,192,93875,128,0,95225:0:0:0:0:
329,192,94175,128,0,94625:0:0:0:0:
36,192,94475,128,0,95225:0:0:0:0:
182,192,94475,128,0,94925:0:0:0:0:
329,192,94775,128,0,95225:0:0:0:0:
256,192,94925,128,0,95225:0:0:0:0:
182,192,95075,128,0,95225:0:0:0:0:
109,192,95225,1,0,0:0:0:0:
402,192,95375,1,0,0:0:0:0:
475,192,95375,1,0,0:0:0:0:
329,192,95375,1,0,0:0:0:0:
182,192,95375,1,0,0:0:0:0:
36,192,95375,128,0,97175:0:0:0:0:
256,192,95525,1,0,0:0:0:0:
109,192,95525,1,0,0:0:0:0:
402,192,95675,1,0,0:0:0:0:
475,192,95675,1,0,0:0:0:0:
182,192,95675,1,0,0:0:0:0:
329,192,95825,1,0,0:0:0:0:
109,192,95825,1,0,0:0:0:0:
256,192,95975,1,0,0:0:0:0:
402,192,95975,1,0,0:0:0:0:
475,192,95975,1,0,0:0:0:0:
329,192,96125,1,0,0:0:0:0:
109,192,96125,1,0,0:0:0:0:
182,192,96200,1,0,0:0:0:0:
475,192,96275,128,0,97175:0:0:0:0:
256,192,96275,1,0,0:0:0:0:
402,192,96275,1,0,0:0:0:0:
182,192,96575,1,0,0:0:0:0:
329,192,96575,1,0,0:0:0:0:
256,192,96875,1,0,0:0:0:0:
402,192,96875,1,0,0:0:0:0:
329,192,97025,1,0,0:0:0:0:
182,192,97175,128,0,98975:0:0:0:0:
109,192,97175,1,0,0:0:0:0:
256,192,97175,1,0,0:0:0:0:
329,192,97175,1,0,0:0:0:0:
475,192,97325,1,0,0:0:0:0:
36,192,97475,1,0,0:0:0:0:
109,192,97475,1,0,0:0:0:0:
329,192,97475,1,0,0:0:0:0:
402,192,97625,1,0,0:0:0:0:
256,192,97775,1,0,0:0:0:0:
36,192,97775,1,0,0:0:0:0:
475,192,97775,1,0,0:0:0:0:
402,192,97925,1,0,0:0:0:0:
329,192,98075,128,0,98975:0:0:0:0:
36,192,98075,1,0,0:0:0:0:
109,192,98075,1,0,0:0:0:0:
402,192,98225,1,0,0:0:0:0:
475,192,98225,1,0,0:0:0:0:
109,192,98375,1,0,0:0:0:0:
256,192,98375,1,0,0:0:0:0:
36,192,98525,1,0,0:0:0:0:
475,192,98525,1,0,0:0:0:0:
402,192,98675,1,0,0:0:0:0:
256,192,98675,1,0,0:0:0:0:
36,192,98825,1,0,0:0:0:0:
475,192,98825,1,0,0:0:0:0:
109,192,98975,128,0,100625:0:0:0:0:
256,192,98975,1,0,0:0:0:0:
402,192,98975,1,0,0:0:0:0:
329,192,99275,1,0,0:0:0:0:
475,192,99275,1,0,0:0:0:0:
182,192,99275,1,0,0:0:0:0:
256,192,99425,1,0,0:0:0:0:
329,192,99575,1,0,0:0:0:0:
475,192,99575,1,0,0:0:0:0:
182,192,99575,1,0,0:0:0:0:
329,192,99725,1,0,0:0:0:0:
402,192,99875,128,0,100625:0:0:0:0:
182,192,99875,128,0,100025:0:0:0:0:
475,192,99875,128,0,100025:0:0:0:0:
36,192,99875,128,0,100325:0:0:0:0:
256,192,100175,128,0,100325:0:0:0:0:
329,192,100175,128,0,100325:0:0:0:0:
182,192,100175,128,0,100625:0:0:0:0:
329,192,100475,128,0,100625:0:0:0:0:
475,192,100475,128,0,100625:0:0:0:0:
36,192,100475,128,0,100625:0:0:0:0:
36,192,100775,1,0,0:0:0:0:
182,192,100775,1,0,0:0:0:0:
329,192,100775,1,0,0:0:0:0:
475,192,100775,1,0,0:0:0:0:
256,192,100925,1,0,0:0:0:0:
109,192,101075,128,0,101225:0:0:0:0:
182,192,101075,128,0,101225:0:0:0:0:
329,192,101075,128,0,101225:0:0:0:0:
402,192,101075,128,0,101225:0:0:0:0:
109,192,101375,128,0,101525:0:0:0:0:
402,192,101375,128,0,101525:0:0:0:0:
182,192,101375,1,0,0:0:0:0:
329,192,101375,1,0,0:0:0:0:
329,192,101525,1,0,0:0:0:0:
182,192,101525,1,0,0:0:0:0:
36,192,101675,128,0,102425:0:0:0:0:
109,192,101675,128,0,102125:0:0:0:0:
402,192,101675,128,0,101825:0:0:0:0:
475,192,101675,128,0,102425:0:0:0:0:
256,192,101675,1,0,0:0:0:0:
329,192,101975,1,0,0:0:0:0:
402,192,101975,128,0,102425:0:0:0:0:
256,192,102125,1,0,0:0:0:0:
182,192,102275,1,0,0:0:0:0:
109,192,102275,128,0,102425:0:0:0:0:
256,192,102425,1,0,0:0:0:0:
329,192,102500,1,0,0:0:0:0:
402,192,102575,1,0,0:0:0:0:
475,192,102575,1,0,0:0:0:0:
109,192,102575,1,0,0:0:0:0:
36,192,102575,1,0,0:0:0:0:
36,192,102875,1,0,0:0:0:0:
109,192,102875,1,0,0:0:0:0:
475,192,102875,1,0,0:0:0:0:
402,192,102875,1,0,0:0:0:0:
329,192,102875,1,0,0:0:0:0:
109,192,103025,1,0,0:0:0:0:
182,192,103025,1,0,0:0:0:0:
36,192,103175,1,0,0:0:0:0:
402,192,103175,1,0,0:0:0:0:
475,192,103175,1,0,0:0:0:0:
182,192,103175,1,0,0:0:0:0:
256,192,103175,1,0,0:0:0:0:
256,192,103325,1,0,0:0:0:0:
329,192,103325,1,0,0:0:0:0:
402,192,103475,1,0,0:0:0:0:
329,192,103475,1,0,0:0:0:0:
36,192,103475,1,0,0:0:0:0:
109,192,103475,1,0,0:0:0:0:
475,192,103475,1,0,0:0:0:0:
36,192,103775,1,0,0:0:0:0:
182,192,103775,1,0,0:0:0:0:
256,192,103775,1,0,0:0:0:0:
475,192,103775,1,0,0:0:0:0:
402,192,103775,128,0,103925:0:0:0:0:
109,192,103925,1,0,0:0:0:0:
182,192,103925,1,0,0:0:0:0:
329,192,103925,128,0,104075:0:0:0:0:
36,192,104075,1,0,0:0:0:0:
402,192,104075,1,0,0:0:0:0:
475,192,104075,1,0,0:0:0:0:
109,192,104075,1,0,0:0:0:0:
256,192,104075,128,0,104225:0:0:0:0:
329,192,104225,1,0,0:0:0:0:
402,192,104225,1,0,0:0:0:0:
182,192,104225,128,0,104375:0:0:0:0:
256,192,104375,1,0,0:0:0:0:
329,192,104375,1,0,0:0:0:0:
475,192,104375,1,0,0:0:0:0:
109,192,104375,1,0,0:0:0:0:
36,192,104375,128,0,105275:0:0:0:0:
182,192,104675,1,0,0:0:0:0:
256,192,104675,1,0,0:0:0:0:
329,192,104975,1,0,0:0:0:0:
475,192,105275,128,0,106175:0:0:0:0:
182,192,105275,1,0,0:0:0:0:
329,192,105575,1,0,0:0:0:0:
182,192,105875,1,0,0:0:0:0:
329,192,106175,128,0,107075:0:0:0:0:
36,192,106175,1,0,0:0:0:0:
109,192,106175,1,0,0:0:0:0:
182,192,106475,1,0,0:0:0:0:
256,192,106775,1,0,0:0:0:0:
182,192,107075,128,0,107675:0:0:0:0:
475,192,107075,1,0,0:0:0:0:
36,192,107075,1,0,0:0:0:0:
402,192,107375,1,0,0:0:0:0:
329,192,107375,1,0,0:0:0:0:
109,192,107675,1,0,0:0:0:0:
256,192,107675,1,0,0:0:0:0:
329,192,107975,128,0,108875:0:0:0:0:
475,192,107975,1,0,0:0:0:0:
36,192,107975,1,0,0:0:0:0:
182,192,107975,1,0,0:0:0:0:
36,192,108275,128,0,108575:0:0:0:0:
109,192,108425,1,0,0:0:0:0:
182,192,108575,128,0,108875:0:0:0:0:
109,192,108725,1,0,0:0:0:0:
402,192,108875,128,0,109775:0:0:0:0:
256,192,108875,128,0,109175:0:0:0:0:
36,192,108875,128,0,109175:0:0:0:0:
182,192,109025,1,0,0:0:0:0:
109,192,109175,128,0,109475:0:0:0:0:
182,192,109325,1,0,0:0:0:0:
329,192,109475,128,0,109775:0:0:0:0:
256,192,109625,1,0,0:0:0:0:
475,192,109775,128,0,111275:0:0:0:0:
36,192,109775,128,0,111275:0:0:0:0:
109,192,109775,1,0,0:0:0:0:
182,192,109775,1,0,0:0:0:0:
256,192,110075,1,0,0:0:0:0:
402,192,110075,1,0,0:0:0:0:
329,192,110225,1,0,0:0:0:0:
182,192,110225,1,0,0:0:0:0:
256,192,110375,1,0,0:0:0:0:
109,192,110375,1,0,0:0:0:0:
182,192,110675,128,0,110825:0:0:0:0:
256,192,110675,128,0,110825:0:0:0:0:
109,192,110675,128,0,111425:0:0:0:0:
256,192,110975,128,0,111125:0:0:0:0:
329,192,110975,128,0,111125:0:0:0:0:
182,192,110975,128,0,111425:0:0:0:0:
256,192,111275,128,0,111425:0:0:0:0:
329,192,111275,128,0,111425:0:0:0:0:
402,192,111275,128,0,111425:0:0:0:0:
329,192,111575,1,0,0:0:0:0:
475,192,111575,1,0,0:0:0:0:
256,192,111575,1,0,0:0:0:0:
36,192,111575,128,0,113225:0:0:0:0:
109,192,111575,128,0,113225:0:0:0:0:
182,192,111875,1,0,0:0:0:0:
256,192,112175,1,0,0:0:0:0:
402,192,112175,1,0,0:0:0:0:
475,192,112175,1,0,0:0:0:0:
402,192,112475,128,0,113225:0:0:0:0:
475,192,112475,128,0,113225:0:0:0:0:
182,192,112475,1,0,0:0:0:0:
329,192,112475,1,0,0:0:0:0:
329,192,112775,128,0,112925:0:0:0:0:
182,192,113075,128,0,113225:0:0:0:0:
36,192,113375,128,0,113975:0:0:0:0:
109,192,113375,128,0,113975:0:0:0:0:
402,192,113375,128,0,113975:0:0:0:0:
475,192,113375,128,0,113975:0:0:0:0:
256,192,113375,1,0,0:0:0:0:
182,192,113675,128,0,113825:0:0:0:0:
329,192,113975,128,0,114125:0:0:0:0:
36,192,114275,1,0,0:0:0:0:
109,192,114275,1,0,0:0:0:0:
256,192,114275,1,0,0:0:0:0:
402,192,114275,1,0,0:0:0:0:
475,192,114275,1,0,0:0:0:0:
36,192,114575,1,0,0:0:0:0:
109,192,114575,1,0,0:0:0:0:
256,192,114575,1,0,0:0:0:0:
402,192,114575,1,0,0:0:0:0:
475,192,114575,1,0,0:0:0:0:
329,192,114725,1,0,0:0:0:0:
182,192,114725,1,0,0:0:0:0:
109,192,114875,1,0,0:0:0:0:
36,192,114875,1,0,0:0:0:0:
256,192,114875,1,0,0:0:0:0:
329,192,114875,1,0,0:0:0:0:
475,192,114875,1,0,0:0:0:0:
475,192,115175,128,0,115475:0:0:0:0:
36,192,115175,1,0,0:0:0:0:
109,192,115175,1,0,0:0:0:0:
329,192,115175,1,0,0:0:0:0:
182,192,115175,1,0,0:0:0:0:
402,192,115325,128,0,115625:0:0:0:0:
256,192,115325,1,0,0:0:0:0:
329,192,115475,128,0,115775:0:0:0:0:
36,192,115475,1,0,0:0:0:0:
109,192,115475,1,0,0:0:0:0:
182,192,115475,1,0,0:0:0:0:
256,192,115625,128,0,115925:0:0:0:0:
109,192,115625,1,0,0:0:0:0:
182,192,115775,128,0,116075:0:0:0:0:
36,192,115775,1,0,0:0:0:0:
402,192,115775,1,0,0:0:0:0:
475,192,115775,1,0,0:0:0:0:
109,192,115925,128,0,116225:0:0:0:0:
329,192,115925,1,0,0:0:0:0:
36,192,116075,128,0,116375:0:0:0:0:
475,192,116075,128,0,116825:0:0:0:0:
256,192,116075,1,0,0:0:0:0:
402,192,116075,1,0,0:0:0:0:
182,192,116225,1,0,0:0:0:0:
329,192,116375,128,0,116975:0:0:0:0:
402,192,116375,128,0,116825:0:0:0:0:
256,192,116375,1,0,0:0:0:0:
109,192,116375,1,0,0:0:0:0:
36,192,116525,1,0,0:0:0:0:
182,192,116675,128,0,116975:0:0:0:0:
256,192,116675,128,0,116825:0:0:0:0:
109,192,116675,1,0,0:0:0:0:
256,192,116975,1,0,0:0:0:0:
402,192,116975,1,0,0:0:0:0:
475,192,116975,1,0,0:0:0:0:
36,192,116975,128,0,117725:0:0:0:0:
109,192,116975,128,0,117275:0:0:0:0:
182,192,117125,128,0,117425:0:0:0:0:
329,192,117125,1,0,0:0:0:0:
256,192,117275,128,0,117575:0:0:0:0:
402,192,117275,1,0,0:0:0:0:
475,192,117275,1,0,0:0:0:0:
329,192,117425,128,0,117725:0:0:0:0:
109,192,117425,1,0,0:0:0:0:
475,192,117575,128,0,118325:0:0:0:0:
402,192,117575,128,0,117725:0:0:0:0:
109,192,117575,128,0,117875:0:0:0:0:
182,192,117575,1,0,0:0:0:0:
182,192,117725,128,0,118025:0:0:0:0:
256,192,117725,1,0,0:0:0:0:
36,192,117875,128,0,118625:0:0:0:0:
329,192,117875,128,0,118175:0:0:0:0:
402,192,117875,1,0,0:0:0:0:
256,192,118025,128,0,118325:0:0:0:0:
109,192,118025,1,0,0:0:0:0:
182,192,118175,128,0,118475:0:0:0:0:
402,192,118175,1,0,0:0:0:0:
109,192,118325,128,0,118625:0:0:0:0:
329,192,118325,1,0,0:0:0:0:
475,192,118475,128,0,118625:0:0:0:0:
402,192,118475,1,0,0:0:0:0:
256,192,118475,1,0,0:0:0:0:
329,192,118625,1,0,0:0:0:0:
182,192,118625,1,0,0:0:0:0:
402,192,118625,1,0,0:0:0:0:
36,192,118775,1,0,0:0:0:0:
109,192,118775,1,0,0:0:0:0:
475,192,118775,1,0,0:0:0:0:
329,192,118775,1,0,0:0:0:0:
256,192,118775,128,0,120575:0:0:0:0:
36,192,119075,1,0,0:0:0:0:
182,192,119075,1,0,0:0:0:0:
402,192,119075,1,0,0:0:0:0:
475,192,119075,1,0,0:0:0:0:
182,192,119375,1,0,0:0:0:0:
109,192,119375,1,0,0:0:0:0:
329,192,119375,1,0,0:0:0:0:
402,192,119375,1,0,0:0:0:0:
36,192,119675,128,0,120575:0:0:0:0:
475,192,119675,128,0,120575:0:0:0:0:
182,192,119675,128,0,119825:0:0:0:0:
402,192,119675,1,0,0:0:0:0:
109,192,119825,1,0,0:0:0:0:
329,192,119825,128,0,119975:0:0:0:0:
182,192,119975,1,0,0:0:0:0:
402,192,119975,128,0,120125:0:0:0:0:
329,192,120125,1,0,0:0:0:0:
109,192,120125,128,0,120275:0:0:0:0:
402,192,120275,1,0,0:0:0:0:
182,192,120275,128,0,120425:0:0:0:0:
109,192,120425,1,0,0:0:0:0:
329,192,120425,128,0,120575:0:0:0:0:
182,192,120575,128,0,122225:0:0:0:0:
402,192,120575,128,0,122225:0:0:0:0:
36,192,120875,1,0,0:0:0:0:
256,192,120875,1,0,0:0:0:0:
475,192,120875,1,0,0:0:0:0:
109,192,121025,1,0,0:0:0:0:
329,192,121025,1,0,0:0:0:0:
256,192,121175,1,0,0:0:0:0:
36,192,121175,1,0,0:0:0:0:
109,192,121325,1,0,0:0:0:0:
475,192,121325,1,0,0:0:0:0:
36,192,121475,128,0,122225:0:0:0:0:
329,192,121475,128,0,122225:0:0:0:0:
256,192,121475,1,0,0:0:0:0:
475,192,121775,128,0,122225:0:0:0:0:
109,192,122075,128,0,122225:0:0:0:0:
182,192,122375,128,0,122431:0:0:0:0:
256,192,122375,128,0,122750:0:0:0:0:
402,192,122375,128,0,122450:0:0:0:0:
475,192,122375,128,0,122468:0:0:0:0:
109,192,122375,128,0,122412:0:0:0:0:
36,192,122375,1,0,0:0:0:0:
36,192,122675,128,0,123087:0:0:0:0:
182,192,122675,128,0,122731:0:0:0:0:
329,192,122675,128,0,122768:0:0:0:0:
475,192,122675,128,0,122787:0:0:0:0:
109,192,122675,128,0,122712:0:0:0:0:
475,192,122975,128,0,123387:0:0:0:0:
182,192,122975,128,0,123050:0:0:0:0:
109,192,122975,128,0,123068:0:0:0:0:
329,192,122975,128,0,123012:0:0:0:0:
256,192,122975,128,0,123031:0:0:0:0:
329,192,123275,128,0,123350:0:0:0:0:
402,192,123275,128,0,123368:0:0:0:0:
256,192,123275,128,0,123331:0:0:0:0:
182,192,123275,128,0,123650:0:0:0:0:
109,192,123275,128,0,123312:0:0:0:0:
402,192,123575,128,0,123968:0:0:0:0:
36,192,123575,128,0,123687:0:0:0:0:
109,192,123575,128,0,123668:0:0:0:0:
256,192,123575,128,0,123631:0:0:0:0:
329,192,123575,128,0,123612:0:0:0:0:
109,192,123875,128,0,124268:0:0:0:0:
329,192,123875,128,0,123950:0:0:0:0:
256,192,123875,128,0,123931:0:0:0:0:
475,192,123875,128,0,123987:0:0:0:0:
182,192,123875,128,0,123912:0:0:0:0:
36,192,124175,128,0,124287:0:0:0:0:
182,192,124175,128,0,124250:0:0:0:0:
329,192,124175,128,0,124231:0:0:0:0:
402,192,124175,128,0,124212:0:0:0:0:
256,192,124175,128,0,125000:0:0:0:0:
402,192,124475,1,0,0:0:0:0:
109,192,124475,1,0,0:0:0:0:
182,192,124475,1,0,0:0:0:0:
36,192,124475,128,0,124700:0:0:0:0:
329,192,124475,1,0,0:0:0:0:
182,192,124625,1,0,0:0:0:0:
329,192,124625,1,0,0:0:0:0:
475,192,124625,1,0,0:0:0:0:
402,192,124625,1,0,0:0:0:0:
329,192,124775,1,0,0:0:0:0:
109,192,124775,1,0,0:0:0:0:
475,192,124775,128,0,125000:0:0:0:0:
182,192,124775,1,0,0:0:0:0:
402,192,124775,1,0,0:0:0:0:
36,192,124925,1,0,0:0:0:0:
182,192,124925,1,0,0:0:0:0:
109,192,124925,1,0,0:0:0:0:
329,192,124925,1,0,0:0:0:0:
182,192,125075,128,0,125150:0:0:0:0:
256,192,125075,128,0,125131:0:0:0:0:
329,192,125075,128,0,125112:0:0:0:0:
475,192,125075,128,0,125093:0:0:0:0:
36,192,125075,128,0,125300:0:0:0:0:
182,192,125225,128,0,125243:0:0:0:0:
256,192,125225,128,0,125262:0:0:0:0:
329,192,125225,128,0,125281:0:0:0:0:
475,192,125225,128,0,125300:0:0:0:0:
475,192,125375,128,0,125600:0:0:0:0:
402,192,125375,128,0,125450:0:0:0:0:
256,192,125375,128,0,125431:0:0:0:0:
109,192,125375,128,0,125412:0:0:0:0:
36,192,125375,128,0,125393:0:0:0:0:
402,192,125525,128,0,125543:0:0:0:0:
256,192,125525,128,0,125562:0:0:0:0:
109,192,125525,128,0,125581:0:0:0:0:
36,192,125525,128,0,125600:0:0:0:0:
36,192,125675,128,0,125900:0:0:0:0:
475,192,125675,128,0,125900:0:0:0:0:
109,192,125675,128,0,125693:0:0:0:0:
182,192,125675,128,0,125712:0:0:0:0:
329,192,125675,128,0,125731:0:0:0:0:
402,192,125675,128,0,125750:0:0:0:0:
402,192,125825,128,0,125843:0:0:0:0:
329,192,125825,128,0,125862:0:0:0:0:
182,192,125825,128,0,125881:0:0:0:0:
109,192,125825,128,0,125900:0:0:0:0:
109,192,125975,1,0,0:0:0:0:
36,192,125975,128,0,126725:0:0:0:0:
475,192,125975,128,0,126425:0:0:0:0:
329,192,125975,1,0,0:0:0:0:
182,192,125975,1,0,0:0:0:0:
256,192,125975,1,0,0:0:0:0:
402,192,126125,128,0,126275:0:0:0:0:
109,192,126275,128,0,126425:0:0:0:0:
182,192,126275,128,0,126425:0:0:0:0:
329,192,126275,128,0,126725:0:0:0:0:
402,192,126425,128,0,126575:0:0:0:0:
182,192,126575,128,0,126725:0:0:0:0:
109,192,126575,128,0,127025:0:0:0:0:
475,192,126575,128,0,126875:0:0:0:0:
402,192,126725,128,0,127025:0:0:0:0:
36,192,126875,128,0,127025:0:0:0:0:
182,192,126875,128,0,127475:0:0:0:0:
329,192,126875,128,0,127175:0:0:0:0:
256,192,126875,128,0,127325:0:0:0:0:
475,192,127025,128,0,127325:0:0:0:0:
109,192,127175,128,0,127325:0:0:0:0:
36,192,127175,128,0,127325:0:0:0:0:
402,192,127175,128,0,127325:0:0:0:0:
329,192,127325,1,0,0:0:0:0:
36,192,127475,128,0,127625:0:0:0:0:
109,192,127475,128,0,127625:0:0:0:0:
475,192,127475,1,0,0:0:0:0:
256,192,127475,1,0,0:0:0:0:
402,192,127475,1,0,0:0:0:0:
182,192,127625,1,0,0:0:0:0:
256,192,127775,1,0,0:0:0:0:
182,192,127775,1,0,0:0:0:0:
36,192,127775,128,0,128225:0:0:0:0:
475,192,127775,128,0,128525:0:0:0:0:
329,192,127775,128,0,127925:0:0:0:0:
402,192,127775,128,0,127925:0:0:0:0:
109,192,127925,128,0,128075:0:0:0:0:
182,192,128075,128,0,128525:0:0:0:0:
329,192,128075,128,0,128225:0:0:0:0:
402,192,128075,128,0,128225:0:0:0:0:
109,192,128225,128,0,128375:0:0:0:0:
36,192,128375,128,0,128675:0:0:0:0:
402,192,128375,128,0,128825:0:0:0:0:
329,192,128375,128,0,128525:0:0:0:0:
109,192,128525,128,0,128825:0:0:0:0:
182,192,128675,128,0,128975:0:0:0:0:
256,192,128675,128,0,129125:0:0:0:0:
329,192,128675,128,0,129275:0:0:0:0:
475,192,128675,128,0,128825:0:0:0:0:
36,192,128825,128,0,129125:0:0:0:0:
402,192,128975,128,0,129125:0:0:0:0:
475,192,128975,128,0,129125:0:0:0:0:
109,192,128975,128,0,129125:0:0:0:0:
182,192,129125,1,0,0:0:0:0:
402,192,129275,128,0,129425:0:0:0:0:
475,192,129275,128,0,129425:0:0:0:0:
36,192,129275,1,0,0:0:0:0:
256,192,129275,1,0,0:0:0:0:
109,192,129275,1,0,0:0:0:0:
329,192,129425,1,0,0:0:0:0:
402,192,129575,1,0,0:0:0:0:
475,192,129575,1,0,0:0:0:0:
36,192,129575,1,0,0:0:0:0:
109,192,129575,1,0,0:0:0:0:
182,192,129575,1,0,0:0:0:0:
256,192,129575,1,0,0:0:0:0:
109,192,129725,1,0,0:0:0:0:
256,192,129725,1,0,0:0:0:0:
329,192,129875,1,0,0:0:0:0:
402,192,129875,1,0,0:0:0:0:
475,192,129875,1,0,0:0:0:0:
36,192,129875,1,0,0:0:0:0:
182,192,129875,1,0,0:0:0:0:
329,192,130025,1,0,0:0:0:0:
402,192,130025,1,0,0:0:0:0:
256,192,130025,1,0,0:0:0:0:
109,192,130025,1,0,0:0:0:0:
36,192,130175,1,0,0:0:0:0:
182,192,130175,1,0,0:0:0:0:
329,192,130175,128,0,130325:0:0:0:0:
402,192,130175,128,0,130625:0:0:0:0:
475,192,130175,128,0,130625:0:0:0:0:
109,192,130325,1,0,0:0:0:0:
36,192,130475,1,0,0:0:0:0:
182,192,130475,1,0,0:0:0:0:
256,192,130475,1,0,0:0:0:0:
329,192,130475,1,0,0:0:0:0:
109,192,130625,1,0,0:0:0:0:
36,192,130775,1,0,0:0:0:0:
182,192,130775,1,0,0:0:0:0:
475,192,130775,1,0,0:0:0:0:
402,192,130775,1,0,0:0:0:0:
256,192,130775,1,0,0:0:0:0:
182,192,130925,1,0,0:0:0:0:
109,192,130925,1,0,0:0:0:0:
329,192,130925,1,0,0:0:0:0:
475,192,131075,1,0,0:0:0:0:
36,192,131075,128,0,131225:0:0:0:0:
109,192,131075,128,0,131225:0:0:0:0:
402,192,131075,1,0,0:0:0:0:
256,192,131075,1,0,0:0:0:0:
329,192,131225,1,0,0:0:0:0:
329,192,131375,1,0,0:0:0:0:
36,192,131375,1,0,0:0:0:0:
256,192,131375,128,0,132275:0:0:0:0:
475,192,131375,128,0,131675:0:0:0:0:
182,192,131375,128,0,131675:0:0:0:0:
402,192,131525,128,0,131825:0:0:0:0:
109,192,131525,128,0,131825:0:0:0:0:
329,192,131675,128,0,131975:0:0:0:0:
36,192,131675,128,0,131975:0:0:0:0:
182,192,131825,128,0,132125:0:0:0:0:
475,192,131825,128,0,132125:0:0:0:0:
109,192,131975,128,0,132275:0:0:0:0:
402,192,131975,128,0,132275:0:0:0:0:
36,192,132125,128,0,132275:0:0:0:0:
329,192,132125,128,0,132275:0:0:0:0:
182,192,132275,1,0,0:0:0:0:
475,192,132275,1,0,0:0:0:0:
36,192,132575,1,0,0:0:0:0:
329,192,132575,1,0,0:0:0:0:
402,192,132575,1,0,0:0:0:0:
475,192,132575,1,0,0:0:0:0:
182,192,132575,1,0,0:0:0:0:
109,192,132575,1,0,0:0:0:0:
36,192,133175,128,0,134075:0:0:0:0:
182,192,133175,1,0,0:0:0:0:
402,192,133175,1,0,0:0:0:0:
256,192,133475,1,0,0:0:0:0:
329,192,133775,1,0,0:0:0:0:
475,192,134075,128,0,134975:0:0:0:0:
256,192,134075,1,0,0:0:0:0:
182,192,134375,1,0,0:0:0:0:
329,192,134975,128,0,135575:0:0:0:0:
36,192,134975,1,0,0:0:0:0:
109,192,134975,1,0,0:0:0:0:
475,192,135275,1,0,0:0:0:0:
182,192,135575,128,0,135875:0:0:0:0:
402,192,135575,1,0,0:0:0:0:
36,192,135875,128,0,136775:0:0:0:0:
329,192,135875,1,0,0:0:0:0:
475,192,136175,1,0,0:0:0:0:
256,192,136475,1,0,0:0:0:0:
475,192,136775,128,0,137075:0:0:0:0:
109,192,136775,1,0,0:0:0:0:
256,192,137075,128,0,137375:0:0:0:0:
182,192,137075,1,0,0:0:0:0:
329,192,137375,128,0,137675:0:0:0:0:
36,192,137375,1,0,0:0:0:0:
402,192,137675,128,0,137975:0:0:0:0:
182,192,137675,1,0,0:0:0:0:
475,192,137975,128,0,138275:0:0:0:0:
36,192,137975,1,0,0:0:0:0:
402,192,138275,128,0,138575:0:0:0:0:
109,192,138275,1,0,0:0:0:0:
182,192,138425,1,0,0:0:0:0:
329,192,138575,128,0,139475:0:0:0:0:
256,192,138575,1,0,0:0:0:0:
182,192,138875,1,0,0:0:0:0:
109,192,139175,1,0,0:0:0:0:
36,192,139475,1,0,0:0:0:0:
475,192,139475,1,0,0:0:0:0:
182,192,139775,128,0,140375:0:0:0:0:
329,192,139775,128,0,140375:0:0:0:0:
36,192,140375,128,0,141275:0:0:0:0:
182,192,140675,1,0,0:0:0:0:
329,192,140975,1,0,0:0:0:0:
475,192,141275,128,0,142175:0:0:0:0:
182,192,141275,1,0,0:0:0:0:
36,192,141575,1,0,0:0:0:0:
329,192,142175,128,0,143075:0:0:0:0:
36,192,142175,1,0,0:0:0:0:
182,192,142475,1,0,0:0:0:0:
475,192,142775,1,0,0:0:0:0:
36,192,143075,128,0,143375:0:0:0:0:
182,192,143075,1,0,0:0:0:0:
402,192,143375,1,0,0:0:0:0:
182,192,143675,128,0,143975:0:0:0:0:
329,192,143675,1,0,0:0:0:0:
256,192,143975,128,0,144875:0:0:0:0:
36,192,143975,1,0,0:0:0:0:
109,192,144275,1,0,0:0:0:0:
182,192,144575,1,0,0:0:0:0:
329,192,144875,128,0,145775:0:0:0:0:
109,192,144875,1,0,0:0:0:0:
36,192,145175,1,0,0:0:0:0:
109,192,145475,1,0,0:0:0:0:
475,192,145775,128,0,148475:0:0:0:0:
36,192,145775,128,0,148475:0:0:0:0:
256,192,145775,1,0,0:0:0:0:
109,192,146075,128,0,148475:0:0:0:0:
182,192,146375,128,0,148475:0:0:0:0:
329,192,146675,128,0,148475:0:0:0:0:
402,192,146675,128,0,148475:0:0:0:0:
