osu file format v14

[General]
AudioFilename: audio.mp3
AudioLeadIn: 0
PreviewTime: 34266
Countdown: 0
SampleSet: Soft
StackLeniency: 0.7
Mode: 3
LetterboxInBreaks: 1
SpecialStyle: 0
WidescreenStoryboard: 1

[Editor]
DistanceSpacing: 1
BeatDivisor: 4
GridSize: 4
TimelineZoom: 2.899999

[Metadata]
Title:Jinjin's Classics Pack
TitleUnicode:Jinjin's Classics Pack
Artist:Various Artists
ArtistUnicode:Various Artists
Creator:Jinjin
Version:Luxion - High Priestess [Nephilim]
Source:
Tags:
BeatmapID:1062005
BeatmapSetID:362285

[Difficulty]
HPDrainRate:7
CircleSize:7
OverallDifficulty:6
ApproachRate:5
SliderMultiplier:1.4
SliderTickRate:1

[Events]
//Background and Video events
0,0,"title.jpg",0,0
//Break Periods
//Storyboard Layer 0 (Background)
//Storyboard Layer 1 (Fail)
//Storyboard Layer 2 (Pass)
//Storyboard Layer 3 (Foreground)
//Storyboard Sound Samples

[TimingPoints]
2472,612.244897959184,4,2,0,30,1,0
2472,-71.4285714285714,4,2,0,30,0,0
22063,-20,4,2,0,30,0,0
23900,-50,4,2,0,30,0,0
24514,306.122448979592,4,2,0,30,1,0
63698,612.244897959184,4,2,0,30,1,0
63698,-71.4285714285714,4,2,0,30,0,0
73493,-62.5,4,2,0,30,0,0
78391,-58.8235294117647,4,2,0,30,0,0
80840,-55.5555555555556,4,2,0,30,0,0
82065,-54.054054054054,4,2,0,30,0,0
83285,306.122448979592,4,2,0,30,1,0
83285,-10,4,2,0,30,0,0
83321,-1000,4,2,0,30,0,0
83551,-200,4,2,0,30,0,0
83627,-153.846153846154,4,2,0,30,0,0
83704,-133.333333333333,4,2,0,30,0,0
83780,-117.647058823529,4,2,0,30,0,0
83899,306.122448979592,4,2,0,30,1,0
83899,-100,4,2,0,30,0,0

[HitObjects]
36,192,2472,5,0,0:0:0:0:
109,192,2472,1,0,0:0:0:0:
475,192,2472,1,0,0:0:0:0:
256,192,2625,1,0,0:0:0:0:
182,192,2778,1,0,0:0:0:0:
256,192,2931,1,0,0:0:0:0:
402,192,3084,1,0,0:0:0:0:
256,192,3237,1,0,0:0:0:0:
182,192,3390,1,0,0:0:0:0:
256,192,3543,1,0,0:0:0:0:
475,192,3696,1,0,0:0:0:0:
182,192,3849,1,0,0:0:0:0:
109,192,4002,1,0,0:0:0:0:
182,192,4155,1,0,0:0:0:0:
402,192,4308,1,0,0:0:0:0:
182,192,4461,1,0,0:0:0:0:
109,192,4614,1,0,0:0:0:0:
182,192,4767,1,0,0:0:0:0:
329,192,4920,1,0,0:0:0:0:
182,192,5074,1,0,0:0:0:0:
109,192,5227,1,0,0:0:0:0:
182,192,5380,1,0,0:0:0:0:
329,192,5533,1,0,0:0:0:0:
475,192,5686,1,0,0:0:0:0:
182,192,5839,1,0,0:0:0:0:
329,192,5992,1,0,0:0:0:0:
36,192,6145,1,0,0:0:0:0:
182,192,6298,1,0,0:0:0:0:
256,192,6451,1,0,0:0:0:0:
329,192,6604,1,0,0:0:0:0:
475,192,6757,1,0,0:0:0:0:
182,192,6910,1,0,0:0:0:0:
329,192,7063,1,0,0:0:0:0:
182,192,7216,1,0,0:0:0:0:
36,192,7369,5,0,0:0:0:0:
475,192,7369,1,0,0:0:0:0:
402,192,7369,1,0,0:0:0:0:
256,192,7523,1,0,0:0:0:0:
182,192,7676,1,0,0:0:0:0:
256,192,7829,1,0,0:0:0:0:
402,192,7982,1,0,0:0:0:0:
256,192,8135,1,0,0:0:0:0:
182,192,8288,1,0,0:0:0:0:
256,192,8441,1,0,0:0:0:0:
475,192,8594,1,0,0:0:0:0:
182,192,8747,1,0,0:0:0:0:
109,192,8900,1,0,0:0:0:0:
182,192,9053,1,0,0:0:0:0:
402,192,9206,1,0,0:0:0:0:
182,192,9359,1,0,0:0:0:0:
109,192,9512,1,0,0:0:0:0:
182,192,9665,1,0,0:0:0:0:
329,192,9818,1,0,0:0:0:0:
182,192,9972,1,0,0:0:0:0:
109,192,10125,1,0,0:0:0:0:
182,192,10278,1,0,0:0:0:0:
329,192,10431,1,0,0:0:0:0:
475,192,10584,1,0,0:0:0:0:
182,192,10737,1,0,0:0:0:0:
329,192,10890,1,0,0:0:0:0:
36,192,11043,1,0,0:0:0:0:
182,192,11196,1,0,0:0:0:0:
256,192,11349,1,0,0:0:0:0:
329,192,11502,1,0,0:0:0:0:
475,192,11655,1,0,0:0:0:0:
182,192,11808,1,0,0:0:0:0:
329,192,11961,1,0,0:0:0:0:
182,192,12114,1,0,0:0:0:0:
36,192,12267,5,0,0:0:0:0:
475,192,12267,1,0,0:0:0:0:
329,192,12267,1,0,0:0:0:0:
109,192,12267,1,0,0:0:0:0:
256,192,12420,1,0,0:0:0:0:
182,192,12574,1,0,0:0:0:0:
256,192,12727,1,0,0:0:0:0:
36,192,12880,128,0,12956:0:0:0:0:
402,192,12880,1,0,0:0:0:0:
256,192,13033,1,0,0:0:0:0:
182,192,13186,1,0,0:0:0:0:
256,192,13339,1,0,0:0:0:0:
475,192,13492,1,0,0:0:0:0:
182,192,13645,1,0,0:0:0:0:
109,192,13798,1,0,0:0:0:0:
182,192,13951,1,0,0:0:0:0:
402,192,14104,1,0,0:0:0:0:
36,192,14104,128,0,14181:0:0:0:0:
182,192,14257,1,0,0:0:0:0:
109,192,14410,1,0,0:0:0:0:
182,192,14563,1,0,0:0:0:0:
329,192,14716,1,0,0:0:0:0:
182,192,14869,1,0,0:0:0:0:
109,192,15023,1,0,0:0:0:0:
182,192,15176,1,0,0:0:0:0:
329,192,15329,1,0,0:0:0:0:
36,192,15329,128,0,15405:0:0:0:0:
475,192,15482,1,0,0:0:0:0:
182,192,15635,1,0,0:0:0:0:
329,192,15788,1,0,0:0:0:0:
36,192,15941,1,0,0:0:0:0:
182,192,16094,1,0,0:0:0:0:
256,192,16247,1,0,0:0:0:0:
329,192,16400,1,0,0:0:0:0:
475,192,16553,1,0,0:0:0:0:
36,192,16553,128,0,16630:0:0:0:0:
182,192,16706,1,0,0:0:0:0:
329,192,16859,1,0,0:0:0:0:
182,192,17012,1,0,0:0:0:0:
36,192,17165,5,0,0:0:0:0:
475,192,17165,1,0,0:0:0:0:
109,192,17165,1,0,0:0:0:0:
329,192,17165,1,0,0:0:0:0:
256,192,17318,1,0,0:0:0:0:
182,192,17472,1,0,0:0:0:0:
256,192,17625,1,0,0:0:0:0:
402,192,17778,1,0,0:0:0:0:
36,192,17778,128,0,17854:0:0:0:0:
256,192,17931,1,0,0:0:0:0:
182,192,18084,1,0,0:0:0:0:
256,192,18237,1,0,0:0:0:0:
475,192,18390,1,0,0:0:0:0:
182,192,18543,1,0,0:0:0:0:
109,192,18696,1,0,0:0:0:0:
182,192,18849,1,0,0:0:0:0:
402,192,19002,1,0,0:0:0:0:
36,192,19002,128,0,19079:0:0:0:0:
182,192,19155,1,0,0:0:0:0:
109,192,19308,1,0,0:0:0:0:
182,192,19461,1,0,0:0:0:0:
329,192,19614,1,0,0:0:0:0:
182,192,19767,1,0,0:0:0:0:
109,192,19920,1,0,0:0:0:0:
182,192,20074,1,0,0:0:0:0:
329,192,20227,1,0,0:0:0:0:
36,192,20227,128,0,20303:0:0:0:0:
475,192,20380,1,0,0:0:0:0:
182,192,20533,1,0,0:0:0:0:
329,192,20686,1,0,0:0:0:0:
36,192,20839,1,0,0:0:0:0:
182,192,20992,1,0,0:0:0:0:
256,192,21145,1,0,0:0:0:0:
329,192,21298,1,0,0:0:0:0:
475,192,21451,1,0,0:0:0:0:
182,192,21604,1,0,0:0:0:0:
329,192,21757,1,0,0:0:0:0:
36,192,21910,1,0,0:0:0:0:
256,192,22063,1,0,0:0:0:0:
402,192,22063,1,0,0:0:0:0:
109,192,22063,1,0,0:0:0:0:
109,192,24514,1,0,0:0:0:0:
36,192,24514,1,0,0:0:0:0:
256,192,24514,1,0,0:0:0:0:
402,192,24514,1,0,0:0:0:0:
475,192,24514,1,0,0:0:0:0:
36,192,24667,1,0,0:0:0:0:
109,192,24667,1,0,0:0:0:0:
256,192,24667,1,0,0:0:0:0:
402,192,24667,1,0,0:0:0:0:
182,192,24820,1,0,0:0:0:0:
329,192,24820,1,0,0:0:0:0:
36,192,24973,1,0,0:0:0:0:
109,192,24973,1,0,0:0:0:0:
256,192,24973,1,0,0:0:0:0:
402,192,24973,1,0,0:0:0:0:
182,192,25049,1,0,0:0:0:0:
256,192,25126,1,0,0:0:0:0:
402,192,25126,1,0,0:0:0:0:
36,192,25279,1,0,0:0:0:0:
109,192,25279,1,0,0:0:0:0:
329,192,25279,1,0,0:0:0:0:
256,192,25432,1,0,0:0:0:0:
402,192,25432,1,0,0:0:0:0:
475,192,25432,1,0,0:0:0:0:
109,192,25432,1,0,0:0:0:0:
36,192,25432,1,0,0:0:0:0:
182,192,25585,1,0,0:0:0:0:
329,192,25585,1,0,0:0:0:0:
36,192,25738,1,0,0:0:0:0:
109,192,25738,1,0,0:0:0:0:
256,192,25738,1,0,0:0:0:0:
402,192,25738,1,0,0:0:0:0:
256,192,25891,1,0,0:0:0:0:
402,192,25891,1,0,0:0:0:0:
182,192,26044,1,0,0:0:0:0:
329,192,26044,1,0,0:0:0:0:
36,192,26197,1,0,0:0:0:0:
109,192,26197,1,0,0:0:0:0:
256,192,26197,1,0,0:0:0:0:
402,192,26197,1,0,0:0:0:0:
329,192,26274,1,0,0:0:0:0:
182,192,26274,1,0,0:0:0:0:
256,192,26350,1,0,0:0:0:0:
402,192,26350,1,0,0:0:0:0:
475,192,26350,1,0,0:0:0:0:
109,192,26503,1,0,0:0:0:0:
182,192,26503,1,0,0:0:0:0:
329,192,26503,1,0,0:0:0:0:
475,192,26656,1,0,0:0:0:0:
256,192,26656,1,0,0:0:0:0:
36,192,26656,1,0,0:0:0:0:
402,192,26656,1,0,0:0:0:0:
109,192,26656,1,0,0:0:0:0:
182,192,26809,1,0,0:0:0:0:
329,192,26809,1,0,0:0:0:0:
109,192,26809,1,0,0:0:0:0:
109,192,26962,1,0,0:0:0:0:
36,192,26962,1,0,0:0:0:0:
256,192,26962,1,0,0:0:0:0:
402,192,26962,1,0,0:0:0:0:
475,192,26962,1,0,0:0:0:0:
329,192,27039,1,0,0:0:0:0:
36,192,27116,1,0,0:0:0:0:
109,192,27116,1,0,0:0:0:0:
256,192,27116,1,0,0:0:0:0:
402,192,27116,1,0,0:0:0:0:
329,192,27192,1,0,0:0:0:0:
182,192,27269,1,0,0:0:0:0:
402,192,27269,1,0,0:0:0:0:
475,192,27269,1,0,0:0:0:0:
36,192,27422,1,0,0:0:0:0:
109,192,27422,1,0,0:0:0:0:
256,192,27422,1,0,0:0:0:0:
402,192,27422,1,0,0:0:0:0:
256,192,27575,1,0,0:0:0:0:
402,192,27575,1,0,0:0:0:0:
36,192,27728,1,0,0:0:0:0:
109,192,27728,1,0,0:0:0:0:
329,192,27728,1,0,0:0:0:0:
256,192,27881,1,0,0:0:0:0:
402,192,27881,1,0,0:0:0:0:
475,192,27881,1,0,0:0:0:0:
36,192,27881,1,0,0:0:0:0:
109,192,27881,1,0,0:0:0:0:
182,192,28034,1,0,0:0:0:0:
329,192,28034,1,0,0:0:0:0:
36,192,28187,1,0,0:0:0:0:
109,192,28187,1,0,0:0:0:0:
256,192,28187,1,0,0:0:0:0:
402,192,28187,1,0,0:0:0:0:
256,192,28340,1,0,0:0:0:0:
402,192,28340,1,0,0:0:0:0:
182,192,28493,1,0,0:0:0:0:
329,192,28493,1,0,0:0:0:0:
36,192,28646,1,0,0:0:0:0:
109,192,28646,1,0,0:0:0:0:
256,192,28646,1,0,0:0:0:0:
402,192,28646,1,0,0:0:0:0:
329,192,28723,1,0,0:0:0:0:
182,192,28723,1,0,0:0:0:0:
256,192,28799,1,0,0:0:0:0:
402,192,28799,1,0,0:0:0:0:
475,192,28799,1,0,0:0:0:0:
109,192,28952,1,0,0:0:0:0:
182,192,28952,1,0,0:0:0:0:
329,192,28952,1,0,0:0:0:0:
475,192,29105,1,0,0:0:0:0:
256,192,29105,1,0,0:0:0:0:
402,192,29105,1,0,0:0:0:0:
109,192,29105,1,0,0:0:0:0:
36,192,29105,1,0,0:0:0:0:
36,192,29258,1,0,0:0:0:0:
182,192,29258,1,0,0:0:0:0:
329,192,29258,1,0,0:0:0:0:
402,192,29411,1,0,0:0:0:0:
475,192,29411,1,0,0:0:0:0:
256,192,29411,1,0,0:0:0:0:
109,192,29411,1,0,0:0:0:0:
36,192,29411,1,0,0:0:0:0:
329,192,29488,1,0,0:0:0:0:
402,192,29565,1,0,0:0:0:0:
36,192,29565,1,0,0:0:0:0:
109,192,29565,1,0,0:0:0:0:
182,192,29565,1,0,0:0:0:0:
256,192,29641,1,0,0:0:0:0:
402,192,29718,1,0,0:0:0:0:
475,192,29718,1,0,0:0:0:0:
329,192,29718,1,0,0:0:0:0:
36,192,29871,1,0,0:0:0:0:
109,192,29871,1,0,0:0:0:0:
329,192,29871,1,0,0:0:0:0:
475,192,29871,1,0,0:0:0:0:
256,192,29947,1,0,0:0:0:0:
402,192,30024,1,0,0:0:0:0:
182,192,30024,1,0,0:0:0:0:
329,192,30177,1,0,0:0:0:0:
109,192,30177,1,0,0:0:0:0:
36,192,30177,1,0,0:0:0:0:
475,192,30330,1,0,0:0:0:0:
402,192,30330,1,0,0:0:0:0:
256,192,30330,1,0,0:0:0:0:
36,192,30330,1,0,0:0:0:0:
109,192,30330,1,0,0:0:0:0:
329,192,30483,1,0,0:0:0:0:
182,192,30483,1,0,0:0:0:0:
256,192,30636,1,0,0:0:0:0:
402,192,30636,1,0,0:0:0:0:
36,192,30636,1,0,0:0:0:0:
109,192,30636,1,0,0:0:0:0:
182,192,30712,1,0,0:0:0:0:
402,192,30789,1,0,0:0:0:0:
256,192,30789,1,0,0:0:0:0:
329,192,30942,1,0,0:0:0:0:
182,192,30942,1,0,0:0:0:0:
256,192,31095,1,0,0:0:0:0:
402,192,31095,1,0,0:0:0:0:
36,192,31095,1,0,0:0:0:0:
109,192,31095,1,0,0:0:0:0:
182,192,31172,1,0,0:0:0:0:
329,192,31172,1,0,0:0:0:0:
475,192,31248,1,0,0:0:0:0:
402,192,31248,1,0,0:0:0:0:
256,192,31248,1,0,0:0:0:0:
329,192,31401,1,0,0:0:0:0:
182,192,31401,1,0,0:0:0:0:
109,192,31401,1,0,0:0:0:0:
36,192,31554,1,0,0:0:0:0:
402,192,31554,1,0,0:0:0:0:
475,192,31554,1,0,0:0:0:0:
256,192,31554,1,0,0:0:0:0:
109,192,31554,1,0,0:0:0:0:
329,192,31707,1,0,0:0:0:0:
182,192,31707,1,0,0:0:0:0:
36,192,31707,1,0,0:0:0:0:
109,192,31860,1,0,0:0:0:0:
36,192,31860,1,0,0:0:0:0:
256,192,31860,1,0,0:0:0:0:
402,192,31860,1,0,0:0:0:0:
475,192,31860,1,0,0:0:0:0:
182,192,31937,1,0,0:0:0:0:
36,192,32014,1,0,0:0:0:0:
109,192,32014,1,0,0:0:0:0:
256,192,32014,1,0,0:0:0:0:
402,192,32014,1,0,0:0:0:0:
182,192,32090,1,0,0:0:0:0:
329,192,32167,1,0,0:0:0:0:
475,192,32167,1,0,0:0:0:0:
256,192,32167,1,0,0:0:0:0:
36,192,32320,1,0,0:0:0:0:
109,192,32320,1,0,0:0:0:0:
256,192,32320,1,0,0:0:0:0:
402,192,32320,1,0,0:0:0:0:
256,192,32473,1,0,0:0:0:0:
402,192,32473,1,0,0:0:0:0:
36,192,32626,1,0,0:0:0:0:
109,192,32626,1,0,0:0:0:0:
329,192,32626,1,0,0:0:0:0:
256,192,32779,1,0,0:0:0:0:
402,192,32779,1,0,0:0:0:0:
475,192,32779,1,0,0:0:0:0:
182,192,32779,1,0,0:0:0:0:
36,192,32779,1,0,0:0:0:0:
475,192,32932,1,0,0:0:0:0:
109,192,32932,1,0,0:0:0:0:
402,192,32970,1,0,0:0:0:0:
182,192,33008,1,0,0:0:0:0:
329,192,33047,1,0,0:0:0:0:
36,192,33085,1,0,0:0:0:0:
475,192,33085,1,0,0:0:0:0:
256,192,33085,1,0,0:0:0:0:
109,192,33085,1,0,0:0:0:0:
256,192,33238,1,0,0:0:0:0:
402,192,33238,1,0,0:0:0:0:
182,192,33391,1,0,0:0:0:0:
329,192,33391,1,0,0:0:0:0:
36,192,33544,1,0,0:0:0:0:
109,192,33544,1,0,0:0:0:0:
256,192,33544,1,0,0:0:0:0:
402,192,33544,1,0,0:0:0:0:
329,192,33621,1,0,0:0:0:0:
182,192,33621,1,0,0:0:0:0:
256,192,33697,1,0,0:0:0:0:
475,192,33697,128,0,33850:0:0:0:0:
36,192,33697,1,0,0:0:0:0:
109,192,33850,1,0,0:0:0:0:
182,192,33850,1,0,0:0:0:0:
329,192,33850,1,0,0:0:0:0:
256,192,34003,1,0,0:0:0:0:
36,192,34003,1,0,0:0:0:0:
402,192,34003,1,0,0:0:0:0:
475,192,34003,128,0,34080:0:0:0:0:
36,192,34156,1,0,0:0:0:0:
182,192,34156,1,0,0:0:0:0:
329,192,34156,1,0,0:0:0:0:
36,192,34309,1,0,0:0:0:0:
109,192,34309,1,0,0:0:0:0:
256,192,34309,1,0,0:0:0:0:
402,192,34309,1,0,0:0:0:0:
475,192,34309,1,0,0:0:0:0:
182,192,34386,1,0,0:0:0:0:
36,192,34462,1,0,0:0:0:0:
109,192,34462,1,0,0:0:0:0:
256,192,34462,1,0,0:0:0:0:
329,192,34462,1,0,0:0:0:0:
256,192,34616,1,0,0:0:0:0:
109,192,34616,1,0,0:0:0:0:
402,192,34616,1,0,0:0:0:0:
475,192,34616,1,0,0:0:0:0:
182,192,34769,1,0,0:0:0:0:
36,192,34769,1,0,0:0:0:0:
329,192,34769,128,0,35075:0:0:0:0:
475,192,34769,128,0,35075:0:0:0:0:
36,192,35075,1,0,0:0:0:0:
109,192,35075,1,0,0:0:0:0:
256,192,35075,1,0,0:0:0:0:
402,192,35075,1,0,0:0:0:0:
182,192,35228,1,0,0:0:0:0:
329,192,35228,128,0,35381:0:0:0:0:
402,192,35228,128,0,35381:0:0:0:0:
475,192,35228,1,0,0:0:0:0:
36,192,35381,1,0,0:0:0:0:
109,192,35381,1,0,0:0:0:0:
256,192,35381,1,0,0:0:0:0:
36,192,35534,1,0,0:0:0:0:
109,192,35534,1,0,0:0:0:0:
475,192,35534,1,0,0:0:0:0:
329,192,35534,1,0,0:0:0:0:
256,192,35610,1,0,0:0:0:0:
36,192,35687,1,0,0:0:0:0:
109,192,35687,1,0,0:0:0:0:
402,192,35687,1,0,0:0:0:0:
329,192,35687,1,0,0:0:0:0:
256,192,35764,1,0,0:0:0:0:
36,192,35840,1,0,0:0:0:0:
182,192,35840,1,0,0:0:0:0:
109,192,35840,1,0,0:0:0:0:
329,192,35840,1,0,0:0:0:0:
182,192,35993,1,0,0:0:0:0:
475,192,35993,1,0,0:0:0:0:
329,192,35993,1,0,0:0:0:0:
109,192,35993,1,0,0:0:0:0:
256,192,36070,1,0,0:0:0:0:
402,192,36070,1,0,0:0:0:0:
329,192,36146,1,0,0:0:0:0:
36,192,36146,1,0,0:0:0:0:
109,192,36146,1,0,0:0:0:0:
36,192,36299,1,0,0:0:0:0:
109,192,36299,1,0,0:0:0:0:
329,192,36299,1,0,0:0:0:0:
256,192,36452,1,0,0:0:0:0:
182,192,36452,1,0,0:0:0:0:
402,192,36452,1,0,0:0:0:0:
475,192,36452,1,0,0:0:0:0:
36,192,36605,1,0,0:0:0:0:
109,192,36605,1,0,0:0:0:0:
329,192,36605,1,0,0:0:0:0:
36,192,36758,1,0,0:0:0:0:
182,192,36758,1,0,0:0:0:0:
475,192,36758,1,0,0:0:0:0:
402,192,36758,1,0,0:0:0:0:
256,192,36835,1,0,0:0:0:0:
36,192,36911,1,0,0:0:0:0:
182,192,36911,1,0,0:0:0:0:
329,192,36911,1,0,0:0:0:0:
402,192,36911,1,0,0:0:0:0:
329,192,37065,1,0,0:0:0:0:
109,192,37065,1,0,0:0:0:0:
256,192,37065,1,0,0:0:0:0:
36,192,37065,1,0,0:0:0:0:
182,192,37218,1,0,0:0:0:0:
36,192,37218,1,0,0:0:0:0:
329,192,37218,128,0,37524:0:0:0:0:
475,192,37218,128,0,37524:0:0:0:0:
36,192,37524,1,0,0:0:0:0:
109,192,37524,1,0,0:0:0:0:
256,192,37524,1,0,0:0:0:0:
182,192,37524,1,0,0:0:0:0:
329,192,37677,128,0,37830:0:0:0:0:
402,192,37677,128,0,37830:0:0:0:0:
109,192,37677,1,0,0:0:0:0:
182,192,37677,1,0,0:0:0:0:
36,192,37830,1,0,0:0:0:0:
256,192,37830,1,0,0:0:0:0:
475,192,37830,1,0,0:0:0:0:
256,192,37983,1,0,0:0:0:0:
402,192,37983,1,0,0:0:0:0:
182,192,37983,1,0,0:0:0:0:
475,192,37983,1,0,0:0:0:0:
329,192,38136,1,0,0:0:0:0:
182,192,38136,1,0,0:0:0:0:
109,192,38136,1,0,0:0:0:0:
402,192,38136,1,0,0:0:0:0:
329,192,38289,1,0,0:0:0:0:
36,192,38289,1,0,0:0:0:0:
109,192,38289,1,0,0:0:0:0:
256,192,38289,1,0,0:0:0:0:
109,192,38442,1,0,0:0:0:0:
475,192,38442,1,0,0:0:0:0:
402,192,38442,1,0,0:0:0:0:
329,192,38442,1,0,0:0:0:0:
182,192,38519,1,0,0:0:0:0:
36,192,38519,1,0,0:0:0:0:
402,192,38595,1,0,0:0:0:0:
109,192,38595,1,0,0:0:0:0:
256,192,38595,1,0,0:0:0:0:
36,192,38748,1,0,0:0:0:0:
329,192,38748,1,0,0:0:0:0:
182,192,38748,1,0,0:0:0:0:
256,192,38901,1,0,0:0:0:0:
402,192,38901,1,0,0:0:0:0:
475,192,38901,1,0,0:0:0:0:
109,192,38901,1,0,0:0:0:0:
36,192,39054,1,0,0:0:0:0:
329,192,39054,1,0,0:0:0:0:
182,192,39054,1,0,0:0:0:0:
402,192,39207,1,0,0:0:0:0:
475,192,39207,1,0,0:0:0:0:
256,192,39207,1,0,0:0:0:0:
36,192,39207,1,0,0:0:0:0:
109,192,39207,1,0,0:0:0:0:
182,192,39284,1,0,0:0:0:0:
329,192,39360,1,0,0:0:0:0:
36,192,39360,1,0,0:0:0:0:
109,192,39360,1,0,0:0:0:0:
402,192,39360,1,0,0:0:0:0:
182,192,39437,1,0,0:0:0:0:
256,192,39514,1,0,0:0:0:0:
36,192,39514,1,0,0:0:0:0:
329,192,39514,1,0,0:0:0:0:
109,192,39514,1,0,0:0:0:0:
329,192,39667,128,0,39973:0:0:0:0:
475,192,39667,128,0,39973:0:0:0:0:
182,192,39667,1,0,0:0:0:0:
36,192,39667,1,0,0:0:0:0:
256,192,39973,1,0,0:0:0:0:
109,192,39973,1,0,0:0:0:0:
36,192,39973,1,0,0:0:0:0:
402,192,39973,1,0,0:0:0:0:
402,192,40126,128,0,40279:0:0:0:0:
329,192,40126,128,0,40279:0:0:0:0:
182,192,40126,1,0,0:0:0:0:
475,192,40126,1,0,0:0:0:0:
256,192,40279,1,0,0:0:0:0:
109,192,40279,1,0,0:0:0:0:
36,192,40279,1,0,0:0:0:0:
256,192,40432,1,0,0:0:0:0:
402,192,40432,1,0,0:0:0:0:
475,192,40432,1,0,0:0:0:0:
109,192,40432,1,0,0:0:0:0:
182,192,40508,1,0,0:0:0:0:
256,192,40585,1,0,0:0:0:0:
329,192,40585,1,0,0:0:0:0:
36,192,40585,1,0,0:0:0:0:
475,192,40585,1,0,0:0:0:0:
109,192,40661,1,0,0:0:0:0:
182,192,40738,1,0,0:0:0:0:
256,192,40738,1,0,0:0:0:0:
402,192,40738,1,0,0:0:0:0:
36,192,40738,1,0,0:0:0:0:
475,192,40891,1,0,0:0:0:0:
402,192,40891,1,0,0:0:0:0:
109,192,40891,1,0,0:0:0:0:
256,192,40891,1,0,0:0:0:0:
182,192,40968,1,0,0:0:0:0:
36,192,40968,1,0,0:0:0:0:
109,192,41044,1,0,0:0:0:0:
329,192,41044,1,0,0:0:0:0:
256,192,41044,1,0,0:0:0:0:
36,192,41197,1,0,0:0:0:0:
182,192,41197,1,0,0:0:0:0:
256,192,41197,1,0,0:0:0:0:
402,192,41350,1,0,0:0:0:0:
475,192,41350,1,0,0:0:0:0:
256,192,41350,1,0,0:0:0:0:
109,192,41350,1,0,0:0:0:0:
36,192,41503,1,0,0:0:0:0:
182,192,41503,1,0,0:0:0:0:
329,192,41503,1,0,0:0:0:0:
109,192,41656,1,0,0:0:0:0:
256,192,41656,1,0,0:0:0:0:
475,192,41656,1,0,0:0:0:0:
402,192,41656,1,0,0:0:0:0:
182,192,41733,1,0,0:0:0:0:
36,192,41809,1,0,0:0:0:0:
329,192,41809,1,0,0:0:0:0:
475,192,41809,1,0,0:0:0:0:
256,192,41809,1,0,0:0:0:0:
402,192,41886,1,0,0:0:0:0:
36,192,41962,1,0,0:0:0:0:
109,192,41962,1,0,0:0:0:0:
329,192,41962,1,0,0:0:0:0:
182,192,41962,1,0,0:0:0:0:
329,192,42116,128,0,42422:0:0:0:0:
475,192,42116,128,0,42422:0:0:0:0:
256,192,42116,1,0,0:0:0:0:
402,192,42116,1,0,0:0:0:0:
36,192,42422,1,0,0:0:0:0:
109,192,42422,1,0,0:0:0:0:
256,192,42422,1,0,0:0:0:0:
402,192,42422,1,0,0:0:0:0:
182,192,42575,1,0,0:0:0:0:
329,192,42575,128,0,42728:0:0:0:0:
402,192,42575,128,0,42728:0:0:0:0:
256,192,42575,1,0,0:0:0:0:
36,192,42728,1,0,0:0:0:0:
109,192,42728,1,0,0:0:0:0:
475,192,42728,1,0,0:0:0:0:
182,192,42766,1,0,0:0:0:0:
256,192,42804,1,0,0:0:0:0:
329,192,42843,1,0,0:0:0:0:
36,192,42881,1,0,0:0:0:0:
109,192,42881,1,0,0:0:0:0:
402,192,42881,1,0,0:0:0:0:
475,192,42881,1,0,0:0:0:0:
182,192,43034,1,0,0:0:0:0:
329,192,43034,1,0,0:0:0:0:
109,192,43034,1,0,0:0:0:0:
402,192,43034,1,0,0:0:0:0:
182,192,43187,1,0,0:0:0:0:
475,192,43187,1,0,0:0:0:0:
36,192,43187,1,0,0:0:0:0:
329,192,43187,1,0,0:0:0:0:
109,192,43340,1,0,0:0:0:0:
475,192,43340,1,0,0:0:0:0:
256,192,43340,1,0,0:0:0:0:
402,192,43340,1,0,0:0:0:0:
182,192,43417,1,0,0:0:0:0:
329,192,43417,1,0,0:0:0:0:
109,192,43493,1,0,0:0:0:0:
256,192,43493,1,0,0:0:0:0:
402,192,43493,1,0,0:0:0:0:
36,192,43646,1,0,0:0:0:0:
182,192,43646,1,0,0:0:0:0:
329,192,43646,1,0,0:0:0:0:
256,192,43799,1,0,0:0:0:0:
402,192,43799,1,0,0:0:0:0:
475,192,43799,1,0,0:0:0:0:
36,192,43799,1,0,0:0:0:0:
182,192,43876,1,0,0:0:0:0:
329,192,43876,1,0,0:0:0:0:
256,192,43952,1,0,0:0:0:0:
109,192,43952,1,0,0:0:0:0:
36,192,43952,1,0,0:0:0:0:
182,192,44029,1,0,0:0:0:0:
329,192,44029,1,0,0:0:0:0:
402,192,44067,1,0,0:0:0:0:
256,192,44105,1,0,0:0:0:0:
109,192,44105,1,0,0:0:0:0:
36,192,44105,1,0,0:0:0:0:
475,192,44105,1,0,0:0:0:0:
329,192,44182,1,0,0:0:0:0:
182,192,44258,1,0,0:0:0:0:
402,192,44258,1,0,0:0:0:0:
36,192,44258,1,0,0:0:0:0:
475,192,44258,1,0,0:0:0:0:
256,192,44335,1,0,0:0:0:0:
36,192,44411,1,0,0:0:0:0:
109,192,44411,1,0,0:0:0:0:
329,192,44411,1,0,0:0:0:0:
402,192,44411,1,0,0:0:0:0:
182,192,44488,1,0,0:0:0:0:
256,192,44565,1,0,0:0:0:0:
402,192,44565,1,0,0:0:0:0:
475,192,44565,1,0,0:0:0:0:
36,192,44565,1,0,0:0:0:0:
329,192,44641,1,0,0:0:0:0:
182,192,44718,1,0,0:0:0:0:
402,192,44718,1,0,0:0:0:0:
329,192,44794,1,0,0:0:0:0:
109,192,44871,1,0,0:0:0:0:
36,192,44871,1,0,0:0:0:0:
402,192,44871,1,0,0:0:0:0:
256,192,44871,1,0,0:0:0:0:
329,192,44947,1,0,0:0:0:0:
36,192,45024,1,0,0:0:0:0:
402,192,45024,1,0,0:0:0:0:
475,192,45024,1,0,0:0:0:0:
182,192,45024,1,0,0:0:0:0:
256,192,45100,1,0,0:0:0:0:
109,192,45177,1,0,0:0:0:0:
329,192,45177,1,0,0:0:0:0:
36,192,45177,1,0,0:0:0:0:
256,192,45253,1,0,0:0:0:0:
329,192,45330,1,0,0:0:0:0:
402,192,45330,1,0,0:0:0:0:
475,192,45330,128,0,46478:0:0:0:0:
182,192,45330,1,0,0:0:0:0:
36,192,45330,1,0,0:0:0:0:
109,192,45406,1,0,0:0:0:0:
256,192,45483,1,0,0:0:0:0:
402,192,45483,1,0,0:0:0:0:
329,192,45559,1,0,0:0:0:0:
182,192,45559,1,0,0:0:0:0:
36,192,45636,1,0,0:0:0:0:
256,192,45636,1,0,0:0:0:0:
109,192,45636,1,0,0:0:0:0:
329,192,45712,1,0,0:0:0:0:
402,192,45712,1,0,0:0:0:0:
182,192,45789,1,0,0:0:0:0:
109,192,45789,1,0,0:0:0:0:
36,192,45789,1,0,0:0:0:0:
402,192,45866,1,0,0:0:0:0:
256,192,45866,1,0,0:0:0:0:
182,192,45942,1,0,0:0:0:0:
36,192,45942,1,0,0:0:0:0:
109,192,45942,1,0,0:0:0:0:
329,192,46019,1,0,0:0:0:0:
109,192,46095,1,0,0:0:0:0:
36,192,46095,1,0,0:0:0:0:
256,192,46095,1,0,0:0:0:0:
182,192,46172,1,0,0:0:0:0:
36,192,46248,1,0,0:0:0:0:
402,192,46248,1,0,0:0:0:0:
256,192,46248,1,0,0:0:0:0:
109,192,46325,1,0,0:0:0:0:
329,192,46401,1,0,0:0:0:0:
182,192,46401,1,0,0:0:0:0:
256,192,46478,1,0,0:0:0:0:
402,192,46478,1,0,0:0:0:0:
475,192,46554,1,0,0:0:0:0:
109,192,46554,1,0,0:0:0:0:
36,192,46554,1,0,0:0:0:0:
329,192,46554,1,0,0:0:0:0:
182,192,46631,1,0,0:0:0:0:
36,192,46707,1,0,0:0:0:0:
256,192,46707,1,0,0:0:0:0:
402,192,46707,1,0,0:0:0:0:
109,192,46707,1,0,0:0:0:0:
182,192,46784,1,0,0:0:0:0:
109,192,46860,1,0,0:0:0:0:
329,192,46860,1,0,0:0:0:0:
256,192,46860,1,0,0:0:0:0:
36,192,46860,1,0,0:0:0:0:
475,192,46937,1,0,0:0:0:0:
256,192,47014,1,0,0:0:0:0:
109,192,47014,1,0,0:0:0:0:
402,192,47014,1,0,0:0:0:0:
36,192,47014,1,0,0:0:0:0:
329,192,47090,1,0,0:0:0:0:
182,192,47167,1,0,0:0:0:0:
402,192,47167,1,0,0:0:0:0:
329,192,47243,1,0,0:0:0:0:
402,192,47320,1,0,0:0:0:0:
109,192,47320,1,0,0:0:0:0:
256,192,47320,1,0,0:0:0:0:
36,192,47320,1,0,0:0:0:0:
329,192,47396,1,0,0:0:0:0:
182,192,47473,1,0,0:0:0:0:
109,192,47473,1,0,0:0:0:0:
402,192,47473,1,0,0:0:0:0:
475,192,47473,1,0,0:0:0:0:
256,192,47549,1,0,0:0:0:0:
329,192,47626,1,0,0:0:0:0:
36,192,47626,1,0,0:0:0:0:
109,192,47626,1,0,0:0:0:0:
256,192,47702,1,0,0:0:0:0:
36,192,47779,1,0,0:0:0:0:
329,192,47779,1,0,0:0:0:0:
109,192,47779,1,0,0:0:0:0:
475,192,47779,1,0,0:0:0:0:
182,192,47855,1,0,0:0:0:0:
36,192,47932,1,0,0:0:0:0:
402,192,47932,1,0,0:0:0:0:
256,192,47932,1,0,0:0:0:0:
475,192,47932,1,0,0:0:0:0:
109,192,48008,1,0,0:0:0:0:
36,192,48085,1,0,0:0:0:0:
182,192,48085,1,0,0:0:0:0:
329,192,48085,1,0,0:0:0:0:
402,192,48085,1,0,0:0:0:0:
256,192,48161,1,0,0:0:0:0:
109,192,48238,1,0,0:0:0:0:
329,192,48238,1,0,0:0:0:0:
475,192,48238,1,0,0:0:0:0:
36,192,48315,1,0,0:0:0:0:
402,192,48315,1,0,0:0:0:0:
182,192,48315,1,0,0:0:0:0:
475,192,48391,1,0,0:0:0:0:
329,192,48391,1,0,0:0:0:0:
109,192,48391,1,0,0:0:0:0:
256,192,48468,1,0,0:0:0:0:
182,192,48544,1,0,0:0:0:0:
36,192,48544,1,0,0:0:0:0:
402,192,48544,1,0,0:0:0:0:
329,192,48621,1,0,0:0:0:0:
256,192,48621,1,0,0:0:0:0:
109,192,48621,1,0,0:0:0:0:
36,192,48697,1,0,0:0:0:0:
182,192,48697,1,0,0:0:0:0:
402,192,48697,1,0,0:0:0:0:
475,192,48697,1,0,0:0:0:0:
256,192,48774,1,0,0:0:0:0:
109,192,48774,1,0,0:0:0:0:
36,192,48850,1,0,0:0:0:0:
182,192,48850,1,0,0:0:0:0:
402,192,48850,1,0,0:0:0:0:
329,192,48850,1,0,0:0:0:0:
256,192,48927,1,0,0:0:0:0:
109,192,48927,1,0,0:0:0:0:
182,192,49003,1,0,0:0:0:0:
36,192,49003,1,0,0:0:0:0:
329,192,49003,1,0,0:0:0:0:
475,192,49003,1,0,0:0:0:0:
402,192,49080,1,0,0:0:0:0:
256,192,49156,1,0,0:0:0:0:
36,192,49156,1,0,0:0:0:0:
109,192,49156,1,0,0:0:0:0:
329,192,49156,1,0,0:0:0:0:
402,192,49233,1,0,0:0:0:0:
36,192,49309,1,0,0:0:0:0:
475,192,49309,1,0,0:0:0:0:
109,192,49309,1,0,0:0:0:0:
182,192,49309,1,0,0:0:0:0:
256,192,49309,1,0,0:0:0:0:
329,192,49386,1,0,0:0:0:0:
475,192,49462,1,0,0:0:0:0:
402,192,49462,1,0,0:0:0:0:
36,192,49462,1,0,0:0:0:0:
182,192,49462,1,0,0:0:0:0:
109,192,49539,1,0,0:0:0:0:
182,192,49616,1,0,0:0:0:0:
329,192,49616,1,0,0:0:0:0:
109,192,49692,1,0,0:0:0:0:
402,192,49769,1,0,0:0:0:0:
256,192,49769,1,0,0:0:0:0:
182,192,49769,1,0,0:0:0:0:
475,192,49769,1,0,0:0:0:0:
109,192,49845,1,0,0:0:0:0:
36,192,49922,1,0,0:0:0:0:
475,192,49922,1,0,0:0:0:0:
329,192,49922,1,0,0:0:0:0:
256,192,49922,1,0,0:0:0:0:
402,192,49998,1,0,0:0:0:0:
36,192,50075,1,0,0:0:0:0:
109,192,50075,1,0,0:0:0:0:
329,192,50075,1,0,0:0:0:0:
402,192,50151,1,0,0:0:0:0:
36,192,50228,1,0,0:0:0:0:
329,192,50228,1,0,0:0:0:0:
475,192,50228,1,0,0:0:0:0:
182,192,50228,1,0,0:0:0:0:
109,192,50304,1,0,0:0:0:0:
36,192,50381,1,0,0:0:0:0:
182,192,50381,1,0,0:0:0:0:
402,192,50381,1,0,0:0:0:0:
329,192,50381,1,0,0:0:0:0:
109,192,50457,1,0,0:0:0:0:
256,192,50457,1,0,0:0:0:0:
36,192,50534,1,0,0:0:0:0:
182,192,50534,1,0,0:0:0:0:
329,192,50534,1,0,0:0:0:0:
402,192,50534,1,0,0:0:0:0:
256,192,50610,1,0,0:0:0:0:
36,192,50687,1,0,0:0:0:0:
475,192,50687,1,0,0:0:0:0:
329,192,50687,1,0,0:0:0:0:
109,192,50687,1,0,0:0:0:0:
182,192,50764,1,0,0:0:0:0:
402,192,50764,1,0,0:0:0:0:
256,192,50764,1,0,0:0:0:0:
109,192,50840,1,0,0:0:0:0:
329,192,50840,1,0,0:0:0:0:
475,192,50840,1,0,0:0:0:0:
182,192,50917,1,0,0:0:0:0:
475,192,50993,1,0,0:0:0:0:
109,192,50993,1,0,0:0:0:0:
329,192,50993,1,0,0:0:0:0:
182,192,51070,1,0,0:0:0:0:
36,192,51146,1,0,0:0:0:0:
109,192,51146,1,0,0:0:0:0:
256,192,51146,1,0,0:0:0:0:
402,192,51146,1,0,0:0:0:0:
329,192,51223,1,0,0:0:0:0:
475,192,51299,1,0,0:0:0:0:
182,192,51299,1,0,0:0:0:0:
36,192,51299,1,0,0:0:0:0:
256,192,51376,1,0,0:0:0:0:
36,192,51452,1,0,0:0:0:0:
109,192,51452,1,0,0:0:0:0:
475,192,51452,1,0,0:0:0:0:
329,192,51452,1,0,0:0:0:0:
182,192,51529,1,0,0:0:0:0:
36,192,51605,1,0,0:0:0:0:
109,192,51605,1,0,0:0:0:0:
329,192,51605,1,0,0:0:0:0:
402,192,51605,1,0,0:0:0:0:
182,192,51682,1,0,0:0:0:0:
475,192,51758,1,0,0:0:0:0:
256,192,51758,1,0,0:0:0:0:
402,192,51758,1,0,0:0:0:0:
36,192,51758,1,0,0:0:0:0:
109,192,51835,1,0,0:0:0:0:
182,192,51911,1,0,0:0:0:0:
329,192,51911,1,0,0:0:0:0:
475,192,51911,1,0,0:0:0:0:
256,192,51988,1,0,0:0:0:0:
182,192,52065,1,0,0:0:0:0:
109,192,52141,1,0,0:0:0:0:
256,192,52218,1,0,0:0:0:0:
475,192,52218,1,0,0:0:0:0:
36,192,52218,1,0,0:0:0:0:
329,192,52218,1,0,0:0:0:0:
109,192,52294,1,0,0:0:0:0:
182,192,52371,1,0,0:0:0:0:
402,192,52371,1,0,0:0:0:0:
475,192,52371,1,0,0:0:0:0:
329,192,52371,1,0,0:0:0:0:
256,192,52447,1,0,0:0:0:0:
475,192,52524,1,0,0:0:0:0:
402,192,52524,1,0,0:0:0:0:
36,192,52524,1,0,0:0:0:0:
182,192,52600,1,0,0:0:0:0:
109,192,52600,1,0,0:0:0:0:
329,192,52600,1,0,0:0:0:0:
475,192,52677,1,0,0:0:0:0:
402,192,52677,1,0,0:0:0:0:
36,192,52677,1,0,0:0:0:0:
256,192,52677,1,0,0:0:0:0:
182,192,52753,1,0,0:0:0:0:
109,192,52830,1,0,0:0:0:0:
329,192,52830,1,0,0:0:0:0:
402,192,52830,1,0,0:0:0:0:
256,192,52906,1,0,0:0:0:0:
402,192,52983,1,0,0:0:0:0:
475,192,52983,1,0,0:0:0:0:
182,192,52983,1,0,0:0:0:0:
36,192,52983,1,0,0:0:0:0:
256,192,53059,1,0,0:0:0:0:
475,192,53136,1,0,0:0:0:0:
36,192,53136,1,0,0:0:0:0:
329,192,53136,1,0,0:0:0:0:
182,192,53136,1,0,0:0:0:0:
256,192,53212,1,0,0:0:0:0:
402,192,53212,1,0,0:0:0:0:
109,192,53212,1,0,0:0:0:0:
329,192,53289,1,0,0:0:0:0:
475,192,53289,1,0,0:0:0:0:
182,192,53289,1,0,0:0:0:0:
36,192,53366,1,0,0:0:0:0:
109,192,53442,1,0,0:0:0:0:
402,192,53442,1,0,0:0:0:0:
256,192,53442,1,0,0:0:0:0:
182,192,53519,1,0,0:0:0:0:
36,192,53595,1,0,0:0:0:0:
256,192,53595,1,0,0:0:0:0:
402,192,53595,1,0,0:0:0:0:
475,192,53595,1,0,0:0:0:0:
182,192,53672,1,0,0:0:0:0:
109,192,53672,1,0,0:0:0:0:
329,192,53672,1,0,0:0:0:0:
256,192,53748,1,0,0:0:0:0:
402,192,53748,1,0,0:0:0:0:
475,192,53748,1,0,0:0:0:0:
36,192,53748,1,0,0:0:0:0:
182,192,53825,1,0,0:0:0:0:
329,192,53825,1,0,0:0:0:0:
256,192,53901,1,0,0:0:0:0:
36,192,53901,1,0,0:0:0:0:
402,192,53901,1,0,0:0:0:0:
475,192,53901,1,0,0:0:0:0:
109,192,53901,1,0,0:0:0:0:
329,192,53978,1,0,0:0:0:0:
36,192,54054,1,0,0:0:0:0:
109,192,54054,1,0,0:0:0:0:
182,192,54054,1,0,0:0:0:0:
402,192,54054,1,0,0:0:0:0:
256,192,54131,1,0,0:0:0:0:
329,192,54207,1,0,0:0:0:0:
36,192,54207,1,0,0:0:0:0:
109,192,54207,1,0,0:0:0:0:
475,192,54207,1,0,0:0:0:0:
182,192,54284,1,0,0:0:0:0:
402,192,54360,1,0,0:0:0:0:
475,192,54360,1,0,0:0:0:0:
36,192,54360,1,0,0:0:0:0:
256,192,54360,1,0,0:0:0:0:
329,192,54437,1,0,0:0:0:0:
182,192,54514,1,0,0:0:0:0:
256,192,54590,1,0,0:0:0:0:
36,192,54667,1,0,0:0:0:0:
109,192,54667,1,0,0:0:0:0:
329,192,54667,1,0,0:0:0:0:
475,192,54667,1,0,0:0:0:0:
182,192,54743,1,0,0:0:0:0:
109,192,54820,1,0,0:0:0:0:
329,192,54820,1,0,0:0:0:0:
36,192,54820,1,0,0:0:0:0:
475,192,54896,1,0,0:0:0:0:
402,192,54896,1,0,0:0:0:0:
36,192,54973,1,0,0:0:0:0:
256,192,54973,1,0,0:0:0:0:
109,192,54973,1,0,0:0:0:0:
329,192,55049,1,0,0:0:0:0:
182,192,55126,1,0,0:0:0:0:
402,192,55126,1,0,0:0:0:0:
475,192,55126,128,0,56274:0:0:0:0:
256,192,55126,1,0,0:0:0:0:
36,192,55126,1,0,0:0:0:0:
109,192,55202,1,0,0:0:0:0:
329,192,55279,1,0,0:0:0:0:
36,192,55279,1,0,0:0:0:0:
182,192,55279,1,0,0:0:0:0:
256,192,55355,1,0,0:0:0:0:
36,192,55432,1,0,0:0:0:0:
109,192,55432,1,0,0:0:0:0:
402,192,55432,1,0,0:0:0:0:
182,192,55508,1,0,0:0:0:0:
256,192,55585,1,0,0:0:0:0:
329,192,55585,1,0,0:0:0:0:
402,192,55585,1,0,0:0:0:0:
182,192,55661,1,0,0:0:0:0:
109,192,55661,1,0,0:0:0:0:
36,192,55661,1,0,0:0:0:0:
256,192,55738,1,0,0:0:0:0:
329,192,55738,1,0,0:0:0:0:
402,192,55738,1,0,0:0:0:0:
182,192,55815,1,0,0:0:0:0:
109,192,55891,1,0,0:0:0:0:
36,192,55891,1,0,0:0:0:0:
402,192,55891,1,0,0:0:0:0:
256,192,55968,1,0,0:0:0:0:
402,192,56044,1,0,0:0:0:0:
329,192,56044,1,0,0:0:0:0:
109,192,56044,1,0,0:0:0:0:
182,192,56121,1,0,0:0:0:0:
329,192,56197,1,0,0:0:0:0:
402,192,56197,1,0,0:0:0:0:
36,192,56197,1,0,0:0:0:0:
109,192,56274,1,0,0:0:0:0:
256,192,56350,1,0,0:0:0:0:
475,192,56350,1,0,0:0:0:0:
36,192,56350,1,0,0:0:0:0:
402,192,56350,1,0,0:0:0:0:
182,192,56427,1,0,0:0:0:0:
256,192,56503,1,0,0:0:0:0:
402,192,56503,1,0,0:0:0:0:
109,192,56503,1,0,0:0:0:0:
475,192,56503,1,0,0:0:0:0:
329,192,56580,1,0,0:0:0:0:
182,192,56656,1,0,0:0:0:0:
402,192,56656,1,0,0:0:0:0:
36,192,56656,1,0,0:0:0:0:
256,192,56656,1,0,0:0:0:0:
475,192,56656,1,0,0:0:0:0:
109,192,56733,1,0,0:0:0:0:
256,192,56809,1,0,0:0:0:0:
402,192,56809,1,0,0:0:0:0:
475,192,56809,1,0,0:0:0:0:
182,192,56809,1,0,0:0:0:0:
36,192,56886,1,0,0:0:0:0:
109,192,56962,1,0,0:0:0:0:
329,192,56962,1,0,0:0:0:0:
182,192,57039,1,0,0:0:0:0:
256,192,57116,1,0,0:0:0:0:
36,192,57116,1,0,0:0:0:0:
402,192,57116,1,0,0:0:0:0:
475,192,57116,1,0,0:0:0:0:
182,192,57192,1,0,0:0:0:0:
329,192,57269,1,0,0:0:0:0:
402,192,57269,1,0,0:0:0:0:
475,192,57269,1,0,0:0:0:0:
109,192,57269,1,0,0:0:0:0:
256,192,57345,1,0,0:0:0:0:
36,192,57422,1,0,0:0:0:0:
182,192,57422,1,0,0:0:0:0:
329,192,57422,1,0,0:0:0:0:
256,192,57498,1,0,0:0:0:0:
402,192,57575,1,0,0:0:0:0:
475,192,57575,1,0,0:0:0:0:
109,192,57575,1,0,0:0:0:0:
36,192,57575,1,0,0:0:0:0:
256,192,57651,1,0,0:0:0:0:
402,192,57728,1,0,0:0:0:0:
109,192,57728,1,0,0:0:0:0:
182,192,57728,1,0,0:0:0:0:
329,192,57728,1,0,0:0:0:0:
256,192,57804,1,0,0:0:0:0:
36,192,57881,1,0,0:0:0:0:
109,192,57881,1,0,0:0:0:0:
182,192,57881,1,0,0:0:0:0:
329,192,57881,1,0,0:0:0:0:
256,192,57957,1,0,0:0:0:0:
475,192,58034,1,0,0:0:0:0:
182,192,58034,1,0,0:0:0:0:
329,192,58034,1,0,0:0:0:0:
402,192,58034,1,0,0:0:0:0:
36,192,58110,1,0,0:0:0:0:
109,192,58110,1,0,0:0:0:0:
256,192,58110,1,0,0:0:0:0:
182,192,58187,1,0,0:0:0:0:
329,192,58187,1,0,0:0:0:0:
402,192,58187,1,0,0:0:0:0:
256,192,58264,1,0,0:0:0:0:
329,192,58340,1,0,0:0:0:0:
36,192,58340,1,0,0:0:0:0:
109,192,58340,1,0,0:0:0:0:
475,192,58340,1,0,0:0:0:0:
182,192,58417,1,0,0:0:0:0:
402,192,58417,1,0,0:0:0:0:
256,192,58493,1,0,0:0:0:0:
475,192,58493,1,0,0:0:0:0:
36,192,58493,1,0,0:0:0:0:
182,192,58570,1,0,0:0:0:0:
329,192,58570,1,0,0:0:0:0:
109,192,58570,1,0,0:0:0:0:
256,192,58646,1,0,0:0:0:0:
402,192,58646,1,0,0:0:0:0:
475,192,58646,1,0,0:0:0:0:
36,192,58723,1,0,0:0:0:0:
109,192,58723,1,0,0:0:0:0:
182,192,58723,1,0,0:0:0:0:
329,192,58799,1,0,0:0:0:0:
402,192,58799,1,0,0:0:0:0:
475,192,58799,1,0,0:0:0:0:
256,192,58799,1,0,0:0:0:0:
182,192,58876,1,0,0:0:0:0:
109,192,58952,1,0,0:0:0:0:
329,192,58952,1,0,0:0:0:0:
402,192,58952,1,0,0:0:0:0:
256,192,58952,1,0,0:0:0:0:
182,192,59029,1,0,0:0:0:0:
109,192,59105,1,0,0:0:0:0:
36,192,59105,1,0,0:0:0:0:
256,192,59105,1,0,0:0:0:0:
329,192,59105,1,0,0:0:0:0:
182,192,59182,1,0,0:0:0:0:
402,192,59258,1,0,0:0:0:0:
475,192,59258,1,0,0:0:0:0:
256,192,59258,1,0,0:0:0:0:
329,192,59258,1,0,0:0:0:0:
109,192,59335,1,0,0:0:0:0:
182,192,59411,1,0,0:0:0:0:
109,192,59488,1,0,0:0:0:0:
329,192,59565,1,0,0:0:0:0:
182,192,59565,1,0,0:0:0:0:
475,192,59565,1,0,0:0:0:0:
36,192,59565,1,0,0:0:0:0:
256,192,59641,1,0,0:0:0:0:
329,192,59718,1,0,0:0:0:0:
475,192,59718,1,0,0:0:0:0:
402,192,59718,1,0,0:0:0:0:
109,192,59718,1,0,0:0:0:0:
256,192,59794,1,0,0:0:0:0:
182,192,59871,1,0,0:0:0:0:
36,192,59871,1,0,0:0:0:0:
329,192,59871,1,0,0:0:0:0:
109,192,59947,1,0,0:0:0:0:
182,192,60024,1,0,0:0:0:0:
402,192,60024,1,0,0:0:0:0:
475,192,60024,1,0,0:0:0:0:
256,192,60024,1,0,0:0:0:0:
36,192,60100,1,0,0:0:0:0:
109,192,60177,1,0,0:0:0:0:
329,192,60177,1,0,0:0:0:0:
402,192,60177,1,0,0:0:0:0:
182,192,60177,1,0,0:0:0:0:
475,192,60253,1,0,0:0:0:0:
36,192,60330,1,0,0:0:0:0:
109,192,60330,1,0,0:0:0:0:
329,192,60330,1,0,0:0:0:0:
256,192,60330,1,0,0:0:0:0:
182,192,60406,1,0,0:0:0:0:
402,192,60483,1,0,0:0:0:0:
475,192,60483,1,0,0:0:0:0:
329,192,60483,1,0,0:0:0:0:
256,192,60483,1,0,0:0:0:0:
109,192,60559,1,0,0:0:0:0:
36,192,60559,1,0,0:0:0:0:
182,192,60559,1,0,0:0:0:0:
402,192,60636,1,0,0:0:0:0:
329,192,60636,1,0,0:0:0:0:
475,192,60636,1,0,0:0:0:0:
109,192,60712,1,0,0:0:0:0:
475,192,60789,1,0,0:0:0:0:
182,192,60789,1,0,0:0:0:0:
329,192,60789,1,0,0:0:0:0:
36,192,60866,1,0,0:0:0:0:
182,192,60942,1,0,0:0:0:0:
109,192,60942,1,0,0:0:0:0:
402,192,60942,1,0,0:0:0:0:
256,192,60942,1,0,0:0:0:0:
475,192,61019,1,0,0:0:0:0:
256,192,61095,1,0,0:0:0:0:
109,192,61095,1,0,0:0:0:0:
36,192,61095,1,0,0:0:0:0:
182,192,61172,1,0,0:0:0:0:
36,192,61248,1,0,0:0:0:0:
256,192,61248,1,0,0:0:0:0:
329,192,61248,1,0,0:0:0:0:
475,192,61248,1,0,0:0:0:0:
109,192,61325,1,0,0:0:0:0:
256,192,61401,1,0,0:0:0:0:
402,192,61401,1,0,0:0:0:0:
36,192,61401,1,0,0:0:0:0:
329,192,61401,1,0,0:0:0:0:
109,192,61478,1,0,0:0:0:0:
36,192,61554,1,0,0:0:0:0:
329,192,61554,1,0,0:0:0:0:
256,192,61554,1,0,0:0:0:0:
182,192,61554,1,0,0:0:0:0:
402,192,61631,1,0,0:0:0:0:
475,192,61707,1,0,0:0:0:0:
109,192,61707,1,0,0:0:0:0:
36,192,61707,1,0,0:0:0:0:
256,192,61707,1,0,0:0:0:0:
329,192,61784,1,0,0:0:0:0:
182,192,61860,1,0,0:0:0:0:
256,192,61937,1,0,0:0:0:0:
36,192,62014,1,0,0:0:0:0:
402,192,62014,1,0,0:0:0:0:
475,192,62014,1,0,0:0:0:0:
109,192,62014,1,0,0:0:0:0:
256,192,62090,1,0,0:0:0:0:
182,192,62167,1,0,0:0:0:0:
329,192,62167,1,0,0:0:0:0:
402,192,62167,1,0,0:0:0:0:
475,192,62167,1,0,0:0:0:0:
109,192,62243,1,0,0:0:0:0:
256,192,62243,1,0,0:0:0:0:
182,192,62320,1,0,0:0:0:0:
36,192,62320,1,0,0:0:0:0:
402,192,62320,1,0,0:0:0:0:
475,192,62320,1,0,0:0:0:0:
256,192,62396,1,0,0:0:0:0:
329,192,62396,1,0,0:0:0:0:
475,192,62473,1,0,0:0:0:0:
36,192,62473,1,0,0:0:0:0:
182,192,62473,1,0,0:0:0:0:
402,192,62473,1,0,0:0:0:0:
109,192,62549,1,0,0:0:0:0:
402,192,62626,1,0,0:0:0:0:
475,192,62626,1,0,0:0:0:0:
256,192,62626,1,0,0:0:0:0:
182,192,62626,1,0,0:0:0:0:
329,192,62702,1,0,0:0:0:0:
36,192,62779,1,0,0:0:0:0:
402,192,62779,1,0,0:0:0:0:
475,192,62779,1,0,0:0:0:0:
109,192,62779,1,0,0:0:0:0:
182,192,62855,1,0,0:0:0:0:
402,192,62932,1,0,0:0:0:0:
475,192,62932,1,0,0:0:0:0:
256,192,62932,1,0,0:0:0:0:
329,192,62932,1,0,0:0:0:0:
36,192,63008,1,0,0:0:0:0:
182,192,63008,1,0,0:0:0:0:
109,192,63008,1,0,0:0:0:0:
402,192,63085,1,0,0:0:0:0:
475,192,63085,1,0,0:0:0:0:
256,192,63085,1,0,0:0:0:0:
329,192,63085,1,0,0:0:0:0:
109,192,63161,1,0,0:0:0:0:
256,192,63238,1,0,0:0:0:0:
402,192,63238,1,0,0:0:0:0:
182,192,63315,1,0,0:0:0:0:
36,192,63315,1,0,0:0:0:0:
256,192,63391,1,0,0:0:0:0:
402,192,63391,1,0,0:0:0:0:
475,192,63391,1,0,0:0:0:0:
109,192,63391,1,0,0:0:0:0:
182,192,63468,1,0,0:0:0:0:
329,192,63468,1,0,0:0:0:0:
36,192,63468,1,0,0:0:0:0:
256,192,63544,1,0,0:0:0:0:
402,192,63544,1,0,0:0:0:0:
475,192,63544,1,0,0:0:0:0:
109,192,63621,1,0,0:0:0:0:
182,192,63621,1,0,0:0:0:0:
329,192,63621,1,0,0:0:0:0:
402,192,63697,1,0,0:0:0:0:
256,192,63698,1,0,0:0:0:0:
36,192,63698,1,0,0:0:0:0:
475,192,63698,1,0,0:0:0:0:
182,192,64004,1,0,0:0:0:0:
329,192,64310,1,0,0:0:0:0:
329,192,64463,1,0,0:0:0:0:
329,192,64616,1,0,0:0:0:0:
329,192,64769,1,0,0:0:0:0:
182,192,64922,1,0,0:0:0:0:
182,192,65075,1,0,0:0:0:0:
329,192,65228,1,0,0:0:0:0:
256,192,65534,1,0,0:0:0:0:
182,192,65687,1,0,0:0:0:0:
402,192,65840,1,0,0:0:0:0:
329,192,65917,1,0,0:0:0:0:
256,192,65993,1,0,0:0:0:0:
182,192,66070,1,0,0:0:0:0:
109,192,66146,1,0,0:0:0:0:
109,192,66300,1,0,0:0:0:0:
475,192,66453,1,0,0:0:0:0:
256,192,66606,1,0,0:0:0:0:
182,192,66759,1,0,0:0:0:0:
109,192,66912,1,0,0:0:0:0:
36,192,67065,1,0,0:0:0:0:
182,192,67218,1,0,0:0:0:0:
256,192,67294,1,0,0:0:0:0:
109,192,67371,1,0,0:0:0:0:
109,192,67524,1,0,0:0:0:0:
329,192,67677,1,0,0:0:0:0:
109,192,67830,1,0,0:0:0:0:
475,192,67907,128,0,68136:0:0:0:0:
256,192,67983,1,0,0:0:0:0:
182,192,68136,1,0,0:0:0:0:
402,192,68289,1,0,0:0:0:0:
329,192,68366,1,0,0:0:0:0:
109,192,68442,1,0,0:0:0:0:
182,192,68519,1,0,0:0:0:0:
256,192,68595,1,0,0:0:0:0:
36,192,68595,1,0,0:0:0:0:
475,192,68595,1,0,0:0:0:0:
402,192,68595,1,0,0:0:0:0:
109,192,68749,1,0,0:0:0:0:
402,192,68902,1,0,0:0:0:0:
109,192,69055,1,0,0:0:0:0:
256,192,69208,1,0,0:0:0:0:
182,192,69361,1,0,0:0:0:0:
109,192,69514,1,0,0:0:0:0:
36,192,69667,1,0,0:0:0:0:
182,192,69820,1,0,0:0:0:0:
182,192,69973,1,0,0:0:0:0:
182,192,70050,1,0,0:0:0:0:
475,192,70126,1,0,0:0:0:0:
109,192,70279,1,0,0:0:0:0:
402,192,70432,1,0,0:0:0:0:
329,192,70585,1,0,0:0:0:0:
475,192,70738,1,0,0:0:0:0:
182,192,70815,1,0,0:0:0:0:
329,192,70891,1,0,0:0:0:0:
36,192,70968,1,0,0:0:0:0:
256,192,71044,1,0,0:0:0:0:
256,192,71198,1,0,0:0:0:0:
402,192,71351,1,0,0:0:0:0:
109,192,71504,1,0,0:0:0:0:
256,192,71580,1,0,0:0:0:0:
475,192,71657,1,0,0:0:0:0:
329,192,71810,1,0,0:0:0:0:
256,192,71963,1,0,0:0:0:0:
182,192,72116,1,0,0:0:0:0:
36,192,72192,1,0,0:0:0:0:
109,192,72269,1,0,0:0:0:0:
109,192,72422,1,0,0:0:0:0:
329,192,72575,1,0,0:0:0:0:
182,192,72728,1,0,0:0:0:0:
329,192,72881,1,0,0:0:0:0:
475,192,72881,1,0,0:0:0:0:
36,192,72881,128,0,73034:0:0:0:0:
256,192,73034,1,0,0:0:0:0:
36,192,73187,128,0,73264:0:0:0:0:
402,192,73187,1,0,0:0:0:0:
329,192,73264,1,0,0:0:0:0:
256,192,73340,1,0,0:0:0:0:
182,192,73417,1,0,0:0:0:0:
109,192,73493,1,0,0:0:0:0:
36,192,73493,1,0,0:0:0:0:
402,192,73493,1,0,0:0:0:0:
475,192,73493,1,0,0:0:0:0:
182,192,73646,1,0,0:0:0:0:
329,192,73800,1,0,0:0:0:0:
182,192,73953,1,0,0:0:0:0:
36,192,74106,1,0,0:0:0:0:
256,192,74106,1,0,0:0:0:0:
402,192,74106,1,0,0:0:0:0:
475,192,74106,1,0,0:0:0:0:
109,192,74259,1,0,0:0:0:0:
329,192,74412,1,0,0:0:0:0:
182,192,74488,1,0,0:0:0:0:
329,192,74565,1,0,0:0:0:0:
182,192,74641,1,0,0:0:0:0:
36,192,74718,1,0,0:0:0:0:
402,192,74718,1,0,0:0:0:0:
475,192,74718,1,0,0:0:0:0:
256,192,74794,1,0,0:0:0:0:
109,192,74871,1,0,0:0:0:0:
182,192,74948,1,0,0:0:0:0:
329,192,75024,1,0,0:0:0:0:
109,192,75177,1,0,0:0:0:0:
36,192,75330,1,0,0:0:0:0:
475,192,75330,1,0,0:0:0:0:
402,192,75330,1,0,0:0:0:0:
329,192,75483,1,0,0:0:0:0:
256,192,75636,1,0,0:0:0:0:
182,192,75789,1,0,0:0:0:0:
109,192,75942,1,0,0:0:0:0:
36,192,75942,1,0,0:0:0:0:
329,192,75942,1,0,0:0:0:0:
475,192,75942,1,0,0:0:0:0:
182,192,76095,1,0,0:0:0:0:
256,192,76249,1,0,0:0:0:0:
329,192,76402,1,0,0:0:0:0:
329,192,76555,1,0,0:0:0:0:
475,192,76555,1,0,0:0:0:0:
36,192,76555,1,0,0:0:0:0:
182,192,76708,1,0,0:0:0:0:
402,192,76861,1,0,0:0:0:0:
329,192,76937,1,0,0:0:0:0:
109,192,77014,1,0,0:0:0:0:
182,192,77090,1,0,0:0:0:0:
256,192,77167,1,0,0:0:0:0:
475,192,77167,1,0,0:0:0:0:
36,192,77167,1,0,0:0:0:0:
182,192,77320,1,0,0:0:0:0:
256,192,77396,1,0,0:0:0:0:
329,192,77473,1,0,0:0:0:0:
402,192,77626,1,0,0:0:0:0:
329,192,77664,1,0,0:0:0:0:
256,192,77703,1,0,0:0:0:0:
182,192,77741,1,0,0:0:0:0:
109,192,77779,1,0,0:0:0:0:
36,192,77779,1,0,0:0:0:0:
475,192,77779,1,0,0:0:0:0:
329,192,77932,1,0,0:0:0:0:
402,192,78085,1,0,0:0:0:0:
256,192,78238,1,0,0:0:0:0:
329,192,78391,1,0,0:0:0:0:
475,192,78391,1,0,0:0:0:0:
36,192,78391,1,0,0:0:0:0:
109,192,78391,1,0,0:0:0:0:
182,192,78544,1,0,0:0:0:0:
402,192,78698,1,0,0:0:0:0:
109,192,78851,1,0,0:0:0:0:
36,192,79004,1,0,0:0:0:0:
256,192,79004,1,0,0:0:0:0:
475,192,79004,1,0,0:0:0:0:
329,192,79157,1,0,0:0:0:0:
182,192,79310,1,0,0:0:0:0:
329,192,79386,1,0,0:0:0:0:
109,192,79463,1,0,0:0:0:0:
256,192,79539,1,0,0:0:0:0:
402,192,79616,1,0,0:0:0:0:
475,192,79616,1,0,0:0:0:0:
36,192,79616,1,0,0:0:0:0:
182,192,79769,1,0,0:0:0:0:
329,192,79845,1,0,0:0:0:0:
256,192,79922,1,0,0:0:0:0:
109,192,80075,1,0,0:0:0:0:
36,192,80228,1,0,0:0:0:0:
329,192,80228,1,0,0:0:0:0:
475,192,80228,1,0,0:0:0:0:
182,192,80381,1,0,0:0:0:0:
402,192,80534,1,0,0:0:0:0:
329,192,80611,1,0,0:0:0:0:
256,192,80687,1,0,0:0:0:0:
182,192,80764,1,0,0:0:0:0:
36,192,80840,1,0,0:0:0:0:
109,192,80840,1,0,0:0:0:0:
475,192,80840,1,0,0:0:0:0:
402,192,80840,1,0,0:0:0:0:
256,192,80993,1,0,0:0:0:0:
329,192,81146,1,0,0:0:0:0:
182,192,81300,1,0,0:0:0:0:
36,192,81300,1,0,0:0:0:0:
256,192,81453,1,0,0:0:0:0:
402,192,81453,1,0,0:0:0:0:
475,192,81453,1,0,0:0:0:0:
109,192,81606,1,0,0:0:0:0:
36,192,81606,1,0,0:0:0:0:
329,192,81606,1,0,0:0:0:0:
475,192,81759,1,0,0:0:0:0:
36,192,81912,1,0,0:0:0:0:
109,192,81912,1,0,0:0:0:0:
329,192,81912,1,0,0:0:0:0:
182,192,82065,1,0,0:0:0:0:
256,192,82065,1,0,0:0:0:0:
329,192,82218,1,0,0:0:0:0:
475,192,82218,1,0,0:0:0:0:
402,192,82218,1,0,0:0:0:0:
36,192,82294,1,0,0:0:0:0:
109,192,82294,1,0,0:0:0:0:
182,192,82294,1,0,0:0:0:0:
329,192,82371,1,0,0:0:0:0:
402,192,82371,1,0,0:0:0:0:
475,192,82371,1,0,0:0:0:0:
182,192,82524,1,0,0:0:0:0:
256,192,82524,1,0,0:0:0:0:
329,192,82524,1,0,0:0:0:0:
36,192,82677,1,0,0:0:0:0:
109,192,82677,1,0,0:0:0:0:
182,192,82677,1,0,0:0:0:0:
256,192,82754,1,0,0:0:0:0:
329,192,82830,1,0,0:0:0:0:
402,192,82830,1,0,0:0:0:0:
475,192,82830,1,0,0:0:0:0:
475,192,82983,1,0,0:0:0:0:
109,192,82983,1,0,0:0:0:0:
36,192,82983,1,0,0:0:0:0:
402,192,83060,1,0,0:0:0:0:
329,192,83136,1,0,0:0:0:0:
182,192,83136,1,0,0:0:0:0:
109,192,83175,1,0,0:0:0:0:
256,192,83213,1,0,0:0:0:0:
402,192,83213,1,0,0:0:0:0:
182,192,83285,1,0,0:0:0:0:
475,192,83285,1,0,0:0:0:0:
329,192,83285,1,0,0:0:0:0:
36,192,83285,1,0,0:0:0:0:
256,192,83899,1,0,0:0:0:0:
36,192,83899,1,0,0:0:0:0:
109,192,83899,1,0,0:0:0:0:
402,192,83899,1,0,0:0:0:0:
329,192,83975,1,0,0:0:0:0:
182,192,84052,1,0,0:0:0:0:
256,192,84128,1,0,0:0:0:0:
329,192,84205,1,0,0:0:0:0:
475,192,84205,1,0,0:0:0:0:
109,192,84205,1,0,0:0:0:0:
182,192,84358,1,0,0:0:0:0:
36,192,84358,1,0,0:0:0:0:
402,192,84358,1,0,0:0:0:0:
256,192,84358,1,0,0:0:0:0:
329,192,84434,1,0,0:0:0:0:
402,192,84511,1,0,0:0:0:0:
182,192,84511,1,0,0:0:0:0:
36,192,84664,1,0,0:0:0:0:
109,192,84664,1,0,0:0:0:0:
256,192,84664,1,0,0:0:0:0:
182,192,84817,1,0,0:0:0:0:
475,192,84817,1,0,0:0:0:0:
329,192,84817,1,0,0:0:0:0:
36,192,84817,1,0,0:0:0:0:
402,192,84817,1,0,0:0:0:0:
256,192,84970,1,0,0:0:0:0:
109,192,84970,1,0,0:0:0:0:
36,192,84970,1,0,0:0:0:0:
182,192,85046,1,0,0:0:0:0:
329,192,85046,1,0,0:0:0:0:
256,192,85123,1,0,0:0:0:0:
402,192,85123,1,0,0:0:0:0:
475,192,85123,1,0,0:0:0:0:
36,192,85123,1,0,0:0:0:0:
109,192,85200,1,0,0:0:0:0:
182,192,85276,1,0,0:0:0:0:
329,192,85276,1,0,0:0:0:0:
109,192,85353,1,0,0:0:0:0:
36,192,85429,1,0,0:0:0:0:
256,192,85429,1,0,0:0:0:0:
402,192,85429,1,0,0:0:0:0:
182,192,85582,1,0,0:0:0:0:
329,192,85582,1,0,0:0:0:0:
475,192,85582,1,0,0:0:0:0:
109,192,85582,1,0,0:0:0:0:
256,192,85659,1,0,0:0:0:0:
402,192,85659,1,0,0:0:0:0:
182,192,85735,1,0,0:0:0:0:
329,192,85735,1,0,0:0:0:0:
36,192,85735,1,0,0:0:0:0:
36,192,85888,1,0,0:0:0:0:
182,192,85888,1,0,0:0:0:0:
329,192,85888,1,0,0:0:0:0:
256,192,86041,1,0,0:0:0:0:
402,192,86041,1,0,0:0:0:0:
475,192,86041,1,0,0:0:0:0:
109,192,86041,1,0,0:0:0:0:
36,192,86041,1,0,0:0:0:0:
36,192,86194,1,0,0:0:0:0:
182,192,86194,1,0,0:0:0:0:
329,192,86194,1,0,0:0:0:0:
36,192,86347,1,0,0:0:0:0:
109,192,86347,1,0,0:0:0:0:
256,192,86347,1,0,0:0:0:0:
402,192,86347,1,0,0:0:0:0:
182,192,86424,1,0,0:0:0:0:
329,192,86501,1,0,0:0:0:0:
475,192,86501,1,0,0:0:0:0:
182,192,86577,1,0,0:0:0:0:
256,192,86654,1,0,0:0:0:0:
402,192,86654,1,0,0:0:0:0:
36,192,86654,1,0,0:0:0:0:
182,192,86807,1,0,0:0:0:0:
329,192,86807,1,0,0:0:0:0:
475,192,86807,1,0,0:0:0:0:
109,192,86807,1,0,0:0:0:0:
256,192,86883,1,0,0:0:0:0:
402,192,86960,1,0,0:0:0:0:
182,192,86960,1,0,0:0:0:0:
36,192,87113,1,0,0:0:0:0:
109,192,87113,1,0,0:0:0:0:
256,192,87113,1,0,0:0:0:0:
182,192,87266,1,0,0:0:0:0:
329,192,87266,1,0,0:0:0:0:
475,192,87266,1,0,0:0:0:0:
402,192,87266,1,0,0:0:0:0:
36,192,87266,1,0,0:0:0:0:
36,192,87419,1,0,0:0:0:0:
109,192,87419,1,0,0:0:0:0:
256,192,87419,1,0,0:0:0:0:
36,192,87572,1,0,0:0:0:0:
182,192,87572,1,0,0:0:0:0:
329,192,87572,1,0,0:0:0:0:
402,192,87572,1,0,0:0:0:0:
109,192,87725,1,0,0:0:0:0:
256,192,87725,1,0,0:0:0:0:
329,192,87725,1,0,0:0:0:0:
182,192,87878,1,0,0:0:0:0:
402,192,87878,1,0,0:0:0:0:
475,192,87878,1,0,0:0:0:0:
36,192,87878,1,0,0:0:0:0:
109,192,88031,1,0,0:0:0:0:
256,192,88031,1,0,0:0:0:0:
475,192,88031,1,0,0:0:0:0:
402,192,88031,1,0,0:0:0:0:
182,192,88108,1,0,0:0:0:0:
329,192,88108,1,0,0:0:0:0:
109,192,88184,1,0,0:0:0:0:
256,192,88184,1,0,0:0:0:0:
36,192,88184,1,0,0:0:0:0:
36,192,88337,1,0,0:0:0:0:
109,192,88337,1,0,0:0:0:0:
256,192,88337,1,0,0:0:0:0:
182,192,88490,1,0,0:0:0:0:
329,192,88490,1,0,0:0:0:0:
475,192,88490,1,0,0:0:0:0:
402,192,88490,1,0,0:0:0:0:
109,192,88490,1,0,0:0:0:0:
36,192,88643,1,0,0:0:0:0:
109,192,88643,1,0,0:0:0:0:
256,192,88643,1,0,0:0:0:0:
36,192,88796,1,0,0:0:0:0:
182,192,88796,1,0,0:0:0:0:
329,192,88796,1,0,0:0:0:0:
402,192,88796,1,0,0:0:0:0:
256,192,88873,1,0,0:0:0:0:
109,192,88950,1,0,0:0:0:0:
329,192,88950,1,0,0:0:0:0:
182,192,89026,1,0,0:0:0:0:
256,192,89103,1,0,0:0:0:0:
402,192,89103,1,0,0:0:0:0:
36,192,89103,1,0,0:0:0:0:
475,192,89103,1,0,0:0:0:0:
182,192,89256,1,0,0:0:0:0:
329,192,89256,1,0,0:0:0:0:
109,192,89256,1,0,0:0:0:0:
475,192,89256,1,0,0:0:0:0:
256,192,89332,1,0,0:0:0:0:
402,192,89409,1,0,0:0:0:0:
329,192,89409,1,0,0:0:0:0:
36,192,89562,1,0,0:0:0:0:
109,192,89562,1,0,0:0:0:0:
256,192,89562,1,0,0:0:0:0:
182,192,89715,1,0,0:0:0:0:
329,192,89715,1,0,0:0:0:0:
475,192,89715,1,0,0:0:0:0:
109,192,89715,1,0,0:0:0:0:
256,192,89715,1,0,0:0:0:0:
36,192,89868,1,0,0:0:0:0:
109,192,89868,1,0,0:0:0:0:
256,192,89868,1,0,0:0:0:0:
182,192,90021,1,0,0:0:0:0:
109,192,90021,1,0,0:0:0:0:
329,192,90021,1,0,0:0:0:0:
475,192,90021,1,0,0:0:0:0:
36,192,90097,1,0,0:0:0:0:
182,192,90174,1,0,0:0:0:0:
329,192,90174,1,0,0:0:0:0:
109,192,90251,1,0,0:0:0:0:
256,192,90327,1,0,0:0:0:0:
402,192,90327,1,0,0:0:0:0:
475,192,90327,1,0,0:0:0:0:
36,192,90480,1,0,0:0:0:0:
109,192,90480,1,0,0:0:0:0:
182,192,90480,1,0,0:0:0:0:
329,192,90480,1,0,0:0:0:0:
256,192,90557,1,0,0:0:0:0:
402,192,90557,1,0,0:0:0:0:
329,192,90633,1,0,0:0:0:0:
475,192,90633,1,0,0:0:0:0:
182,192,90633,1,0,0:0:0:0:
182,192,90786,1,0,0:0:0:0:
329,192,90786,1,0,0:0:0:0:
475,192,90786,1,0,0:0:0:0:
256,192,90939,1,0,0:0:0:0:
402,192,90939,1,0,0:0:0:0:
475,192,90939,1,0,0:0:0:0:
109,192,90939,1,0,0:0:0:0:
36,192,90939,1,0,0:0:0:0:
182,192,91092,1,0,0:0:0:0:
329,192,91092,1,0,0:0:0:0:
475,192,91092,1,0,0:0:0:0:
256,192,91245,1,0,0:0:0:0:
36,192,91245,1,0,0:0:0:0:
109,192,91245,1,0,0:0:0:0:
402,192,91245,1,0,0:0:0:0:
329,192,91322,1,0,0:0:0:0:
182,192,91399,1,0,0:0:0:0:
475,192,91399,1,0,0:0:0:0:
329,192,91475,1,0,0:0:0:0:
256,192,91552,1,0,0:0:0:0:
109,192,91552,1,0,0:0:0:0:
36,192,91552,1,0,0:0:0:0:
182,192,91705,1,0,0:0:0:0:
329,192,91705,1,0,0:0:0:0:
475,192,91705,1,0,0:0:0:0:
402,192,91705,1,0,0:0:0:0:
329,192,91858,1,0,0:0:0:0:
36,192,92011,1,0,0:0:0:0:
109,192,92011,1,0,0:0:0:0:
256,192,92011,1,0,0:0:0:0:
182,192,92164,1,0,0:0:0:0:
329,192,92164,1,0,0:0:0:0:
475,192,92164,1,0,0:0:0:0:
256,192,92164,1,0,0:0:0:0:
36,192,92164,1,0,0:0:0:0:
36,192,92317,1,0,0:0:0:0:
109,192,92317,1,0,0:0:0:0:
402,192,92317,1,0,0:0:0:0:
329,192,92355,1,0,0:0:0:0:
256,192,92393,1,0,0:0:0:0:
182,192,92432,1,0,0:0:0:0:
109,192,92470,1,0,0:0:0:0:
402,192,92470,1,0,0:0:0:0:
475,192,92470,1,0,0:0:0:0:
36,192,92470,1,0,0:0:0:0:
182,192,92623,1,0,0:0:0:0:
329,192,92623,1,0,0:0:0:0:
256,192,92776,1,0,0:0:0:0:
402,192,92776,1,0,0:0:0:0:
475,192,92776,1,0,0:0:0:0:
109,192,92776,1,0,0:0:0:0:
36,192,92929,1,0,0:0:0:0:
182,192,92929,1,0,0:0:0:0:
329,192,92929,1,0,0:0:0:0:
402,192,92929,1,0,0:0:0:0:
256,192,93006,1,0,0:0:0:0:
109,192,93006,1,0,0:0:0:0:
182,192,93082,1,0,0:0:0:0:
329,192,93082,1,0,0:0:0:0:
475,192,93082,1,0,0:0:0:0:
36,192,93235,1,0,0:0:0:0:
109,192,93235,1,0,0:0:0:0:
256,192,93235,1,0,0:0:0:0:
402,192,93235,1,0,0:0:0:0:
182,192,93388,1,0,0:0:0:0:
329,192,93388,1,0,0:0:0:0:
475,192,93388,1,0,0:0:0:0:
329,192,93465,1,0,0:0:0:0:
475,192,93465,1,0,0:0:0:0:
36,192,93541,1,0,0:0:0:0:
109,192,93541,1,0,0:0:0:0:
256,192,93541,1,0,0:0:0:0:
402,192,93541,1,0,0:0:0:0:
182,192,93694,1,0,0:0:0:0:
329,192,93694,1,0,0:0:0:0:
475,192,93694,1,0,0:0:0:0:
256,192,93694,1,0,0:0:0:0:
36,192,93694,128,0,94919:0:0:0:0:
109,192,93847,1,0,0:0:0:0:
182,192,93847,1,0,0:0:0:0:
329,192,93847,1,0,0:0:0:0:
256,192,94001,1,0,0:0:0:0:
402,192,94001,1,0,0:0:0:0:
475,192,94001,1,0,0:0:0:0:
182,192,94154,1,0,0:0:0:0:
329,192,94154,1,0,0:0:0:0:
475,192,94154,1,0,0:0:0:0:
109,192,94230,1,0,0:0:0:0:
182,192,94307,1,0,0:0:0:0:
329,192,94307,1,0,0:0:0:0:
109,192,94460,1,0,0:0:0:0:
256,192,94460,1,0,0:0:0:0:
402,192,94460,1,0,0:0:0:0:
182,192,94613,1,0,0:0:0:0:
329,192,94613,1,0,0:0:0:0:
475,192,94613,1,0,0:0:0:0:
109,192,94766,1,0,0:0:0:0:
256,192,94766,1,0,0:0:0:0:
329,192,94766,1,0,0:0:0:0:
402,192,94919,128,0,95837:0:0:0:0:
109,192,94919,1,0,0:0:0:0:
256,192,94919,1,0,0:0:0:0:
475,192,94919,1,0,0:0:0:0:
182,192,94995,1,0,0:0:0:0:
329,192,95072,1,0,0:0:0:0:
36,192,95072,1,0,0:0:0:0:
109,192,95149,1,0,0:0:0:0:
182,192,95225,1,0,0:0:0:0:
256,192,95225,1,0,0:0:0:0:
475,192,95225,1,0,0:0:0:0:
36,192,95378,1,0,0:0:0:0:
109,192,95378,1,0,0:0:0:0:
329,192,95378,1,0,0:0:0:0:
182,192,95455,1,0,0:0:0:0:
256,192,95455,1,0,0:0:0:0:
109,192,95531,1,0,0:0:0:0:
329,192,95531,1,0,0:0:0:0:
475,192,95531,1,0,0:0:0:0:
36,192,95684,1,0,0:0:0:0:
182,192,95684,1,0,0:0:0:0:
256,192,95684,1,0,0:0:0:0:
475,192,95837,128,0,96143:0:0:0:0:
329,192,95837,1,0,0:0:0:0:
182,192,95837,1,0,0:0:0:0:
36,192,95990,1,0,0:0:0:0:
109,192,95990,1,0,0:0:0:0:
256,192,95990,1,0,0:0:0:0:
402,192,96143,128,0,97215:0:0:0:0:
36,192,96143,1,0,0:0:0:0:
109,192,96143,1,0,0:0:0:0:
256,192,96143,1,0,0:0:0:0:
182,192,96220,1,0,0:0:0:0:
329,192,96296,1,0,0:0:0:0:
182,192,96373,1,0,0:0:0:0:
36,192,96450,1,0,0:0:0:0:
109,192,96450,1,0,0:0:0:0:
256,192,96450,1,0,0:0:0:0:
182,192,96603,1,0,0:0:0:0:
329,192,96603,1,0,0:0:0:0:
475,192,96603,1,0,0:0:0:0:
109,192,96756,1,0,0:0:0:0:
256,192,96756,1,0,0:0:0:0:
36,192,96909,1,0,0:0:0:0:
182,192,96909,1,0,0:0:0:0:
329,192,96909,1,0,0:0:0:0:
109,192,97062,1,0,0:0:0:0:
256,192,97062,1,0,0:0:0:0:
475,192,97062,1,0,0:0:0:0:
36,192,97215,1,0,0:0:0:0:
182,192,97215,1,0,0:0:0:0:
329,192,97215,1,0,0:0:0:0:
256,192,97368,128,0,97980:0:0:0:0:
329,192,97368,1,0,0:0:0:0:
182,192,97368,1,0,0:0:0:0:
475,192,97368,1,0,0:0:0:0:
402,192,97521,1,0,0:0:0:0:
109,192,97521,1,0,0:0:0:0:
329,192,97521,1,0,0:0:0:0:
36,192,97674,1,0,0:0:0:0:
182,192,97674,1,0,0:0:0:0:
402,192,97674,1,0,0:0:0:0:
109,192,97827,1,0,0:0:0:0:
475,192,97827,1,0,0:0:0:0:
329,192,97827,1,0,0:0:0:0:
182,192,97904,1,0,0:0:0:0:
402,192,97904,1,0,0:0:0:0:
329,192,97980,1,0,0:0:0:0:
36,192,97980,1,0,0:0:0:0:
109,192,97980,1,0,0:0:0:0:
475,192,98133,128,0,98592:0:0:0:0:
36,192,98133,1,0,0:0:0:0:
109,192,98133,1,0,0:0:0:0:
329,192,98133,1,0,0:0:0:0:
182,192,98286,1,0,0:0:0:0:
256,192,98286,1,0,0:0:0:0:
402,192,98286,1,0,0:0:0:0:
109,192,98439,1,0,0:0:0:0:
182,192,98439,1,0,0:0:0:0:
329,192,98439,1,0,0:0:0:0:
36,192,98592,128,0,99205:0:0:0:0:
256,192,98592,1,0,0:0:0:0:
402,192,98592,1,0,0:0:0:0:
109,192,98592,1,0,0:0:0:0:
182,192,98669,1,0,0:0:0:0:
329,192,98745,1,0,0:0:0:0:
475,192,98745,1,0,0:0:0:0:
256,192,98822,1,0,0:0:0:0:
109,192,98899,1,0,0:0:0:0:
182,192,98899,1,0,0:0:0:0:
402,192,98899,1,0,0:0:0:0:
182,192,99052,1,0,0:0:0:0:
256,192,99052,1,0,0:0:0:0:
475,192,99052,1,0,0:0:0:0:
402,192,99205,1,0,0:0:0:0:
109,192,99205,1,0,0:0:0:0:
329,192,99205,128,0,99817:0:0:0:0:
36,192,99358,1,0,0:0:0:0:
256,192,99358,1,0,0:0:0:0:
182,192,99358,1,0,0:0:0:0:
109,192,99511,1,0,0:0:0:0:
256,192,99511,1,0,0:0:0:0:
475,192,99511,1,0,0:0:0:0:
36,192,99664,1,0,0:0:0:0:
182,192,99664,1,0,0:0:0:0:
402,192,99664,1,0,0:0:0:0:
475,192,99817,128,0,101041:0:0:0:0:
109,192,99817,1,0,0:0:0:0:
256,192,99817,1,0,0:0:0:0:
402,192,99817,1,0,0:0:0:0:
182,192,99893,1,0,0:0:0:0:
36,192,99970,1,0,0:0:0:0:
329,192,99970,1,0,0:0:0:0:
256,192,100046,1,0,0:0:0:0:
109,192,100123,1,0,0:0:0:0:
182,192,100123,1,0,0:0:0:0:
402,192,100123,1,0,0:0:0:0:
36,192,100276,1,0,0:0:0:0:
109,192,100276,1,0,0:0:0:0:
256,192,100276,1,0,0:0:0:0:
182,192,100353,1,0,0:0:0:0:
329,192,100353,1,0,0:0:0:0:
256,192,100429,1,0,0:0:0:0:
402,192,100429,1,0,0:0:0:0:
36,192,100429,1,0,0:0:0:0:
109,192,100582,1,0,0:0:0:0:
36,192,100582,1,0,0:0:0:0:
256,192,100582,1,0,0:0:0:0:
182,192,100735,1,0,0:0:0:0:
329,192,100735,1,0,0:0:0:0:
402,192,100735,1,0,0:0:0:0:
36,192,100888,1,0,0:0:0:0:
109,192,100888,1,0,0:0:0:0:
256,192,100888,1,0,0:0:0:0:
256,192,101041,128,0,102266:0:0:0:0:
36,192,101041,1,0,0:0:0:0:
109,192,101041,1,0,0:0:0:0:
402,192,101041,1,0,0:0:0:0:
329,192,101118,1,0,0:0:0:0:
182,192,101194,1,0,0:0:0:0:
109,192,101194,1,0,0:0:0:0:
329,192,101271,1,0,0:0:0:0:
402,192,101347,1,0,0:0:0:0:
475,192,101347,1,0,0:0:0:0:
36,192,101347,1,0,0:0:0:0:
109,192,101501,1,0,0:0:0:0:
475,192,101501,1,0,0:0:0:0:
329,192,101501,1,0,0:0:0:0:
182,192,101577,1,0,0:0:0:0:
109,192,101654,1,0,0:0:0:0:
402,192,101654,1,0,0:0:0:0:
36,192,101807,1,0,0:0:0:0:
182,192,101807,1,0,0:0:0:0:
329,192,101807,1,0,0:0:0:0:
109,192,101960,1,0,0:0:0:0:
402,192,101960,1,0,0:0:0:0:
475,192,101960,1,0,0:0:0:0:
36,192,102113,1,0,0:0:0:0:
475,192,102113,1,0,0:0:0:0:
182,192,102151,1,0,0:0:0:0:
402,192,102189,1,0,0:0:0:0:
109,192,102228,1,0,0:0:0:0:
36,192,102266,128,0,103031:0:0:0:0:
475,192,102266,1,0,0:0:0:0:
329,192,102266,1,0,0:0:0:0:
182,192,102266,1,0,0:0:0:0:
256,192,102419,1,0,0:0:0:0:
402,192,102419,1,0,0:0:0:0:
475,192,102419,1,0,0:0:0:0:
182,192,102495,1,0,0:0:0:0:
329,192,102495,1,0,0:0:0:0:
256,192,102572,1,0,0:0:0:0:
109,192,102572,1,0,0:0:0:0:
475,192,102572,1,0,0:0:0:0:
182,192,102649,1,0,0:0:0:0:
329,192,102649,1,0,0:0:0:0:
402,192,102649,1,0,0:0:0:0:
256,192,102725,1,0,0:0:0:0:
109,192,102725,1,0,0:0:0:0:
475,192,102725,1,0,0:0:0:0:
329,192,102802,1,0,0:0:0:0:
182,192,102878,1,0,0:0:0:0:
402,192,102878,1,0,0:0:0:0:
475,192,102878,1,0,0:0:0:0:
402,192,103031,1,0,0:0:0:0:
475,192,103031,1,0,0:0:0:0:
109,192,103031,1,0,0:0:0:0:
256,192,103031,128,0,103414:0:0:0:0:
402,192,103184,1,0,0:0:0:0:
329,192,103184,1,0,0:0:0:0:
475,192,103184,1,0,0:0:0:0:
109,192,103261,1,0,0:0:0:0:
182,192,103261,1,0,0:0:0:0:
36,192,103261,1,0,0:0:0:0:
329,192,103337,1,0,0:0:0:0:
402,192,103337,1,0,0:0:0:0:
475,192,103337,1,0,0:0:0:0:
36,192,103414,1,0,0:0:0:0:
182,192,103414,1,0,0:0:0:0:
109,192,103414,1,0,0:0:0:0:
402,192,103490,1,0,0:0:0:0:
329,192,103490,1,0,0:0:0:0:
475,192,103490,1,0,0:0:0:0:
256,192,103490,1,0,0:0:0:0:
36,192,103643,1,0,0:0:0:0:
109,192,103643,1,0,0:0:0:0:
402,192,103643,1,0,0:0:0:0:
256,192,103643,1,0,0:0:0:0:
36,192,103796,1,0,0:0:0:0:
109,192,103796,1,0,0:0:0:0:
256,192,103796,1,0,0:0:0:0:
329,192,103796,1,0,0:0:0:0:
182,192,103950,1,0,0:0:0:0:
329,192,103950,1,0,0:0:0:0:
475,192,103950,1,0,0:0:0:0:
36,192,103950,1,0,0:0:0:0:
36,192,104256,1,0,0:0:0:0:
109,192,104256,1,0,0:0:0:0:
256,192,104256,1,0,0:0:0:0:
402,192,104256,1,0,0:0:0:0:
182,192,104409,1,0,0:0:0:0:
329,192,104409,1,0,0:0:0:0:
475,192,104409,1,0,0:0:0:0:
36,192,104409,1,0,0:0:0:0:
109,192,104485,1,0,0:0:0:0:
182,192,104562,1,0,0:0:0:0:
182,192,104638,1,0,0:0:0:0:
256,192,104715,1,0,0:0:0:0:
402,192,104715,1,0,0:0:0:0:
475,192,104715,1,0,0:0:0:0:
36,192,104715,1,0,0:0:0:0:
329,192,104791,1,0,0:0:0:0:
36,192,104868,1,0,0:0:0:0:
109,192,104868,1,0,0:0:0:0:
256,192,104868,1,0,0:0:0:0:
402,192,104868,1,0,0:0:0:0:
36,192,105021,1,0,0:0:0:0:
182,192,105021,1,0,0:0:0:0:
329,192,105021,1,0,0:0:0:0:
402,192,105021,1,0,0:0:0:0:
256,192,105174,1,0,0:0:0:0:
329,192,105174,1,0,0:0:0:0:
475,192,105174,1,0,0:0:0:0:
109,192,105174,1,0,0:0:0:0:
182,192,105251,1,0,0:0:0:0:
402,192,105251,1,0,0:0:0:0:
256,192,105327,1,0,0:0:0:0:
329,192,105327,1,0,0:0:0:0:
475,192,105327,1,0,0:0:0:0:
36,192,105327,1,0,0:0:0:0:
36,192,105404,1,0,0:0:0:0:
182,192,105480,1,0,0:0:0:0:
402,192,105480,1,0,0:0:0:0:
329,192,105480,1,0,0:0:0:0:
109,192,105480,1,0,0:0:0:0:
36,192,105633,1,0,0:0:0:0:
256,192,105633,1,0,0:0:0:0:
402,192,105633,1,0,0:0:0:0:
475,192,105633,1,0,0:0:0:0:
182,192,105710,1,0,0:0:0:0:
256,192,105786,1,0,0:0:0:0:
109,192,105786,1,0,0:0:0:0:
36,192,105786,1,0,0:0:0:0:
329,192,105863,1,0,0:0:0:0:
256,192,105939,1,0,0:0:0:0:
182,192,105939,1,0,0:0:0:0:
475,192,105939,1,0,0:0:0:0:
36,192,105939,1,0,0:0:0:0:
402,192,106016,1,0,0:0:0:0:
329,192,106092,1,0,0:0:0:0:
256,192,106092,1,0,0:0:0:0:
109,192,106092,1,0,0:0:0:0:
36,192,106092,1,0,0:0:0:0:
36,192,106245,1,0,0:0:0:0:
109,192,106245,1,0,0:0:0:0:
182,192,106245,1,0,0:0:0:0:
256,192,106245,1,0,0:0:0:0:
182,192,106399,1,0,0:0:0:0:
402,192,106399,1,0,0:0:0:0:
329,192,106399,1,0,0:0:0:0:
475,192,106399,1,0,0:0:0:0:
256,192,106475,1,0,0:0:0:0:
329,192,106552,1,0,0:0:0:0:
109,192,106552,1,0,0:0:0:0:
329,192,106628,1,0,0:0:0:0:
36,192,106705,1,0,0:0:0:0:
182,192,106705,1,0,0:0:0:0:
256,192,106705,1,0,0:0:0:0:
475,192,106705,1,0,0:0:0:0:
109,192,106858,1,0,0:0:0:0:
329,192,106858,1,0,0:0:0:0:
475,192,106858,1,0,0:0:0:0:
256,192,106858,1,0,0:0:0:0:
182,192,106934,1,0,0:0:0:0:
256,192,107011,1,0,0:0:0:0:
36,192,107011,1,0,0:0:0:0:
109,192,107011,1,0,0:0:0:0:
329,192,107087,1,0,0:0:0:0:
329,192,107164,1,0,0:0:0:0:
182,192,107164,1,0,0:0:0:0:
36,192,107164,1,0,0:0:0:0:
475,192,107164,1,0,0:0:0:0:
109,192,107240,1,0,0:0:0:0:
182,192,107317,1,0,0:0:0:0:
256,192,107317,1,0,0:0:0:0:
402,192,107317,1,0,0:0:0:0:
36,192,107317,1,0,0:0:0:0:
109,192,107470,1,0,0:0:0:0:
36,192,107470,1,0,0:0:0:0:
256,192,107470,1,0,0:0:0:0:
329,192,107470,1,0,0:0:0:0:
256,192,107623,1,0,0:0:0:0:
402,192,107623,1,0,0:0:0:0:
475,192,107623,1,0,0:0:0:0:
109,192,107623,1,0,0:0:0:0:
182,192,107700,1,0,0:0:0:0:
329,192,107700,1,0,0:0:0:0:
256,192,107776,1,0,0:0:0:0:
402,192,107776,1,0,0:0:0:0:
475,192,107776,1,0,0:0:0:0:
36,192,107776,1,0,0:0:0:0:
36,192,107853,1,0,0:0:0:0:
182,192,107929,1,0,0:0:0:0:
329,192,107929,1,0,0:0:0:0:
475,192,107929,1,0,0:0:0:0:
402,192,107929,1,0,0:0:0:0:
109,192,108082,1,0,0:0:0:0:
36,192,108082,1,0,0:0:0:0:
256,192,108082,1,0,0:0:0:0:
402,192,108082,1,0,0:0:0:0:
329,192,108159,1,0,0:0:0:0:
475,192,108235,1,0,0:0:0:0:
182,192,108235,1,0,0:0:0:0:
36,192,108235,1,0,0:0:0:0:
256,192,108235,1,0,0:0:0:0:
402,192,108312,1,0,0:0:0:0:
329,192,108388,1,0,0:0:0:0:
109,192,108388,1,0,0:0:0:0:
182,192,108388,1,0,0:0:0:0:
475,192,108388,1,0,0:0:0:0:
36,192,108541,1,0,0:0:0:0:
182,192,108541,1,0,0:0:0:0:
256,192,108541,1,0,0:0:0:0:
402,192,108541,1,0,0:0:0:0:
36,192,108694,1,0,0:0:0:0:
109,192,108694,1,0,0:0:0:0:
329,192,108694,1,0,0:0:0:0:
256,192,108694,1,0,0:0:0:0:
182,192,108847,1,0,0:0:0:0:
329,192,108847,1,0,0:0:0:0:
402,192,108847,1,0,0:0:0:0:
475,192,108847,1,0,0:0:0:0:
109,192,108924,1,0,0:0:0:0:
36,192,109001,1,0,0:0:0:0:
256,192,109001,1,0,0:0:0:0:
256,192,109077,1,0,0:0:0:0:
109,192,109154,1,0,0:0:0:0:
182,192,109154,1,0,0:0:0:0:
402,192,109154,1,0,0:0:0:0:
475,192,109154,1,0,0:0:0:0:
36,192,109307,1,0,0:0:0:0:
256,192,109307,1,0,0:0:0:0:
329,192,109307,1,0,0:0:0:0:
475,192,109307,1,0,0:0:0:0:
182,192,109383,1,0,0:0:0:0:
256,192,109460,1,0,0:0:0:0:
109,192,109460,1,0,0:0:0:0:
36,192,109460,1,0,0:0:0:0:
329,192,109536,1,0,0:0:0:0:
256,192,109613,1,0,0:0:0:0:
402,192,109613,1,0,0:0:0:0:
475,192,109613,1,0,0:0:0:0:
109,192,109613,1,0,0:0:0:0:
182,192,109689,1,0,0:0:0:0:
36,192,109766,1,0,0:0:0:0:
109,192,109766,1,0,0:0:0:0:
329,192,109766,1,0,0:0:0:0:
402,192,109766,1,0,0:0:0:0:
36,192,109919,1,0,0:0:0:0:
182,192,109919,1,0,0:0:0:0:
256,192,109919,1,0,0:0:0:0:
329,192,109919,1,0,0:0:0:0:
109,192,110072,1,0,0:0:0:0:
182,192,110072,1,0,0:0:0:0:
329,192,110072,1,0,0:0:0:0:
475,192,110072,1,0,0:0:0:0:
256,192,110149,1,0,0:0:0:0:
402,192,110149,1,0,0:0:0:0:
329,192,110225,1,0,0:0:0:0:
182,192,110225,1,0,0:0:0:0:
36,192,110225,1,0,0:0:0:0:
109,192,110225,1,0,0:0:0:0:
182,192,110302,1,0,0:0:0:0:
256,192,110378,1,0,0:0:0:0:
402,192,110378,1,0,0:0:0:0:
475,192,110378,1,0,0:0:0:0:
36,192,110378,1,0,0:0:0:0:
182,192,110531,1,0,0:0:0:0:
329,192,110531,1,0,0:0:0:0:
475,192,110531,1,0,0:0:0:0:
109,192,110531,1,0,0:0:0:0:
256,192,110608,1,0,0:0:0:0:
329,192,110684,1,0,0:0:0:0:
36,192,110684,1,0,0:0:0:0:
182,192,110684,1,0,0:0:0:0:
402,192,110761,1,0,0:0:0:0:
329,192,110837,1,0,0:0:0:0:
256,192,110837,1,0,0:0:0:0:
109,192,110837,1,0,0:0:0:0:
36,192,110837,1,0,0:0:0:0:
182,192,110914,1,0,0:0:0:0:
36,192,110990,1,0,0:0:0:0:
109,192,110990,1,0,0:0:0:0:
256,192,110990,1,0,0:0:0:0:
402,192,110990,1,0,0:0:0:0:
329,192,111067,1,0,0:0:0:0:
36,192,111143,1,0,0:0:0:0:
182,192,111143,1,0,0:0:0:0:
256,192,111143,1,0,0:0:0:0:
109,192,111143,1,0,0:0:0:0:
182,192,111296,1,0,0:0:0:0:
329,192,111296,1,0,0:0:0:0:
402,192,111296,1,0,0:0:0:0:
475,192,111296,1,0,0:0:0:0:
109,192,111373,1,0,0:0:0:0:
36,192,111450,1,0,0:0:0:0:
256,192,111450,1,0,0:0:0:0:
182,192,111526,1,0,0:0:0:0:
182,192,111603,1,0,0:0:0:0:
402,192,111603,1,0,0:0:0:0:
475,192,111603,1,0,0:0:0:0:
329,192,111603,1,0,0:0:0:0:
36,192,111756,1,0,0:0:0:0:
109,192,111756,1,0,0:0:0:0:
256,192,111756,1,0,0:0:0:0:
402,192,111756,1,0,0:0:0:0:
182,192,111832,1,0,0:0:0:0:
475,192,111909,1,0,0:0:0:0:
36,192,111909,1,0,0:0:0:0:
329,192,111909,1,0,0:0:0:0:
109,192,111947,1,0,0:0:0:0:
402,192,111985,1,0,0:0:0:0:
182,192,111985,1,0,0:0:0:0:
256,192,112024,1,0,0:0:0:0:
475,192,112062,1,0,0:0:0:0:
329,192,112062,1,0,0:0:0:0:
36,192,112062,1,0,0:0:0:0:
109,192,112062,1,0,0:0:0:0:
182,192,112138,1,0,0:0:0:0:
256,192,112215,1,0,0:0:0:0:
402,192,112215,1,0,0:0:0:0:
36,192,112215,1,0,0:0:0:0:
109,192,112215,1,0,0:0:0:0:
182,192,112368,1,0,0:0:0:0:
329,192,112368,1,0,0:0:0:0:
109,192,112368,1,0,0:0:0:0:
36,192,112368,1,0,0:0:0:0:
256,192,112521,1,0,0:0:0:0:
402,192,112521,1,0,0:0:0:0:
475,192,112521,1,0,0:0:0:0:
109,192,112521,1,0,0:0:0:0:
182,192,112597,1,0,0:0:0:0:
329,192,112597,1,0,0:0:0:0:
256,192,112674,1,0,0:0:0:0:
109,192,112674,1,0,0:0:0:0:
36,192,112674,1,0,0:0:0:0:
402,192,112674,1,0,0:0:0:0:
402,192,112751,1,0,0:0:0:0:
182,192,112827,1,0,0:0:0:0:
329,192,112827,1,0,0:0:0:0:
475,192,112827,1,0,0:0:0:0:
36,192,112827,1,0,0:0:0:0:
256,192,112980,1,0,0:0:0:0:
402,192,112980,1,0,0:0:0:0:
475,192,112980,1,0,0:0:0:0:
109,192,112980,1,0,0:0:0:0:
36,192,113057,1,0,0:0:0:0:
329,192,113057,1,0,0:0:0:0:
182,192,113057,1,0,0:0:0:0:
256,192,113133,1,0,0:0:0:0:
402,192,113133,1,0,0:0:0:0:
475,192,113133,1,0,0:0:0:0:
109,192,113133,1,0,0:0:0:0:
182,192,113210,1,0,0:0:0:0:
329,192,113210,1,0,0:0:0:0:
36,192,113286,1,0,0:0:0:0:
109,192,113286,1,0,0:0:0:0:
256,192,113286,1,0,0:0:0:0:
402,192,113286,1,0,0:0:0:0:
475,192,113286,1,0,0:0:0:0:
329,192,113363,1,0,0:0:0:0:
36,192,113439,1,0,0:0:0:0:
109,192,113439,1,0,0:0:0:0:
256,192,113439,1,0,0:0:0:0:
475,192,113439,1,0,0:0:0:0:
402,192,113516,1,0,0:0:0:0:
36,192,113592,1,0,0:0:0:0:
109,192,113592,1,0,0:0:0:0:
256,192,113592,1,0,0:0:0:0:
329,192,113592,1,0,0:0:0:0:
402,192,113669,1,0,0:0:0:0:
182,192,113745,1,0,0:0:0:0:
329,192,113745,1,0,0:0:0:0:
475,192,113745,1,0,0:0:0:0:
36,192,113745,1,0,0:0:0:0:
109,192,113822,1,0,0:0:0:0:
256,192,113822,1,0,0:0:0:0:
182,192,113899,1,0,0:0:0:0:
329,192,113899,1,0,0:0:0:0:
109,192,113975,1,0,0:0:0:0:
256,192,113975,1,0,0:0:0:0:
36,192,114052,1,0,0:0:0:0:
402,192,114052,1,0,0:0:0:0:
182,192,114052,1,0,0:0:0:0:
475,192,114052,1,0,0:0:0:0:
182,192,114205,1,0,0:0:0:0:
402,192,114205,1,0,0:0:0:0:
475,192,114205,1,0,0:0:0:0:
36,192,114205,1,0,0:0:0:0:
256,192,114281,1,0,0:0:0:0:
109,192,114281,1,0,0:0:0:0:
329,192,114358,1,0,0:0:0:0:
182,192,114358,1,0,0:0:0:0:
329,192,114434,1,0,0:0:0:0:
109,192,114434,1,0,0:0:0:0:
475,192,114511,1,0,0:0:0:0:
36,192,114511,1,0,0:0:0:0:
402,192,114511,1,0,0:0:0:0:
256,192,114511,1,0,0:0:0:0:
182,192,114587,1,0,0:0:0:0:
36,192,114664,1,0,0:0:0:0:
109,192,114664,1,0,0:0:0:0:
402,192,114664,1,0,0:0:0:0:
329,192,114664,1,0,0:0:0:0:
182,192,114740,1,0,0:0:0:0:
36,192,114817,1,0,0:0:0:0:
329,192,114817,1,0,0:0:0:0:
256,192,114817,1,0,0:0:0:0:
109,192,114817,1,0,0:0:0:0:
182,192,114893,1,0,0:0:0:0:
329,192,114970,1,0,0:0:0:0:
475,192,114970,1,0,0:0:0:0:
109,192,114970,1,0,0:0:0:0:
36,192,114970,1,0,0:0:0:0:
402,192,115046,1,0,0:0:0:0:
256,192,115046,1,0,0:0:0:0:
329,192,115123,1,0,0:0:0:0:
475,192,115123,1,0,0:0:0:0:
182,192,115123,1,0,0:0:0:0:
109,192,115200,1,0,0:0:0:0:
256,192,115200,1,0,0:0:0:0:
402,192,115276,1,0,0:0:0:0:
36,192,115276,1,0,0:0:0:0:
182,192,115276,1,0,0:0:0:0:
475,192,115276,1,0,0:0:0:0:
36,192,115429,1,0,0:0:0:0:
402,192,115429,1,0,0:0:0:0:
475,192,115429,1,0,0:0:0:0:
182,192,115429,1,0,0:0:0:0:
329,192,115506,1,0,0:0:0:0:
109,192,115506,1,0,0:0:0:0:
402,192,115582,1,0,0:0:0:0:
182,192,115582,1,0,0:0:0:0:
36,192,115582,1,0,0:0:0:0:
475,192,115659,1,0,0:0:0:0:
256,192,115659,1,0,0:0:0:0:
36,192,115735,1,0,0:0:0:0:
402,192,115735,1,0,0:0:0:0:
109,192,115735,1,0,0:0:0:0:
182,192,115735,1,0,0:0:0:0:
329,192,115812,1,0,0:0:0:0:
256,192,115888,1,0,0:0:0:0:
109,192,115888,1,0,0:0:0:0:
36,192,115888,1,0,0:0:0:0:
475,192,115888,1,0,0:0:0:0:
402,192,115965,1,0,0:0:0:0:
36,192,116041,1,0,0:0:0:0:
109,192,116041,1,0,0:0:0:0:
329,192,116041,1,0,0:0:0:0:
182,192,116041,1,0,0:0:0:0:
256,192,116118,1,0,0:0:0:0:
182,192,116194,1,0,0:0:0:0:
402,192,116194,1,0,0:0:0:0:
329,192,116194,1,0,0:0:0:0:
475,192,116194,1,0,0:0:0:0:
109,192,116271,1,0,0:0:0:0:
256,192,116271,1,0,0:0:0:0:
329,192,116347,1,0,0:0:0:0:
182,192,116347,1,0,0:0:0:0:
329,192,116424,1,0,0:0:0:0:
109,192,116424,1,0,0:0:0:0:
36,192,116501,1,0,0:0:0:0:
182,192,116501,1,0,0:0:0:0:
256,192,116501,1,0,0:0:0:0:
475,192,116501,1,0,0:0:0:0:
475,192,116654,1,0,0:0:0:0:
36,192,116654,1,0,0:0:0:0:
256,192,116654,1,0,0:0:0:0:
182,192,116654,1,0,0:0:0:0:
109,192,116730,1,0,0:0:0:0:
329,192,116730,1,0,0:0:0:0:
402,192,116807,1,0,0:0:0:0:
256,192,116807,1,0,0:0:0:0:
182,192,116883,1,0,0:0:0:0:
329,192,116883,1,0,0:0:0:0:
36,192,116960,1,0,0:0:0:0:
475,192,116960,1,0,0:0:0:0:
256,192,116960,1,0,0:0:0:0:
402,192,116960,1,0,0:0:0:0:
109,192,117036,1,0,0:0:0:0:
182,192,117113,1,0,0:0:0:0:
256,192,117113,1,0,0:0:0:0:
36,192,117113,1,0,0:0:0:0:
402,192,117113,1,0,0:0:0:0:
329,192,117189,1,0,0:0:0:0:
109,192,117266,1,0,0:0:0:0:
36,192,117266,1,0,0:0:0:0:
402,192,117266,1,0,0:0:0:0:
256,192,117266,1,0,0:0:0:0:
182,192,117342,1,0,0:0:0:0:
256,192,117419,1,0,0:0:0:0:
402,192,117419,1,0,0:0:0:0:
109,192,117419,1,0,0:0:0:0:
36,192,117419,1,0,0:0:0:0:
182,192,117495,1,0,0:0:0:0:
329,192,117495,1,0,0:0:0:0:
256,192,117572,1,0,0:0:0:0:
402,192,117572,1,0,0:0:0:0:
109,192,117572,1,0,0:0:0:0:
475,192,117572,1,0,0:0:0:0:
256,192,117649,1,0,0:0:0:0:
36,192,117649,1,0,0:0:0:0:
182,192,117725,1,0,0:0:0:0:
329,192,117725,1,0,0:0:0:0:
402,192,117725,1,0,0:0:0:0:
109,192,117725,1,0,0:0:0:0:
109,192,117878,1,0,0:0:0:0:
402,192,117878,1,0,0:0:0:0:
182,192,117878,1,0,0:0:0:0:
329,192,117878,1,0,0:0:0:0:
256,192,117955,1,0,0:0:0:0:
36,192,117955,1,0,0:0:0:0:
475,192,118031,1,0,0:0:0:0:
329,192,118031,1,0,0:0:0:0:
182,192,118031,1,0,0:0:0:0:
256,192,118108,1,0,0:0:0:0:
109,192,118108,1,0,0:0:0:0:
182,192,118184,1,0,0:0:0:0:
475,192,118184,1,0,0:0:0:0:
402,192,118184,1,0,0:0:0:0:
36,192,118184,1,0,0:0:0:0:
329,192,118261,1,0,0:0:0:0:
36,192,118337,1,0,0:0:0:0:
256,192,118337,1,0,0:0:0:0:
402,192,118337,1,0,0:0:0:0:
109,192,118337,1,0,0:0:0:0:
182,192,118414,1,0,0:0:0:0:
36,192,118490,1,0,0:0:0:0:
109,192,118490,1,0,0:0:0:0:
329,192,118490,1,0,0:0:0:0:
475,192,118490,1,0,0:0:0:0:
256,192,118567,1,0,0:0:0:0:
182,192,118643,1,0,0:0:0:0:
402,192,118643,1,0,0:0:0:0:
475,192,118643,1,0,0:0:0:0:
36,192,118643,1,0,0:0:0:0:
109,192,118720,1,0,0:0:0:0:
329,192,118720,1,0,0:0:0:0:
182,192,118796,1,0,0:0:0:0:
402,192,118796,1,0,0:0:0:0:
182,192,118873,1,0,0:0:0:0:
329,192,118873,1,0,0:0:0:0:
109,192,118950,1,0,0:0:0:0:
475,192,118950,1,0,0:0:0:0:
256,192,118950,1,0,0:0:0:0:
36,192,118950,1,0,0:0:0:0:
36,192,119103,1,0,0:0:0:0:
475,192,119103,1,0,0:0:0:0:
109,192,119103,1,0,0:0:0:0:
256,192,119103,1,0,0:0:0:0:
329,192,119179,1,0,0:0:0:0:
182,192,119179,1,0,0:0:0:0:
402,192,119256,1,0,0:0:0:0:
256,192,119256,1,0,0:0:0:0:
475,192,119256,1,0,0:0:0:0:
182,192,119332,1,0,0:0:0:0:
36,192,119332,1,0,0:0:0:0:
256,192,119409,1,0,0:0:0:0:
475,192,119409,1,0,0:0:0:0:
109,192,119409,1,0,0:0:0:0:
402,192,119409,1,0,0:0:0:0:
36,192,119485,1,0,0:0:0:0:
109,192,119562,1,0,0:0:0:0:
329,192,119562,1,0,0:0:0:0:
402,192,119562,1,0,0:0:0:0:
182,192,119562,1,0,0:0:0:0:
36,192,119638,1,0,0:0:0:0:
182,192,119715,1,0,0:0:0:0:
256,192,119715,1,0,0:0:0:0:
329,192,119715,1,0,0:0:0:0:
109,192,119715,1,0,0:0:0:0:
36,192,119791,1,0,0:0:0:0:
109,192,119868,1,0,0:0:0:0:
182,192,119868,1,0,0:0:0:0:
329,192,119868,1,0,0:0:0:0:
475,192,119868,1,0,0:0:0:0:
256,192,119944,1,0,0:0:0:0:
402,192,119944,1,0,0:0:0:0:
329,192,120021,1,0,0:0:0:0:
36,192,120021,1,0,0:0:0:0:
109,192,120021,1,0,0:0:0:0:
182,192,120021,1,0,0:0:0:0:
329,192,120097,1,0,0:0:0:0:
402,192,120097,1,0,0:0:0:0:
256,192,120174,1,0,0:0:0:0:
475,192,120174,1,0,0:0:0:0:
36,192,120174,1,0,0:0:0:0:
109,192,120174,1,0,0:0:0:0:
475,192,120327,1,0,0:0:0:0:
109,192,120327,1,0,0:0:0:0:
36,192,120327,1,0,0:0:0:0:
256,192,120327,1,0,0:0:0:0:
329,192,120404,1,0,0:0:0:0:
182,192,120404,1,0,0:0:0:0:
36,192,120480,1,0,0:0:0:0:
402,192,120480,1,0,0:0:0:0:
109,192,120480,1,0,0:0:0:0:
475,192,120557,1,0,0:0:0:0:
329,192,120557,1,0,0:0:0:0:
109,192,120633,1,0,0:0:0:0:
36,192,120633,1,0,0:0:0:0:
402,192,120633,1,0,0:0:0:0:
256,192,120633,1,0,0:0:0:0:
329,192,120710,1,0,0:0:0:0:
36,192,120786,1,0,0:0:0:0:
109,192,120786,1,0,0:0:0:0:
256,192,120786,1,0,0:0:0:0:
182,192,120786,1,0,0:0:0:0:
329,192,120863,1,0,0:0:0:0:
36,192,120939,1,0,0:0:0:0:
402,192,120939,1,0,0:0:0:0:
475,192,120939,1,0,0:0:0:0:
182,192,120939,1,0,0:0:0:0:
256,192,121016,1,0,0:0:0:0:
182,192,121092,1,0,0:0:0:0:
329,192,121092,1,0,0:0:0:0:
402,192,121092,1,0,0:0:0:0:
475,192,121092,1,0,0:0:0:0:
109,192,121169,1,0,0:0:0:0:
256,192,121169,1,0,0:0:0:0:
36,192,121245,1,0,0:0:0:0:
329,192,121245,1,0,0:0:0:0:
182,192,121245,1,0,0:0:0:0:
329,192,121322,1,0,0:0:0:0:
256,192,121322,1,0,0:0:0:0:
182,192,121399,1,0,0:0:0:0:
402,192,121399,1,0,0:0:0:0:
475,192,121399,1,0,0:0:0:0:
36,192,121399,1,0,0:0:0:0:
402,192,121552,1,0,0:0:0:0:
182,192,121552,1,0,0:0:0:0:
475,192,121552,1,0,0:0:0:0:
36,192,121552,1,0,0:0:0:0:
256,192,121628,1,0,0:0:0:0:
109,192,121628,1,0,0:0:0:0:
36,192,121705,1,0,0:0:0:0:
475,192,121705,1,0,0:0:0:0:
402,192,121705,1,0,0:0:0:0:
182,192,121705,1,0,0:0:0:0:
329,192,121743,1,0,0:0:0:0:
256,192,121781,1,0,0:0:0:0:
109,192,121781,1,0,0:0:0:0:
182,192,121819,1,0,0:0:0:0:
475,192,121858,1,0,0:0:0:0:
36,192,121858,1,0,0:0:0:0:
402,192,121858,1,0,0:0:0:0:
329,192,121858,1,0,0:0:0:0:
256,192,121909,1,0,0:0:0:0:
182,192,121960,1,0,0:0:0:0:
402,192,122011,1,0,0:0:0:0:
329,192,122062,1,0,0:0:0:0:
256,192,122113,1,0,0:0:0:0:
475,192,122164,1,0,0:0:0:0:
109,192,122164,1,0,0:0:0:0:
36,192,122164,1,0,0:0:0:0:
182,192,122164,1,0,0:0:0:0:
402,192,122215,1,0,0:0:0:0:
329,192,122266,1,0,0:0:0:0:
256,192,122317,1,0,0:0:0:0:
182,192,122368,1,0,0:0:0:0:
109,192,122419,1,0,0:0:0:0:
402,192,122470,1,0,0:0:0:0:
36,192,122470,1,0,0:0:0:0:
475,192,122470,1,0,0:0:0:0:
329,192,122470,1,0,0:0:0:0:
256,192,122521,1,0,0:0:0:0:
182,192,122572,1,0,0:0:0:0:
109,192,122623,1,0,0:0:0:0:
402,192,122623,1,0,0:0:0:0:
329,192,122674,1,0,0:0:0:0:
256,192,122725,1,0,0:0:0:0:
475,192,122776,1,0,0:0:0:0:
36,192,122776,1,0,0:0:0:0:
109,192,122776,1,0,0:0:0:0:
182,192,122776,1,0,0:0:0:0:
402,192,122827,1,0,0:0:0:0:
329,192,122878,1,0,0:0:0:0:
256,192,122929,1,0,0:0:0:0:
182,192,122980,1,0,0:0:0:0:
109,192,123031,1,0,0:0:0:0:
36,192,123082,1,0,0:0:0:0:
402,192,123082,1,0,0:0:0:0:
475,192,123082,1,0,0:0:0:0:
329,192,123082,1,0,0:0:0:0:
256,192,123082,1,0,0:0:0:0:
182,192,123159,1,0,0:0:0:0:
329,192,123235,1,0,0:0:0:0:
109,192,123235,1,0,0:0:0:0:
256,192,123312,1,0,0:0:0:0:
329,192,123388,1,0,0:0:0:0:
36,192,123388,1,0,0:0:0:0:
182,192,123388,1,0,0:0:0:0:
475,192,123465,1,0,0:0:0:0:
402,192,123541,1,0,0:0:0:0:
329,192,123618,1,0,0:0:0:0:
109,192,123618,1,0,0:0:0:0:
36,192,123694,1,0,0:0:0:0:
182,192,123694,1,0,0:0:0:0:
402,192,123694,1,0,0:0:0:0:
256,192,123771,1,0,0:0:0:0:
329,192,123847,1,0,0:0:0:0:
109,192,123847,1,0,0:0:0:0:
36,192,123847,1,0,0:0:0:0:
475,192,123924,1,0,0:0:0:0:
402,192,124001,1,0,0:0:0:0:
256,192,124001,1,0,0:0:0:0:
329,192,124077,1,0,0:0:0:0:
182,192,124077,1,0,0:0:0:0:
256,192,124154,1,0,0:0:0:0:
36,192,124154,1,0,0:0:0:0:
109,192,124154,1,0,0:0:0:0:
182,192,124230,1,0,0:0:0:0:
109,192,124307,1,0,0:0:0:0:
36,192,124307,1,0,0:0:0:0:
329,192,124307,1,0,0:0:0:0:
402,192,124383,1,0,0:0:0:0:
256,192,124460,1,0,0:0:0:0:
475,192,124460,1,0,0:0:0:0:
329,192,124511,1,0,0:0:0:0:
109,192,124536,1,0,0:0:0:0:
402,192,124562,1,0,0:0:0:0:
182,192,124613,1,0,0:0:0:0:
36,192,124613,1,0,0:0:0:0:
256,192,124664,1,0,0:0:0:0:
329,192,124689,1,0,0:0:0:0:
475,192,124715,1,0,0:0:0:0:
402,192,124766,1,0,0:0:0:0:
36,192,124766,1,0,0:0:0:0:
182,192,124766,1,0,0:0:0:0:
329,192,124817,1,0,0:0:0:0:
109,192,124842,1,0,0:0:0:0:
256,192,124868,1,0,0:0:0:0:
182,192,124919,1,0,0:0:0:0:
402,192,124919,1,0,0:0:0:0:
475,192,124919,1,0,0:0:0:0:
36,192,124919,1,0,0:0:0:0:
329,192,124957,1,0,0:0:0:0:
109,192,124995,1,0,0:0:0:0:
182,192,125034,1,0,0:0:0:0:
402,192,125072,1,0,0:0:0:0:
256,192,125072,1,0,0:0:0:0:
475,192,125072,1,0,0:0:0:0:
36,192,125110,1,0,0:0:0:0:
109,192,125149,1,0,0:0:0:0:
329,192,125149,1,0,0:0:0:0:
182,192,125187,1,0,0:0:0:0:
402,192,125225,1,0,0:0:0:0:
36,192,125225,1,0,0:0:0:0:
256,192,125225,1,0,0:0:0:0:
475,192,125302,1,0,0:0:0:0:
329,192,125302,1,0,0:0:0:0:
402,192,125378,1,0,0:0:0:0:
36,192,125378,1,0,0:0:0:0:
256,192,125378,1,0,0:0:0:0:
329,192,125455,1,0,0:0:0:0:
109,192,125455,1,0,0:0:0:0:
182,192,125455,1,0,0:0:0:0:
402,192,125531,1,0,0:0:0:0:
36,192,125531,1,0,0:0:0:0:
475,192,125531,1,0,0:0:0:0:
256,192,125531,1,0,0:0:0:0:
182,192,125608,1,0,0:0:0:0:
109,192,125684,1,0,0:0:0:0:
329,192,125684,1,0,0:0:0:0:
182,192,125761,1,0,0:0:0:0:
402,192,125761,1,0,0:0:0:0:
256,192,125837,1,0,0:0:0:0:
475,192,125837,1,0,0:0:0:0:
36,192,125837,1,0,0:0:0:0:
402,192,125914,1,0,0:0:0:0:
329,192,125990,1,0,0:0:0:0:
109,192,125990,1,0,0:0:0:0:
182,192,126067,1,0,0:0:0:0:
256,192,126143,1,0,0:0:0:0:
402,192,126143,1,0,0:0:0:0:
475,192,126143,1,0,0:0:0:0:
36,192,126143,1,0,0:0:0:0:
109,192,126182,1,0,0:0:0:0:
182,192,126220,1,0,0:0:0:0:
329,192,126258,1,0,0:0:0:0:
109,192,126296,1,0,0:0:0:0:
36,192,126296,1,0,0:0:0:0:
402,192,126296,1,0,0:0:0:0:
475,192,126335,1,0,0:0:0:0:
256,192,126373,1,0,0:0:0:0:
182,192,126411,1,0,0:0:0:0:
402,192,126450,1,0,0:0:0:0:
36,192,126450,1,0,0:0:0:0:
109,192,126450,1,0,0:0:0:0:
329,192,126488,1,0,0:0:0:0:
256,192,126526,1,0,0:0:0:0:
182,192,126564,1,0,0:0:0:0:
475,192,126603,1,0,0:0:0:0:
402,192,126603,1,0,0:0:0:0:
36,192,126603,1,0,0:0:0:0:
109,192,126603,1,0,0:0:0:0:
182,192,126679,1,0,0:0:0:0:
329,192,126679,1,0,0:0:0:0:
36,192,126756,1,0,0:0:0:0:
402,192,126756,1,0,0:0:0:0:
475,192,126756,1,0,0:0:0:0:
256,192,126756,1,0,0:0:0:0:
109,192,126832,1,0,0:0:0:0:
182,192,126909,1,0,0:0:0:0:
475,192,126909,1,0,0:0:0:0:
256,192,126960,1,0,0:0:0:0:
402,192,126985,1,0,0:0:0:0:
329,192,127011,1,0,0:0:0:0:
109,192,127062,1,0,0:0:0:0:
36,192,127062,1,0,0:0:0:0:
182,192,127113,1,0,0:0:0:0:
475,192,127164,1,0,0:0:0:0:
402,192,127215,1,0,0:0:0:0:
36,192,127215,1,0,0:0:0:0:
109,192,127215,1,0,0:0:0:0:
329,192,127266,1,0,0:0:0:0:
256,192,127317,1,0,0:0:0:0:
36,192,127368,1,0,0:0:0:0:
182,192,127368,1,0,0:0:0:0:
402,192,127368,1,0,0:0:0:0:
475,192,127368,1,0,0:0:0:0:
109,192,127444,1,0,0:0:0:0:
182,192,127521,1,0,0:0:0:0:
329,192,127521,1,0,0:0:0:0:
475,192,127521,1,0,0:0:0:0:
109,192,127597,1,0,0:0:0:0:
256,192,127674,1,0,0:0:0:0:
36,192,127674,1,0,0:0:0:0:
402,192,127674,1,0,0:0:0:0:
329,192,127751,1,0,0:0:0:0:
109,192,127751,1,0,0:0:0:0:
402,192,127827,1,0,0:0:0:0:
182,192,127827,1,0,0:0:0:0:
256,192,127827,1,0,0:0:0:0:
475,192,127904,1,0,0:0:0:0:
109,192,127904,1,0,0:0:0:0:
36,192,127980,1,0,0:0:0:0:
329,192,127980,1,0,0:0:0:0:
256,192,127980,1,0,0:0:0:0:
182,192,128057,1,0,0:0:0:0:
329,192,128133,1,0,0:0:0:0:
109,192,128133,1,0,0:0:0:0:
36,192,128133,1,0,0:0:0:0:
402,192,128210,1,0,0:0:0:0:
475,192,128286,1,0,0:0:0:0:
182,192,128286,1,0,0:0:0:0:
256,192,128286,1,0,0:0:0:0:
329,192,128363,1,0,0:0:0:0:
475,192,128439,1,0,0:0:0:0:
182,192,128439,1,0,0:0:0:0:
402,192,128516,1,0,0:0:0:0:
256,192,128592,1,0,0:0:0:0:
36,192,128592,1,0,0:0:0:0:
109,192,128631,1,0,0:0:0:0:
329,192,128669,1,0,0:0:0:0:
182,192,128669,1,0,0:0:0:0:
256,192,128707,1,0,0:0:0:0:
475,192,128745,1,0,0:0:0:0:
36,192,128745,1,0,0:0:0:0:
402,192,128822,1,0,0:0:0:0:
109,192,128822,1,0,0:0:0:0:
182,192,128860,1,0,0:0:0:0:
329,192,128899,1,0,0:0:0:0:
256,192,128899,1,0,0:0:0:0:
475,192,128975,1,0,0:0:0:0:
402,192,129052,1,0,0:0:0:0:
36,192,129052,1,0,0:0:0:0:
182,192,129052,1,0,0:0:0:0:
329,192,129128,1,0,0:0:0:0:
475,192,129205,1,0,0:0:0:0:
109,192,129205,1,0,0:0:0:0:
256,192,129205,1,0,0:0:0:0:
402,192,129281,1,0,0:0:0:0:
329,192,129358,1,0,0:0:0:0:
256,192,129434,1,0,0:0:0:0:
402,192,129511,1,0,0:0:0:0:
36,192,129511,1,0,0:0:0:0:
182,192,129511,1,0,0:0:0:0:
329,192,129587,1,0,0:0:0:0:
109,192,129587,1,0,0:0:0:0:
256,192,129664,1,0,0:0:0:0:
402,192,129664,1,0,0:0:0:0:
475,192,129664,1,0,0:0:0:0:
182,192,129740,1,0,0:0:0:0:
329,192,129740,1,0,0:0:0:0:
109,192,129817,1,0,0:0:0:0:
36,192,129817,1,0,0:0:0:0:
256,192,129817,1,0,0:0:0:0:
475,192,129893,1,0,0:0:0:0:
402,192,129970,1,0,0:0:0:0:
182,192,129970,1,0,0:0:0:0:
36,192,129970,1,0,0:0:0:0:
256,192,130008,1,0,0:0:0:0:
329,192,130046,1,0,0:0:0:0:
109,192,130046,1,0,0:0:0:0:
182,192,130123,1,0,0:0:0:0:
402,192,130123,1,0,0:0:0:0:
475,192,130123,1,0,0:0:0:0:
36,192,130161,1,0,0:0:0:0:
256,192,130200,1,0,0:0:0:0:
329,192,130238,1,0,0:0:0:0:
182,192,130276,1,0,0:0:0:0:
475,192,130276,1,0,0:0:0:0:
402,192,130276,1,0,0:0:0:0:
109,192,130353,1,0,0:0:0:0:
256,192,130353,1,0,0:0:0:0:
36,192,130429,1,0,0:0:0:0:
402,192,130429,1,0,0:0:0:0:
475,192,130429,1,0,0:0:0:0:
182,192,130429,1,0,0:0:0:0:
256,192,130506,1,0,0:0:0:0:
329,192,130582,1,0,0:0:0:0:
109,192,130582,1,0,0:0:0:0:
402,192,130659,1,0,0:0:0:0:
475,192,130735,1,0,0:0:0:0:
36,192,130735,1,0,0:0:0:0:
182,192,130735,1,0,0:0:0:0:
256,192,130812,1,0,0:0:0:0:
329,192,130888,1,0,0:0:0:0:
109,192,130888,1,0,0:0:0:0:
402,192,130965,1,0,0:0:0:0:
36,192,131041,1,0,0:0:0:0:
256,192,131041,1,0,0:0:0:0:
475,192,131041,1,0,0:0:0:0:
182,192,131118,1,0,0:0:0:0:
402,192,131118,1,0,0:0:0:0:
109,192,131194,1,0,0:0:0:0:
36,192,131194,1,0,0:0:0:0:
329,192,131194,1,0,0:0:0:0:
256,192,131245,1,0,0:0:0:0:
182,192,131296,1,0,0:0:0:0:
329,192,131347,1,0,0:0:0:0:
109,192,131347,1,0,0:0:0:0:
402,192,131399,1,0,0:0:0:0:
256,192,131424,1,0,0:0:0:0:
475,192,131450,1,0,0:0:0:0:
36,192,131501,1,0,0:0:0:0:
329,192,131501,1,0,0:0:0:0:
109,192,131539,1,0,0:0:0:0:
402,192,131577,1,0,0:0:0:0:
182,192,131577,1,0,0:0:0:0:
256,192,131615,1,0,0:0:0:0:
329,192,131654,1,0,0:0:0:0:
475,192,131654,1,0,0:0:0:0:
36,192,131654,1,0,0:0:0:0:
36,192,131756,1,0,0:0:0:0:
329,192,131756,1,0,0:0:0:0:
475,192,131756,1,0,0:0:0:0:
329,192,131858,1,0,0:0:0:0:
475,192,131858,1,0,0:0:0:0:
36,192,131858,1,0,0:0:0:0:
109,192,131960,1,0,0:0:0:0:
402,192,131960,1,0,0:0:0:0:
182,192,131960,1,0,0:0:0:0:
256,192,132036,1,0,0:0:0:0:
475,192,132036,1,0,0:0:0:0:
329,192,132036,1,0,0:0:0:0:
402,192,132113,1,0,0:0:0:0:
109,192,132113,1,0,0:0:0:0:
182,192,132113,1,0,0:0:0:0:
329,192,132189,1,0,0:0:0:0:
36,192,132189,1,0,0:0:0:0:
402,192,132228,1,0,0:0:0:0:
475,192,132266,1,0,0:0:0:0:
109,192,132266,1,0,0:0:0:0:
256,192,132266,1,0,0:0:0:0:
182,192,132342,1,0,0:0:0:0:
329,192,132342,1,0,0:0:0:0:
256,192,132419,1,0,0:0:0:0:
402,192,132419,1,0,0:0:0:0:
36,192,132419,1,0,0:0:0:0:
182,192,132470,1,0,0:0:0:0:
109,192,132495,1,0,0:0:0:0:
329,192,132495,1,0,0:0:0:0:
475,192,132521,1,0,0:0:0:0:
36,192,132572,1,0,0:0:0:0:
402,192,132572,1,0,0:0:0:0:
256,192,132572,1,0,0:0:0:0:
182,192,132623,1,0,0:0:0:0:
109,192,132649,1,0,0:0:0:0:
329,192,132674,1,0,0:0:0:0:
36,192,132725,1,0,0:0:0:0:
475,192,132725,1,0,0:0:0:0:
256,192,132725,1,0,0:0:0:0:
402,192,132763,1,0,0:0:0:0:
182,192,132802,1,0,0:0:0:0:
329,192,132840,1,0,0:0:0:0:
36,192,132878,128,0,135327:0:0:0:0:
109,192,132878,1,0,0:0:0:0:
402,192,132878,1,0,0:0:0:0:
256,192,132878,1,0,0:0:0:0:
475,192,132878,1,0,0:0:0:0:
182,192,132955,1,0,0:0:0:0:
256,192,133031,1,0,0:0:0:0:
329,192,133108,1,0,0:0:0:0:
109,192,133184,1,0,0:0:0:0:
182,192,133184,1,0,0:0:0:0:
402,192,133184,1,0,0:0:0:0:
329,192,133261,1,0,0:0:0:0:
256,192,133337,1,0,0:0:0:0:
182,192,133414,1,0,0:0:0:0:
402,192,133490,1,0,0:0:0:0:
109,192,133490,1,0,0:0:0:0:
329,192,133567,1,0,0:0:0:0:
256,192,133643,1,0,0:0:0:0:
402,192,133643,1,0,0:0:0:0:
109,192,133643,1,0,0:0:0:0:
475,192,133720,1,0,0:0:0:0:
402,192,133796,1,0,0:0:0:0:
182,192,133796,1,0,0:0:0:0:
329,192,133873,1,0,0:0:0:0:
256,192,133950,1,0,0:0:0:0:
475,192,133950,1,0,0:0:0:0:
109,192,133950,1,0,0:0:0:0:
182,192,134026,1,0,0:0:0:0:
109,192,134103,1,0,0:0:0:0:
329,192,134103,1,0,0:0:0:0:
475,192,134103,1,0,0:0:0:0:
182,192,134179,1,0,0:0:0:0:
256,192,134256,1,0,0:0:0:0:
475,192,134256,1,0,0:0:0:0:
329,192,134307,1,0,0:0:0:0:
182,192,134332,1,0,0:0:0:0:
402,192,134358,1,0,0:0:0:0:
475,192,134409,1,0,0:0:0:0:
109,192,134409,1,0,0:0:0:0:
256,192,134460,1,0,0:0:0:0:
329,192,134511,1,0,0:0:0:0:
475,192,134562,1,0,0:0:0:0:
182,192,134562,1,0,0:0:0:0:
402,192,134613,1,0,0:0:0:0:
329,192,134638,1,0,0:0:0:0:
256,192,134664,1,0,0:0:0:0:
182,192,134715,1,0,0:0:0:0:
109,192,134715,1,0,0:0:0:0:
475,192,134715,1,0,0:0:0:0:
329,192,134791,1,0,0:0:0:0:
182,192,134868,1,0,0:0:0:0:
475,192,134868,1,0,0:0:0:0:
402,192,134868,1,0,0:0:0:0:
256,192,134906,1,0,0:0:0:0:
329,192,134944,1,0,0:0:0:0:
109,192,134983,1,0,0:0:0:0:
182,192,135021,1,0,0:0:0:0:
475,192,135021,1,0,0:0:0:0:
402,192,135059,1,0,0:0:0:0:
329,192,135097,1,0,0:0:0:0:
256,192,135136,1,0,0:0:0:0:
402,192,135174,1,0,0:0:0:0:
109,192,135174,1,0,0:0:0:0:
182,192,135174,1,0,0:0:0:0:
329,192,135251,1,0,0:0:0:0:
256,192,135327,128,0,136245:0:0:0:0:
109,192,135327,1,0,0:0:0:0:
402,192,135327,1,0,0:0:0:0:
475,192,135327,1,0,0:0:0:0:
182,192,135404,1,0,0:0:0:0:
329,192,135480,1,0,0:0:0:0:
36,192,135480,1,0,0:0:0:0:
402,192,135557,1,0,0:0:0:0:
109,192,135557,1,0,0:0:0:0:
182,192,135633,1,0,0:0:0:0:
475,192,135633,1,0,0:0:0:0:
36,192,135633,1,0,0:0:0:0:
329,192,135710,1,0,0:0:0:0:
182,192,135786,1,0,0:0:0:0:
402,192,135786,1,0,0:0:0:0:
109,192,135863,1,0,0:0:0:0:
402,192,135939,1,0,0:0:0:0:
36,192,135939,1,0,0:0:0:0:
475,192,135939,1,0,0:0:0:0:
329,192,136016,1,0,0:0:0:0:
182,192,136016,1,0,0:0:0:0:
402,192,136092,1,0,0:0:0:0:
36,192,136092,1,0,0:0:0:0:
109,192,136092,1,0,0:0:0:0:
475,192,136169,1,0,0:0:0:0:
402,192,136245,1,0,0:0:0:0:
36,192,136245,1,0,0:0:0:0:
109,192,136245,1,0,0:0:0:0:
182,192,136245,1,0,0:0:0:0:
329,192,136322,1,0,0:0:0:0:
475,192,136322,1,0,0:0:0:0:
256,192,136399,1,0,0:0:0:0:
402,192,136399,1,0,0:0:0:0:
36,192,136399,1,0,0:0:0:0:
329,192,136475,1,0,0:0:0:0:
182,192,136475,1,0,0:0:0:0:
36,192,136552,1,0,0:0:0:0:
256,192,136552,1,0,0:0:0:0:
402,192,136552,1,0,0:0:0:0:
475,192,136552,1,0,0:0:0:0:
109,192,136603,1,0,0:0:0:0:
182,192,136654,1,0,0:0:0:0:
402,192,136666,1,0,0:0:0:0:
256,192,136705,1,0,0:0:0:0:
36,192,136705,1,0,0:0:0:0:
475,192,136705,1,0,0:0:0:0:
329,192,136756,1,0,0:0:0:0:
402,192,136807,1,0,0:0:0:0:
109,192,136858,1,0,0:0:0:0:
256,192,136858,1,0,0:0:0:0:
182,192,136909,1,0,0:0:0:0:
36,192,136934,1,0,0:0:0:0:
402,192,136960,1,0,0:0:0:0:
329,192,137011,1,0,0:0:0:0:
109,192,137011,1,0,0:0:0:0:
475,192,137011,1,0,0:0:0:0:
256,192,137062,1,0,0:0:0:0:
402,192,137087,1,0,0:0:0:0:
182,192,137113,1,0,0:0:0:0:
475,192,137164,128,0,140149:0:0:0:0:
329,192,137164,1,0,0:0:0:0:
109,192,137164,1,0,0:0:0:0:
36,192,137164,1,0,0:0:0:0:
256,192,137202,1,0,0:0:0:0:
182,192,137240,1,0,0:0:0:0:
402,192,137279,1,0,0:0:0:0:
36,192,137317,1,0,0:0:0:0:
329,192,137317,1,0,0:0:0:0:
109,192,137355,1,0,0:0:0:0:
182,192,137393,1,0,0:0:0:0:
256,192,137432,1,0,0:0:0:0:
402,192,137470,1,0,0:0:0:0:
36,192,137470,1,0,0:0:0:0:
182,192,137546,1,0,0:0:0:0:
329,192,137546,1,0,0:0:0:0:
256,192,137623,1,0,0:0:0:0:
36,192,137623,1,0,0:0:0:0:
402,192,137623,1,0,0:0:0:0:
329,192,137700,1,0,0:0:0:0:
109,192,137700,1,0,0:0:0:0:
182,192,137700,1,0,0:0:0:0:
36,192,137776,1,0,0:0:0:0:
256,192,137776,1,0,0:0:0:0:
402,192,137776,1,0,0:0:0:0:
109,192,137853,5,0,0:0:0:0:
182,192,137929,1,0,0:0:0:0:
329,192,137929,1,0,0:0:0:0:
256,192,138006,1,0,0:0:0:0:
36,192,138082,1,0,0:0:0:0:
109,192,138082,1,0,0:0:0:0:
329,192,138082,1,0,0:0:0:0:
182,192,138159,1,0,0:0:0:0:
402,192,138235,1,0,0:0:0:0:
256,192,138235,1,0,0:0:0:0:
36,192,138312,1,0,0:0:0:0:
402,192,138388,1,0,0:0:0:0:
256,192,138388,128,0,138465:0:0:0:0:
182,192,138427,128,0,138503:0:0:0:0:
329,192,138465,1,0,0:0:0:0:
109,192,138465,128,0,138541:0:0:0:0:
36,192,138503,128,0,138580:0:0:0:0:
256,192,138541,1,0,0:0:0:0:
402,192,138541,1,0,0:0:0:0:
109,192,138618,128,0,138694:0:0:0:0:
182,192,138656,128,0,138733:0:0:0:0:
402,192,138694,1,0,0:0:0:0:
256,192,138694,128,0,138771:0:0:0:0:
36,192,138771,1,0,0:0:0:0:
402,192,138847,1,0,0:0:0:0:
109,192,138847,1,0,0:0:0:0:
256,192,138847,1,0,0:0:0:0:
182,192,138924,1,0,0:0:0:0:
329,192,138924,1,0,0:0:0:0:
36,192,139001,1,0,0:0:0:0:
109,192,139001,1,0,0:0:0:0:
256,192,139001,1,0,0:0:0:0:
402,192,139001,1,0,0:0:0:0:
329,192,139077,5,0,0:0:0:0:
256,192,139154,1,0,0:0:0:0:
36,192,139154,1,0,0:0:0:0:
109,192,139154,1,0,0:0:0:0:
329,192,139230,1,0,0:0:0:0:
182,192,139230,1,0,0:0:0:0:
36,192,139307,1,0,0:0:0:0:
402,192,139307,1,0,0:0:0:0:
256,192,139307,1,0,0:0:0:0:
109,192,139383,1,0,0:0:0:0:
182,192,139460,1,0,0:0:0:0:
329,192,139460,1,0,0:0:0:0:
402,192,139460,1,0,0:0:0:0:
256,192,139536,1,0,0:0:0:0:
109,192,139613,1,0,0:0:0:0:
402,192,139613,1,0,0:0:0:0:
329,192,139613,1,0,0:0:0:0:
36,192,139613,1,0,0:0:0:0:
182,192,139651,1,0,0:0:0:0:
256,192,139689,1,0,0:0:0:0:
329,192,139728,1,0,0:0:0:0:
402,192,139766,1,0,0:0:0:0:
36,192,139766,1,0,0:0:0:0:
182,192,139804,1,0,0:0:0:0:
109,192,139842,1,0,0:0:0:0:
256,192,139881,1,0,0:0:0:0:
36,192,139919,1,0,0:0:0:0:
329,192,139919,1,0,0:0:0:0:
402,192,139957,1,0,0:0:0:0:
182,192,139995,1,0,0:0:0:0:
256,192,140034,1,0,0:0:0:0:
36,192,140072,1,0,0:0:0:0:
329,192,140072,1,0,0:0:0:0:
109,192,140072,1,0,0:0:0:0:
402,192,140149,1,0,0:0:0:0:
182,192,140149,1,0,0:0:0:0:
109,192,140225,5,0,0:0:0:0:
36,192,140225,1,0,0:0:0:0:
329,192,140225,1,0,0:0:0:0:
256,192,140225,1,0,0:0:0:0:
475,192,140225,1,0,0:0:0:0:
182,192,140302,5,0,0:0:0:0:
402,192,140302,1,0,0:0:0:0:
329,192,140378,1,0,0:0:0:0:
36,192,140378,1,0,0:0:0:0:
402,192,140455,1,0,0:0:0:0:
109,192,140455,1,0,0:0:0:0:
475,192,140531,1,0,0:0:0:0:
182,192,140531,1,0,0:0:0:0:
256,192,140531,1,0,0:0:0:0:
109,192,140608,1,0,0:0:0:0:
329,192,140608,1,0,0:0:0:0:
182,192,140684,1,0,0:0:0:0:
36,192,140684,1,0,0:0:0:0:
402,192,140684,1,0,0:0:0:0:
475,192,140761,1,0,0:0:0:0:
256,192,140761,1,0,0:0:0:0:
36,192,140837,1,0,0:0:0:0:
402,192,140837,1,0,0:0:0:0:
182,192,140837,1,0,0:0:0:0:
109,192,140914,1,0,0:0:0:0:
475,192,140914,1,0,0:0:0:0:
329,192,140914,1,0,0:0:0:0:
182,192,140990,1,0,0:0:0:0:
36,192,140990,1,0,0:0:0:0:
402,192,140990,1,0,0:0:0:0:
256,192,141041,1,0,0:0:0:0:
109,192,141067,1,0,0:0:0:0:
475,192,141067,1,0,0:0:0:0:
329,192,141092,1,0,0:0:0:0:
36,192,141143,1,0,0:0:0:0:
402,192,141143,1,0,0:0:0:0:
182,192,141143,1,0,0:0:0:0:
256,192,141194,1,0,0:0:0:0:
109,192,141220,1,0,0:0:0:0:
475,192,141220,1,0,0:0:0:0:
329,192,141245,1,0,0:0:0:0:
36,192,141296,1,0,0:0:0:0:
402,192,141296,1,0,0:0:0:0:
182,192,141296,1,0,0:0:0:0:
256,192,141335,1,0,0:0:0:0:
329,192,141373,1,0,0:0:0:0:
402,192,141411,1,0,0:0:0:0:
36,192,141450,1,0,0:0:0:0:
475,192,141450,1,0,0:0:0:0:
182,192,141450,1,0,0:0:0:0:
475,192,141552,1,0,0:0:0:0:
36,192,141552,1,0,0:0:0:0:
182,192,141552,1,0,0:0:0:0:
475,192,141654,1,0,0:0:0:0:
182,192,141654,1,0,0:0:0:0:
36,192,141654,1,0,0:0:0:0:
109,192,141756,1,0,0:0:0:0:
256,192,141756,1,0,0:0:0:0:
402,192,141756,1,0,0:0:0:0:
182,192,141832,1,0,0:0:0:0:
329,192,141832,1,0,0:0:0:0:
36,192,141832,1,0,0:0:0:0:
256,192,141909,1,0,0:0:0:0:
109,192,141909,1,0,0:0:0:0:
402,192,141909,1,0,0:0:0:0:
475,192,141909,1,0,0:0:0:0:
36,192,141947,1,0,0:0:0:0:
329,192,141985,1,0,0:0:0:0:
182,192,141985,128,0,142062:0:0:0:0:
109,192,142024,128,0,142100:0:0:0:0:
256,192,142062,1,0,0:0:0:0:
475,192,142062,1,0,0:0:0:0:
36,192,142062,128,0,142138:0:0:0:0:
402,192,142062,1,0,0:0:0:0:
329,192,142138,1,0,0:0:0:0:
182,192,142138,1,0,0:0:0:0:
36,192,142215,1,0,0:0:0:0:
256,192,142215,1,0,0:0:0:0:
402,192,142215,1,0,0:0:0:0:
475,192,142266,1,0,0:0:0:0:
109,192,142291,1,0,0:0:0:0:
402,192,142317,1,0,0:0:0:0:
329,192,142368,1,0,0:0:0:0:
36,192,142368,1,0,0:0:0:0:
182,192,142368,1,0,0:0:0:0:
475,192,142419,1,0,0:0:0:0:
256,192,142444,1,0,0:0:0:0:
329,192,142470,1,0,0:0:0:0:
182,192,142521,1,0,0:0:0:0:
36,192,142521,1,0,0:0:0:0:
475,192,142521,1,0,0:0:0:0:
402,192,142559,1,0,0:0:0:0:
109,192,142597,1,0,0:0:0:0:
256,192,142597,1,0,0:0:0:0:
329,192,142636,1,0,0:0:0:0:
36,192,142674,128,0,142751:0:0:0:0:
182,192,142674,128,0,142751:0:0:0:0:
402,192,142674,128,0,142751:0:0:0:0:
475,192,142674,128,0,142751:0:0:0:0:
