osu file format v14

[General]
AudioFilename: bowling.mp3
AudioLeadIn: 0
PreviewTime: 23183
Countdown: 0
SampleSet: Normal
StackLeniency: 0.7
Mode: 3
LetterboxInBreaks: 1
SpecialStyle: 0
WidescreenStoryboard: 1

[Editor]
DistanceSpacing: 1
BeatDivisor: 16
GridSize: 4
TimelineZoom: 2.899999

[Metadata]
Title:Jinjin's Classics Pack
TitleUnicode:Jinjin's Classics Pack
Artist:Various Artists
ArtistUnicode:Various Artists
Creator:Jinjin
Version:Intel Bowling Commercial [4K PIN]
Source:
Tags:
BeatmapID:1062004
BeatmapSetID:362285

[Difficulty]
HPDrainRate:10
CircleSize:4
OverallDifficulty:10
ApproachRate:5
SliderMultiplier:1.4
SliderTickRate:1

[Events]
//Background and Video events
0,0,"Bowling-Pin-Amazing-Wallpaper-HD.jpg",0,0
//Break Periods
//Storyboard Layer 0 (Background)
//Storyboard Layer 1 (Fail)
//Storyboard Layer 2 (Pass)
//Storyboard Layer 3 (Foreground)
//Storyboard Sound Samples

[TimingPoints]
5804,498.338870431894,4,1,0,10,1,0
16362,-66.6666666666667,4,1,0,10,0,0
17265,-47.6190476190476,4,1,0,10,0,0
17764,-28.5714285714286,4,1,0,10,0,0
18262,-20,4,1,0,10,0,0
18760,-31.25,4,1,0,10,0,0
19259,-41.6666666666667,4,1,0,10,0,0
19508,-50,4,1,0,10,0,0
19757,-66.6666666666667,4,1,0,10,0,0
20131,-100,4,1,0,10,0,0
22249,-111.111111111111,4,1,0,10,0,0
22311,-117.647058823529,4,1,0,10,0,0
22373,-125,4,1,0,10,0,0
22436,-131.578947368421,4,1,0,10,0,0
22498,-136.986301369863,4,1,0,10,0,0
22560,-142.857142857143,4,1,0,10,0,0
22622,-149.253731343284,4,1,0,10,0,0
22685,-156.25,4,1,0,10,0,0
22747,-163.934426229508,4,1,0,10,0,0
22872,-100,4,1,0,10,0,0
23183,498.338870431894,4,1,0,10,1,0
23183,-100,4,1,0,10,0,0

[HitObjects]
448,192,259,128,0,3000:0:0:0:0:
64,192,1536,1,0,0:0:0:0:
192,192,1754,1,0,0:0:0:0:
64,192,1973,1,0,0:0:0:0:
320,192,2191,1,0,0:0:0:0:
64,192,5803,128,0,5866:0:0:0:0:
448,192,6053,1,0,0:0:0:0:
448,192,6302,1,0,0:0:0:0:
192,192,6302,1,0,0:0:0:0:
448,192,6551,1,0,0:0:0:0:
448,192,6800,1,0,0:0:0:0:
64,192,6800,128,0,6862:0:0:0:0:
192,192,7299,1,0,0:0:0:0:
320,192,7299,1,0,0:0:0:0:
192,192,7548,1,0,0:0:0:0:
320,192,7672,1,0,0:0:0:0:
448,192,7797,1,0,0:0:0:0:
64,192,7797,128,0,7859:0:0:0:0:
320,192,8046,1,0,0:0:0:0:
192,192,8295,1,0,0:0:0:0:
64,192,8295,1,0,0:0:0:0:
320,192,8544,1,0,0:0:0:0:
64,192,8794,128,0,8856:0:0:0:0:
448,192,8794,128,0,9043:0:0:0:0:
320,192,9043,1,0,0:0:0:0:
192,192,9292,1,0,0:0:0:0:
320,192,9292,1,0,0:0:0:0:
64,192,9541,1,0,0:0:0:0:
192,192,9790,128,0,9853:0:0:0:0:
320,192,9790,1,0,0:0:0:0:
320,192,10289,1,0,0:0:0:0:
448,192,10289,1,0,0:0:0:0:
320,192,10787,128,0,11534:0:0:0:0:
64,192,10787,128,0,10849:0:0:0:0:
192,192,11285,1,0,0:0:0:0:
64,192,11784,128,0,11846:0:0:0:0:
320,192,12002,1,0,0:0:0:0:
448,192,12064,1,0,0:0:0:0:
320,192,12282,1,0,0:0:0:0:
64,192,12282,1,0,0:0:0:0:
192,192,12531,1,0,0:0:0:0:
320,192,12780,1,0,0:0:0:0:
64,192,12780,128,0,12843:0:0:0:0:
448,192,13029,1,0,0:0:0:0:
192,192,13279,1,0,0:0:0:0:
320,192,13279,1,0,0:0:0:0:
448,192,13528,1,0,0:0:0:0:
64,192,13777,128,0,13839:0:0:0:0:
320,192,13777,1,0,0:0:0:0:
192,192,14026,1,0,0:0:0:0:
320,192,14026,1,0,0:0:0:0:
64,192,14275,1,0,0:0:0:0:
448,192,14275,1,0,0:0:0:0:
192,192,14275,1,0,0:0:0:0:
320,192,14524,1,0,0:0:0:0:
64,192,14524,1,0,0:0:0:0:
192,192,14774,128,0,15272:0:0:0:0:
448,192,14774,128,0,15272:0:0:0:0:
320,192,14774,1,0,0:0:0:0:
64,192,15272,1,0,0:0:0:0:
320,192,15521,1,0,0:0:0:0:
448,192,15521,1,0,0:0:0:0:
448,192,15770,128,0,16206:0:0:0:0:
64,192,15770,1,0,0:0:0:0:
192,192,15770,1,0,0:0:0:0:
320,192,16206,1,0,0:0:0:0:
192,192,16237,1,0,0:0:0:0:
64,192,16269,128,0,20006:0:0:0:0:
448,192,20131,1,0,0:0:0:0:
192,192,20193,1,0,0:0:0:0:
320,192,20224,1,0,0:0:0:0:
64,192,20255,1,0,0:0:0:0:
448,192,20255,1,0,0:0:0:0:
192,192,20349,1,0,0:0:0:0:
320,192,20380,1,0,0:0:0:0:
64,192,20411,1,0,0:0:0:0:
448,192,20473,1,0,0:0:0:0:
192,192,20504,1,0,0:0:0:0:
320,192,20567,1,0,0:0:0:0:
64,192,20598,1,0,0:0:0:0:
448,192,20629,1,0,0:0:0:0:
320,192,20691,1,0,0:0:0:0:
64,192,20754,1,0,0:0:0:0:
192,192,20785,1,0,0:0:0:0:
320,192,20816,1,0,0:0:0:0:
448,192,20878,1,0,0:0:0:0:
64,192,20909,1,0,0:0:0:0:
192,192,20941,1,0,0:0:0:0:
320,192,20972,1,0,0:0:0:0:
448,192,21003,1,0,0:0:0:0:
64,192,21065,1,0,0:0:0:0:
192,192,21065,1,0,0:0:0:0:
448,192,21190,1,0,0:0:0:0:
320,192,21190,1,0,0:0:0:0:
192,192,21221,1,0,0:0:0:0:
64,192,21252,1,0,0:0:0:0:
192,192,21532,1,0,0:0:0:0:
64,192,21532,1,0,0:0:0:0:
320,192,21563,1,0,0:0:0:0:
448,192,21595,1,0,0:0:0:0:
64,192,21626,1,0,0:0:0:0:
448,192,21688,1,0,0:0:0:0:
192,192,21719,1,0,0:0:0:0:
320,192,21719,1,0,0:0:0:0:
320,192,21875,1,0,0:0:0:0:
448,192,21906,1,0,0:0:0:0:
64,192,22124,128,0,22872:0:0:0:0:
192,192,22186,128,0,22872:0:0:0:0:
320,192,22311,128,0,22872:0:0:0:0:
448,192,22342,128,0,22467:0:0:0:0:
448,192,23183,1,0,0:0:0:0:
64,192,23183,128,0,23245:0:0:0:0:
320,192,23245,1,0,0:0:0:0:
192,192,23307,1,0,0:0:0:0:
64,192,23369,1,0,0:0:0:0:
448,192,23432,1,0,0:0:0:0:
320,192,23494,1,0,0:0:0:0:
192,192,23556,1,0,0:0:0:0:
448,192,23619,1,0,0:0:0:0:
64,192,23681,1,0,0:0:0:0:
192,192,23743,1,0,0:0:0:0:
320,192,23805,1,0,0:0:0:0:
448,192,23868,1,0,0:0:0:0:
64,192,23930,1,0,0:0:0:0:
192,192,23992,1,0,0:0:0:0:
320,192,24055,1,0,0:0:0:0:
64,192,24117,1,0,0:0:0:0:
320,192,24179,1,0,0:0:0:0:
448,192,24179,1,0,0:0:0:0:
192,192,24241,1,0,0:0:0:0:
64,192,24304,1,0,0:0:0:0:
320,192,24366,1,0,0:0:0:0:
192,192,24428,1,0,0:0:0:0:
448,192,24491,1,0,0:0:0:0:
320,192,24553,1,0,0:0:0:0:
192,192,24615,1,0,0:0:0:0:
64,192,24678,1,0,0:0:0:0:
448,192,24740,1,0,0:0:0:0:
320,192,24802,1,0,0:0:0:0:
192,192,24864,1,0,0:0:0:0:
320,192,24927,1,0,0:0:0:0:
448,192,24989,1,0,0:0:0:0:
64,192,25051,1,0,0:0:0:0:
192,192,25114,1,0,0:0:0:0:
320,192,25176,1,0,0:0:0:0:
448,192,25176,1,0,0:0:0:0:
64,192,25238,1,0,0:0:0:0:
192,192,25300,1,0,0:0:0:0:
320,192,25363,1,0,0:0:0:0:
448,192,25425,1,0,0:0:0:0:
192,192,25487,1,0,0:0:0:0:
320,192,25550,1,0,0:0:0:0:
192,192,25612,1,0,0:0:0:0:
64,192,25674,1,0,0:0:0:0:
448,192,25674,1,0,0:0:0:0:
320,192,25736,1,0,0:0:0:0:
192,192,25799,1,0,0:0:0:0:
64,192,25861,1,0,0:0:0:0:
448,192,25923,1,0,0:0:0:0:
320,192,25986,1,0,0:0:0:0:
192,192,26048,1,0,0:0:0:0:
320,192,26110,1,0,0:0:0:0:
448,192,26173,1,0,0:0:0:0:
64,192,26173,1,0,0:0:0:0:
192,192,26235,1,0,0:0:0:0:
320,192,26297,1,0,0:0:0:0:
448,192,26359,1,0,0:0:0:0:
64,192,26422,1,0,0:0:0:0:
192,192,26484,1,0,0:0:0:0:
320,192,26546,1,0,0:0:0:0:
448,192,26609,1,0,0:0:0:0:
64,192,26671,1,0,0:0:0:0:
192,192,26671,1,0,0:0:0:0:
448,192,26733,1,0,0:0:0:0:
320,192,26795,1,0,0:0:0:0:
192,192,26858,1,0,0:0:0:0:
64,192,26920,1,0,0:0:0:0:
448,192,26982,1,0,0:0:0:0:
320,192,27045,1,0,0:0:0:0:
192,192,27107,1,0,0:0:0:0:
64,192,27169,1,0,0:0:0:0:
448,192,27169,1,0,0:0:0:0:
320,192,27232,1,0,0:0:0:0:
192,192,27232,1,0,0:0:0:0:
192,192,27668,1,0,0:0:0:0:
320,192,27668,1,0,0:0:0:0:
448,192,27730,1,0,0:0:0:0:
64,192,27730,1,0,0:0:0:0:
320,192,28166,1,0,0:0:0:0:
448,192,28166,1,0,0:0:0:0:
192,192,28228,1,0,0:0:0:0:
64,192,28228,1,0,0:0:0:0:
320,192,28290,1,0,0:0:0:0:
448,192,28290,1,0,0:0:0:0:
192,192,28353,1,0,0:0:0:0:
64,192,28353,1,0,0:0:0:0:
320,192,28415,1,0,0:0:0:0:
448,192,28415,1,0,0:0:0:0:
192,192,28477,1,0,0:0:0:0:
64,192,28477,1,0,0:0:0:0:
320,192,28540,1,0,0:0:0:0:
448,192,28540,1,0,0:0:0:0:
192,192,28602,1,0,0:0:0:0:
64,192,28602,1,0,0:0:0:0:
320,192,28664,1,0,0:0:0:0:
448,192,28664,1,0,0:0:0:0:
192,192,28727,1,0,0:0:0:0:
64,192,28727,1,0,0:0:0:0:
320,192,28789,1,0,0:0:0:0:
448,192,28789,1,0,0:0:0:0:
192,192,28851,1,0,0:0:0:0:
64,192,28851,1,0,0:0:0:0:
320,192,28913,1,0,0:0:0:0:
448,192,28913,1,0,0:0:0:0:
192,192,28976,1,0,0:0:0:0:
64,192,28976,1,0,0:0:0:0:
320,192,29038,1,0,0:0:0:0:
448,192,29100,1,0,0:0:0:0:
64,192,29163,1,0,0:0:0:0:
192,192,29163,1,0,0:0:0:0:
320,192,29225,1,0,0:0:0:0:
448,192,29287,1,0,0:0:0:0:
192,192,29349,1,0,0:0:0:0:
320,192,29412,1,0,0:0:0:0:
64,192,29474,1,0,0:0:0:0:
192,192,29536,1,0,0:0:0:0:
64,192,29599,1,0,0:0:0:0:
448,192,29661,1,0,0:0:0:0:
320,192,29661,1,0,0:0:0:0:
192,192,29723,1,0,0:0:0:0:
64,192,29785,1,0,0:0:0:0:
320,192,29848,1,0,0:0:0:0:
192,192,29910,1,0,0:0:0:0:
448,192,29972,1,0,0:0:0:0:
320,192,30035,1,0,0:0:0:0:
448,192,30097,1,0,0:0:0:0:
64,192,30159,1,0,0:0:0:0:
192,192,30159,1,0,0:0:0:0:
320,192,30222,1,0,0:0:0:0:
192,192,30284,1,0,0:0:0:0:
320,192,30346,1,0,0:0:0:0:
64,192,30408,1,0,0:0:0:0:
448,192,30471,1,0,0:0:0:0:
64,192,30533,1,0,0:0:0:0:
448,192,30595,1,0,0:0:0:0:
192,192,30658,1,0,0:0:0:0:
320,192,30658,1,0,0:0:0:0:
64,192,30720,1,0,0:0:0:0:
320,192,30782,1,0,0:0:0:0:
192,192,30844,1,0,0:0:0:0:
448,192,30907,1,0,0:0:0:0:
320,192,30969,1,0,0:0:0:0:
64,192,31031,1,0,0:0:0:0:
192,192,31094,1,0,0:0:0:0:
320,192,31156,1,0,0:0:0:0:
448,192,31156,1,0,0:0:0:0:
64,192,31218,1,0,0:0:0:0:
192,192,31281,1,0,0:0:0:0:
320,192,31343,1,0,0:0:0:0:
448,192,31405,1,0,0:0:0:0:
64,192,31405,1,0,0:0:0:0:
192,192,31467,1,0,0:0:0:0:
320,192,31530,1,0,0:0:0:0:
448,192,31592,1,0,0:0:0:0:
64,192,31654,1,0,0:0:0:0:
192,192,31654,1,0,0:0:0:0:
320,192,31717,1,0,0:0:0:0:
448,192,31779,1,0,0:0:0:0:
64,192,31841,1,0,0:0:0:0:
192,192,31903,1,0,0:0:0:0:
320,192,31903,1,0,0:0:0:0:
448,192,31966,1,0,0:0:0:0:
64,192,32028,1,0,0:0:0:0:
192,192,32090,1,0,0:0:0:0:
320,192,32153,1,0,0:0:0:0:
448,192,32153,1,0,0:0:0:0:
192,192,32215,1,0,0:0:0:0:
64,192,32277,1,0,0:0:0:0:
448,192,32339,1,0,0:0:0:0:
192,192,32402,1,0,0:0:0:0:
320,192,32464,1,0,0:0:0:0:
64,192,32526,1,0,0:0:0:0:
448,192,32589,1,0,0:0:0:0:
192,192,32651,1,0,0:0:0:0:
320,192,32651,1,0,0:0:0:0:
64,192,32713,1,0,0:0:0:0:
448,192,32776,1,0,0:0:0:0:
320,192,32838,1,0,0:0:0:0:
192,192,32900,1,0,0:0:0:0:
448,192,32962,1,0,0:0:0:0:
64,192,33025,1,0,0:0:0:0:
192,192,33087,1,0,0:0:0:0:
320,192,33149,1,0,0:0:0:0:
448,192,33149,1,0,0:0:0:0:
64,192,33212,1,0,0:0:0:0:
192,192,33274,1,0,0:0:0:0:
448,192,33336,1,0,0:0:0:0:
320,192,33398,1,0,0:0:0:0:
192,192,33461,1,0,0:0:0:0:
64,192,33523,1,0,0:0:0:0:
320,192,33585,1,0,0:0:0:0:
448,192,33648,1,0,0:0:0:0:
192,192,33648,1,0,0:0:0:0:
64,192,33710,1,0,0:0:0:0:
320,192,33772,1,0,0:0:0:0:
192,192,33834,1,0,0:0:0:0:
448,192,33897,1,0,0:0:0:0:
320,192,33959,1,0,0:0:0:0:
64,192,34021,1,0,0:0:0:0:
192,192,34084,1,0,0:0:0:0:
320,192,34146,1,0,0:0:0:0:
448,192,34146,1,0,0:0:0:0:
64,192,34208,1,0,0:0:0:0:
192,192,34271,1,0,0:0:0:0:
448,192,34333,1,0,0:0:0:0:
320,192,34395,1,0,0:0:0:0:
192,192,34457,1,0,0:0:0:0:
64,192,34520,1,0,0:0:0:0:
320,192,34582,1,0,0:0:0:0:
192,192,34644,1,0,0:0:0:0:
448,192,34644,1,0,0:0:0:0:
320,192,34707,1,0,0:0:0:0:
64,192,34769,1,0,0:0:0:0:
192,192,34831,1,0,0:0:0:0:
448,192,34893,1,0,0:0:0:0:
320,192,34893,1,0,0:0:0:0:
64,192,34956,1,0,0:0:0:0:
192,192,35018,1,0,0:0:0:0:
320,192,35080,1,0,0:0:0:0:
448,192,35143,1,0,0:0:0:0:
64,192,35143,1,0,0:0:0:0:
320,192,36139,1,0,0:0:0:0:
448,192,36139,1,0,0:0:0:0:
192,192,36202,1,0,0:0:0:0:
64,192,36202,1,0,0:0:0:0:
448,192,36264,1,0,0:0:0:0:
320,192,36264,1,0,0:0:0:0:
192,192,36326,1,0,0:0:0:0:
64,192,36326,1,0,0:0:0:0:
320,192,36388,1,0,0:0:0:0:
448,192,36388,1,0,0:0:0:0:
192,192,36451,1,0,0:0:0:0:
64,192,36451,1,0,0:0:0:0:
320,192,36513,1,0,0:0:0:0:
448,192,36513,1,0,0:0:0:0:
192,192,36575,1,0,0:0:0:0:
64,192,36575,1,0,0:0:0:0:
448,192,36638,1,0,0:0:0:0:
320,192,36669,1,0,0:0:0:0:
192,192,36700,1,0,0:0:0:0:
64,192,36731,1,0,0:0:0:0:
448,192,36762,1,0,0:0:0:0:
320,192,36793,1,0,0:0:0:0:
192,192,36825,1,0,0:0:0:0:
64,192,36856,1,0,0:0:0:0:
448,192,36887,1,0,0:0:0:0:
320,192,36918,1,0,0:0:0:0:
192,192,36949,1,0,0:0:0:0:
64,192,36980,1,0,0:0:0:0:
448,192,37011,1,0,0:0:0:0:
320,192,37043,1,0,0:0:0:0:
192,192,37074,1,0,0:0:0:0:
64,192,37105,1,0,0:0:0:0:
320,192,37136,1,0,0:0:0:0:
448,192,37136,1,0,0:0:0:0:
192,192,37385,1,0,0:0:0:0:
320,192,37385,1,0,0:0:0:0:
64,192,37634,1,0,0:0:0:0:
192,192,37634,1,0,0:0:0:0:
320,192,37883,1,0,0:0:0:0:
448,192,37883,1,0,0:0:0:0:
64,192,38133,1,0,0:0:0:0:
192,192,38133,1,0,0:0:0:0:
448,192,38133,1,0,0:0:0:0:
320,192,38257,1,0,0:0:0:0:
448,192,38257,1,0,0:0:0:0:
64,192,38382,1,0,0:0:0:0:
192,192,38382,1,0,0:0:0:0:
320,192,38444,1,0,0:0:0:0:
192,192,38569,1,0,0:0:0:0:
64,192,38631,1,0,0:0:0:0:
448,192,38631,1,0,0:0:0:0:
320,192,38693,1,0,0:0:0:0:
