osu file format v14

[General]
AudioFilename: 3532(1).mp3
AudioLeadIn: 0
PreviewTime: 6316
Countdown: 0
SampleSet: None
StackLeniency: 0.7
Mode: 3
LetterboxInBreaks: 1
SpecialStyle: 0
WidescreenStoryboard: 1

[Editor]
DistanceSpacing: 1
BeatDivisor: 4
GridSize: 4
TimelineZoom: 2.899999

[Metadata]
Title:Jinjin's Classics Pack
TitleUnicode:Jinjin's Classics Pack
Artist:Various Artists
ArtistUnicode:Various Artists
Creator:Jinjin
Version:Ayatsugu_Otowa - Tsumetai Missitsu to Hakasetachi no Huyajyou [Cold Nocturne]
Source:
Tags:
BeatmapID:1063060
BeatmapSetID:362285

[Difficulty]
HPDrainRate:8
CircleSize:7
OverallDifficulty:6.5
ApproachRate:5
SliderMultiplier:1.4
SliderTickRate:1

[Events]
//Background and Video events
0,0,"citybg.jpg",0,0
//Break Periods
//Storyboard Layer 0 (Background)
//Storyboard Layer 1 (Fail)
//Storyboard Layer 2 (Pass)
//Storyboard Layer 3 (Foreground)
//Storyboard Sound Samples

[TimingPoints]
1002,342.857142857143,4,1,0,0,1,0
6487,-100,4,1,0,0,0,1
17459,-100,4,1,0,0,0,0
50373,-100,4,1,0,0,0,1
72316,-100,4,1,0,0,0,0
127173,-100,4,1,0,0,0,1
149116,-100,4,1,0,0,0,0
171059,-100,4,1,0,0,0,1
195744,-100,4,1,0,0,0,0

[HitObjects]
36,192,1001,5,0,0:0:0:0:
182,192,1001,1,0,0:0:0:0:
329,192,1001,1,0,0:0:0:0:
36,192,1344,1,0,0:0:0:0:
182,192,1344,1,0,0:0:0:0:
329,192,1344,1,0,0:0:0:0:
329,192,1516,1,0,0:0:0:0:
109,192,1687,1,0,0:0:0:0:
256,192,1687,1,0,0:0:0:0:
402,192,1687,1,0,0:0:0:0:
109,192,2030,1,0,0:0:0:0:
256,192,2030,1,0,0:0:0:0:
402,192,2030,1,0,0:0:0:0:
109,192,2202,1,0,0:0:0:0:
182,192,2373,1,0,0:0:0:0:
329,192,2373,1,0,0:0:0:0:
475,192,2373,1,0,0:0:0:0:
182,192,2716,1,0,0:0:0:0:
329,192,2716,1,0,0:0:0:0:
475,192,2716,1,0,0:0:0:0:
256,192,2887,1,0,0:0:0:0:
475,192,3059,1,0,0:0:0:0:
36,192,3059,1,0,0:0:0:0:
402,192,3059,1,0,0:0:0:0:
109,192,3087,1,0,0:0:0:0:
182,192,3116,1,0,0:0:0:0:
256,192,3144,1,0,0:0:0:0:
329,192,3173,1,0,0:0:0:0:
402,192,3202,1,0,0:0:0:0:
36,192,3230,1,0,0:0:0:0:
109,192,3259,1,0,0:0:0:0:
182,192,3287,1,0,0:0:0:0:
256,192,3316,1,0,0:0:0:0:
475,192,3402,1,0,0:0:0:0:
402,192,3430,1,0,0:0:0:0:
329,192,3459,1,0,0:0:0:0:
256,192,3487,1,0,0:0:0:0:
182,192,3516,1,0,0:0:0:0:
109,192,3544,1,0,0:0:0:0:
475,192,3573,1,0,0:0:0:0:
402,192,3602,1,0,0:0:0:0:
329,192,3630,1,0,0:0:0:0:
256,192,3659,1,0,0:0:0:0:
475,192,3744,128,0,4087:0:0:0:0:
182,192,3744,1,0,0:0:0:0:
36,192,3744,1,0,0:0:0:0:
182,192,3916,128,0,4087:0:0:0:0:
36,192,4087,128,0,4430:0:0:0:0:
402,192,4087,1,0,0:0:0:0:
329,192,4087,1,0,0:0:0:0:
182,192,4259,128,0,4430:0:0:0:0:
475,192,4430,128,0,4773:0:0:0:0:
256,192,4430,1,0,0:0:0:0:
402,192,4430,1,0,0:0:0:0:
329,192,4602,128,0,4773:0:0:0:0:
36,192,4773,128,0,5116:0:0:0:0:
182,192,4773,1,0,0:0:0:0:
109,192,4773,1,0,0:0:0:0:
329,192,4944,128,0,5116:0:0:0:0:
256,192,5116,128,0,6487:0:0:0:0:
109,192,5116,1,0,0:0:0:0:
475,192,5116,1,0,0:0:0:0:
402,192,5116,1,0,0:0:0:0:
36,192,5287,128,0,5459:0:0:0:0:
182,192,5459,1,0,0:0:0:0:
475,192,5459,1,0,0:0:0:0:
329,192,5459,1,0,0:0:0:0:
475,192,5630,128,0,5802:0:0:0:0:
402,192,5802,1,0,0:0:0:0:
36,192,5802,1,0,0:0:0:0:
109,192,5802,1,0,0:0:0:0:
182,192,5973,1,0,0:0:0:0:
329,192,5973,1,0,0:0:0:0:
36,192,6144,1,0,0:0:0:0:
475,192,6144,1,0,0:0:0:0:
109,192,6230,1,0,0:0:0:0:
402,192,6230,1,0,0:0:0:0:
182,192,6316,1,0,0:0:0:0:
329,192,6316,1,0,0:0:0:0:
36,192,6402,1,0,0:0:0:0:
475,192,6402,1,0,0:0:0:0:
109,192,6487,1,0,0:0:0:0:
182,192,6487,1,0,0:0:0:0:
329,192,6487,1,0,0:0:0:0:
402,192,6487,1,0,0:0:0:0:
256,192,6573,1,0,0:0:0:0:
182,192,6659,1,0,0:0:0:0:
475,192,6659,128,0,6830:0:0:0:0:
36,192,6830,1,0,0:0:0:0:
109,192,6830,1,0,0:0:0:0:
329,192,6830,1,0,0:0:0:0:
182,192,6916,1,0,0:0:0:0:
402,192,7002,128,0,7173:0:0:0:0:
256,192,7002,1,0,0:0:0:0:
182,192,7173,1,0,0:0:0:0:
329,192,7173,1,0,0:0:0:0:
475,192,7173,1,0,0:0:0:0:
109,192,7259,1,0,0:0:0:0:
36,192,7344,1,0,0:0:0:0:
256,192,7344,128,0,7516:0:0:0:0:
475,192,7516,1,0,0:0:0:0:
402,192,7516,1,0,0:0:0:0:
109,192,7516,1,0,0:0:0:0:
329,192,7687,1,0,0:0:0:0:
256,192,7773,1,0,0:0:0:0:
182,192,7859,1,0,0:0:0:0:
36,192,7859,1,0,0:0:0:0:
402,192,7859,128,0,8030:0:0:0:0:
329,192,8030,128,0,8202:0:0:0:0:
109,192,8030,1,0,0:0:0:0:
36,192,8116,1,0,0:0:0:0:
402,192,8202,128,0,8373:0:0:0:0:
109,192,8202,1,0,0:0:0:0:
182,192,8202,1,0,0:0:0:0:
475,192,8373,128,0,8544:0:0:0:0:
109,192,8373,1,0,0:0:0:0:
182,192,8459,1,0,0:0:0:0:
36,192,8544,1,0,0:0:0:0:
109,192,8544,1,0,0:0:0:0:
256,192,8544,128,0,8887:0:0:0:0:
329,192,8716,1,0,0:0:0:0:
402,192,8716,1,0,0:0:0:0:
182,192,8802,1,0,0:0:0:0:
109,192,8802,1,0,0:0:0:0:
109,192,8887,1,0,0:0:0:0:
182,192,8887,1,0,0:0:0:0:
329,192,8887,1,0,0:0:0:0:
402,192,8887,1,0,0:0:0:0:
256,192,9059,128,0,9230:0:0:0:0:
36,192,9059,1,0,0:0:0:0:
475,192,9059,1,0,0:0:0:0:
402,192,9230,1,0,0:0:0:0:
475,192,9230,1,0,0:0:0:0:
329,192,9230,1,0,0:0:0:0:
182,192,9316,1,0,0:0:0:0:
109,192,9316,1,0,0:0:0:0:
36,192,9316,1,0,0:0:0:0:
475,192,9402,1,0,0:0:0:0:
402,192,9402,128,0,9659:0:0:0:0:
329,192,9402,1,0,0:0:0:0:
256,192,9487,1,0,0:0:0:0:
36,192,9573,1,0,0:0:0:0:
182,192,9573,1,0,0:0:0:0:
329,192,9744,1,0,0:0:0:0:
402,192,9744,1,0,0:0:0:0:
475,192,9744,1,0,0:0:0:0:
182,192,9830,1,0,0:0:0:0:
109,192,9830,1,0,0:0:0:0:
36,192,9830,1,0,0:0:0:0:
329,192,9916,128,0,10259:0:0:0:0:
402,192,9916,1,0,0:0:0:0:
256,192,9916,1,0,0:0:0:0:
475,192,10087,128,0,10259:0:0:0:0:
36,192,10087,1,0,0:0:0:0:
109,192,10087,1,0,0:0:0:0:
182,192,10173,1,0,0:0:0:0:
256,192,10259,128,0,10602:0:0:0:0:
36,192,10259,1,0,0:0:0:0:
109,192,10259,1,0,0:0:0:0:
182,192,10430,128,0,10602:0:0:0:0:
475,192,10430,1,0,0:0:0:0:
402,192,10430,1,0,0:0:0:0:
329,192,10516,1,0,0:0:0:0:
109,192,10602,128,0,10773:0:0:0:0:
475,192,10602,1,0,0:0:0:0:
402,192,10602,1,0,0:0:0:0:
36,192,10773,128,0,10944:0:0:0:0:
475,192,10773,1,0,0:0:0:0:
402,192,10773,1,0,0:0:0:0:
329,192,10859,1,0,0:0:0:0:
182,192,10944,128,0,11116:0:0:0:0:
475,192,10944,1,0,0:0:0:0:
402,192,10944,1,0,0:0:0:0:
256,192,11030,1,0,0:0:0:0:
329,192,11030,1,0,0:0:0:0:
109,192,11116,128,0,11202:0:0:0:0:
475,192,11116,1,0,0:0:0:0:
402,192,11116,1,0,0:0:0:0:
256,192,11202,1,0,0:0:0:0:
329,192,11202,1,0,0:0:0:0:
36,192,11202,128,0,11287:0:0:0:0:
475,192,11287,128,0,11459:0:0:0:0:
182,192,11287,1,0,0:0:0:0:
109,192,11287,1,0,0:0:0:0:
329,192,11373,1,0,0:0:0:0:
36,192,11459,128,0,11630:0:0:0:0:
182,192,11459,1,0,0:0:0:0:
329,192,11544,1,0,0:0:0:0:
402,192,11630,128,0,11802:0:0:0:0:
182,192,11630,1,0,0:0:0:0:
475,192,11630,1,0,0:0:0:0:
329,192,11802,128,0,11887:0:0:0:0:
36,192,11802,1,0,0:0:0:0:
109,192,11802,1,0,0:0:0:0:
182,192,11887,128,0,11973:0:0:0:0:
256,192,11887,1,0,0:0:0:0:
36,192,11973,1,0,0:0:0:0:
402,192,11973,1,0,0:0:0:0:
475,192,11973,1,0,0:0:0:0:
109,192,11973,1,0,0:0:0:0:
182,192,12144,1,0,0:0:0:0:
329,192,12144,1,0,0:0:0:0:
475,192,12144,1,0,0:0:0:0:
36,192,12230,1,0,0:0:0:0:
182,192,12316,1,0,0:0:0:0:
329,192,12316,1,0,0:0:0:0:
475,192,12316,1,0,0:0:0:0:
256,192,12487,1,0,0:0:0:0:
402,192,12487,1,0,0:0:0:0:
475,192,12487,1,0,0:0:0:0:
109,192,12573,1,0,0:0:0:0:
36,192,12573,1,0,0:0:0:0:
329,192,12659,1,0,0:0:0:0:
402,192,12659,1,0,0:0:0:0:
182,192,12659,128,0,12744:0:0:0:0:
475,192,12659,1,0,0:0:0:0:
256,192,12744,128,0,12830:0:0:0:0:
329,192,12830,128,0,12916:0:0:0:0:
36,192,12830,1,0,0:0:0:0:
109,192,12830,1,0,0:0:0:0:
402,192,12916,128,0,13002:0:0:0:0:
182,192,12916,1,0,0:0:0:0:
475,192,13002,128,0,13173:0:0:0:0:
36,192,13002,1,0,0:0:0:0:
256,192,13002,1,0,0:0:0:0:
182,192,13173,128,0,13344:0:0:0:0:
109,192,13173,1,0,0:0:0:0:
36,192,13173,1,0,0:0:0:0:
256,192,13173,1,0,0:0:0:0:
402,192,13259,1,0,0:0:0:0:
329,192,13259,1,0,0:0:0:0:
36,192,13344,128,0,13687:0:0:0:0:
256,192,13344,128,0,13430:0:0:0:0:
329,192,13430,128,0,13516:0:0:0:0:
402,192,13516,128,0,13602:0:0:0:0:
182,192,13516,1,0,0:0:0:0:
329,192,13602,128,0,13687:0:0:0:0:
109,192,13602,1,0,0:0:0:0:
475,192,13687,128,0,14030:0:0:0:0:
256,192,13687,128,0,13773:0:0:0:0:
182,192,13773,128,0,13859:0:0:0:0:
109,192,13859,128,0,13944:0:0:0:0:
329,192,13859,1,0,0:0:0:0:
182,192,13944,128,0,14030:0:0:0:0:
402,192,13944,1,0,0:0:0:0:
36,192,14030,128,0,14373:0:0:0:0:
256,192,14030,128,0,14116:0:0:0:0:
329,192,14116,128,0,14202:0:0:0:0:
402,192,14202,128,0,14287:0:0:0:0:
182,192,14202,1,0,0:0:0:0:
475,192,14287,128,0,14373:0:0:0:0:
329,192,14373,128,0,14716:0:0:0:0:
182,192,14373,128,0,14716:0:0:0:0:
256,192,14373,1,0,0:0:0:0:
256,192,14544,1,0,0:0:0:0:
36,192,14716,1,0,0:0:0:0:
109,192,14716,1,0,0:0:0:0:
256,192,14716,1,0,0:0:0:0:
402,192,14716,1,0,0:0:0:0:
475,192,14716,1,0,0:0:0:0:
182,192,14802,1,0,0:0:0:0:
329,192,14802,1,0,0:0:0:0:
256,192,14887,1,0,0:0:0:0:
402,192,14887,1,0,0:0:0:0:
475,192,14887,1,0,0:0:0:0:
36,192,15059,1,0,0:0:0:0:
182,192,15059,1,0,0:0:0:0:
402,192,15059,1,0,0:0:0:0:
109,192,15144,1,0,0:0:0:0:
256,192,15144,1,0,0:0:0:0:
182,192,15230,1,0,0:0:0:0:
329,192,15230,1,0,0:0:0:0:
402,192,15230,1,0,0:0:0:0:
109,192,15316,1,0,0:0:0:0:
36,192,15402,1,0,0:0:0:0:
256,192,15402,1,0,0:0:0:0:
402,192,15402,1,0,0:0:0:0:
182,192,15487,1,0,0:0:0:0:
329,192,15487,1,0,0:0:0:0:
109,192,15573,1,0,0:0:0:0:
402,192,15573,1,0,0:0:0:0:
256,192,15573,1,0,0:0:0:0:
36,192,15659,1,0,0:0:0:0:
182,192,15744,1,0,0:0:0:0:
329,192,15744,1,0,0:0:0:0:
475,192,15744,128,0,15916:0:0:0:0:
402,192,15916,128,0,16087:0:0:0:0:
109,192,15916,1,0,0:0:0:0:
256,192,15916,1,0,0:0:0:0:
256,192,16002,1,0,0:0:0:0:
36,192,16087,1,0,0:0:0:0:
182,192,16087,1,0,0:0:0:0:
329,192,16087,1,0,0:0:0:0:
109,192,16087,1,0,0:0:0:0:
402,192,16173,1,0,0:0:0:0:
475,192,16173,1,0,0:0:0:0:
182,192,16259,1,0,0:0:0:0:
256,192,16259,1,0,0:0:0:0:
329,192,16344,1,0,0:0:0:0:
402,192,16344,1,0,0:0:0:0:
475,192,16344,1,0,0:0:0:0:
36,192,16344,1,0,0:0:0:0:
109,192,16430,1,0,0:0:0:0:
182,192,16430,1,0,0:0:0:0:
329,192,16516,1,0,0:0:0:0:
402,192,16516,1,0,0:0:0:0:
36,192,16602,1,0,0:0:0:0:
109,192,16602,1,0,0:0:0:0:
182,192,16602,1,0,0:0:0:0:
256,192,16602,1,0,0:0:0:0:
402,192,16687,1,0,0:0:0:0:
475,192,16687,1,0,0:0:0:0:
109,192,16773,1,0,0:0:0:0:
182,192,16773,1,0,0:0:0:0:
36,192,16773,1,0,0:0:0:0:
329,192,16773,128,0,16944:0:0:0:0:
256,192,16944,128,0,17116:0:0:0:0:
36,192,17030,1,0,0:0:0:0:
475,192,17030,1,0,0:0:0:0:
402,192,17030,1,0,0:0:0:0:
182,192,17116,128,0,17287:0:0:0:0:
109,192,17287,128,0,17459:0:0:0:0:
36,192,17287,1,0,0:0:0:0:
475,192,17287,1,0,0:0:0:0:
402,192,17287,1,0,0:0:0:0:
402,192,17373,1,0,0:0:0:0:
475,192,17373,1,0,0:0:0:0:
256,192,17459,1,0,0:0:0:0:
182,192,17459,1,0,0:0:0:0:
36,192,17459,1,0,0:0:0:0:
329,192,17459,1,0,0:0:0:0:
182,192,17630,1,0,0:0:0:0:
256,192,17802,1,0,0:0:0:0:
329,192,17802,128,0,17973:0:0:0:0:
36,192,17802,128,0,17973:0:0:0:0:
182,192,17973,1,0,0:0:0:0:
109,192,18144,1,0,0:0:0:0:
402,192,18144,1,0,0:0:0:0:
36,192,18144,128,0,18316:0:0:0:0:
329,192,18144,128,0,18316:0:0:0:0:
182,192,18316,1,0,0:0:0:0:
475,192,18316,1,0,0:0:0:0:
109,192,18402,1,0,0:0:0:0:
402,192,18402,1,0,0:0:0:0:
329,192,18487,1,0,0:0:0:0:
36,192,18487,1,0,0:0:0:0:
256,192,18487,1,0,0:0:0:0:
475,192,18659,128,0,18830:0:0:0:0:
402,192,18659,1,0,0:0:0:0:
256,192,18659,128,0,18830:0:0:0:0:
36,192,18830,1,0,0:0:0:0:
109,192,18830,1,0,0:0:0:0:
182,192,18830,1,0,0:0:0:0:
256,192,19002,128,0,19173:0:0:0:0:
475,192,19002,128,0,19173:0:0:0:0:
402,192,19002,1,0,0:0:0:0:
36,192,19173,1,0,0:0:0:0:
109,192,19173,1,0,0:0:0:0:
182,192,19173,1,0,0:0:0:0:
256,192,19344,128,0,19516:0:0:0:0:
36,192,19344,128,0,19516:0:0:0:0:
182,192,19344,1,0,0:0:0:0:
329,192,19516,1,0,0:0:0:0:
402,192,19516,1,0,0:0:0:0:
475,192,19516,1,0,0:0:0:0:
402,192,19687,128,0,19859:0:0:0:0:
475,192,19687,128,0,19859:0:0:0:0:
109,192,19687,1,0,0:0:0:0:
256,192,19687,1,0,0:0:0:0:
36,192,19859,128,0,20030:0:0:0:0:
109,192,19859,128,0,20030:0:0:0:0:
182,192,19859,1,0,0:0:0:0:
329,192,19859,1,0,0:0:0:0:
475,192,20030,128,0,20202:0:0:0:0:
256,192,20030,1,0,0:0:0:0:
402,192,20030,1,0,0:0:0:0:
329,192,20116,128,0,20202:0:0:0:0:
36,192,20202,1,0,0:0:0:0:
109,192,20202,1,0,0:0:0:0:
182,192,20202,1,0,0:0:0:0:
256,192,20373,1,0,0:0:0:0:
109,192,20544,1,0,0:0:0:0:
329,192,20544,128,0,20716:0:0:0:0:
475,192,20544,128,0,20716:0:0:0:0:
36,192,20544,1,0,0:0:0:0:
182,192,20716,1,0,0:0:0:0:
329,192,20887,128,0,21059:0:0:0:0:
475,192,20887,128,0,21059:0:0:0:0:
109,192,20887,1,0,0:0:0:0:
36,192,20887,1,0,0:0:0:0:
256,192,21059,128,0,21230:0:0:0:0:
402,192,21059,128,0,21230:0:0:0:0:
182,192,21059,1,0,0:0:0:0:
36,192,21230,128,0,21402:0:0:0:0:
182,192,21230,128,0,21402:0:0:0:0:
109,192,21230,1,0,0:0:0:0:
329,192,21230,1,0,0:0:0:0:
402,192,21402,128,0,21573:0:0:0:0:
475,192,21402,128,0,21573:0:0:0:0:
256,192,21402,1,0,0:0:0:0:
36,192,21573,1,0,0:0:0:0:
109,192,21573,1,0,0:0:0:0:
182,192,21573,1,0,0:0:0:0:
402,192,21744,128,0,21916:0:0:0:0:
182,192,21744,128,0,21916:0:0:0:0:
329,192,21744,1,0,0:0:0:0:
256,192,21916,1,0,0:0:0:0:
109,192,21916,1,0,0:0:0:0:
475,192,21916,1,0,0:0:0:0:
329,192,22087,128,0,22259:0:0:0:0:
36,192,22087,128,0,22259:0:0:0:0:
182,192,22087,1,0,0:0:0:0:
256,192,22259,1,0,0:0:0:0:
109,192,22259,1,0,0:0:0:0:
475,192,22259,1,0,0:0:0:0:
36,192,22430,128,0,22602:0:0:0:0:
329,192,22430,128,0,22602:0:0:0:0:
182,192,22430,1,0,0:0:0:0:
109,192,22602,128,0,22773:0:0:0:0:
402,192,22602,128,0,22773:0:0:0:0:
256,192,22602,1,0,0:0:0:0:
475,192,22602,1,0,0:0:0:0:
182,192,22773,128,0,22944:0:0:0:0:
475,192,22773,128,0,22944:0:0:0:0:
36,192,22773,1,0,0:0:0:0:
329,192,22773,1,0,0:0:0:0:
256,192,22859,1,0,0:0:0:0:
36,192,22944,1,0,0:0:0:0:
329,192,22944,1,0,0:0:0:0:
402,192,22944,1,0,0:0:0:0:
109,192,23116,1,0,0:0:0:0:
329,192,23287,128,0,23459:0:0:0:0:
402,192,23287,128,0,23459:0:0:0:0:
182,192,23287,1,0,0:0:0:0:
256,192,23287,1,0,0:0:0:0:
109,192,23459,1,0,0:0:0:0:
329,192,23630,128,0,23802:0:0:0:0:
402,192,23630,128,0,23802:0:0:0:0:
36,192,23630,1,0,0:0:0:0:
256,192,23630,1,0,0:0:0:0:
182,192,23802,1,0,0:0:0:0:
475,192,23802,1,0,0:0:0:0:
109,192,23887,1,0,0:0:0:0:
402,192,23887,1,0,0:0:0:0:
329,192,23973,1,0,0:0:0:0:
36,192,23973,1,0,0:0:0:0:
256,192,23973,1,0,0:0:0:0:
182,192,24144,128,0,24316:0:0:0:0:
475,192,24144,128,0,24316:0:0:0:0:
402,192,24144,1,0,0:0:0:0:
36,192,24316,1,0,0:0:0:0:
256,192,24316,1,0,0:0:0:0:
329,192,24316,1,0,0:0:0:0:
182,192,24487,128,0,24659:0:0:0:0:
475,192,24487,128,0,24659:0:0:0:0:
402,192,24487,1,0,0:0:0:0:
36,192,24659,1,0,0:0:0:0:
256,192,24659,1,0,0:0:0:0:
329,192,24659,1,0,0:0:0:0:
329,192,24830,128,0,25002:0:0:0:0:
475,192,24830,128,0,25002:0:0:0:0:
109,192,24830,1,0,0:0:0:0:
36,192,25002,1,0,0:0:0:0:
182,192,25002,1,0,0:0:0:0:
256,192,25002,1,0,0:0:0:0:
402,192,25173,128,0,25344:0:0:0:0:
475,192,25173,128,0,25344:0:0:0:0:
109,192,25173,1,0,0:0:0:0:
256,192,25173,1,0,0:0:0:0:
36,192,25344,128,0,25516:0:0:0:0:
109,192,25344,128,0,25516:0:0:0:0:
182,192,25344,1,0,0:0:0:0:
329,192,25344,1,0,0:0:0:0:
475,192,25516,128,0,25687:0:0:0:0:
329,192,25516,128,0,25602:0:0:0:0:
256,192,25516,1,0,0:0:0:0:
402,192,25516,1,0,0:0:0:0:
182,192,25602,128,0,25687:0:0:0:0:
36,192,25687,1,0,0:0:0:0:
109,192,25687,1,0,0:0:0:0:
256,192,25687,1,0,0:0:0:0:
329,192,25859,1,0,0:0:0:0:
109,192,26030,128,0,26202:0:0:0:0:
256,192,26030,128,0,26202:0:0:0:0:
36,192,26030,1,0,0:0:0:0:
402,192,26030,1,0,0:0:0:0:
329,192,26202,1,0,0:0:0:0:
109,192,26373,128,0,26544:0:0:0:0:
256,192,26373,128,0,26544:0:0:0:0:
402,192,26373,1,0,0:0:0:0:
36,192,26373,1,0,0:0:0:0:
182,192,26544,128,0,26716:0:0:0:0:
329,192,26544,128,0,26716:0:0:0:0:
475,192,26544,1,0,0:0:0:0:
36,192,26716,128,0,26887:0:0:0:0:
402,192,26716,128,0,26887:0:0:0:0:
256,192,26716,1,0,0:0:0:0:
109,192,26716,1,0,0:0:0:0:
182,192,26887,128,0,27059:0:0:0:0:
475,192,26887,128,0,27059:0:0:0:0:
329,192,26887,1,0,0:0:0:0:
36,192,27059,1,0,0:0:0:0:
256,192,27059,1,0,0:0:0:0:
402,192,27059,1,0,0:0:0:0:
109,192,27230,128,0,27402:0:0:0:0:
329,192,27230,128,0,27402:0:0:0:0:
182,192,27230,1,0,0:0:0:0:
475,192,27230,1,0,0:0:0:0:
256,192,27402,1,0,0:0:0:0:
402,192,27402,1,0,0:0:0:0:
475,192,27402,1,0,0:0:0:0:
36,192,27573,128,0,27744:0:0:0:0:
256,192,27573,128,0,27744:0:0:0:0:
182,192,27573,1,0,0:0:0:0:
475,192,27573,1,0,0:0:0:0:
402,192,27744,1,0,0:0:0:0:
109,192,27744,1,0,0:0:0:0:
329,192,27744,1,0,0:0:0:0:
36,192,27916,128,0,28087:0:0:0:0:
256,192,27916,128,0,28087:0:0:0:0:
182,192,27916,1,0,0:0:0:0:
475,192,27916,1,0,0:0:0:0:
402,192,28002,1,0,0:0:0:0:
109,192,28087,128,0,28259:0:0:0:0:
329,192,28087,128,0,28259:0:0:0:0:
475,192,28087,1,0,0:0:0:0:
182,192,28087,1,0,0:0:0:0:
182,192,28259,128,0,28344:0:0:0:0:
402,192,28259,128,0,28430:0:0:0:0:
36,192,28259,1,0,0:0:0:0:
475,192,28259,1,0,0:0:0:0:
256,192,28344,1,0,0:0:0:0:
109,192,28344,128,0,28430:0:0:0:0:
36,192,28430,1,0,0:0:0:0:
329,192,28430,1,0,0:0:0:0:
475,192,28430,1,0,0:0:0:0:
256,192,28602,1,0,0:0:0:0:
36,192,28773,1,0,0:0:0:0:
109,192,28773,1,0,0:0:0:0:
402,192,28773,1,0,0:0:0:0:
475,192,28773,1,0,0:0:0:0:
256,192,28944,1,0,0:0:0:0:
109,192,29116,1,0,0:0:0:0:
36,192,29116,1,0,0:0:0:0:
402,192,29116,1,0,0:0:0:0:
475,192,29116,1,0,0:0:0:0:
36,192,29287,1,0,0:0:0:0:
475,192,29287,1,0,0:0:0:0:
256,192,29287,1,0,0:0:0:0:
329,192,29373,1,0,0:0:0:0:
182,192,29373,1,0,0:0:0:0:
36,192,29459,1,0,0:0:0:0:
475,192,29459,1,0,0:0:0:0:
109,192,29459,1,0,0:0:0:0:
402,192,29459,1,0,0:0:0:0:
182,192,29630,128,0,29802:0:0:0:0:
329,192,29630,128,0,29802:0:0:0:0:
36,192,29802,1,0,0:0:0:0:
475,192,29802,1,0,0:0:0:0:
329,192,29973,128,0,30144:0:0:0:0:
402,192,29973,128,0,30144:0:0:0:0:
36,192,30144,1,0,0:0:0:0:
109,192,30144,1,0,0:0:0:0:
182,192,30144,1,0,0:0:0:0:
256,192,30316,128,0,30487:0:0:0:0:
329,192,30316,128,0,30487:0:0:0:0:
36,192,30487,1,0,0:0:0:0:
109,192,30487,1,0,0:0:0:0:
182,192,30487,1,0,0:0:0:0:
329,192,30659,1,0,0:0:0:0:
475,192,30659,1,0,0:0:0:0:
109,192,30744,1,0,0:0:0:0:
182,192,30744,1,0,0:0:0:0:
182,192,30830,1,0,0:0:0:0:
109,192,30830,1,0,0:0:0:0:
256,192,30830,1,0,0:0:0:0:
402,192,30830,1,0,0:0:0:0:
109,192,31002,1,0,0:0:0:0:
182,192,31002,1,0,0:0:0:0:
329,192,31002,1,0,0:0:0:0:
402,192,31087,1,0,0:0:0:0:
475,192,31087,1,0,0:0:0:0:
109,192,31173,1,0,0:0:0:0:
182,192,31173,1,0,0:0:0:0:
256,192,31344,1,0,0:0:0:0:
36,192,31516,1,0,0:0:0:0:
182,192,31516,1,0,0:0:0:0:
329,192,31516,1,0,0:0:0:0:
475,192,31516,1,0,0:0:0:0:
256,192,31687,1,0,0:0:0:0:
329,192,31859,1,0,0:0:0:0:
475,192,31859,1,0,0:0:0:0:
36,192,31859,128,0,32030:0:0:0:0:
182,192,31859,128,0,32030:0:0:0:0:
109,192,32030,128,0,32202:0:0:0:0:
256,192,32030,128,0,32202:0:0:0:0:
402,192,32030,1,0,0:0:0:0:
182,192,32202,128,0,32373:0:0:0:0:
329,192,32202,128,0,32373:0:0:0:0:
475,192,32202,1,0,0:0:0:0:
36,192,32202,1,0,0:0:0:0:
256,192,32373,128,0,32544:0:0:0:0:
402,192,32373,128,0,32544:0:0:0:0:
109,192,32373,1,0,0:0:0:0:
36,192,32544,128,0,32716:0:0:0:0:
109,192,32544,128,0,32716:0:0:0:0:
329,192,32544,1,0,0:0:0:0:
475,192,32544,1,0,0:0:0:0:
182,192,32716,128,0,32887:0:0:0:0:
256,192,32716,128,0,32887:0:0:0:0:
36,192,32887,128,0,33059:0:0:0:0:
109,192,32887,128,0,33059:0:0:0:0:
402,192,32887,1,0,0:0:0:0:
475,192,32887,1,0,0:0:0:0:
256,192,33059,128,0,33230:0:0:0:0:
329,192,33059,128,0,33230:0:0:0:0:
36,192,33230,128,0,33402:0:0:0:0:
109,192,33230,128,0,33402:0:0:0:0:
475,192,33230,1,0,0:0:0:0:
182,192,33230,1,0,0:0:0:0:
329,192,33402,128,0,33573:0:0:0:0:
402,192,33402,128,0,33573:0:0:0:0:
256,192,33402,1,0,0:0:0:0:
36,192,33573,128,0,33744:0:0:0:0:
109,192,33573,128,0,33744:0:0:0:0:
182,192,33573,1,0,0:0:0:0:
475,192,33573,1,0,0:0:0:0:
402,192,33744,128,0,33916:0:0:0:0:
475,192,33744,128,0,33916:0:0:0:0:
256,192,33744,1,0,0:0:0:0:
36,192,33916,1,0,0:0:0:0:
109,192,33916,1,0,0:0:0:0:
182,192,33916,1,0,0:0:0:0:
36,192,34087,1,0,0:0:0:0:
109,192,34087,1,0,0:0:0:0:
256,192,34259,128,0,34430:0:0:0:0:
402,192,34259,128,0,34430:0:0:0:0:
36,192,34259,1,0,0:0:0:0:
109,192,34259,1,0,0:0:0:0:
109,192,34430,1,0,0:0:0:0:
36,192,34430,1,0,0:0:0:0:
256,192,34602,128,0,34773:0:0:0:0:
402,192,34602,128,0,34773:0:0:0:0:
109,192,34773,1,0,0:0:0:0:
36,192,34773,1,0,0:0:0:0:
329,192,34773,128,0,34944:0:0:0:0:
475,192,34773,128,0,34944:0:0:0:0:
36,192,34944,1,0,0:0:0:0:
109,192,34944,1,0,0:0:0:0:
109,192,35116,1,0,0:0:0:0:
36,192,35116,1,0,0:0:0:0:
402,192,35116,128,0,35287:0:0:0:0:
475,192,35116,128,0,35287:0:0:0:0:
182,192,35202,1,0,0:0:0:0:
109,192,35287,1,0,0:0:0:0:
36,192,35287,1,0,0:0:0:0:
182,192,35373,1,0,0:0:0:0:
109,192,35459,1,0,0:0:0:0:
36,192,35459,1,0,0:0:0:0:
329,192,35459,128,0,35630:0:0:0:0:
402,192,35459,128,0,35630:0:0:0:0:
36,192,35630,1,0,0:0:0:0:
109,192,35630,1,0,0:0:0:0:
109,192,35802,1,0,0:0:0:0:
36,192,35802,1,0,0:0:0:0:
329,192,35802,1,0,0:0:0:0:
402,192,35802,1,0,0:0:0:0:
402,192,35887,1,0,0:0:0:0:
329,192,35887,1,0,0:0:0:0:
329,192,35973,128,0,36144:0:0:0:0:
402,192,35973,128,0,36144:0:0:0:0:
36,192,36144,1,0,0:0:0:0:
109,192,36144,1,0,0:0:0:0:
329,192,36230,128,0,36402:0:0:0:0:
475,192,36230,128,0,36402:0:0:0:0:
109,192,36316,1,0,0:0:0:0:
36,192,36316,1,0,0:0:0:0:
36,192,36487,1,0,0:0:0:0:
109,192,36487,1,0,0:0:0:0:
402,192,36487,128,0,36659:0:0:0:0:
475,192,36487,128,0,36659:0:0:0:0:
182,192,36573,1,0,0:0:0:0:
329,192,36573,1,0,0:0:0:0:
109,192,36659,1,0,0:0:0:0:
36,192,36659,1,0,0:0:0:0:
256,192,36659,1,0,0:0:0:0:
182,192,36744,1,0,0:0:0:0:
329,192,36744,1,0,0:0:0:0:
109,192,36830,1,0,0:0:0:0:
402,192,36830,1,0,0:0:0:0:
475,192,36830,1,0,0:0:0:0:
329,192,36916,1,0,0:0:0:0:
182,192,36916,1,0,0:0:0:0:
109,192,37002,1,0,0:0:0:0:
402,192,37002,1,0,0:0:0:0:
36,192,37002,1,0,0:0:0:0:
182,192,37087,1,0,0:0:0:0:
329,192,37087,1,0,0:0:0:0:
109,192,37173,1,0,0:0:0:0:
402,192,37173,1,0,0:0:0:0:
475,192,37173,1,0,0:0:0:0:
182,192,37259,1,0,0:0:0:0:
329,192,37259,1,0,0:0:0:0:
36,192,37344,1,0,0:0:0:0:
475,192,37344,1,0,0:0:0:0:
109,192,37344,1,0,0:0:0:0:
402,192,37344,1,0,0:0:0:0:
182,192,37430,1,0,0:0:0:0:
329,192,37430,1,0,0:0:0:0:
36,192,37516,1,0,0:0:0:0:
475,192,37516,1,0,0:0:0:0:
109,192,37516,1,0,0:0:0:0:
182,192,37602,1,0,0:0:0:0:
329,192,37602,1,0,0:0:0:0:
36,192,37687,1,0,0:0:0:0:
475,192,37687,1,0,0:0:0:0:
402,192,37687,1,0,0:0:0:0:
182,192,37773,1,0,0:0:0:0:
329,192,37773,1,0,0:0:0:0:
36,192,37859,1,0,0:0:0:0:
475,192,37859,1,0,0:0:0:0:
109,192,37859,1,0,0:0:0:0:
329,192,37944,1,0,0:0:0:0:
182,192,37944,1,0,0:0:0:0:
256,192,38030,1,0,0:0:0:0:
36,192,38030,1,0,0:0:0:0:
402,192,38030,1,0,0:0:0:0:
475,192,38030,1,0,0:0:0:0:
109,192,38030,1,0,0:0:0:0:
36,192,38287,1,0,0:0:0:0:
109,192,38287,1,0,0:0:0:0:
256,192,38287,1,0,0:0:0:0:
402,192,38287,1,0,0:0:0:0:
475,192,38287,1,0,0:0:0:0:
36,192,38544,1,0,0:0:0:0:
182,192,38544,1,0,0:0:0:0:
329,192,38544,1,0,0:0:0:0:
402,192,38544,1,0,0:0:0:0:
475,192,38544,1,0,0:0:0:0:
256,192,38716,1,0,0:0:0:0:
329,192,38759,1,0,0:0:0:0:
402,192,38802,1,0,0:0:0:0:
475,192,38844,1,0,0:0:0:0:
182,192,38887,1,0,0:0:0:0:
256,192,38930,1,0,0:0:0:0:
329,192,38973,1,0,0:0:0:0:
402,192,39016,1,0,0:0:0:0:
109,192,39059,1,0,0:0:0:0:
182,192,39102,1,0,0:0:0:0:
256,192,39144,1,0,0:0:0:0:
329,192,39187,1,0,0:0:0:0:
36,192,39230,1,0,0:0:0:0:
109,192,39273,1,0,0:0:0:0:
182,192,39316,1,0,0:0:0:0:
256,192,39359,1,0,0:0:0:0:
329,192,39402,1,0,0:0:0:0:
402,192,39402,1,0,0:0:0:0:
475,192,39402,1,0,0:0:0:0:
36,192,39402,1,0,0:0:0:0:
36,192,39630,1,0,0:0:0:0:
256,192,39630,1,0,0:0:0:0:
329,192,39630,1,0,0:0:0:0:
402,192,39630,1,0,0:0:0:0:
36,192,39859,1,0,0:0:0:0:
329,192,39859,1,0,0:0:0:0:
402,192,39859,1,0,0:0:0:0:
475,192,39859,1,0,0:0:0:0:
36,192,40087,1,0,0:0:0:0:
109,192,40087,1,0,0:0:0:0:
256,192,40087,1,0,0:0:0:0:
402,192,40087,1,0,0:0:0:0:
36,192,40316,1,0,0:0:0:0:
109,192,40316,1,0,0:0:0:0:
329,192,40316,1,0,0:0:0:0:
475,192,40316,1,0,0:0:0:0:
256,192,40544,1,0,0:0:0:0:
402,192,40544,1,0,0:0:0:0:
109,192,40544,1,0,0:0:0:0:
36,192,40544,1,0,0:0:0:0:
36,192,40773,1,0,0:0:0:0:
182,192,40773,1,0,0:0:0:0:
109,192,40773,1,0,0:0:0:0:
329,192,40773,1,0,0:0:0:0:
475,192,41002,1,0,0:0:0:0:
36,192,41002,1,0,0:0:0:0:
109,192,41002,1,0,0:0:0:0:
182,192,41002,1,0,0:0:0:0:
402,192,41230,1,0,0:0:0:0:
36,192,41230,1,0,0:0:0:0:
109,192,41230,1,0,0:0:0:0:
182,192,41230,1,0,0:0:0:0:
329,192,41459,1,0,0:0:0:0:
402,192,41459,1,0,0:0:0:0:
475,192,41459,1,0,0:0:0:0:
182,192,41459,1,0,0:0:0:0:
109,192,41687,1,0,0:0:0:0:
329,192,41687,1,0,0:0:0:0:
402,192,41687,1,0,0:0:0:0:
475,192,41687,1,0,0:0:0:0:
36,192,41916,1,0,0:0:0:0:
329,192,41916,1,0,0:0:0:0:
402,192,41916,1,0,0:0:0:0:
475,192,41916,1,0,0:0:0:0:
256,192,42030,1,0,0:0:0:0:
109,192,42030,1,0,0:0:0:0:
182,192,42144,1,0,0:0:0:0:
329,192,42144,1,0,0:0:0:0:
402,192,42144,1,0,0:0:0:0:
475,192,42144,1,0,0:0:0:0:
36,192,42144,1,0,0:0:0:0:
402,192,42373,1,0,0:0:0:0:
475,192,42373,1,0,0:0:0:0:
109,192,42373,1,0,0:0:0:0:
182,192,42373,1,0,0:0:0:0:
182,192,42602,1,0,0:0:0:0:
256,192,42602,1,0,0:0:0:0:
402,192,42602,1,0,0:0:0:0:
475,192,42602,1,0,0:0:0:0:
475,192,42830,1,0,0:0:0:0:
329,192,42830,1,0,0:0:0:0:
36,192,42830,1,0,0:0:0:0:
109,192,42830,1,0,0:0:0:0:
182,192,42830,1,0,0:0:0:0:
475,192,43059,1,0,0:0:0:0:
182,192,43059,1,0,0:0:0:0:
256,192,43059,1,0,0:0:0:0:
329,192,43059,1,0,0:0:0:0:
475,192,43287,1,0,0:0:0:0:
109,192,43287,1,0,0:0:0:0:
182,192,43287,1,0,0:0:0:0:
256,192,43287,1,0,0:0:0:0:
36,192,43516,1,0,0:0:0:0:
109,192,43516,1,0,0:0:0:0:
182,192,43516,1,0,0:0:0:0:
329,192,43516,1,0,0:0:0:0:
256,192,43516,1,0,0:0:0:0:
402,192,43630,1,0,0:0:0:0:
475,192,43630,1,0,0:0:0:0:
36,192,43744,1,0,0:0:0:0:
109,192,43744,1,0,0:0:0:0:
256,192,43744,1,0,0:0:0:0:
402,192,43859,1,0,0:0:0:0:
475,192,43859,1,0,0:0:0:0:
36,192,43973,1,0,0:0:0:0:
109,192,43973,1,0,0:0:0:0:
256,192,43973,1,0,0:0:0:0:
402,192,44087,1,0,0:0:0:0:
475,192,44087,1,0,0:0:0:0:
36,192,44202,1,0,0:0:0:0:
109,192,44202,1,0,0:0:0:0:
256,192,44202,1,0,0:0:0:0:
402,192,44316,1,0,0:0:0:0:
475,192,44316,1,0,0:0:0:0:
109,192,44430,1,0,0:0:0:0:
182,192,44430,1,0,0:0:0:0:
329,192,44430,1,0,0:0:0:0:
256,192,44659,1,0,0:0:0:0:
402,192,44659,1,0,0:0:0:0:
109,192,44659,1,0,0:0:0:0:
402,192,44773,1,0,0:0:0:0:
109,192,44773,1,0,0:0:0:0:
36,192,44887,1,0,0:0:0:0:
256,192,44887,1,0,0:0:0:0:
329,192,44887,1,0,0:0:0:0:
475,192,44887,1,0,0:0:0:0:
182,192,44887,1,0,0:0:0:0:
256,192,45144,1,0,0:0:0:0:
402,192,45144,1,0,0:0:0:0:
109,192,45144,1,0,0:0:0:0:
36,192,45144,1,0,0:0:0:0:
109,192,45402,1,0,0:0:0:0:
182,192,45402,1,0,0:0:0:0:
329,192,45402,1,0,0:0:0:0:
475,192,45402,1,0,0:0:0:0:
256,192,45487,1,0,0:0:0:0:
402,192,45573,1,0,0:0:0:0:
329,192,45573,1,0,0:0:0:0:
182,192,45573,1,0,0:0:0:0:
36,192,45573,1,0,0:0:0:0:
36,192,45830,1,0,0:0:0:0:
109,192,45830,1,0,0:0:0:0:
256,192,45830,1,0,0:0:0:0:
329,192,45830,1,0,0:0:0:0:
109,192,46087,1,0,0:0:0:0:
182,192,46087,1,0,0:0:0:0:
329,192,46087,1,0,0:0:0:0:
402,192,46087,1,0,0:0:0:0:
256,192,46173,1,0,0:0:0:0:
402,192,46259,1,0,0:0:0:0:
475,192,46259,1,0,0:0:0:0:
329,192,46259,1,0,0:0:0:0:
182,192,46259,1,0,0:0:0:0:
182,192,46516,1,0,0:0:0:0:
329,192,46516,1,0,0:0:0:0:
402,192,46516,1,0,0:0:0:0:
475,192,46516,1,0,0:0:0:0:
182,192,46773,1,0,0:0:0:0:
329,192,46773,1,0,0:0:0:0:
402,192,46773,1,0,0:0:0:0:
475,192,46773,1,0,0:0:0:0:
36,192,46944,1,0,0:0:0:0:
182,192,46944,1,0,0:0:0:0:
329,192,46944,1,0,0:0:0:0:
475,192,46944,1,0,0:0:0:0:
182,192,47202,1,0,0:0:0:0:
36,192,47202,1,0,0:0:0:0:
329,192,47202,1,0,0:0:0:0:
475,192,47202,1,0,0:0:0:0:
182,192,47459,1,0,0:0:0:0:
36,192,47459,1,0,0:0:0:0:
329,192,47459,1,0,0:0:0:0:
475,192,47459,1,0,0:0:0:0:
109,192,47544,1,0,0:0:0:0:
256,192,47544,1,0,0:0:0:0:
402,192,47544,1,0,0:0:0:0:
36,192,47630,1,0,0:0:0:0:
182,192,47630,1,0,0:0:0:0:
329,192,47630,128,0,47802:0:0:0:0:
475,192,47630,128,0,47802:0:0:0:0:
109,192,47802,1,0,0:0:0:0:
182,192,47802,1,0,0:0:0:0:
329,192,47887,128,0,48059:0:0:0:0:
402,192,47887,128,0,48059:0:0:0:0:
109,192,47973,1,0,0:0:0:0:
182,192,47973,1,0,0:0:0:0:
109,192,48144,1,0,0:0:0:0:
182,192,48144,1,0,0:0:0:0:
402,192,48144,128,0,48316:0:0:0:0:
475,192,48144,128,0,48316:0:0:0:0:
109,192,48316,1,0,0:0:0:0:
182,192,48316,1,0,0:0:0:0:
329,192,48402,128,0,48573:0:0:0:0:
475,192,48402,128,0,48573:0:0:0:0:
109,192,48487,1,0,0:0:0:0:
182,192,48487,1,0,0:0:0:0:
182,192,48659,1,0,0:0:0:0:
109,192,48659,1,0,0:0:0:0:
329,192,48659,128,0,48830:0:0:0:0:
402,192,48659,128,0,48830:0:0:0:0:
109,192,48830,1,0,0:0:0:0:
256,192,48830,1,0,0:0:0:0:
182,192,48830,1,0,0:0:0:0:
329,192,48916,1,0,0:0:0:0:
402,192,48916,1,0,0:0:0:0:
109,192,49002,1,0,0:0:0:0:
182,192,49002,1,0,0:0:0:0:
402,192,49087,1,0,0:0:0:0:
475,192,49087,1,0,0:0:0:0:
182,192,49173,1,0,0:0:0:0:
256,192,49173,1,0,0:0:0:0:
329,192,49259,1,0,0:0:0:0:
402,192,49259,1,0,0:0:0:0:
36,192,49344,1,0,0:0:0:0:
109,192,49344,1,0,0:0:0:0:
256,192,49430,1,0,0:0:0:0:
329,192,49430,1,0,0:0:0:0:
109,192,49516,1,0,0:0:0:0:
182,192,49516,1,0,0:0:0:0:
36,192,49516,1,0,0:0:0:0:
329,192,49602,1,0,0:0:0:0:
256,192,49602,1,0,0:0:0:0:
36,192,49687,1,0,0:0:0:0:
402,192,49687,1,0,0:0:0:0:
475,192,49687,1,0,0:0:0:0:
109,192,49716,1,0,0:0:0:0:
182,192,49744,1,0,0:0:0:0:
256,192,49773,1,0,0:0:0:0:
329,192,49802,1,0,0:0:0:0:
402,192,49830,1,0,0:0:0:0:
36,192,49859,1,0,0:0:0:0:
109,192,49887,1,0,0:0:0:0:
182,192,49916,1,0,0:0:0:0:
256,192,49944,1,0,0:0:0:0:
329,192,49973,1,0,0:0:0:0:
402,192,50002,1,0,0:0:0:0:
36,192,50030,1,0,0:0:0:0:
109,192,50059,1,0,0:0:0:0:
182,192,50087,1,0,0:0:0:0:
256,192,50116,1,0,0:0:0:0:
329,192,50144,1,0,0:0:0:0:
402,192,50173,1,0,0:0:0:0:
36,192,50202,1,0,0:0:0:0:
109,192,50202,1,0,0:0:0:0:
475,192,50202,1,0,0:0:0:0:
182,192,50287,1,0,0:0:0:0:
329,192,50287,1,0,0:0:0:0:
36,192,50373,1,0,0:0:0:0:
109,192,50373,1,0,0:0:0:0:
475,192,50373,1,0,0:0:0:0:
402,192,50373,1,0,0:0:0:0:
256,192,50373,1,0,0:0:0:0:
182,192,50459,1,0,0:0:0:0:
256,192,50544,1,0,0:0:0:0:
329,192,50544,128,0,50716:0:0:0:0:
475,192,50716,1,0,0:0:0:0:
36,192,50716,1,0,0:0:0:0:
109,192,50716,1,0,0:0:0:0:
182,192,50802,1,0,0:0:0:0:
402,192,50887,128,0,51059:0:0:0:0:
256,192,50887,1,0,0:0:0:0:
182,192,51059,1,0,0:0:0:0:
36,192,51059,1,0,0:0:0:0:
109,192,51059,1,0,0:0:0:0:
256,192,51144,1,0,0:0:0:0:
475,192,51230,128,0,51402:0:0:0:0:
329,192,51230,1,0,0:0:0:0:
36,192,51402,1,0,0:0:0:0:
182,192,51402,1,0,0:0:0:0:
256,192,51402,1,0,0:0:0:0:
329,192,51573,1,0,0:0:0:0:
256,192,51659,1,0,0:0:0:0:
475,192,51744,128,0,51916:0:0:0:0:
36,192,51744,1,0,0:0:0:0:
182,192,51744,1,0,0:0:0:0:
36,192,51916,128,0,52087:0:0:0:0:
329,192,51916,1,0,0:0:0:0:
256,192,52002,1,0,0:0:0:0:
182,192,52087,1,0,0:0:0:0:
402,192,52087,128,0,52259:0:0:0:0:
475,192,52087,1,0,0:0:0:0:
109,192,52259,128,0,52430:0:0:0:0:
329,192,52259,1,0,0:0:0:0:
256,192,52344,1,0,0:0:0:0:
475,192,52430,1,0,0:0:0:0:
329,192,52430,128,0,52773:0:0:0:0:
182,192,52430,1,0,0:0:0:0:
402,192,52602,1,0,0:0:0:0:
475,192,52602,1,0,0:0:0:0:
36,192,52687,1,0,0:0:0:0:
109,192,52687,1,0,0:0:0:0:
109,192,52773,1,0,0:0:0:0:
402,192,52773,1,0,0:0:0:0:
256,192,52773,1,0,0:0:0:0:
36,192,52773,1,0,0:0:0:0:
329,192,52944,1,0,0:0:0:0:
182,192,52944,1,0,0:0:0:0:
256,192,52944,128,0,53116:0:0:0:0:
402,192,53116,1,0,0:0:0:0:
475,192,53116,1,0,0:0:0:0:
329,192,53116,1,0,0:0:0:0:
109,192,53202,1,0,0:0:0:0:
182,192,53202,1,0,0:0:0:0:
36,192,53202,1,0,0:0:0:0:
475,192,53287,1,0,0:0:0:0:
402,192,53287,128,0,53544:0:0:0:0:
329,192,53287,1,0,0:0:0:0:
256,192,53373,1,0,0:0:0:0:
182,192,53459,1,0,0:0:0:0:
36,192,53459,1,0,0:0:0:0:
475,192,53630,1,0,0:0:0:0:
329,192,53630,1,0,0:0:0:0:
402,192,53630,1,0,0:0:0:0:
182,192,53716,1,0,0:0:0:0:
109,192,53716,1,0,0:0:0:0:
36,192,53716,1,0,0:0:0:0:
329,192,53802,128,0,54144:0:0:0:0:
402,192,53802,1,0,0:0:0:0:
256,192,53802,1,0,0:0:0:0:
109,192,53973,1,0,0:0:0:0:
36,192,53973,1,0,0:0:0:0:
475,192,53973,128,0,54144:0:0:0:0:
182,192,54059,1,0,0:0:0:0:
256,192,54144,128,0,54487:0:0:0:0:
36,192,54144,1,0,0:0:0:0:
109,192,54144,1,0,0:0:0:0:
182,192,54316,128,0,54487:0:0:0:0:
402,192,54316,1,0,0:0:0:0:
475,192,54316,1,0,0:0:0:0:
329,192,54402,1,0,0:0:0:0:
475,192,54487,1,0,0:0:0:0:
109,192,54487,128,0,54659:0:0:0:0:
402,192,54487,1,0,0:0:0:0:
36,192,54659,128,0,54830:0:0:0:0:
256,192,54659,1,0,0:0:0:0:
329,192,54659,1,0,0:0:0:0:
402,192,54744,1,0,0:0:0:0:
475,192,54830,128,0,55002:0:0:0:0:
182,192,54830,1,0,0:0:0:0:
256,192,54830,1,0,0:0:0:0:
329,192,54916,1,0,0:0:0:0:
402,192,55002,128,0,55087:0:0:0:0:
109,192,55002,1,0,0:0:0:0:
182,192,55002,1,0,0:0:0:0:
256,192,55087,1,0,0:0:0:0:
329,192,55087,128,0,55173:0:0:0:0:
36,192,55173,1,0,0:0:0:0:
109,192,55173,1,0,0:0:0:0:
475,192,55173,128,0,55859:0:0:0:0:
182,192,55259,1,0,0:0:0:0:
329,192,55344,128,0,55859:0:0:0:0:
256,192,55344,1,0,0:0:0:0:
36,192,55430,1,0,0:0:0:0:
182,192,55516,128,0,55859:0:0:0:0:
109,192,55516,1,0,0:0:0:0:
256,192,55516,1,0,0:0:0:0:
402,192,55516,1,0,0:0:0:0:
36,192,55687,128,0,55859:0:0:0:0:
109,192,55687,1,0,0:0:0:0:
402,192,55687,1,0,0:0:0:0:
256,192,55773,1,0,0:0:0:0:
109,192,55859,1,0,0:0:0:0:
402,192,55859,1,0,0:0:0:0:
109,192,56030,1,0,0:0:0:0:
182,192,56030,1,0,0:0:0:0:
402,192,56030,1,0,0:0:0:0:
256,192,56116,1,0,0:0:0:0:
109,192,56202,1,0,0:0:0:0:
329,192,56202,1,0,0:0:0:0:
402,192,56202,1,0,0:0:0:0:
182,192,56373,1,0,0:0:0:0:
402,192,56373,1,0,0:0:0:0:
475,192,56373,1,0,0:0:0:0:
109,192,56459,1,0,0:0:0:0:
36,192,56544,1,0,0:0:0:0:
256,192,56544,1,0,0:0:0:0:
475,192,56544,1,0,0:0:0:0:
329,192,56630,1,0,0:0:0:0:
109,192,56630,1,0,0:0:0:0:
182,192,56716,1,0,0:0:0:0:
402,192,56716,1,0,0:0:0:0:
475,192,56716,1,0,0:0:0:0:
256,192,56802,1,0,0:0:0:0:
36,192,56887,1,0,0:0:0:0:
109,192,56887,1,0,0:0:0:0:
329,192,56887,1,0,0:0:0:0:
109,192,57059,1,0,0:0:0:0:
182,192,57059,1,0,0:0:0:0:
402,192,57059,1,0,0:0:0:0:
256,192,57144,1,0,0:0:0:0:
36,192,57230,128,0,57402:0:0:0:0:
109,192,57230,128,0,57316:0:0:0:0:
329,192,57230,1,0,0:0:0:0:
475,192,57230,1,0,0:0:0:0:
109,192,57402,128,0,57573:0:0:0:0:
182,192,57402,128,0,57487:0:0:0:0:
329,192,57402,1,0,0:0:0:0:
182,192,57573,128,0,57744:0:0:0:0:
256,192,57573,128,0,57659:0:0:0:0:
402,192,57573,1,0,0:0:0:0:
475,192,57573,1,0,0:0:0:0:
256,192,57744,128,0,57916:0:0:0:0:
329,192,57744,128,0,57830:0:0:0:0:
475,192,57744,1,0,0:0:0:0:
329,192,57916,128,0,58173:0:0:0:0:
475,192,57916,128,0,58173:0:0:0:0:
36,192,57916,1,0,0:0:0:0:
109,192,57916,1,0,0:0:0:0:
182,192,57916,1,0,0:0:0:0:
256,192,58087,1,0,0:0:0:0:
36,192,58259,1,0,0:0:0:0:
109,192,58259,1,0,0:0:0:0:
475,192,58259,1,0,0:0:0:0:
182,192,58259,1,0,0:0:0:0:
329,192,58259,1,0,0:0:0:0:
402,192,58602,1,0,0:0:0:0:
475,192,58602,1,0,0:0:0:0:
36,192,58602,1,0,0:0:0:0:
256,192,58602,1,0,0:0:0:0:
109,192,58687,1,0,0:0:0:0:
402,192,58773,1,0,0:0:0:0:
475,192,58773,1,0,0:0:0:0:
182,192,58773,128,0,58944:0:0:0:0:
329,192,58773,1,0,0:0:0:0:
402,192,58944,1,0,0:0:0:0:
475,192,58944,1,0,0:0:0:0:
256,192,58944,1,0,0:0:0:0:
109,192,58944,1,0,0:0:0:0:
36,192,59030,1,0,0:0:0:0:
475,192,59116,1,0,0:0:0:0:
402,192,59116,1,0,0:0:0:0:
329,192,59116,1,0,0:0:0:0:
182,192,59116,128,0,59287:0:0:0:0:
402,192,59287,1,0,0:0:0:0:
475,192,59287,1,0,0:0:0:0:
36,192,59287,1,0,0:0:0:0:
109,192,59373,1,0,0:0:0:0:
475,192,59459,1,0,0:0:0:0:
402,192,59459,1,0,0:0:0:0:
182,192,59459,128,0,59630:0:0:0:0:
256,192,59459,1,0,0:0:0:0:
329,192,59544,1,0,0:0:0:0:
402,192,59630,1,0,0:0:0:0:
475,192,59630,1,0,0:0:0:0:
109,192,59630,1,0,0:0:0:0:
36,192,59630,128,0,59802:0:0:0:0:
402,192,59802,1,0,0:0:0:0:
475,192,59802,1,0,0:0:0:0:
256,192,59802,1,0,0:0:0:0:
182,192,59802,128,0,59973:0:0:0:0:
329,192,59887,1,0,0:0:0:0:
402,192,59973,1,0,0:0:0:0:
475,192,59973,1,0,0:0:0:0:
109,192,59973,1,0,0:0:0:0:
36,192,59973,1,0,0:0:0:0:
182,192,60144,1,0,0:0:0:0:
329,192,60144,1,0,0:0:0:0:
36,192,60230,1,0,0:0:0:0:
109,192,60230,1,0,0:0:0:0:
402,192,60230,1,0,0:0:0:0:
475,192,60230,1,0,0:0:0:0:
256,192,60402,1,0,0:0:0:0:
182,192,60487,1,0,0:0:0:0:
36,192,60487,1,0,0:0:0:0:
329,192,60487,1,0,0:0:0:0:
475,192,60487,1,0,0:0:0:0:
36,192,60659,1,0,0:0:0:0:
109,192,60659,1,0,0:0:0:0:
402,192,60659,1,0,0:0:0:0:
475,192,60659,128,0,60830:0:0:0:0:
256,192,60659,1,0,0:0:0:0:
329,192,60830,128,0,61002:0:0:0:0:
36,192,60830,1,0,0:0:0:0:
109,192,60830,1,0,0:0:0:0:
182,192,61002,128,0,61173:0:0:0:0:
109,192,61002,1,0,0:0:0:0:
36,192,61002,1,0,0:0:0:0:
402,192,61002,1,0,0:0:0:0:
475,192,61002,1,0,0:0:0:0:
36,192,61173,128,0,61344:0:0:0:0:
475,192,61173,1,0,0:0:0:0:
402,192,61173,1,0,0:0:0:0:
109,192,61259,128,0,61344:0:0:0:0:
329,192,61259,1,0,0:0:0:0:
402,192,61344,1,0,0:0:0:0:
475,192,61344,1,0,0:0:0:0:
256,192,61344,1,0,0:0:0:0:
182,192,61430,1,0,0:0:0:0:
329,192,61516,128,0,61687:0:0:0:0:
256,192,61516,1,0,0:0:0:0:
36,192,61687,1,0,0:0:0:0:
109,192,61687,1,0,0:0:0:0:
402,192,61687,1,0,0:0:0:0:
475,192,61687,1,0,0:0:0:0:
182,192,61773,1,0,0:0:0:0:
256,192,61859,128,0,62030:0:0:0:0:
402,192,61859,1,0,0:0:0:0:
329,192,62030,1,0,0:0:0:0:
36,192,62030,1,0,0:0:0:0:
402,192,62116,1,0,0:0:0:0:
475,192,62202,128,0,62373:0:0:0:0:
109,192,62202,1,0,0:0:0:0:
182,192,62373,1,0,0:0:0:0:
36,192,62373,1,0,0:0:0:0:
329,192,62373,1,0,0:0:0:0:
475,192,62544,1,0,0:0:0:0:
256,192,62544,1,0,0:0:0:0:
182,192,62630,1,0,0:0:0:0:
402,192,62630,1,0,0:0:0:0:
109,192,62716,1,0,0:0:0:0:
36,192,62716,1,0,0:0:0:0:
329,192,62716,128,0,62887:0:0:0:0:
182,192,62887,128,0,63059:0:0:0:0:
475,192,62887,1,0,0:0:0:0:
402,192,62973,1,0,0:0:0:0:
329,192,63059,128,0,63230:0:0:0:0:
109,192,63059,1,0,0:0:0:0:
36,192,63059,1,0,0:0:0:0:
475,192,63230,128,0,63402:0:0:0:0:
109,192,63230,1,0,0:0:0:0:
182,192,63316,1,0,0:0:0:0:
36,192,63402,128,0,63744:0:0:0:0:
256,192,63402,1,0,0:0:0:0:
402,192,63402,1,0,0:0:0:0:
329,192,63573,1,0,0:0:0:0:
256,192,63659,1,0,0:0:0:0:
256,192,63744,1,0,0:0:0:0:
402,192,63744,1,0,0:0:0:0:
475,192,63744,1,0,0:0:0:0:
182,192,63916,1,0,0:0:0:0:
329,192,63916,1,0,0:0:0:0:
256,192,64087,1,0,0:0:0:0:
402,192,64087,1,0,0:0:0:0:
475,192,64087,1,0,0:0:0:0:
182,192,64173,1,0,0:0:0:0:
109,192,64173,1,0,0:0:0:0:
36,192,64173,1,0,0:0:0:0:
402,192,64259,1,0,0:0:0:0:
475,192,64259,1,0,0:0:0:0:
329,192,64259,128,0,64516:0:0:0:0:
109,192,64430,1,0,0:0:0:0:
182,192,64430,1,0,0:0:0:0:
256,192,64602,1,0,0:0:0:0:
329,192,64602,1,0,0:0:0:0:
402,192,64602,1,0,0:0:0:0:
36,192,64687,1,0,0:0:0:0:
109,192,64687,1,0,0:0:0:0:
182,192,64687,1,0,0:0:0:0:
402,192,64773,1,0,0:0:0:0:
475,192,64773,1,0,0:0:0:0:
256,192,64773,128,0,64944:0:0:0:0:
329,192,64944,128,0,65116:0:0:0:0:
36,192,64944,1,0,0:0:0:0:
109,192,64944,1,0,0:0:0:0:
475,192,65030,1,0,0:0:0:0:
182,192,65116,128,0,65287:0:0:0:0:
36,192,65116,1,0,0:0:0:0:
109,192,65116,1,0,0:0:0:0:
256,192,65287,128,0,65459:0:0:0:0:
402,192,65287,1,0,0:0:0:0:
475,192,65287,1,0,0:0:0:0:
36,192,65373,1,0,0:0:0:0:
402,192,65459,1,0,0:0:0:0:
475,192,65459,1,0,0:0:0:0:
329,192,65459,128,0,65802:0:0:0:0:
182,192,65630,128,0,65802:0:0:0:0:
36,192,65630,1,0,0:0:0:0:
109,192,65630,1,0,0:0:0:0:
256,192,65716,1,0,0:0:0:0:
475,192,65802,128,0,66144:0:0:0:0:
402,192,65802,1,0,0:0:0:0:
109,192,65802,1,0,0:0:0:0:
256,192,65887,1,0,0:0:0:0:
36,192,65973,128,0,66144:0:0:0:0:
109,192,65973,1,0,0:0:0:0:
402,192,65973,1,0,0:0:0:0:
256,192,66059,1,0,0:0:0:0:
182,192,66144,1,0,0:0:0:0:
329,192,66144,1,0,0:0:0:0:
402,192,66144,128,0,66316:0:0:0:0:
109,192,66144,128,0,66316:0:0:0:0:
36,192,66316,1,0,0:0:0:0:
475,192,66316,1,0,0:0:0:0:
182,192,66487,128,0,66659:0:0:0:0:
329,192,66487,128,0,66659:0:0:0:0:
109,192,66487,1,0,0:0:0:0:
402,192,66487,1,0,0:0:0:0:
36,192,66659,1,0,0:0:0:0:
475,192,66659,1,0,0:0:0:0:
109,192,66744,1,0,0:0:0:0:
402,192,66744,1,0,0:0:0:0:
182,192,66830,1,0,0:0:0:0:
329,192,66830,1,0,0:0:0:0:
36,192,66830,1,0,0:0:0:0:
475,192,66830,1,0,0:0:0:0:
256,192,66830,1,0,0:0:0:0:
109,192,67002,1,0,0:0:0:0:
402,192,67002,1,0,0:0:0:0:
329,192,67002,1,0,0:0:0:0:
182,192,67087,1,0,0:0:0:0:
402,192,67173,1,0,0:0:0:0:
109,192,67173,1,0,0:0:0:0:
329,192,67173,1,0,0:0:0:0:
109,192,67344,1,0,0:0:0:0:
402,192,67344,1,0,0:0:0:0:
475,192,67344,1,0,0:0:0:0:
182,192,67430,1,0,0:0:0:0:
329,192,67430,1,0,0:0:0:0:
109,192,67516,1,0,0:0:0:0:
402,192,67516,1,0,0:0:0:0:
36,192,67516,1,0,0:0:0:0:
329,192,67602,1,0,0:0:0:0:
182,192,67602,1,0,0:0:0:0:
109,192,67687,1,0,0:0:0:0:
402,192,67687,1,0,0:0:0:0:
36,192,67687,1,0,0:0:0:0:
256,192,67773,1,0,0:0:0:0:
475,192,67773,1,0,0:0:0:0:
109,192,67859,1,0,0:0:0:0:
402,192,67859,1,0,0:0:0:0:
329,192,67859,1,0,0:0:0:0:
109,192,68030,1,0,0:0:0:0:
402,192,68030,1,0,0:0:0:0:
182,192,68030,1,0,0:0:0:0:
256,192,68116,1,0,0:0:0:0:
329,192,68116,1,0,0:0:0:0:
109,192,68202,1,0,0:0:0:0:
475,192,68202,1,0,0:0:0:0:
36,192,68202,128,0,68544:0:0:0:0:
402,192,68202,128,0,68287:0:0:0:0:
329,192,68287,128,0,68373:0:0:0:0:
256,192,68373,128,0,68459:0:0:0:0:
182,192,68459,128,0,68544:0:0:0:0:
475,192,68544,128,0,68887:0:0:0:0:
109,192,68544,128,0,68630:0:0:0:0:
329,192,68544,1,0,0:0:0:0:
402,192,68544,1,0,0:0:0:0:
182,192,68630,128,0,68716:0:0:0:0:
256,192,68716,128,0,68802:0:0:0:0:
329,192,68802,128,0,68887:0:0:0:0:
402,192,68887,128,0,69230:0:0:0:0:
36,192,68887,1,0,0:0:0:0:
182,192,68887,1,0,0:0:0:0:
109,192,68973,128,0,69487:0:0:0:0:
182,192,69059,128,0,69487:0:0:0:0:
256,192,69144,128,0,69487:0:0:0:0:
329,192,69230,128,0,69487:0:0:0:0:
36,192,69230,1,0,0:0:0:0:
475,192,69230,1,0,0:0:0:0:
402,192,69402,1,0,0:0:0:0:
182,192,69573,1,0,0:0:0:0:
109,192,69573,1,0,0:0:0:0:
256,192,69573,1,0,0:0:0:0:
329,192,69573,1,0,0:0:0:0:
475,192,69573,1,0,0:0:0:0:
36,192,69659,1,0,0:0:0:0:
402,192,69659,1,0,0:0:0:0:
182,192,69744,1,0,0:0:0:0:
256,192,69744,1,0,0:0:0:0:
475,192,69744,128,0,69916:0:0:0:0:
182,192,69916,1,0,0:0:0:0:
109,192,69916,1,0,0:0:0:0:
329,192,69916,1,0,0:0:0:0:
402,192,70002,1,0,0:0:0:0:
109,192,70087,1,0,0:0:0:0:
36,192,70087,1,0,0:0:0:0:
475,192,70087,128,0,70259:0:0:0:0:
182,192,70173,1,0,0:0:0:0:
256,192,70173,1,0,0:0:0:0:
329,192,70259,1,0,0:0:0:0:
402,192,70259,1,0,0:0:0:0:
109,192,70344,1,0,0:0:0:0:
182,192,70430,128,0,70602:0:0:0:0:
402,192,70430,1,0,0:0:0:0:
475,192,70430,1,0,0:0:0:0:
329,192,70516,1,0,0:0:0:0:
256,192,70516,1,0,0:0:0:0:
109,192,70602,128,0,70773:0:0:0:0:
402,192,70602,1,0,0:0:0:0:
475,192,70602,1,0,0:0:0:0:
36,192,70773,128,0,70944:0:0:0:0:
475,192,70773,1,0,0:0:0:0:
329,192,70773,1,0,0:0:0:0:
256,192,70859,1,0,0:0:0:0:
402,192,70859,1,0,0:0:0:0:
329,192,70944,1,0,0:0:0:0:
182,192,70944,1,0,0:0:0:0:
109,192,70944,1,0,0:0:0:0:
402,192,71030,1,0,0:0:0:0:
475,192,71030,1,0,0:0:0:0:
36,192,71116,1,0,0:0:0:0:
109,192,71116,1,0,0:0:0:0:
256,192,71202,1,0,0:0:0:0:
329,192,71202,1,0,0:0:0:0:
402,192,71202,1,0,0:0:0:0:
475,192,71202,1,0,0:0:0:0:
109,192,71287,1,0,0:0:0:0:
182,192,71287,1,0,0:0:0:0:
329,192,71373,1,0,0:0:0:0:
402,192,71373,1,0,0:0:0:0:
36,192,71459,1,0,0:0:0:0:
109,192,71459,1,0,0:0:0:0:
182,192,71459,1,0,0:0:0:0:
256,192,71459,1,0,0:0:0:0:
402,192,71544,1,0,0:0:0:0:
475,192,71544,1,0,0:0:0:0:
329,192,71630,128,0,71802:0:0:0:0:
36,192,71630,1,0,0:0:0:0:
109,192,71630,1,0,0:0:0:0:
256,192,71630,1,0,0:0:0:0:
182,192,71802,128,0,71973:0:0:0:0:
36,192,71887,1,0,0:0:0:0:
256,192,71887,1,0,0:0:0:0:
475,192,71887,1,0,0:0:0:0:
402,192,71973,128,0,72144:0:0:0:0:
109,192,72144,128,0,72316:0:0:0:0:
36,192,72144,1,0,0:0:0:0:
256,192,72144,1,0,0:0:0:0:
475,192,72144,1,0,0:0:0:0:
256,192,72230,1,0,0:0:0:0:
475,192,72230,1,0,0:0:0:0:
182,192,72316,1,0,0:0:0:0:
329,192,72316,1,0,0:0:0:0:
329,192,72659,1,0,0:0:0:0:
182,192,72830,1,0,0:0:0:0:
109,192,72830,1,0,0:0:0:0:
329,192,73002,1,0,0:0:0:0:
256,192,73087,1,0,0:0:0:0:
402,192,73173,1,0,0:0:0:0:
182,192,73344,1,0,0:0:0:0:
109,192,73344,1,0,0:0:0:0:
475,192,73516,1,0,0:0:0:0:
256,192,73516,128,0,73687:0:0:0:0:
36,192,73687,1,0,0:0:0:0:
182,192,73687,1,0,0:0:0:0:
402,192,73859,1,0,0:0:0:0:
329,192,74202,1,0,0:0:0:0:
182,192,74202,1,0,0:0:0:0:
36,192,74202,1,0,0:0:0:0:
256,192,74544,1,0,0:0:0:0:
402,192,74716,1,0,0:0:0:0:
36,192,74716,1,0,0:0:0:0:
182,192,74716,1,0,0:0:0:0:
256,192,74887,128,0,75059:0:0:0:0:
329,192,74887,1,0,0:0:0:0:
36,192,75059,1,0,0:0:0:0:
109,192,75059,1,0,0:0:0:0:
329,192,75230,1,0,0:0:0:0:
329,192,75573,1,0,0:0:0:0:
36,192,75573,1,0,0:0:0:0:
109,192,75573,1,0,0:0:0:0:
256,192,75659,1,0,0:0:0:0:
329,192,75744,1,0,0:0:0:0:
402,192,75916,1,0,0:0:0:0:
109,192,76087,1,0,0:0:0:0:
36,192,76087,1,0,0:0:0:0:
475,192,76259,1,0,0:0:0:0:
256,192,76259,128,0,76430:0:0:0:0:
109,192,76430,1,0,0:0:0:0:
182,192,76430,1,0,0:0:0:0:
402,192,76602,1,0,0:0:0:0:
329,192,76944,1,0,0:0:0:0:
109,192,76944,1,0,0:0:0:0:
182,192,76944,1,0,0:0:0:0:
256,192,77287,1,0,0:0:0:0:
329,192,77373,1,0,0:0:0:0:
402,192,77459,1,0,0:0:0:0:
109,192,77459,1,0,0:0:0:0:
182,192,77459,1,0,0:0:0:0:
256,192,77630,128,0,77802:0:0:0:0:
329,192,77630,1,0,0:0:0:0:
402,192,77716,1,0,0:0:0:0:
36,192,77802,1,0,0:0:0:0:
182,192,77802,1,0,0:0:0:0:
475,192,77802,1,0,0:0:0:0:
475,192,78144,1,0,0:0:0:0:
182,192,78316,1,0,0:0:0:0:
36,192,78316,1,0,0:0:0:0:
475,192,78487,1,0,0:0:0:0:
329,192,78573,1,0,0:0:0:0:
402,192,78659,1,0,0:0:0:0:
36,192,78830,1,0,0:0:0:0:
182,192,78830,1,0,0:0:0:0:
256,192,79002,128,0,79173:0:0:0:0:
475,192,79002,1,0,0:0:0:0:
36,192,79173,1,0,0:0:0:0:
109,192,79173,1,0,0:0:0:0:
329,192,79344,1,0,0:0:0:0:
36,192,79687,1,0,0:0:0:0:
109,192,79687,1,0,0:0:0:0:
402,192,79687,1,0,0:0:0:0:
475,192,80030,1,0,0:0:0:0:
36,192,80202,1,0,0:0:0:0:
109,192,80202,1,0,0:0:0:0:
329,192,80202,1,0,0:0:0:0:
475,192,80287,1,0,0:0:0:0:
402,192,80330,1,0,0:0:0:0:
329,192,80373,1,0,0:0:0:0:
256,192,80373,128,0,80544:0:0:0:0:
109,192,80544,1,0,0:0:0:0:
182,192,80544,1,0,0:0:0:0:
329,192,80716,1,0,0:0:0:0:
329,192,81059,1,0,0:0:0:0:
182,192,81059,1,0,0:0:0:0:
109,192,81059,1,0,0:0:0:0:
256,192,81144,1,0,0:0:0:0:
329,192,81230,1,0,0:0:0:0:
402,192,81402,1,0,0:0:0:0:
182,192,81573,1,0,0:0:0:0:
109,192,81573,1,0,0:0:0:0:
256,192,81744,128,0,81916:0:0:0:0:
475,192,81744,128,0,82002:0:0:0:0:
329,192,81744,128,0,82002:0:0:0:0:
36,192,81916,1,0,0:0:0:0:
182,192,81916,1,0,0:0:0:0:
475,192,82087,128,0,82344:0:0:0:0:
402,192,82087,128,0,82344:0:0:0:0:
329,192,82430,128,0,82687:0:0:0:0:
402,192,82430,128,0,82687:0:0:0:0:
36,192,82430,1,0,0:0:0:0:
182,192,82430,1,0,0:0:0:0:
402,192,82773,1,0,0:0:0:0:
475,192,82773,1,0,0:0:0:0:
329,192,82859,1,0,0:0:0:0:
256,192,82859,1,0,0:0:0:0:
36,192,82944,1,0,0:0:0:0:
182,192,82944,1,0,0:0:0:0:
402,192,82944,1,0,0:0:0:0:
475,192,82944,1,0,0:0:0:0:
256,192,83116,128,0,83287:0:0:0:0:
329,192,83116,128,0,83287:0:0:0:0:
475,192,83116,128,0,83287:0:0:0:0:
36,192,83287,1,0,0:0:0:0:
109,192,83287,1,0,0:0:0:0:
182,192,83287,128,0,84659:0:0:0:0:
36,192,83459,1,0,0:0:0:0:
109,192,83630,1,0,0:0:0:0:
329,192,83630,1,0,0:0:0:0:
402,192,83630,1,0,0:0:0:0:
36,192,83802,1,0,0:0:0:0:
109,192,83973,1,0,0:0:0:0:
329,192,83973,1,0,0:0:0:0:
402,192,83973,1,0,0:0:0:0:
256,192,84059,1,0,0:0:0:0:
36,192,84144,1,0,0:0:0:0:
329,192,84144,1,0,0:0:0:0:
475,192,84144,1,0,0:0:0:0:
109,192,84316,1,0,0:0:0:0:
36,192,84487,1,0,0:0:0:0:
402,192,84487,1,0,0:0:0:0:
475,192,84487,1,0,0:0:0:0:
256,192,84659,128,0,86030:0:0:0:0:
329,192,84659,1,0,0:0:0:0:
109,192,84659,1,0,0:0:0:0:
36,192,84830,1,0,0:0:0:0:
329,192,84830,1,0,0:0:0:0:
402,192,84830,1,0,0:0:0:0:
182,192,85002,1,0,0:0:0:0:
36,192,85173,1,0,0:0:0:0:
475,192,85173,1,0,0:0:0:0:
329,192,85173,1,0,0:0:0:0:
182,192,85344,1,0,0:0:0:0:
36,192,85516,1,0,0:0:0:0:
402,192,85516,1,0,0:0:0:0:
475,192,85516,1,0,0:0:0:0:
329,192,85602,1,0,0:0:0:0:
182,192,85687,1,0,0:0:0:0:
402,192,85687,1,0,0:0:0:0:
475,192,85687,1,0,0:0:0:0:
36,192,85859,1,0,0:0:0:0:
329,192,85859,1,0,0:0:0:0:
475,192,85859,1,0,0:0:0:0:
475,192,86030,128,0,87402:0:0:0:0:
182,192,86030,1,0,0:0:0:0:
402,192,86030,1,0,0:0:0:0:
36,192,86030,1,0,0:0:0:0:
329,192,86116,1,0,0:0:0:0:
109,192,86116,1,0,0:0:0:0:
256,192,86287,1,0,0:0:0:0:
36,192,86287,1,0,0:0:0:0:
402,192,86373,1,0,0:0:0:0:
109,192,86544,1,0,0:0:0:0:
329,192,86544,1,0,0:0:0:0:
402,192,86716,1,0,0:0:0:0:
256,192,86716,1,0,0:0:0:0:
36,192,86716,1,0,0:0:0:0:
182,192,86802,1,0,0:0:0:0:
329,192,86802,1,0,0:0:0:0:
256,192,86887,1,0,0:0:0:0:
109,192,86887,1,0,0:0:0:0:
402,192,87059,1,0,0:0:0:0:
182,192,87059,1,0,0:0:0:0:
329,192,87230,1,0,0:0:0:0:
109,192,87230,1,0,0:0:0:0:
36,192,87402,128,0,88773:0:0:0:0:
182,192,87402,1,0,0:0:0:0:
402,192,87402,1,0,0:0:0:0:
256,192,87573,1,0,0:0:0:0:
475,192,87744,1,0,0:0:0:0:
329,192,87744,1,0,0:0:0:0:
256,192,87916,1,0,0:0:0:0:
182,192,88087,128,0,88773:0:0:0:0:
402,192,88087,1,0,0:0:0:0:
109,192,88259,1,0,0:0:0:0:
256,192,88430,128,0,88516:0:0:0:0:
475,192,88430,1,0,0:0:0:0:
329,192,88516,128,0,88602:0:0:0:0:
402,192,88602,128,0,88687:0:0:0:0:
109,192,88602,1,0,0:0:0:0:
475,192,88687,128,0,88773:0:0:0:0:
256,192,88773,128,0,90144:0:0:0:0:
329,192,88773,1,0,0:0:0:0:
109,192,88773,1,0,0:0:0:0:
182,192,88944,1,0,0:0:0:0:
36,192,89116,1,0,0:0:0:0:
182,192,89287,1,0,0:0:0:0:
36,192,89459,1,0,0:0:0:0:
182,192,89630,1,0,0:0:0:0:
36,192,89802,1,0,0:0:0:0:
182,192,89973,1,0,0:0:0:0:
329,192,89973,1,0,0:0:0:0:
475,192,89973,1,0,0:0:0:0:
402,192,90144,128,0,91516:0:0:0:0:
329,192,90144,1,0,0:0:0:0:
475,192,90144,1,0,0:0:0:0:
36,192,90144,1,0,0:0:0:0:
109,192,90230,1,0,0:0:0:0:
256,192,90230,1,0,0:0:0:0:
182,192,90316,1,0,0:0:0:0:
329,192,90316,1,0,0:0:0:0:
109,192,90487,1,0,0:0:0:0:
182,192,90659,1,0,0:0:0:0:
329,192,90659,1,0,0:0:0:0:
109,192,90830,1,0,0:0:0:0:
36,192,91002,1,0,0:0:0:0:
256,192,91002,1,0,0:0:0:0:
182,192,91173,1,0,0:0:0:0:
475,192,91173,1,0,0:0:0:0:
109,192,91259,1,0,0:0:0:0:
329,192,91259,1,0,0:0:0:0:
36,192,91344,1,0,0:0:0:0:
475,192,91344,1,0,0:0:0:0:
109,192,91516,128,0,92544:0:0:0:0:
36,192,91516,1,0,0:0:0:0:
475,192,91516,1,0,0:0:0:0:
256,192,91516,1,0,0:0:0:0:
329,192,91687,1,0,0:0:0:0:
329,192,91859,1,0,0:0:0:0:
475,192,91859,1,0,0:0:0:0:
329,192,92030,1,0,0:0:0:0:
329,192,92202,1,0,0:0:0:0:
475,192,92202,1,0,0:0:0:0:
329,192,92373,1,0,0:0:0:0:
329,192,92544,1,0,0:0:0:0:
475,192,92544,1,0,0:0:0:0:
256,192,92573,1,0,0:0:0:0:
182,192,92602,1,0,0:0:0:0:
109,192,92630,1,0,0:0:0:0:
36,192,92659,1,0,0:0:0:0:
402,192,92687,1,0,0:0:0:0:
329,192,92716,1,0,0:0:0:0:
256,192,92744,1,0,0:0:0:0:
182,192,92773,1,0,0:0:0:0:
109,192,92802,1,0,0:0:0:0:
475,192,92830,1,0,0:0:0:0:
402,192,92859,1,0,0:0:0:0:
36,192,92887,1,0,0:0:0:0:
329,192,92887,128,0,93402:0:0:0:0:
182,192,93144,128,0,93573:0:0:0:0:
475,192,93402,128,0,94259:0:0:0:0:
109,192,93402,1,0,0:0:0:0:
402,192,93402,1,0,0:0:0:0:
36,192,93573,128,0,94259:0:0:0:0:
402,192,93744,1,0,0:0:0:0:
329,192,93787,1,0,0:0:0:0:
256,192,93830,1,0,0:0:0:0:
182,192,93873,1,0,0:0:0:0:
109,192,93916,1,0,0:0:0:0:
182,192,93959,1,0,0:0:0:0:
256,192,94002,1,0,0:0:0:0:
329,192,94044,1,0,0:0:0:0:
402,192,94087,1,0,0:0:0:0:
329,192,94130,1,0,0:0:0:0:
256,192,94173,1,0,0:0:0:0:
182,192,94216,1,0,0:0:0:0:
329,192,94259,1,0,0:0:0:0:
402,192,94259,1,0,0:0:0:0:
109,192,94259,1,0,0:0:0:0:
256,192,94430,1,0,0:0:0:0:
36,192,94602,1,0,0:0:0:0:
182,192,94602,1,0,0:0:0:0:
402,192,94602,1,0,0:0:0:0:
475,192,94602,1,0,0:0:0:0:
109,192,94773,1,0,0:0:0:0:
475,192,94944,1,0,0:0:0:0:
36,192,94944,1,0,0:0:0:0:
256,192,94944,1,0,0:0:0:0:
402,192,94944,1,0,0:0:0:0:
109,192,95030,1,0,0:0:0:0:
329,192,95030,1,0,0:0:0:0:
182,192,95116,1,0,0:0:0:0:
402,192,95116,1,0,0:0:0:0:
36,192,95287,1,0,0:0:0:0:
109,192,95287,1,0,0:0:0:0:
256,192,95287,1,0,0:0:0:0:
402,192,95287,1,0,0:0:0:0:
329,192,95459,1,0,0:0:0:0:
475,192,95459,1,0,0:0:0:0:
36,192,95630,1,0,0:0:0:0:
182,192,95630,1,0,0:0:0:0:
109,192,95630,1,0,0:0:0:0:
402,192,95630,1,0,0:0:0:0:
475,192,95802,1,0,0:0:0:0:
256,192,95802,1,0,0:0:0:0:
36,192,95973,1,0,0:0:0:0:
182,192,95973,1,0,0:0:0:0:
329,192,95973,1,0,0:0:0:0:
402,192,95973,1,0,0:0:0:0:
402,192,96144,1,0,0:0:0:0:
475,192,96144,1,0,0:0:0:0:
36,192,96316,1,0,0:0:0:0:
182,192,96316,1,0,0:0:0:0:
329,192,96316,1,0,0:0:0:0:
109,192,96316,1,0,0:0:0:0:
36,192,96487,1,0,0:0:0:0:
329,192,96487,1,0,0:0:0:0:
475,192,96487,1,0,0:0:0:0:
36,192,96659,1,0,0:0:0:0:
256,192,96659,1,0,0:0:0:0:
475,192,96659,1,0,0:0:0:0:
182,192,96744,1,0,0:0:0:0:
402,192,96744,1,0,0:0:0:0:
36,192,96830,1,0,0:0:0:0:
329,192,96830,1,0,0:0:0:0:
109,192,96830,1,0,0:0:0:0:
256,192,96916,1,0,0:0:0:0:
475,192,96916,1,0,0:0:0:0:
182,192,97002,1,0,0:0:0:0:
402,192,97002,1,0,0:0:0:0:
36,192,97002,1,0,0:0:0:0:
109,192,97087,1,0,0:0:0:0:
329,192,97087,1,0,0:0:0:0:
182,192,97173,1,0,0:0:0:0:
402,192,97173,1,0,0:0:0:0:
256,192,97259,1,0,0:0:0:0:
475,192,97259,1,0,0:0:0:0:
36,192,97344,1,0,0:0:0:0:
109,192,97344,1,0,0:0:0:0:
256,192,97516,1,0,0:0:0:0:
475,192,97516,1,0,0:0:0:0:
182,192,97602,1,0,0:0:0:0:
402,192,97602,1,0,0:0:0:0:
36,192,97687,1,0,0:0:0:0:
109,192,97687,1,0,0:0:0:0:
329,192,97687,1,0,0:0:0:0:
475,192,97687,1,0,0:0:0:0:
402,192,97859,1,0,0:0:0:0:
256,192,97859,1,0,0:0:0:0:
109,192,98030,1,0,0:0:0:0:
36,192,98030,1,0,0:0:0:0:
182,192,98116,1,0,0:0:0:0:
329,192,98116,1,0,0:0:0:0:
256,192,98159,1,0,0:0:0:0:
402,192,98159,1,0,0:0:0:0:
329,192,98202,1,0,0:0:0:0:
475,192,98202,1,0,0:0:0:0:
36,192,98373,1,0,0:0:0:0:
182,192,98373,1,0,0:0:0:0:
329,192,98544,128,0,98716:0:0:0:0:
182,192,98716,1,0,0:0:0:0:
36,192,98716,1,0,0:0:0:0:
256,192,98887,128,0,99059:0:0:0:0:
182,192,99059,1,0,0:0:0:0:
36,192,99059,1,0,0:0:0:0:
329,192,99144,1,0,0:0:0:0:
475,192,99144,1,0,0:0:0:0:
402,192,99230,1,0,0:0:0:0:
256,192,99230,1,0,0:0:0:0:
329,192,99316,1,0,0:0:0:0:
182,192,99316,1,0,0:0:0:0:
256,192,99402,1,0,0:0:0:0:
402,192,99402,1,0,0:0:0:0:
109,192,99402,1,0,0:0:0:0:
36,192,99402,1,0,0:0:0:0:
329,192,99573,1,0,0:0:0:0:
182,192,99573,1,0,0:0:0:0:
36,192,99573,1,0,0:0:0:0:
256,192,99659,1,0,0:0:0:0:
109,192,99744,1,0,0:0:0:0:
329,192,99744,1,0,0:0:0:0:
475,192,99744,1,0,0:0:0:0:
182,192,99744,1,0,0:0:0:0:
329,192,99916,1,0,0:0:0:0:
475,192,99916,1,0,0:0:0:0:
475,192,100002,1,0,0:0:0:0:
329,192,100002,1,0,0:0:0:0:
329,192,100087,1,0,0:0:0:0:
475,192,100087,1,0,0:0:0:0:
109,192,100087,1,0,0:0:0:0:
182,192,100087,1,0,0:0:0:0:
256,192,100173,1,0,0:0:0:0:
402,192,100173,1,0,0:0:0:0:
329,192,100344,1,0,0:0:0:0:
182,192,100344,1,0,0:0:0:0:
36,192,100430,1,0,0:0:0:0:
109,192,100430,1,0,0:0:0:0:
256,192,100516,1,0,0:0:0:0:
402,192,100516,1,0,0:0:0:0:
329,192,100687,1,0,0:0:0:0:
475,192,100687,1,0,0:0:0:0:
109,192,100773,1,0,0:0:0:0:
36,192,100773,1,0,0:0:0:0:
256,192,100859,1,0,0:0:0:0:
402,192,100859,1,0,0:0:0:0:
182,192,101030,1,0,0:0:0:0:
402,192,101030,1,0,0:0:0:0:
36,192,101116,1,0,0:0:0:0:
475,192,101116,1,0,0:0:0:0:
256,192,101116,1,0,0:0:0:0:
109,192,101202,1,0,0:0:0:0:
329,192,101202,1,0,0:0:0:0:
182,192,101287,1,0,0:0:0:0:
402,192,101287,1,0,0:0:0:0:
109,192,101459,1,0,0:0:0:0:
256,192,101459,1,0,0:0:0:0:
329,192,101459,1,0,0:0:0:0:
475,192,101459,1,0,0:0:0:0:
36,192,101630,1,0,0:0:0:0:
182,192,101630,1,0,0:0:0:0:
109,192,101716,1,0,0:0:0:0:
256,192,101716,1,0,0:0:0:0:
329,192,101802,1,0,0:0:0:0:
475,192,101802,1,0,0:0:0:0:
475,192,101973,1,0,0:0:0:0:
329,192,101973,1,0,0:0:0:0:
109,192,101973,1,0,0:0:0:0:
256,192,101973,1,0,0:0:0:0:
182,192,102059,1,0,0:0:0:0:
36,192,102059,1,0,0:0:0:0:
329,192,102144,1,0,0:0:0:0:
475,192,102144,1,0,0:0:0:0:
109,192,102230,1,0,0:0:0:0:
36,192,102230,1,0,0:0:0:0:
475,192,102316,1,0,0:0:0:0:
329,192,102316,1,0,0:0:0:0:
256,192,102402,1,0,0:0:0:0:
109,192,102402,1,0,0:0:0:0:
36,192,102487,1,0,0:0:0:0:
402,192,102487,1,0,0:0:0:0:
475,192,102487,1,0,0:0:0:0:
182,192,102487,1,0,0:0:0:0:
256,192,102659,1,0,0:0:0:0:
329,192,102830,1,0,0:0:0:0:
475,192,102830,1,0,0:0:0:0:
182,192,103002,1,0,0:0:0:0:
256,192,103173,1,0,0:0:0:0:
402,192,103173,1,0,0:0:0:0:
109,192,103344,1,0,0:0:0:0:
182,192,103516,1,0,0:0:0:0:
329,192,103516,1,0,0:0:0:0:
36,192,103687,1,0,0:0:0:0:
329,192,103687,1,0,0:0:0:0:
109,192,103773,1,0,0:0:0:0:
402,192,103773,1,0,0:0:0:0:
182,192,103859,1,0,0:0:0:0:
475,192,103859,1,0,0:0:0:0:
256,192,103859,1,0,0:0:0:0:
36,192,104030,1,0,0:0:0:0:
182,192,104030,1,0,0:0:0:0:
402,192,104030,1,0,0:0:0:0:
329,192,104030,1,0,0:0:0:0:
182,192,104202,1,0,0:0:0:0:
36,192,104202,1,0,0:0:0:0:
36,192,104373,1,0,0:0:0:0:
182,192,104373,1,0,0:0:0:0:
256,192,104373,1,0,0:0:0:0:
402,192,104373,1,0,0:0:0:0:
329,192,104544,1,0,0:0:0:0:
475,192,104544,1,0,0:0:0:0:
475,192,104716,1,0,0:0:0:0:
329,192,104716,1,0,0:0:0:0:
36,192,104716,1,0,0:0:0:0:
182,192,104716,1,0,0:0:0:0:
109,192,104802,1,0,0:0:0:0:
256,192,104802,1,0,0:0:0:0:
36,192,104887,1,0,0:0:0:0:
182,192,104887,1,0,0:0:0:0:
329,192,104887,1,0,0:0:0:0:
475,192,104887,1,0,0:0:0:0:
36,192,105059,1,0,0:0:0:0:
182,192,105059,1,0,0:0:0:0:
329,192,105059,1,0,0:0:0:0:
475,192,105059,1,0,0:0:0:0:
256,192,105144,1,0,0:0:0:0:
402,192,105144,1,0,0:0:0:0:
329,192,105230,1,0,0:0:0:0:
475,192,105230,1,0,0:0:0:0:
182,192,105230,1,0,0:0:0:0:
36,192,105230,1,0,0:0:0:0:
256,192,105402,1,0,0:0:0:0:
475,192,105402,1,0,0:0:0:0:
402,192,105487,1,0,0:0:0:0:
182,192,105487,1,0,0:0:0:0:
36,192,105573,1,0,0:0:0:0:
109,192,105573,1,0,0:0:0:0:
329,192,105573,1,0,0:0:0:0:
256,192,105659,1,0,0:0:0:0:
475,192,105659,1,0,0:0:0:0:
182,192,105830,1,0,0:0:0:0:
402,192,105830,1,0,0:0:0:0:
109,192,105916,1,0,0:0:0:0:
329,192,105916,1,0,0:0:0:0:
36,192,105916,1,0,0:0:0:0:
182,192,106087,1,0,0:0:0:0:
402,192,106087,1,0,0:0:0:0:
329,192,106173,1,0,0:0:0:0:
109,192,106173,1,0,0:0:0:0:
36,192,106259,1,0,0:0:0:0:
256,192,106259,1,0,0:0:0:0:
475,192,106259,1,0,0:0:0:0:
402,192,106344,1,0,0:0:0:0:
182,192,106344,1,0,0:0:0:0:
109,192,106430,1,0,0:0:0:0:
329,192,106430,1,0,0:0:0:0:
182,192,106516,1,0,0:0:0:0:
402,192,106516,1,0,0:0:0:0:
475,192,106602,1,0,0:0:0:0:
256,192,106602,1,0,0:0:0:0:
36,192,106602,1,0,0:0:0:0:
182,192,106773,1,0,0:0:0:0:
329,192,106773,1,0,0:0:0:0:
256,192,106859,1,0,0:0:0:0:
402,192,106859,1,0,0:0:0:0:
109,192,106944,1,0,0:0:0:0:
36,192,106944,1,0,0:0:0:0:
329,192,107030,1,0,0:0:0:0:
402,192,107030,1,0,0:0:0:0:
329,192,107116,1,0,0:0:0:0:
402,192,107116,1,0,0:0:0:0:
109,192,107202,1,0,0:0:0:0:
182,192,107202,1,0,0:0:0:0:
329,192,107287,1,0,0:0:0:0:
402,192,107287,1,0,0:0:0:0:
475,192,107287,1,0,0:0:0:0:
256,192,107287,1,0,0:0:0:0:
329,192,107459,1,0,0:0:0:0:
182,192,107459,1,0,0:0:0:0:
402,192,107544,1,0,0:0:0:0:
256,192,107544,1,0,0:0:0:0:
36,192,107544,1,0,0:0:0:0:
36,192,107630,1,0,0:0:0:0:
182,192,107630,1,0,0:0:0:0:
256,192,107802,1,0,0:0:0:0:
402,192,107802,1,0,0:0:0:0:
36,192,107802,1,0,0:0:0:0:
109,192,107802,1,0,0:0:0:0:
475,192,107973,1,0,0:0:0:0:
109,192,107973,1,0,0:0:0:0:
182,192,107973,1,0,0:0:0:0:
402,192,107973,1,0,0:0:0:0:
329,192,108059,1,0,0:0:0:0:
36,192,108059,1,0,0:0:0:0:
109,192,108144,1,0,0:0:0:0:
402,192,108144,1,0,0:0:0:0:
36,192,108230,1,0,0:0:0:0:
329,192,108230,1,0,0:0:0:0:
109,192,108316,1,0,0:0:0:0:
402,192,108316,1,0,0:0:0:0:
256,192,108316,1,0,0:0:0:0:
182,192,108402,1,0,0:0:0:0:
475,192,108402,1,0,0:0:0:0:
36,192,108487,1,0,0:0:0:0:
329,192,108487,1,0,0:0:0:0:
109,192,108573,1,0,0:0:0:0:
402,192,108573,1,0,0:0:0:0:
182,192,108659,1,0,0:0:0:0:
475,192,108659,1,0,0:0:0:0:
329,192,108659,1,0,0:0:0:0:
256,192,108744,1,0,0:0:0:0:
109,192,108744,1,0,0:0:0:0:
36,192,108830,1,0,0:0:0:0:
402,192,108830,1,0,0:0:0:0:
182,192,108916,1,0,0:0:0:0:
329,192,108916,1,0,0:0:0:0:
256,192,109002,1,0,0:0:0:0:
475,192,109002,1,0,0:0:0:0:
36,192,109002,1,0,0:0:0:0:
182,192,109087,1,0,0:0:0:0:
402,192,109087,1,0,0:0:0:0:
109,192,109173,1,0,0:0:0:0:
329,192,109173,1,0,0:0:0:0:
256,192,109259,1,0,0:0:0:0:
36,192,109259,1,0,0:0:0:0:
109,192,109344,1,0,0:0:0:0:
329,192,109344,1,0,0:0:0:0:
475,192,109344,1,0,0:0:0:0:
182,192,109430,1,0,0:0:0:0:
402,192,109430,1,0,0:0:0:0:
36,192,109516,1,0,0:0:0:0:
256,192,109602,1,0,0:0:0:0:
402,192,109602,1,0,0:0:0:0:
109,192,109687,1,0,0:0:0:0:
36,192,109687,1,0,0:0:0:0:
329,192,109687,1,0,0:0:0:0:
475,192,109687,1,0,0:0:0:0:
182,192,109859,1,0,0:0:0:0:
402,192,109859,1,0,0:0:0:0:
256,192,109944,1,0,0:0:0:0:
475,192,109944,1,0,0:0:0:0:
36,192,110030,1,0,0:0:0:0:
109,192,110030,1,0,0:0:0:0:
402,192,110116,1,0,0:0:0:0:
182,192,110116,1,0,0:0:0:0:
36,192,110202,1,0,0:0:0:0:
109,192,110202,1,0,0:0:0:0:
256,192,110202,1,0,0:0:0:0:
475,192,110202,1,0,0:0:0:0:
182,192,110373,1,0,0:0:0:0:
402,192,110373,1,0,0:0:0:0:
109,192,110373,1,0,0:0:0:0:
36,192,110373,1,0,0:0:0:0:
329,192,110544,1,0,0:0:0:0:
109,192,110544,1,0,0:0:0:0:
36,192,110544,1,0,0:0:0:0:
475,192,110544,1,0,0:0:0:0:
256,192,110630,1,0,0:0:0:0:
402,192,110630,1,0,0:0:0:0:
329,192,110716,1,0,0:0:0:0:
475,192,110716,1,0,0:0:0:0:
109,192,110716,1,0,0:0:0:0:
36,192,110716,1,0,0:0:0:0:
182,192,110716,1,0,0:0:0:0:
182,192,110887,1,0,0:0:0:0:
329,192,110887,1,0,0:0:0:0:
182,192,111059,1,0,0:0:0:0:
329,192,111059,1,0,0:0:0:0:
182,192,111230,1,0,0:0:0:0:
329,192,111230,1,0,0:0:0:0:
256,192,111402,1,0,0:0:0:0:
182,192,111573,1,0,0:0:0:0:
36,192,111573,1,0,0:0:0:0:
329,192,111573,1,0,0:0:0:0:
475,192,111573,1,0,0:0:0:0:
256,192,111744,1,0,0:0:0:0:
36,192,111916,1,0,0:0:0:0:
109,192,111916,1,0,0:0:0:0:
402,192,111916,1,0,0:0:0:0:
475,192,111916,1,0,0:0:0:0:
182,192,112002,1,0,0:0:0:0:
329,192,112002,1,0,0:0:0:0:
109,192,112087,1,0,0:0:0:0:
36,192,112087,1,0,0:0:0:0:
256,192,112087,1,0,0:0:0:0:
402,192,112087,1,0,0:0:0:0:
475,192,112087,1,0,0:0:0:0:
329,192,112173,1,0,0:0:0:0:
36,192,112173,1,0,0:0:0:0:
109,192,112173,1,0,0:0:0:0:
402,192,112259,1,0,0:0:0:0:
109,192,112259,1,0,0:0:0:0:
36,192,112259,1,0,0:0:0:0:
36,192,112430,1,0,0:0:0:0:
182,192,112430,1,0,0:0:0:0:
182,192,112602,1,0,0:0:0:0:
36,192,112602,1,0,0:0:0:0:
329,192,112602,1,0,0:0:0:0:
402,192,112602,1,0,0:0:0:0:
36,192,112944,1,0,0:0:0:0:
182,192,112944,1,0,0:0:0:0:
256,192,112944,1,0,0:0:0:0:
329,192,112944,1,0,0:0:0:0:
182,192,113116,1,0,0:0:0:0:
36,192,113116,1,0,0:0:0:0:
475,192,113116,1,0,0:0:0:0:
402,192,113116,1,0,0:0:0:0:
329,192,113202,1,0,0:0:0:0:
256,192,113202,1,0,0:0:0:0:
36,192,113287,1,0,0:0:0:0:
182,192,113287,1,0,0:0:0:0:
402,192,113287,1,0,0:0:0:0:
475,192,113287,1,0,0:0:0:0:
256,192,113373,1,0,0:0:0:0:
109,192,113373,1,0,0:0:0:0:
36,192,113459,1,0,0:0:0:0:
182,192,113459,1,0,0:0:0:0:
329,192,113459,1,0,0:0:0:0:
475,192,113459,1,0,0:0:0:0:
402,192,113459,1,0,0:0:0:0:
109,192,113630,1,0,0:0:0:0:
182,192,113630,1,0,0:0:0:0:
329,192,113802,1,0,0:0:0:0:
475,192,113802,1,0,0:0:0:0:
109,192,113802,1,0,0:0:0:0:
182,192,113802,1,0,0:0:0:0:
182,192,113973,1,0,0:0:0:0:
109,192,113973,1,0,0:0:0:0:
109,192,114144,1,0,0:0:0:0:
182,192,114144,1,0,0:0:0:0:
329,192,114144,1,0,0:0:0:0:
475,192,114144,1,0,0:0:0:0:
256,192,114144,1,0,0:0:0:0:
109,192,114316,1,0,0:0:0:0:
182,192,114316,1,0,0:0:0:0:
329,192,114316,1,0,0:0:0:0:
475,192,114316,1,0,0:0:0:0:
329,192,114487,1,0,0:0:0:0:
475,192,114487,1,0,0:0:0:0:
182,192,114487,1,0,0:0:0:0:
109,192,114487,1,0,0:0:0:0:
475,192,114573,1,0,0:0:0:0:
329,192,114573,1,0,0:0:0:0:
329,192,114659,1,0,0:0:0:0:
475,192,114659,1,0,0:0:0:0:
182,192,114659,1,0,0:0:0:0:
109,192,114659,1,0,0:0:0:0:
475,192,114744,1,0,0:0:0:0:
329,192,114744,1,0,0:0:0:0:
182,192,114744,1,0,0:0:0:0:
109,192,114744,1,0,0:0:0:0:
36,192,114830,1,0,0:0:0:0:
109,192,114830,1,0,0:0:0:0:
182,192,114830,1,0,0:0:0:0:
256,192,114830,1,0,0:0:0:0:
402,192,114830,1,0,0:0:0:0:
36,192,115087,1,0,0:0:0:0:
109,192,115087,1,0,0:0:0:0:
182,192,115087,1,0,0:0:0:0:
256,192,115087,1,0,0:0:0:0:
402,192,115087,1,0,0:0:0:0:
36,192,115344,1,0,0:0:0:0:
109,192,115344,1,0,0:0:0:0:
182,192,115344,1,0,0:0:0:0:
329,192,115344,1,0,0:0:0:0:
475,192,115344,1,0,0:0:0:0:
36,192,115516,1,0,0:0:0:0:
109,192,115559,1,0,0:0:0:0:
182,192,115602,1,0,0:0:0:0:
256,192,115644,1,0,0:0:0:0:
109,192,115687,1,0,0:0:0:0:
182,192,115730,1,0,0:0:0:0:
256,192,115773,1,0,0:0:0:0:
329,192,115816,1,0,0:0:0:0:
475,192,115859,1,0,0:0:0:0:
402,192,115902,1,0,0:0:0:0:
329,192,115944,1,0,0:0:0:0:
256,192,115987,1,0,0:0:0:0:
402,192,116030,1,0,0:0:0:0:
329,192,116073,1,0,0:0:0:0:
256,192,116116,1,0,0:0:0:0:
182,192,116159,1,0,0:0:0:0:
402,192,116202,1,0,0:0:0:0:
109,192,116202,1,0,0:0:0:0:
36,192,116202,128,0,116430:0:0:0:0:
475,192,116202,128,0,116430:0:0:0:0:
329,192,116430,128,0,116659:0:0:0:0:
182,192,116430,128,0,116659:0:0:0:0:
109,192,116430,1,0,0:0:0:0:
402,192,116430,1,0,0:0:0:0:
402,192,116659,128,0,116887:0:0:0:0:
109,192,116659,128,0,116887:0:0:0:0:
256,192,116659,1,0,0:0:0:0:
475,192,116659,1,0,0:0:0:0:
36,192,116887,128,0,117116:0:0:0:0:
182,192,116887,128,0,117116:0:0:0:0:
256,192,116887,1,0,0:0:0:0:
329,192,116887,1,0,0:0:0:0:
329,192,117116,128,0,117344:0:0:0:0:
475,192,117116,128,0,117344:0:0:0:0:
256,192,117116,1,0,0:0:0:0:
402,192,117116,1,0,0:0:0:0:
36,192,117344,128,0,117573:0:0:0:0:
182,192,117344,128,0,117573:0:0:0:0:
109,192,117344,1,0,0:0:0:0:
256,192,117344,1,0,0:0:0:0:
109,192,117573,128,0,117802:0:0:0:0:
402,192,117573,128,0,117802:0:0:0:0:
475,192,117573,1,0,0:0:0:0:
256,192,117573,1,0,0:0:0:0:
256,192,117802,128,0,118030:0:0:0:0:
475,192,117802,128,0,118030:0:0:0:0:
182,192,117802,1,0,0:0:0:0:
329,192,117802,1,0,0:0:0:0:
182,192,118030,128,0,118259:0:0:0:0:
402,192,118030,128,0,118259:0:0:0:0:
36,192,118030,1,0,0:0:0:0:
109,192,118030,1,0,0:0:0:0:
109,192,118259,128,0,118487:0:0:0:0:
329,192,118259,128,0,118487:0:0:0:0:
256,192,118259,1,0,0:0:0:0:
475,192,118259,1,0,0:0:0:0:
36,192,118487,128,0,118716:0:0:0:0:
256,192,118487,128,0,118716:0:0:0:0:
402,192,118487,1,0,0:0:0:0:
475,192,118487,1,0,0:0:0:0:
402,192,118716,128,0,118830:0:0:0:0:
329,192,118716,128,0,118830:0:0:0:0:
475,192,118716,1,0,0:0:0:0:
109,192,118830,128,0,118944:0:0:0:0:
182,192,118830,128,0,118944:0:0:0:0:
36,192,118830,1,0,0:0:0:0:
475,192,118944,128,0,119173:0:0:0:0:
256,192,118944,128,0,119173:0:0:0:0:
329,192,118944,1,0,0:0:0:0:
402,192,118944,1,0,0:0:0:0:
109,192,119173,128,0,119402:0:0:0:0:
329,192,119173,128,0,119402:0:0:0:0:
36,192,119173,1,0,0:0:0:0:
182,192,119173,1,0,0:0:0:0:
182,192,119402,128,0,119630:0:0:0:0:
402,192,119402,128,0,119630:0:0:0:0:
36,192,119402,1,0,0:0:0:0:
256,192,119402,1,0,0:0:0:0:
36,192,119630,128,0,119859:0:0:0:0:
109,192,119630,128,0,119859:0:0:0:0:
256,192,119630,1,0,0:0:0:0:
475,192,119630,1,0,0:0:0:0:
329,192,119859,128,0,120087:0:0:0:0:
475,192,119859,128,0,120087:0:0:0:0:
182,192,119859,1,0,0:0:0:0:
402,192,119859,1,0,0:0:0:0:
109,192,120087,128,0,120316:0:0:0:0:
36,192,120087,128,0,120316:0:0:0:0:
256,192,120087,1,0,0:0:0:0:
182,192,120087,1,0,0:0:0:0:
182,192,120316,128,0,120430:0:0:0:0:
256,192,120316,128,0,120430:0:0:0:0:
329,192,120316,1,0,0:0:0:0:
402,192,120430,128,0,120544:0:0:0:0:
475,192,120430,128,0,120544:0:0:0:0:
109,192,120544,128,0,120659:0:0:0:0:
182,192,120544,128,0,120659:0:0:0:0:
256,192,120544,1,0,0:0:0:0:
329,192,120659,128,0,120773:0:0:0:0:
402,192,120659,128,0,120773:0:0:0:0:
36,192,120773,128,0,120887:0:0:0:0:
109,192,120773,128,0,120887:0:0:0:0:
182,192,120773,1,0,0:0:0:0:
256,192,120887,128,0,121002:0:0:0:0:
329,192,120887,128,0,121002:0:0:0:0:
182,192,121002,128,0,121230:0:0:0:0:
475,192,121002,128,0,121230:0:0:0:0:
36,192,121002,1,0,0:0:0:0:
109,192,121002,1,0,0:0:0:0:
109,192,121230,128,0,121459:0:0:0:0:
402,192,121230,128,0,121459:0:0:0:0:
256,192,121230,1,0,0:0:0:0:
329,192,121230,1,0,0:0:0:0:
329,192,121459,128,0,121687:0:0:0:0:
36,192,121459,128,0,121687:0:0:0:0:
182,192,121459,1,0,0:0:0:0:
256,192,121459,1,0,0:0:0:0:
256,192,121573,1,0,0:0:0:0:
109,192,121687,1,0,0:0:0:0:
182,192,121687,1,0,0:0:0:0:
402,192,121687,1,0,0:0:0:0:
475,192,121687,1,0,0:0:0:0:
36,192,121859,1,0,0:0:0:0:
329,192,121944,1,0,0:0:0:0:
182,192,121944,1,0,0:0:0:0:
402,192,121944,1,0,0:0:0:0:
36,192,122030,1,0,0:0:0:0:
36,192,122202,1,0,0:0:0:0:
256,192,122202,1,0,0:0:0:0:
402,192,122202,1,0,0:0:0:0:
475,192,122202,1,0,0:0:0:0:
109,192,122287,1,0,0:0:0:0:
182,192,122373,1,0,0:0:0:0:
329,192,122373,1,0,0:0:0:0:
402,192,122373,1,0,0:0:0:0:
475,192,122373,1,0,0:0:0:0:
182,192,122544,1,0,0:0:0:0:
256,192,122630,1,0,0:0:0:0:
329,192,122630,1,0,0:0:0:0:
402,192,122630,1,0,0:0:0:0:
182,192,122716,1,0,0:0:0:0:
182,192,122887,1,0,0:0:0:0:
329,192,122887,1,0,0:0:0:0:
402,192,122887,1,0,0:0:0:0:
475,192,122887,1,0,0:0:0:0:
256,192,122973,1,0,0:0:0:0:
329,192,123059,1,0,0:0:0:0:
36,192,123059,1,0,0:0:0:0:
109,192,123059,1,0,0:0:0:0:
182,192,123059,1,0,0:0:0:0:
329,192,123230,1,0,0:0:0:0:
36,192,123316,1,0,0:0:0:0:
182,192,123316,1,0,0:0:0:0:
109,192,123316,1,0,0:0:0:0:
329,192,123402,1,0,0:0:0:0:
329,192,123573,1,0,0:0:0:0:
36,192,123573,1,0,0:0:0:0:
109,192,123573,1,0,0:0:0:0:
182,192,123573,1,0,0:0:0:0:
36,192,123744,1,0,0:0:0:0:
182,192,123744,1,0,0:0:0:0:
256,192,123744,1,0,0:0:0:0:
329,192,123744,1,0,0:0:0:0:
402,192,123830,1,0,0:0:0:0:
475,192,123916,1,0,0:0:0:0:
109,192,124002,1,0,0:0:0:0:
182,192,124002,1,0,0:0:0:0:
329,192,124002,1,0,0:0:0:0:
475,192,124087,1,0,0:0:0:0:
475,192,124259,1,0,0:0:0:0:
182,192,124259,1,0,0:0:0:0:
329,192,124259,1,0,0:0:0:0:
36,192,124259,1,0,0:0:0:0:
109,192,124344,1,0,0:0:0:0:
256,192,124344,1,0,0:0:0:0:
402,192,124344,1,0,0:0:0:0:
329,192,124430,1,0,0:0:0:0:
475,192,124430,1,0,0:0:0:0:
36,192,124430,128,0,124602:0:0:0:0:
182,192,124430,128,0,124602:0:0:0:0:
329,192,124602,1,0,0:0:0:0:
402,192,124602,1,0,0:0:0:0:
109,192,124687,128,0,124859:0:0:0:0:
182,192,124687,128,0,124859:0:0:0:0:
329,192,124773,1,0,0:0:0:0:
402,192,124773,1,0,0:0:0:0:
329,192,124944,1,0,0:0:0:0:
402,192,124944,1,0,0:0:0:0:
36,192,124944,128,0,125116:0:0:0:0:
109,192,124944,128,0,125116:0:0:0:0:
329,192,125116,1,0,0:0:0:0:
402,192,125116,1,0,0:0:0:0:
36,192,125202,128,0,125373:0:0:0:0:
182,192,125202,128,0,125373:0:0:0:0:
329,192,125287,1,0,0:0:0:0:
402,192,125287,1,0,0:0:0:0:
329,192,125459,1,0,0:0:0:0:
402,192,125459,1,0,0:0:0:0:
109,192,125459,128,0,125630:0:0:0:0:
182,192,125459,128,0,125630:0:0:0:0:
329,192,125630,1,0,0:0:0:0:
402,192,125630,1,0,0:0:0:0:
256,192,125630,1,0,0:0:0:0:
109,192,125716,1,0,0:0:0:0:
182,192,125716,1,0,0:0:0:0:
329,192,125802,1,0,0:0:0:0:
402,192,125802,1,0,0:0:0:0:
182,192,125887,1,0,0:0:0:0:
256,192,125887,1,0,0:0:0:0:
402,192,125973,1,0,0:0:0:0:
475,192,125973,1,0,0:0:0:0:
36,192,126059,1,0,0:0:0:0:
109,192,126059,1,0,0:0:0:0:
256,192,126144,1,0,0:0:0:0:
329,192,126144,1,0,0:0:0:0:
109,192,126230,1,0,0:0:0:0:
182,192,126230,1,0,0:0:0:0:
329,192,126316,1,0,0:0:0:0:
402,192,126316,1,0,0:0:0:0:
475,192,126316,1,0,0:0:0:0:
182,192,126402,1,0,0:0:0:0:
256,192,126402,1,0,0:0:0:0:
402,192,126487,1,0,0:0:0:0:
475,192,126487,1,0,0:0:0:0:
36,192,126487,1,0,0:0:0:0:
109,192,126516,1,0,0:0:0:0:
182,192,126544,1,0,0:0:0:0:
256,192,126573,1,0,0:0:0:0:
329,192,126602,1,0,0:0:0:0:
402,192,126630,1,0,0:0:0:0:
36,192,126659,1,0,0:0:0:0:
109,192,126687,1,0,0:0:0:0:
182,192,126716,1,0,0:0:0:0:
256,192,126744,1,0,0:0:0:0:
329,192,126773,1,0,0:0:0:0:
402,192,126802,1,0,0:0:0:0:
36,192,126830,1,0,0:0:0:0:
109,192,126859,1,0,0:0:0:0:
182,192,126887,1,0,0:0:0:0:
256,192,126916,1,0,0:0:0:0:
329,192,126944,1,0,0:0:0:0:
402,192,126973,1,0,0:0:0:0:
109,192,127002,1,0,0:0:0:0:
36,192,127002,1,0,0:0:0:0:
475,192,127002,1,0,0:0:0:0:
182,192,127087,1,0,0:0:0:0:
329,192,127087,1,0,0:0:0:0:
36,192,127173,1,0,0:0:0:0:
109,192,127173,1,0,0:0:0:0:
402,192,127173,1,0,0:0:0:0:
475,192,127173,1,0,0:0:0:0:
256,192,127173,128,0,127516:0:0:0:0:
329,192,127259,128,0,127516:0:0:0:0:
475,192,127344,1,0,0:0:0:0:
402,192,127344,128,0,127516:0:0:0:0:
36,192,127430,1,0,0:0:0:0:
182,192,127516,128,0,127859:0:0:0:0:
109,192,127516,1,0,0:0:0:0:
475,192,127516,1,0,0:0:0:0:
256,192,127602,128,0,127859:0:0:0:0:
329,192,127687,128,0,127859:0:0:0:0:
402,192,127687,1,0,0:0:0:0:
36,192,127773,1,0,0:0:0:0:
109,192,127859,128,0,128202:0:0:0:0:
475,192,127859,1,0,0:0:0:0:
402,192,127859,1,0,0:0:0:0:
182,192,127944,128,0,128202:0:0:0:0:
256,192,128030,128,0,128202:0:0:0:0:
329,192,128030,1,0,0:0:0:0:
402,192,128116,1,0,0:0:0:0:
36,192,128202,128,0,128459:0:0:0:0:
475,192,128202,1,0,0:0:0:0:
329,192,128202,1,0,0:0:0:0:
475,192,128373,128,0,128544:0:0:0:0:
402,192,128373,1,0,0:0:0:0:
329,192,128459,128,0,128544:0:0:0:0:
256,192,128459,1,0,0:0:0:0:
109,192,128544,1,0,0:0:0:0:
36,192,128544,1,0,0:0:0:0:
182,192,128544,128,0,128887:0:0:0:0:
256,192,128716,1,0,0:0:0:0:
329,192,128716,128,0,129059:0:0:0:0:
402,192,128887,1,0,0:0:0:0:
36,192,128887,1,0,0:0:0:0:
475,192,128887,128,0,129230:0:0:0:0:
109,192,129059,1,0,0:0:0:0:
182,192,129059,128,0,129402:0:0:0:0:
256,192,129230,1,0,0:0:0:0:
402,192,129230,1,0,0:0:0:0:
329,192,129230,128,0,129573:0:0:0:0:
475,192,129402,1,0,0:0:0:0:
36,192,129487,1,0,0:0:0:0:
182,192,129487,1,0,0:0:0:0:
182,192,129573,1,0,0:0:0:0:
36,192,129573,1,0,0:0:0:0:
475,192,129573,1,0,0:0:0:0:
36,192,129744,1,0,0:0:0:0:
182,192,129744,1,0,0:0:0:0:
402,192,129744,1,0,0:0:0:0:
256,192,129744,128,0,129916:0:0:0:0:
475,192,129916,128,0,130516:0:0:0:0:
182,192,129916,1,0,0:0:0:0:
329,192,129916,1,0,0:0:0:0:
402,192,130002,128,0,130516:0:0:0:0:
109,192,130002,1,0,0:0:0:0:
36,192,130002,1,0,0:0:0:0:
329,192,130087,128,0,130602:0:0:0:0:
182,192,130087,1,0,0:0:0:0:
256,192,130087,1,0,0:0:0:0:
109,192,130259,1,0,0:0:0:0:
182,192,130259,1,0,0:0:0:0:
256,192,130430,128,0,130602:0:0:0:0:
36,192,130430,1,0,0:0:0:0:
182,192,130516,128,0,130602:0:0:0:0:
109,192,130516,1,0,0:0:0:0:
402,192,130602,1,0,0:0:0:0:
475,192,130602,1,0,0:0:0:0:
36,192,130602,128,0,131202:0:0:0:0:
109,192,130773,128,0,131202:0:0:0:0:
256,192,130773,1,0,0:0:0:0:
329,192,130773,1,0,0:0:0:0:
182,192,130944,128,0,131287:0:0:0:0:
329,192,130944,1,0,0:0:0:0:
402,192,130944,1,0,0:0:0:0:
256,192,131116,128,0,131287:0:0:0:0:
402,192,131116,1,0,0:0:0:0:
475,192,131116,1,0,0:0:0:0:
329,192,131202,1,0,0:0:0:0:
475,192,131287,128,0,131887:0:0:0:0:
36,192,131287,1,0,0:0:0:0:
109,192,131287,1,0,0:0:0:0:
402,192,131459,128,0,131887:0:0:0:0:
182,192,131459,1,0,0:0:0:0:
256,192,131459,1,0,0:0:0:0:
329,192,131630,128,0,131973:0:0:0:0:
109,192,131630,1,0,0:0:0:0:
36,192,131630,1,0,0:0:0:0:
182,192,131716,1,0,0:0:0:0:
256,192,131802,128,0,131973:0:0:0:0:
36,192,131802,1,0,0:0:0:0:
182,192,131887,128,0,131973:0:0:0:0:
109,192,131887,1,0,0:0:0:0:
36,192,131973,128,0,132659:0:0:0:0:
402,192,131973,1,0,0:0:0:0:
475,192,131973,1,0,0:0:0:0:
329,192,132059,1,0,0:0:0:0:
182,192,132144,128,0,132659:0:0:0:0:
256,192,132144,1,0,0:0:0:0:
402,192,132230,1,0,0:0:0:0:
329,192,132316,128,0,132659:0:0:0:0:
109,192,132316,1,0,0:0:0:0:
256,192,132316,1,0,0:0:0:0:
475,192,132487,128,0,132659:0:0:0:0:
109,192,132487,1,0,0:0:0:0:
402,192,132487,1,0,0:0:0:0:
256,192,132573,1,0,0:0:0:0:
109,192,132659,128,0,134030:0:0:0:0:
402,192,132659,128,0,134030:0:0:0:0:
182,192,132830,1,0,0:0:0:0:
36,192,132830,1,0,0:0:0:0:
256,192,132916,1,0,0:0:0:0:
329,192,133002,1,0,0:0:0:0:
475,192,133002,1,0,0:0:0:0:
182,192,133173,1,0,0:0:0:0:
36,192,133173,1,0,0:0:0:0:
329,192,133259,1,0,0:0:0:0:
475,192,133259,1,0,0:0:0:0:
182,192,133344,1,0,0:0:0:0:
256,192,133344,1,0,0:0:0:0:
329,192,133430,1,0,0:0:0:0:
475,192,133430,1,0,0:0:0:0:
36,192,133516,1,0,0:0:0:0:
182,192,133516,1,0,0:0:0:0:
36,192,133687,1,0,0:0:0:0:
182,192,133687,1,0,0:0:0:0:
256,192,133687,1,0,0:0:0:0:
182,192,133859,1,0,0:0:0:0:
256,192,133859,1,0,0:0:0:0:
329,192,133859,1,0,0:0:0:0:
475,192,133944,1,0,0:0:0:0:
182,192,134030,1,0,0:0:0:0:
256,192,134030,1,0,0:0:0:0:
329,192,134030,1,0,0:0:0:0:
36,192,134030,128,0,134630:0:0:0:0:
109,192,134202,128,0,134630:0:0:0:0:
256,192,134373,128,0,134973:0:0:0:0:
182,192,134373,1,0,0:0:0:0:
329,192,134373,1,0,0:0:0:0:
475,192,134373,1,0,0:0:0:0:
402,192,134544,128,0,134973:0:0:0:0:
475,192,134716,128,0,134973:0:0:0:0:
182,192,134716,1,0,0:0:0:0:
36,192,134716,1,0,0:0:0:0:
109,192,134716,1,0,0:0:0:0:
36,192,135059,1,0,0:0:0:0:
109,192,135059,1,0,0:0:0:0:
256,192,135059,1,0,0:0:0:0:
402,192,135059,1,0,0:0:0:0:
475,192,135059,1,0,0:0:0:0:
182,192,135402,1,0,0:0:0:0:
256,192,135402,1,0,0:0:0:0:
36,192,135402,128,0,136002:0:0:0:0:
109,192,135573,128,0,136173:0:0:0:0:
256,192,135573,1,0,0:0:0:0:
329,192,135573,1,0,0:0:0:0:
182,192,135744,128,0,136344:0:0:0:0:
402,192,135744,1,0,0:0:0:0:
329,192,135744,1,0,0:0:0:0:
256,192,135916,128,0,136516:0:0:0:0:
402,192,135916,1,0,0:0:0:0:
475,192,135916,1,0,0:0:0:0:
36,192,136087,128,0,136259:0:0:0:0:
402,192,136087,1,0,0:0:0:0:
475,192,136087,1,0,0:0:0:0:
109,192,136259,128,0,136430:0:0:0:0:
402,192,136259,1,0,0:0:0:0:
475,192,136259,1,0,0:0:0:0:
329,192,136344,1,0,0:0:0:0:
182,192,136430,128,0,136602:0:0:0:0:
402,192,136430,1,0,0:0:0:0:
475,192,136430,1,0,0:0:0:0:
256,192,136602,128,0,136773:0:0:0:0:
329,192,136602,1,0,0:0:0:0:
402,192,136602,1,0,0:0:0:0:
475,192,136687,1,0,0:0:0:0:
329,192,136773,1,0,0:0:0:0:
402,192,136773,1,0,0:0:0:0:
109,192,136773,1,0,0:0:0:0:
36,192,136773,1,0,0:0:0:0:
256,192,136944,1,0,0:0:0:0:
109,192,137030,1,0,0:0:0:0:
36,192,137030,1,0,0:0:0:0:
402,192,137030,1,0,0:0:0:0:
475,192,137030,1,0,0:0:0:0:
256,192,137202,1,0,0:0:0:0:
109,192,137287,1,0,0:0:0:0:
182,192,137287,1,0,0:0:0:0:
329,192,137287,1,0,0:0:0:0:
402,192,137287,1,0,0:0:0:0:
475,192,137459,128,0,137544:0:0:0:0:
329,192,137459,128,0,137716:0:0:0:0:
182,192,137459,128,0,137887:0:0:0:0:
36,192,137459,128,0,138059:0:0:0:0:
475,192,137630,1,0,0:0:0:0:
329,192,137802,1,0,0:0:0:0:
182,192,137973,1,0,0:0:0:0:
402,192,137973,1,0,0:0:0:0:
475,192,137973,1,0,0:0:0:0:
329,192,138059,1,0,0:0:0:0:
256,192,138059,1,0,0:0:0:0:
36,192,138144,1,0,0:0:0:0:
402,192,138144,1,0,0:0:0:0:
475,192,138144,1,0,0:0:0:0:
109,192,138144,1,0,0:0:0:0:
182,192,138230,1,0,0:0:0:0:
329,192,138316,1,0,0:0:0:0:
109,192,138316,1,0,0:0:0:0:
402,192,138487,1,0,0:0:0:0:
475,192,138487,1,0,0:0:0:0:
329,192,138487,1,0,0:0:0:0:
109,192,138487,1,0,0:0:0:0:
36,192,138487,1,0,0:0:0:0:
182,192,138573,1,0,0:0:0:0:
402,192,138659,1,0,0:0:0:0:
256,192,138659,1,0,0:0:0:0:
182,192,138830,128,0,139087:0:0:0:0:
36,192,138830,1,0,0:0:0:0:
475,192,138830,1,0,0:0:0:0:
256,192,138916,128,0,139173:0:0:0:0:
329,192,139002,128,0,139173:0:0:0:0:
402,192,139002,1,0,0:0:0:0:
109,192,139087,1,0,0:0:0:0:
182,192,139173,128,0,139430:0:0:0:0:
36,192,139173,1,0,0:0:0:0:
475,192,139173,1,0,0:0:0:0:
329,192,139344,128,0,139516:0:0:0:0:
402,192,139344,1,0,0:0:0:0:
256,192,139430,128,0,139516:0:0:0:0:
109,192,139430,1,0,0:0:0:0:
36,192,139516,1,0,0:0:0:0:
475,192,139516,1,0,0:0:0:0:
182,192,139516,128,0,139687:0:0:0:0:
109,192,139687,128,0,139859:0:0:0:0:
402,192,139687,1,0,0:0:0:0:
475,192,139773,1,0,0:0:0:0:
329,192,139859,128,0,140030:0:0:0:0:
256,192,139859,1,0,0:0:0:0:
36,192,139859,1,0,0:0:0:0:
402,192,140030,128,0,140202:0:0:0:0:
182,192,140030,1,0,0:0:0:0:
109,192,140116,1,0,0:0:0:0:
36,192,140202,128,0,140544:0:0:0:0:
475,192,140202,128,0,140544:0:0:0:0:
256,192,140202,1,0,0:0:0:0:
402,192,140373,1,0,0:0:0:0:
182,192,140459,1,0,0:0:0:0:
109,192,140459,1,0,0:0:0:0:
329,192,140544,1,0,0:0:0:0:
402,192,140544,1,0,0:0:0:0:
109,192,140544,1,0,0:0:0:0:
182,192,140544,1,0,0:0:0:0:
36,192,140716,1,0,0:0:0:0:
475,192,140716,1,0,0:0:0:0:
109,192,140716,128,0,140887:0:0:0:0:
402,192,140716,128,0,140887:0:0:0:0:
256,192,140887,1,0,0:0:0:0:
329,192,140887,1,0,0:0:0:0:
475,192,140887,1,0,0:0:0:0:
182,192,140973,1,0,0:0:0:0:
109,192,140973,1,0,0:0:0:0:
36,192,140973,1,0,0:0:0:0:
402,192,141059,1,0,0:0:0:0:
475,192,141059,1,0,0:0:0:0:
329,192,141059,128,0,141230:0:0:0:0:
182,192,141144,1,0,0:0:0:0:
36,192,141230,1,0,0:0:0:0:
109,192,141230,1,0,0:0:0:0:
329,192,141402,1,0,0:0:0:0:
402,192,141402,1,0,0:0:0:0:
475,192,141402,1,0,0:0:0:0:
109,192,141487,1,0,0:0:0:0:
36,192,141487,1,0,0:0:0:0:
182,192,141487,1,0,0:0:0:0:
402,192,141573,1,0,0:0:0:0:
475,192,141573,1,0,0:0:0:0:
256,192,141573,128,0,141744:0:0:0:0:
402,192,141744,128,0,141916:0:0:0:0:
109,192,141744,1,0,0:0:0:0:
182,192,141830,1,0,0:0:0:0:
109,192,141916,128,0,142087:0:0:0:0:
256,192,141916,1,0,0:0:0:0:
329,192,141916,1,0,0:0:0:0:
256,192,142087,128,0,142259:0:0:0:0:
475,192,142087,1,0,0:0:0:0:
402,192,142173,1,0,0:0:0:0:
182,192,142259,1,0,0:0:0:0:
109,192,142259,1,0,0:0:0:0:
36,192,142259,128,0,142430:0:0:0:0:
475,192,142430,128,0,142602:0:0:0:0:
402,192,142430,1,0,0:0:0:0:
329,192,142430,1,0,0:0:0:0:
256,192,142516,1,0,0:0:0:0:
182,192,142602,1,0,0:0:0:0:
109,192,142602,1,0,0:0:0:0:
402,192,142687,1,0,0:0:0:0:
329,192,142687,1,0,0:0:0:0:
182,192,142773,1,0,0:0:0:0:
109,192,142773,1,0,0:0:0:0:
36,192,142859,128,0,142944:0:0:0:0:
329,192,142859,1,0,0:0:0:0:
402,192,142859,1,0,0:0:0:0:
256,192,142944,1,0,0:0:0:0:
182,192,142944,1,0,0:0:0:0:
475,192,142944,128,0,143544:0:0:0:0:
109,192,143030,1,0,0:0:0:0:
402,192,143116,128,0,143544:0:0:0:0:
36,192,143116,1,0,0:0:0:0:
182,192,143202,1,0,0:0:0:0:
329,192,143287,128,0,143630:0:0:0:0:
36,192,143287,1,0,0:0:0:0:
109,192,143287,1,0,0:0:0:0:
256,192,143287,1,0,0:0:0:0:
256,192,143459,128,0,143630:0:0:0:0:
109,192,143459,1,0,0:0:0:0:
182,192,143459,1,0,0:0:0:0:
36,192,143544,1,0,0:0:0:0:
402,192,143630,1,0,0:0:0:0:
475,192,143630,1,0,0:0:0:0:
109,192,143630,1,0,0:0:0:0:
182,192,143630,1,0,0:0:0:0:
36,192,143802,1,0,0:0:0:0:
182,192,143802,1,0,0:0:0:0:
402,192,143802,1,0,0:0:0:0:
475,192,143802,1,0,0:0:0:0:
329,192,143887,1,0,0:0:0:0:
36,192,143973,1,0,0:0:0:0:
109,192,143973,1,0,0:0:0:0:
402,192,143973,1,0,0:0:0:0:
475,192,143973,1,0,0:0:0:0:
109,192,144144,1,0,0:0:0:0:
182,192,144144,1,0,0:0:0:0:
329,192,144144,1,0,0:0:0:0:
475,192,144144,1,0,0:0:0:0:
36,192,144230,1,0,0:0:0:0:
109,192,144316,1,0,0:0:0:0:
182,192,144316,1,0,0:0:0:0:
329,192,144316,1,0,0:0:0:0:
475,192,144316,1,0,0:0:0:0:
402,192,144402,1,0,0:0:0:0:
36,192,144487,1,0,0:0:0:0:
182,192,144487,1,0,0:0:0:0:
256,192,144487,1,0,0:0:0:0:
475,192,144487,1,0,0:0:0:0:
329,192,144573,1,0,0:0:0:0:
36,192,144659,1,0,0:0:0:0:
109,192,144659,1,0,0:0:0:0:
402,192,144659,1,0,0:0:0:0:
475,192,144659,1,0,0:0:0:0:
36,192,144830,1,0,0:0:0:0:
109,192,144830,1,0,0:0:0:0:
329,192,144830,1,0,0:0:0:0:
402,192,144830,1,0,0:0:0:0:
182,192,144916,1,0,0:0:0:0:
109,192,145002,1,0,0:0:0:0:
36,192,145002,1,0,0:0:0:0:
329,192,145002,1,0,0:0:0:0:
475,192,145002,1,0,0:0:0:0:
256,192,145087,1,0,0:0:0:0:
402,192,145087,1,0,0:0:0:0:
329,192,145173,1,0,0:0:0:0:
182,192,145173,1,0,0:0:0:0:
402,192,145344,1,0,0:0:0:0:
475,192,145344,1,0,0:0:0:0:
36,192,145344,1,0,0:0:0:0:
182,192,145344,1,0,0:0:0:0:
109,192,145430,1,0,0:0:0:0:
256,192,145430,1,0,0:0:0:0:
182,192,145516,1,0,0:0:0:0:
329,192,145516,1,0,0:0:0:0:
36,192,145687,1,0,0:0:0:0:
109,192,145687,1,0,0:0:0:0:
402,192,145687,1,0,0:0:0:0:
475,192,145687,1,0,0:0:0:0:
182,192,145773,1,0,0:0:0:0:
329,192,145773,1,0,0:0:0:0:
109,192,145859,1,0,0:0:0:0:
402,192,145859,1,0,0:0:0:0:
36,192,145944,1,0,0:0:0:0:
475,192,145944,1,0,0:0:0:0:
182,192,146030,1,0,0:0:0:0:
109,192,146030,1,0,0:0:0:0:
329,192,146030,1,0,0:0:0:0:
402,192,146030,1,0,0:0:0:0:
256,192,146030,128,0,146373:0:0:0:0:
329,192,146373,1,0,0:0:0:0:
475,192,146373,1,0,0:0:0:0:
36,192,146373,1,0,0:0:0:0:
182,192,146373,128,0,146459:0:0:0:0:
109,192,146459,128,0,146544:0:0:0:0:
329,192,146544,1,0,0:0:0:0:
475,192,146544,1,0,0:0:0:0:
182,192,146544,128,0,146716:0:0:0:0:
329,192,146716,1,0,0:0:0:0:
402,192,146716,1,0,0:0:0:0:
36,192,146716,128,0,146802:0:0:0:0:
256,192,146716,1,0,0:0:0:0:
109,192,146802,128,0,146887:0:0:0:0:
329,192,146887,1,0,0:0:0:0:
402,192,146887,1,0,0:0:0:0:
182,192,146887,128,0,147059:0:0:0:0:
402,192,147059,1,0,0:0:0:0:
475,192,147059,1,0,0:0:0:0:
256,192,147059,1,0,0:0:0:0:
36,192,147059,128,0,147144:0:0:0:0:
109,192,147144,128,0,147230:0:0:0:0:
475,192,147230,1,0,0:0:0:0:
402,192,147230,1,0,0:0:0:0:
182,192,147230,128,0,147402:0:0:0:0:
329,192,147402,1,0,0:0:0:0:
475,192,147402,1,0,0:0:0:0:
109,192,147402,128,0,147573:0:0:0:0:
256,192,147402,1,0,0:0:0:0:
329,192,147573,1,0,0:0:0:0:
475,192,147573,1,0,0:0:0:0:
36,192,147573,128,0,147744:0:0:0:0:
402,192,147659,1,0,0:0:0:0:
256,192,147659,1,0,0:0:0:0:
329,192,147744,1,0,0:0:0:0:
475,192,147744,1,0,0:0:0:0:
109,192,147744,1,0,0:0:0:0:
182,192,147744,1,0,0:0:0:0:
256,192,147830,1,0,0:0:0:0:
402,192,147830,1,0,0:0:0:0:
182,192,147916,1,0,0:0:0:0:
329,192,147916,1,0,0:0:0:0:
36,192,147916,1,0,0:0:0:0:
109,192,148002,1,0,0:0:0:0:
256,192,148002,1,0,0:0:0:0:
402,192,148002,1,0,0:0:0:0:
475,192,148002,1,0,0:0:0:0:
36,192,148087,1,0,0:0:0:0:
182,192,148087,1,0,0:0:0:0:
109,192,148173,1,0,0:0:0:0:
329,192,148173,1,0,0:0:0:0:
475,192,148173,1,0,0:0:0:0:
182,192,148259,1,0,0:0:0:0:
256,192,148259,1,0,0:0:0:0:
402,192,148259,1,0,0:0:0:0:
36,192,148259,1,0,0:0:0:0:
329,192,148344,1,0,0:0:0:0:
475,192,148344,1,0,0:0:0:0:
36,192,148430,1,0,0:0:0:0:
109,192,148430,1,0,0:0:0:0:
402,192,148430,1,0,0:0:0:0:
256,192,148430,128,0,148602:0:0:0:0:
182,192,148430,1,0,0:0:0:0:
182,192,148602,128,0,148773:0:0:0:0:
329,192,148687,1,0,0:0:0:0:
402,192,148687,1,0,0:0:0:0:
475,192,148687,1,0,0:0:0:0:
36,192,148687,1,0,0:0:0:0:
109,192,148773,128,0,148944:0:0:0:0:
256,192,148773,1,0,0:0:0:0:
329,192,148859,1,0,0:0:0:0:
36,192,148944,128,0,149116:0:0:0:0:
402,192,148944,1,0,0:0:0:0:
475,192,148944,1,0,0:0:0:0:
182,192,148944,1,0,0:0:0:0:
256,192,149030,1,0,0:0:0:0:
329,192,149030,1,0,0:0:0:0:
109,192,149116,1,0,0:0:0:0:
182,192,149116,128,0,149287:0:0:0:0:
475,192,149116,128,0,149287:0:0:0:0:
402,192,149116,128,0,149287:0:0:0:0:
109,192,149287,128,0,149459:0:0:0:0:
329,192,149287,128,0,149459:0:0:0:0:
256,192,149287,128,0,149459:0:0:0:0:
36,192,149459,128,0,149630:0:0:0:0:
182,192,149459,128,0,149630:0:0:0:0:
402,192,149459,128,0,149630:0:0:0:0:
256,192,149630,128,0,149802:0:0:0:0:
109,192,149630,128,0,149802:0:0:0:0:
475,192,149630,128,0,149802:0:0:0:0:
182,192,149802,128,0,149973:0:0:0:0:
329,192,149802,128,0,149973:0:0:0:0:
402,192,149802,128,0,149973:0:0:0:0:
109,192,149973,128,0,150144:0:0:0:0:
256,192,149973,128,0,150144:0:0:0:0:
475,192,149973,128,0,150144:0:0:0:0:
182,192,150144,128,0,150316:0:0:0:0:
329,192,150144,128,0,150316:0:0:0:0:
36,192,150144,128,0,150316:0:0:0:0:
256,192,150316,128,0,150487:0:0:0:0:
475,192,150316,128,0,150487:0:0:0:0:
402,192,150316,128,0,150487:0:0:0:0:
36,192,150487,128,0,150659:0:0:0:0:
182,192,150487,128,0,150659:0:0:0:0:
329,192,150487,128,0,150659:0:0:0:0:
109,192,150659,128,0,150830:0:0:0:0:
402,192,150659,128,0,150830:0:0:0:0:
475,192,150659,128,0,150830:0:0:0:0:
329,192,150830,128,0,151002:0:0:0:0:
182,192,150830,128,0,151002:0:0:0:0:
36,192,150830,128,0,151002:0:0:0:0:
109,192,151002,128,0,151173:0:0:0:0:
256,192,151002,128,0,151173:0:0:0:0:
402,192,151002,128,0,151173:0:0:0:0:
36,192,151173,128,0,151344:0:0:0:0:
182,192,151173,128,0,151344:0:0:0:0:
329,192,151173,128,0,151344:0:0:0:0:
109,192,151344,128,0,151516:0:0:0:0:
256,192,151344,128,0,151516:0:0:0:0:
402,192,151344,128,0,151516:0:0:0:0:
182,192,151516,128,0,151687:0:0:0:0:
329,192,151516,128,0,151687:0:0:0:0:
475,192,151516,128,0,151687:0:0:0:0:
109,192,151687,128,0,151859:0:0:0:0:
256,192,151687,128,0,151859:0:0:0:0:
402,192,151687,128,0,151859:0:0:0:0:
36,192,151859,128,0,152030:0:0:0:0:
182,192,151859,128,0,152202:0:0:0:0:
329,192,151859,128,0,152030:0:0:0:0:
256,192,152030,128,0,152202:0:0:0:0:
402,192,152030,128,0,152202:0:0:0:0:
475,192,152030,128,0,152202:0:0:0:0:
329,192,152202,128,0,152544:0:0:0:0:
109,192,152202,128,0,152373:0:0:0:0:
36,192,152202,128,0,152373:0:0:0:0:
475,192,152373,128,0,152544:0:0:0:0:
182,192,152373,128,0,152544:0:0:0:0:
256,192,152373,128,0,152544:0:0:0:0:
402,192,152544,128,0,152887:0:0:0:0:
109,192,152544,128,0,152716:0:0:0:0:
36,192,152544,128,0,152716:0:0:0:0:
475,192,152716,128,0,152887:0:0:0:0:
182,192,152716,128,0,152887:0:0:0:0:
329,192,152716,128,0,152887:0:0:0:0:
256,192,152887,128,0,153230:0:0:0:0:
109,192,152887,128,0,153059:0:0:0:0:
36,192,152887,128,0,153059:0:0:0:0:
182,192,153059,128,0,153230:0:0:0:0:
475,192,153059,128,0,153230:0:0:0:0:
402,192,153059,128,0,153230:0:0:0:0:
36,192,153230,1,0,0:0:0:0:
109,192,153230,1,0,0:0:0:0:
329,192,153230,128,0,153402:0:0:0:0:
36,192,153402,1,0,0:0:0:0:
109,192,153402,1,0,0:0:0:0:
256,192,153402,128,0,153573:0:0:0:0:
109,192,153573,1,0,0:0:0:0:
36,192,153573,1,0,0:0:0:0:
329,192,153573,128,0,153744:0:0:0:0:
36,192,153744,1,0,0:0:0:0:
109,192,153744,1,0,0:0:0:0:
402,192,153744,128,0,153916:0:0:0:0:
256,192,153916,1,0,0:0:0:0:
329,192,154002,1,0,0:0:0:0:
36,192,154087,1,0,0:0:0:0:
109,192,154087,1,0,0:0:0:0:
402,192,154087,1,0,0:0:0:0:
475,192,154173,1,0,0:0:0:0:
109,192,154259,1,0,0:0:0:0:
256,192,154259,1,0,0:0:0:0:
182,192,154344,1,0,0:0:0:0:
329,192,154344,1,0,0:0:0:0:
36,192,154430,1,0,0:0:0:0:
109,192,154430,1,0,0:0:0:0:
256,192,154430,1,0,0:0:0:0:
402,192,154430,1,0,0:0:0:0:
182,192,154516,1,0,0:0:0:0:
329,192,154516,1,0,0:0:0:0:
36,192,154602,5,0,0:0:0:0:
109,192,154602,1,0,0:0:0:0:
256,192,154602,1,0,0:0:0:0:
402,192,154602,1,0,0:0:0:0:
475,192,154602,1,0,0:0:0:0:
182,192,154716,1,0,0:0:0:0:
329,192,154716,1,0,0:0:0:0:
256,192,154830,1,0,0:0:0:0:
402,192,154830,1,0,0:0:0:0:
329,192,154944,1,0,0:0:0:0:
475,192,154944,1,0,0:0:0:0:
36,192,154944,1,0,0:0:0:0:
182,192,154944,1,0,0:0:0:0:
109,192,155059,1,0,0:0:0:0:
256,192,155059,1,0,0:0:0:0:
182,192,155173,1,0,0:0:0:0:
329,192,155173,1,0,0:0:0:0:
402,192,155173,1,0,0:0:0:0:
36,192,155173,1,0,0:0:0:0:
109,192,155287,1,0,0:0:0:0:
256,192,155287,1,0,0:0:0:0:
402,192,155287,1,0,0:0:0:0:
475,192,155287,1,0,0:0:0:0:
182,192,155402,1,0,0:0:0:0:
329,192,155402,1,0,0:0:0:0:
256,192,155516,1,0,0:0:0:0:
402,192,155516,1,0,0:0:0:0:
36,192,155630,1,0,0:0:0:0:
109,192,155630,1,0,0:0:0:0:
329,192,155630,1,0,0:0:0:0:
475,192,155630,1,0,0:0:0:0:
182,192,155744,1,0,0:0:0:0:
402,192,155744,1,0,0:0:0:0:
256,192,155859,1,0,0:0:0:0:
475,192,155859,1,0,0:0:0:0:
36,192,155859,1,0,0:0:0:0:
109,192,155859,1,0,0:0:0:0:
182,192,155973,1,0,0:0:0:0:
329,192,155973,1,0,0:0:0:0:
402,192,155973,1,0,0:0:0:0:
475,192,155973,1,0,0:0:0:0:
36,192,155973,1,0,0:0:0:0:
256,192,156087,1,0,0:0:0:0:
109,192,156087,1,0,0:0:0:0:
182,192,156202,5,0,0:0:0:0:
329,192,156202,1,0,0:0:0:0:
256,192,156316,1,0,0:0:0:0:
402,192,156316,1,0,0:0:0:0:
109,192,156316,1,0,0:0:0:0:
36,192,156316,1,0,0:0:0:0:
182,192,156430,1,0,0:0:0:0:
329,192,156430,1,0,0:0:0:0:
256,192,156544,1,0,0:0:0:0:
402,192,156544,1,0,0:0:0:0:
36,192,156544,1,0,0:0:0:0:
109,192,156544,1,0,0:0:0:0:
182,192,156659,1,0,0:0:0:0:
329,192,156659,1,0,0:0:0:0:
475,192,156659,1,0,0:0:0:0:
36,192,156659,1,0,0:0:0:0:
109,192,156773,1,0,0:0:0:0:
329,192,156773,1,0,0:0:0:0:
402,192,156773,1,0,0:0:0:0:
256,192,156773,1,0,0:0:0:0:
182,192,156887,1,0,0:0:0:0:
329,192,156887,1,0,0:0:0:0:
402,192,156887,1,0,0:0:0:0:
475,192,156887,1,0,0:0:0:0:
36,192,157002,1,0,0:0:0:0:
109,192,157002,1,0,0:0:0:0:
256,192,157002,1,0,0:0:0:0:
402,192,157002,1,0,0:0:0:0:
475,192,157002,1,0,0:0:0:0:
36,192,157344,5,0,0:0:0:0:
109,192,157344,1,0,0:0:0:0:
182,192,157344,1,0,0:0:0:0:
329,192,157344,128,0,157573:0:0:0:0:
402,192,157344,128,0,157573:0:0:0:0:
182,192,157459,1,0,0:0:0:0:
109,192,157459,1,0,0:0:0:0:
36,192,157459,1,0,0:0:0:0:
36,192,157573,1,0,0:0:0:0:
109,192,157573,1,0,0:0:0:0:
182,192,157573,1,0,0:0:0:0:
182,192,157687,1,0,0:0:0:0:
109,192,157687,1,0,0:0:0:0:
36,192,157687,1,0,0:0:0:0:
329,192,157687,128,0,157916:0:0:0:0:
402,192,157687,128,0,157916:0:0:0:0:
36,192,157802,1,0,0:0:0:0:
109,192,157802,1,0,0:0:0:0:
182,192,157802,1,0,0:0:0:0:
182,192,157916,1,0,0:0:0:0:
109,192,157916,1,0,0:0:0:0:
36,192,157916,1,0,0:0:0:0:
329,192,158030,1,0,0:0:0:0:
402,192,158030,1,0,0:0:0:0:
475,192,158030,1,0,0:0:0:0:
109,192,158030,128,0,158259:0:0:0:0:
182,192,158030,128,0,158259:0:0:0:0:
475,192,158144,1,0,0:0:0:0:
402,192,158144,1,0,0:0:0:0:
329,192,158144,1,0,0:0:0:0:
329,192,158259,1,0,0:0:0:0:
402,192,158259,1,0,0:0:0:0:
475,192,158259,1,0,0:0:0:0:
329,192,158373,1,0,0:0:0:0:
402,192,158373,1,0,0:0:0:0:
475,192,158373,1,0,0:0:0:0:
109,192,158373,128,0,158602:0:0:0:0:
182,192,158373,128,0,158602:0:0:0:0:
329,192,158487,1,0,0:0:0:0:
402,192,158487,1,0,0:0:0:0:
475,192,158487,1,0,0:0:0:0:
475,192,158602,1,0,0:0:0:0:
402,192,158602,1,0,0:0:0:0:
329,192,158602,1,0,0:0:0:0:
109,192,158716,1,0,0:0:0:0:
182,192,158716,1,0,0:0:0:0:
329,192,158716,1,0,0:0:0:0:
402,192,158716,1,0,0:0:0:0:
256,192,158716,1,0,0:0:0:0:
109,192,158830,1,0,0:0:0:0:
182,192,158830,1,0,0:0:0:0:
329,192,158830,1,0,0:0:0:0:
402,192,158830,1,0,0:0:0:0:
109,192,158944,1,0,0:0:0:0:
182,192,158944,1,0,0:0:0:0:
329,192,158944,1,0,0:0:0:0:
402,192,158944,1,0,0:0:0:0:
182,192,159059,1,0,0:0:0:0:
329,192,159059,1,0,0:0:0:0:
36,192,159059,1,0,0:0:0:0:
475,192,159059,1,0,0:0:0:0:
256,192,159059,1,0,0:0:0:0:
36,192,159173,1,0,0:0:0:0:
182,192,159173,1,0,0:0:0:0:
475,192,159173,1,0,0:0:0:0:
329,192,159173,1,0,0:0:0:0:
36,192,159287,1,0,0:0:0:0:
182,192,159287,1,0,0:0:0:0:
329,192,159287,1,0,0:0:0:0:
475,192,159287,1,0,0:0:0:0:
109,192,159402,1,0,0:0:0:0:
402,192,159402,1,0,0:0:0:0:
36,192,159402,128,0,160087:0:0:0:0:
475,192,159402,128,0,160087:0:0:0:0:
256,192,159402,128,0,159744:0:0:0:0:
182,192,159916,1,0,0:0:0:0:
329,192,159916,1,0,0:0:0:0:
256,192,160002,1,0,0:0:0:0:
329,192,160087,1,0,0:0:0:0:
109,192,160087,128,0,160344:0:0:0:0:
182,192,160087,128,0,160344:0:0:0:0:
402,192,160173,1,0,0:0:0:0:
475,192,160259,1,0,0:0:0:0:
256,192,160430,1,0,0:0:0:0:
109,192,160430,128,0,160687:0:0:0:0:
182,192,160430,128,0,160687:0:0:0:0:
329,192,160516,1,0,0:0:0:0:
402,192,160602,1,0,0:0:0:0:
329,192,160773,1,0,0:0:0:0:
36,192,160773,128,0,161030:0:0:0:0:
182,192,160773,128,0,161030:0:0:0:0:
402,192,160859,1,0,0:0:0:0:
475,192,160944,1,0,0:0:0:0:
36,192,161116,128,0,161373:0:0:0:0:
182,192,161116,128,0,161373:0:0:0:0:
329,192,161116,1,0,0:0:0:0:
475,192,161287,1,0,0:0:0:0:
402,192,161373,1,0,0:0:0:0:
36,192,161459,128,0,161716:0:0:0:0:
109,192,161459,128,0,161716:0:0:0:0:
329,192,161459,1,0,0:0:0:0:
256,192,161630,1,0,0:0:0:0:
36,192,161802,128,0,162059:0:0:0:0:
109,192,161802,128,0,162059:0:0:0:0:
329,192,161802,1,0,0:0:0:0:
402,192,161973,1,0,0:0:0:0:
109,192,162144,128,0,162402:0:0:0:0:
182,192,162144,128,0,162402:0:0:0:0:
475,192,162144,1,0,0:0:0:0:
36,192,162487,128,0,162744:0:0:0:0:
182,192,162487,128,0,162744:0:0:0:0:
329,192,162659,1,0,0:0:0:0:
329,192,162830,128,0,163087:0:0:0:0:
402,192,162830,128,0,163087:0:0:0:0:
256,192,162830,1,0,0:0:0:0:
182,192,162916,1,0,0:0:0:0:
109,192,163002,1,0,0:0:0:0:
329,192,163173,128,0,163430:0:0:0:0:
402,192,163173,128,0,163430:0:0:0:0:
109,192,163344,1,0,0:0:0:0:
36,192,163430,1,0,0:0:0:0:
329,192,163516,128,0,163773:0:0:0:0:
475,192,163516,128,0,163773:0:0:0:0:
182,192,163516,1,0,0:0:0:0:
256,192,163687,1,0,0:0:0:0:
329,192,163859,128,0,164116:0:0:0:0:
475,192,163859,128,0,164116:0:0:0:0:
109,192,163859,1,0,0:0:0:0:
182,192,164030,1,0,0:0:0:0:
402,192,164202,128,0,164459:0:0:0:0:
475,192,164202,128,0,164459:0:0:0:0:
256,192,164202,1,0,0:0:0:0:
182,192,164373,1,0,0:0:0:0:
402,192,164544,128,0,164802:0:0:0:0:
475,192,164544,128,0,164802:0:0:0:0:
109,192,164544,1,0,0:0:0:0:
36,192,164716,1,0,0:0:0:0:
109,192,164802,1,0,0:0:0:0:
256,192,164887,1,0,0:0:0:0:
329,192,164887,128,0,165144:0:0:0:0:
475,192,164887,128,0,165144:0:0:0:0:
182,192,165059,1,0,0:0:0:0:
109,192,165230,1,0,0:0:0:0:
402,192,165230,128,0,165487:0:0:0:0:
256,192,165230,128,0,165487:0:0:0:0:
36,192,165402,1,0,0:0:0:0:
109,192,165487,1,0,0:0:0:0:
182,192,165573,128,0,165830:0:0:0:0:
329,192,165573,128,0,165830:0:0:0:0:
475,192,165573,1,0,0:0:0:0:
475,192,165744,1,0,0:0:0:0:
402,192,165830,1,0,0:0:0:0:
475,192,165916,1,0,0:0:0:0:
182,192,165916,128,0,166173:0:0:0:0:
329,192,165916,128,0,166173:0:0:0:0:
36,192,165916,1,0,0:0:0:0:
109,192,166087,1,0,0:0:0:0:
109,192,166259,128,0,166516:0:0:0:0:
256,192,166259,128,0,166516:0:0:0:0:
475,192,166259,1,0,0:0:0:0:
329,192,166344,1,0,0:0:0:0:
475,192,166430,1,0,0:0:0:0:
109,192,166602,128,0,166859:0:0:0:0:
256,192,166602,128,0,166859:0:0:0:0:
329,192,166602,1,0,0:0:0:0:
475,192,166773,1,0,0:0:0:0:
402,192,166859,1,0,0:0:0:0:
329,192,166944,1,0,0:0:0:0:
36,192,166944,128,0,167202:0:0:0:0:
182,192,166944,128,0,167202:0:0:0:0:
402,192,167116,1,0,0:0:0:0:
182,192,167287,128,0,167544:0:0:0:0:
329,192,167287,128,0,167544:0:0:0:0:
475,192,167287,1,0,0:0:0:0:
36,192,167459,1,0,0:0:0:0:
329,192,167630,128,0,167887:0:0:0:0:
475,192,167630,128,0,167887:0:0:0:0:
109,192,167630,1,0,0:0:0:0:
109,192,167973,128,0,168230:0:0:0:0:
402,192,167973,128,0,168230:0:0:0:0:
256,192,167973,1,0,0:0:0:0:
36,192,168316,128,0,168487:0:0:0:0:
182,192,168316,1,0,0:0:0:0:
256,192,168316,1,0,0:0:0:0:
329,192,168402,1,0,0:0:0:0:
402,192,168487,1,0,0:0:0:0:
475,192,168487,1,0,0:0:0:0:
36,192,168573,128,0,168744:0:0:0:0:
256,192,168659,1,0,0:0:0:0:
402,192,168659,1,0,0:0:0:0:
329,192,168744,1,0,0:0:0:0:
36,192,168830,128,0,169002:0:0:0:0:
402,192,168830,1,0,0:0:0:0:
475,192,168830,1,0,0:0:0:0:
182,192,169002,1,0,0:0:0:0:
329,192,169002,1,0,0:0:0:0:
36,192,169087,128,0,169259:0:0:0:0:
402,192,169087,1,0,0:0:0:0:
475,192,169173,1,0,0:0:0:0:
256,192,169173,1,0,0:0:0:0:
36,192,169344,128,0,169516:0:0:0:0:
402,192,169344,1,0,0:0:0:0:
475,192,169344,1,0,0:0:0:0:
329,192,169516,1,0,0:0:0:0:
402,192,169516,1,0,0:0:0:0:
36,192,169602,128,0,169773:0:0:0:0:
256,192,169687,1,0,0:0:0:0:
329,192,169687,1,0,0:0:0:0:
475,192,169687,1,0,0:0:0:0:
36,192,169859,128,0,170030:0:0:0:0:
329,192,169859,1,0,0:0:0:0:
475,192,169859,1,0,0:0:0:0:
402,192,169944,5,0,0:0:0:0:
256,192,169944,1,0,0:0:0:0:
182,192,170030,1,0,0:0:0:0:
329,192,170030,1,0,0:0:0:0:
36,192,170116,128,0,170287:0:0:0:0:
329,192,170202,1,0,0:0:0:0:
475,192,170202,1,0,0:0:0:0:
36,192,170373,128,0,171059:0:0:0:0:
256,192,170373,1,0,0:0:0:0:
402,192,170373,128,0,170544:0:0:0:0:
329,192,170544,128,0,170716:0:0:0:0:
182,192,170544,1,0,0:0:0:0:
256,192,170716,128,0,170887:0:0:0:0:
109,192,170716,1,0,0:0:0:0:
475,192,170887,1,0,0:0:0:0:
402,192,170973,1,0,0:0:0:0:
329,192,171059,128,0,171402:0:0:0:0:
109,192,171059,1,0,0:0:0:0:
256,192,171059,1,0,0:0:0:0:
182,192,171059,128,0,171316:0:0:0:0:
402,192,171144,128,0,171487:0:0:0:0:
475,192,171230,128,0,171573:0:0:0:0:
256,192,171402,128,0,171744:0:0:0:0:
36,192,171402,1,0,0:0:0:0:
182,192,171402,1,0,0:0:0:0:
109,192,171402,128,0,171659:0:0:0:0:
329,192,171487,128,0,171830:0:0:0:0:
402,192,171573,128,0,171916:0:0:0:0:
182,192,171744,128,0,172087:0:0:0:0:
109,192,171744,1,0,0:0:0:0:
475,192,171744,1,0,0:0:0:0:
36,192,171744,128,0,172002:0:0:0:0:
256,192,171830,128,0,172087:0:0:0:0:
329,192,171916,128,0,172087:0:0:0:0:
36,192,172087,1,0,0:0:0:0:
402,192,172087,1,0,0:0:0:0:
475,192,172087,1,0,0:0:0:0:
109,192,172087,128,0,172430:0:0:0:0:
475,192,172259,128,0,172430:0:0:0:0:
256,192,172259,1,0,0:0:0:0:
329,192,172344,128,0,172430:0:0:0:0:
182,192,172430,128,0,173030:0:0:0:0:
36,192,172430,1,0,0:0:0:0:
256,192,172430,1,0,0:0:0:0:
402,192,172430,1,0,0:0:0:0:
109,192,172602,128,0,172859:0:0:0:0:
329,192,172602,1,0,0:0:0:0:
329,192,172687,1,0,0:0:0:0:
36,192,172773,128,0,173459:0:0:0:0:
402,192,172773,1,0,0:0:0:0:
475,192,172773,1,0,0:0:0:0:
109,192,172944,128,0,173459:0:0:0:0:
475,192,172944,1,0,0:0:0:0:
475,192,173030,1,0,0:0:0:0:
182,192,173116,128,0,173459:0:0:0:0:
329,192,173116,1,0,0:0:0:0:
402,192,173116,1,0,0:0:0:0:
475,192,173287,1,0,0:0:0:0:
402,192,173373,1,0,0:0:0:0:
256,192,173373,1,0,0:0:0:0:
402,192,173459,1,0,0:0:0:0:
256,192,173459,1,0,0:0:0:0:
256,192,173630,128,0,173802:0:0:0:0:
329,192,173630,1,0,0:0:0:0:
475,192,173802,128,0,174230:0:0:0:0:
109,192,173802,1,0,0:0:0:0:
36,192,173802,1,0,0:0:0:0:
182,192,173802,1,0,0:0:0:0:
402,192,173887,128,0,174316:0:0:0:0:
256,192,173887,1,0,0:0:0:0:
329,192,173973,128,0,174402:0:0:0:0:
109,192,173973,1,0,0:0:0:0:
182,192,173973,1,0,0:0:0:0:
109,192,174144,1,0,0:0:0:0:
36,192,174144,1,0,0:0:0:0:
475,192,174316,128,0,174573:0:0:0:0:
36,192,174316,1,0,0:0:0:0:
182,192,174316,1,0,0:0:0:0:
402,192,174402,128,0,174744:0:0:0:0:
109,192,174402,1,0,0:0:0:0:
329,192,174487,128,0,174916:0:0:0:0:
182,192,174487,1,0,0:0:0:0:
256,192,174487,1,0,0:0:0:0:
475,192,174659,128,0,175087:0:0:0:0:
109,192,174659,1,0,0:0:0:0:
182,192,174659,1,0,0:0:0:0:
402,192,174830,128,0,175087:0:0:0:0:
109,192,174830,1,0,0:0:0:0:
36,192,174830,1,0,0:0:0:0:
329,192,175002,128,0,175087:0:0:0:0:
109,192,175002,1,0,0:0:0:0:
182,192,175002,1,0,0:0:0:0:
36,192,175087,1,0,0:0:0:0:
256,192,175173,1,0,0:0:0:0:
475,192,175173,1,0,0:0:0:0:
402,192,175173,1,0,0:0:0:0:
182,192,175173,128,0,175516:0:0:0:0:
109,192,175344,128,0,175516:0:0:0:0:
329,192,175344,1,0,0:0:0:0:
402,192,175344,1,0,0:0:0:0:
36,192,175516,128,0,175859:0:0:0:0:
329,192,175516,1,0,0:0:0:0:
256,192,175516,1,0,0:0:0:0:
402,192,175602,1,0,0:0:0:0:
475,192,175602,1,0,0:0:0:0:
109,192,175687,128,0,175859:0:0:0:0:
182,192,175687,1,0,0:0:0:0:
256,192,175687,1,0,0:0:0:0:
329,192,175773,1,0,0:0:0:0:
402,192,175773,1,0,0:0:0:0:
182,192,175859,1,0,0:0:0:0:
256,192,175859,1,0,0:0:0:0:
475,192,175859,128,0,176202:0:0:0:0:
329,192,176030,128,0,176373:0:0:0:0:
109,192,176030,1,0,0:0:0:0:
182,192,176202,128,0,176459:0:0:0:0:
36,192,176202,1,0,0:0:0:0:
256,192,176202,1,0,0:0:0:0:
109,192,176373,128,0,176459:0:0:0:0:
475,192,176373,1,0,0:0:0:0:
402,192,176373,1,0,0:0:0:0:
36,192,176459,128,0,176544:0:0:0:0:
329,192,176459,1,0,0:0:0:0:
256,192,176459,1,0,0:0:0:0:
402,192,176544,1,0,0:0:0:0:
475,192,176544,1,0,0:0:0:0:
182,192,176544,1,0,0:0:0:0:
109,192,176544,1,0,0:0:0:0:
109,192,176716,1,0,0:0:0:0:
182,192,176716,1,0,0:0:0:0:
475,192,176716,128,0,176887:0:0:0:0:
402,192,176802,128,0,176887:0:0:0:0:
182,192,176887,1,0,0:0:0:0:
109,192,176887,1,0,0:0:0:0:
329,192,176887,128,0,177144:0:0:0:0:
109,192,177059,1,0,0:0:0:0:
182,192,177059,1,0,0:0:0:0:
402,192,177059,128,0,177144:0:0:0:0:
36,192,177144,1,0,0:0:0:0:
329,192,177230,1,0,0:0:0:0:
402,192,177230,1,0,0:0:0:0:
182,192,177230,128,0,177402:0:0:0:0:
109,192,177316,128,0,177402:0:0:0:0:
329,192,177402,1,0,0:0:0:0:
402,192,177402,1,0,0:0:0:0:
36,192,177402,128,0,177573:0:0:0:0:
109,192,177487,128,0,177573:0:0:0:0:
329,192,177573,1,0,0:0:0:0:
402,192,177573,1,0,0:0:0:0:
182,192,177573,128,0,177916:0:0:0:0:
402,192,177744,1,0,0:0:0:0:
109,192,177744,128,0,177916:0:0:0:0:
475,192,177744,1,0,0:0:0:0:
329,192,177830,1,0,0:0:0:0:
256,192,177916,128,0,178173:0:0:0:0:
36,192,177916,1,0,0:0:0:0:
402,192,177916,1,0,0:0:0:0:
475,192,177916,1,0,0:0:0:0:
182,192,178002,128,0,178173:0:0:0:0:
109,192,178087,128,0,178173:0:0:0:0:
256,192,178259,128,0,178516:0:0:0:0:
36,192,178259,1,0,0:0:0:0:
109,192,178259,1,0,0:0:0:0:
402,192,178259,1,0,0:0:0:0:
475,192,178259,1,0,0:0:0:0:
329,192,178344,128,0,178516:0:0:0:0:
402,192,178430,128,0,178516:0:0:0:0:
256,192,178602,128,0,178859:0:0:0:0:
109,192,178602,1,0,0:0:0:0:
36,192,178602,1,0,0:0:0:0:
402,192,178602,1,0,0:0:0:0:
475,192,178602,1,0,0:0:0:0:
182,192,178687,128,0,178944:0:0:0:0:
109,192,178773,128,0,178944:0:0:0:0:
36,192,178859,128,0,178944:0:0:0:0:
256,192,178944,128,0,179202:0:0:0:0:
329,192,178944,1,0,0:0:0:0:
402,192,178944,1,0,0:0:0:0:
475,192,178944,1,0,0:0:0:0:
36,192,179287,1,0,0:0:0:0:
475,192,179287,1,0,0:0:0:0:
256,192,179287,128,0,181859:0:0:0:0:
109,192,179287,1,0,0:0:0:0:
402,192,179287,1,0,0:0:0:0:
182,192,179373,1,0,0:0:0:0:
329,192,179373,1,0,0:0:0:0:
109,192,179459,1,0,0:0:0:0:
402,192,179459,1,0,0:0:0:0:
36,192,179630,1,0,0:0:0:0:
329,192,179630,1,0,0:0:0:0:
475,192,179630,1,0,0:0:0:0:
182,192,179630,1,0,0:0:0:0:
109,192,179716,1,0,0:0:0:0:
402,192,179716,1,0,0:0:0:0:
182,192,179802,1,0,0:0:0:0:
475,192,179802,1,0,0:0:0:0:
109,192,179973,1,0,0:0:0:0:
475,192,179973,1,0,0:0:0:0:
36,192,179973,1,0,0:0:0:0:
329,192,179973,1,0,0:0:0:0:
182,192,180059,1,0,0:0:0:0:
402,192,180059,1,0,0:0:0:0:
475,192,180144,1,0,0:0:0:0:
36,192,180144,1,0,0:0:0:0:
475,192,180316,1,0,0:0:0:0:
182,192,180316,1,0,0:0:0:0:
109,192,180316,1,0,0:0:0:0:
402,192,180316,1,0,0:0:0:0:
402,192,180487,1,0,0:0:0:0:
109,192,180487,1,0,0:0:0:0:
329,192,180487,1,0,0:0:0:0:
36,192,180487,1,0,0:0:0:0:
36,192,180659,1,0,0:0:0:0:
475,192,180659,1,0,0:0:0:0:
109,192,180687,1,0,0:0:0:0:
182,192,180716,1,0,0:0:0:0:
329,192,180744,1,0,0:0:0:0:
402,192,180773,1,0,0:0:0:0:
475,192,180802,1,0,0:0:0:0:
36,192,180830,1,0,0:0:0:0:
109,192,180859,1,0,0:0:0:0:
182,192,180887,1,0,0:0:0:0:
329,192,180916,1,0,0:0:0:0:
402,192,180944,1,0,0:0:0:0:
475,192,180973,1,0,0:0:0:0:
36,192,181002,1,0,0:0:0:0:
109,192,181030,1,0,0:0:0:0:
182,192,181059,1,0,0:0:0:0:
329,192,181087,1,0,0:0:0:0:
402,192,181116,1,0,0:0:0:0:
475,192,181144,1,0,0:0:0:0:
36,192,181173,1,0,0:0:0:0:
109,192,181202,1,0,0:0:0:0:
182,192,181230,1,0,0:0:0:0:
329,192,181259,1,0,0:0:0:0:
402,192,181287,1,0,0:0:0:0:
475,192,181316,1,0,0:0:0:0:
36,192,181344,1,0,0:0:0:0:
109,192,181344,1,0,0:0:0:0:
182,192,181344,1,0,0:0:0:0:
109,192,181602,1,0,0:0:0:0:
182,192,181602,1,0,0:0:0:0:
402,192,181602,1,0,0:0:0:0:
475,192,181602,1,0,0:0:0:0:
36,192,181859,1,0,0:0:0:0:
109,192,181859,1,0,0:0:0:0:
329,192,181859,1,0,0:0:0:0:
402,192,181859,1,0,0:0:0:0:
182,192,181944,1,0,0:0:0:0:
402,192,182030,1,0,0:0:0:0:
475,192,182030,1,0,0:0:0:0:
256,192,182030,1,0,0:0:0:0:
109,192,182030,1,0,0:0:0:0:
36,192,182030,1,0,0:0:0:0:
182,192,182116,1,0,0:0:0:0:
329,192,182116,1,0,0:0:0:0:
256,192,182202,1,0,0:0:0:0:
402,192,182202,1,0,0:0:0:0:
329,192,182287,1,0,0:0:0:0:
475,192,182287,1,0,0:0:0:0:
36,192,182373,1,0,0:0:0:0:
109,192,182373,1,0,0:0:0:0:
402,192,182373,1,0,0:0:0:0:
256,192,182373,1,0,0:0:0:0:
182,192,182373,1,0,0:0:0:0:
329,192,182459,1,0,0:0:0:0:
475,192,182459,1,0,0:0:0:0:
36,192,182544,1,0,0:0:0:0:
256,192,182544,1,0,0:0:0:0:
109,192,182630,1,0,0:0:0:0:
329,192,182630,1,0,0:0:0:0:
182,192,182716,1,0,0:0:0:0:
402,192,182716,1,0,0:0:0:0:
475,192,182716,1,0,0:0:0:0:
256,192,182716,1,0,0:0:0:0:
36,192,182802,1,0,0:0:0:0:
329,192,182802,1,0,0:0:0:0:
109,192,182887,1,0,0:0:0:0:
402,192,182887,1,0,0:0:0:0:
182,192,182973,1,0,0:0:0:0:
475,192,182973,1,0,0:0:0:0:
256,192,183059,1,0,0:0:0:0:
329,192,183059,1,0,0:0:0:0:
36,192,183059,1,0,0:0:0:0:
109,192,183059,1,0,0:0:0:0:
182,192,183144,1,0,0:0:0:0:
475,192,183144,1,0,0:0:0:0:
109,192,183230,1,0,0:0:0:0:
402,192,183230,1,0,0:0:0:0:
329,192,183316,1,0,0:0:0:0:
36,192,183316,1,0,0:0:0:0:
256,192,183402,1,0,0:0:0:0:
109,192,183402,1,0,0:0:0:0:
475,192,183402,1,0,0:0:0:0:
402,192,183402,1,0,0:0:0:0:
109,192,183487,1,0,0:0:0:0:
256,192,183487,1,0,0:0:0:0:
182,192,183659,1,0,0:0:0:0:
36,192,183659,1,0,0:0:0:0:
182,192,183744,1,0,0:0:0:0:
36,192,183744,1,0,0:0:0:0:
329,192,183744,1,0,0:0:0:0:
475,192,183744,1,0,0:0:0:0:
256,192,183916,1,0,0:0:0:0:
402,192,183916,1,0,0:0:0:0:
256,192,184002,1,0,0:0:0:0:
402,192,184002,1,0,0:0:0:0:
36,192,184087,1,0,0:0:0:0:
182,192,184087,1,0,0:0:0:0:
329,192,184173,1,0,0:0:0:0:
475,192,184173,1,0,0:0:0:0:
475,192,184259,1,0,0:0:0:0:
329,192,184259,1,0,0:0:0:0:
182,192,184259,1,0,0:0:0:0:
36,192,184344,1,0,0:0:0:0:
109,192,184430,1,0,0:0:0:0:
182,192,184430,1,0,0:0:0:0:
402,192,184430,1,0,0:0:0:0:
329,192,184430,1,0,0:0:0:0:
256,192,184516,1,0,0:0:0:0:
475,192,184516,1,0,0:0:0:0:
402,192,184602,1,0,0:0:0:0:
182,192,184602,1,0,0:0:0:0:
36,192,184602,1,0,0:0:0:0:
109,192,184687,1,0,0:0:0:0:
329,192,184687,1,0,0:0:0:0:
182,192,184773,1,0,0:0:0:0:
36,192,184773,1,0,0:0:0:0:
402,192,184773,1,0,0:0:0:0:
475,192,184773,1,0,0:0:0:0:
256,192,184859,1,0,0:0:0:0:
329,192,184859,1,0,0:0:0:0:
109,192,184859,1,0,0:0:0:0:
182,192,184944,1,0,0:0:0:0:
402,192,184944,1,0,0:0:0:0:
475,192,184944,1,0,0:0:0:0:
36,192,185030,1,0,0:0:0:0:
256,192,185030,1,0,0:0:0:0:
109,192,185116,1,0,0:0:0:0:
329,192,185116,1,0,0:0:0:0:
475,192,185116,1,0,0:0:0:0:
402,192,185116,1,0,0:0:0:0:
36,192,185202,1,0,0:0:0:0:
256,192,185202,1,0,0:0:0:0:
182,192,185287,1,0,0:0:0:0:
402,192,185287,1,0,0:0:0:0:
475,192,185287,1,0,0:0:0:0:
329,192,185287,1,0,0:0:0:0:
109,192,185373,1,0,0:0:0:0:
256,192,185373,1,0,0:0:0:0:
36,192,185459,1,0,0:0:0:0:
182,192,185459,1,0,0:0:0:0:
402,192,185459,1,0,0:0:0:0:
475,192,185459,1,0,0:0:0:0:
109,192,185544,1,0,0:0:0:0:
329,192,185544,1,0,0:0:0:0:
256,192,185630,1,0,0:0:0:0:
36,192,185630,1,0,0:0:0:0:
182,192,185630,1,0,0:0:0:0:
475,192,185630,1,0,0:0:0:0:
329,192,185716,1,0,0:0:0:0:
402,192,185716,1,0,0:0:0:0:
36,192,185802,1,0,0:0:0:0:
109,192,185802,1,0,0:0:0:0:
182,192,185802,1,0,0:0:0:0:
475,192,185802,1,0,0:0:0:0:
256,192,185887,1,0,0:0:0:0:
402,192,185887,1,0,0:0:0:0:
329,192,185973,1,0,0:0:0:0:
109,192,185973,1,0,0:0:0:0:
36,192,185973,1,0,0:0:0:0:
475,192,185973,1,0,0:0:0:0:
182,192,186059,1,0,0:0:0:0:
256,192,186059,1,0,0:0:0:0:
402,192,186059,1,0,0:0:0:0:
109,192,186144,1,0,0:0:0:0:
36,192,186144,1,0,0:0:0:0:
329,192,186144,1,0,0:0:0:0:
475,192,186144,1,0,0:0:0:0:
329,192,186230,1,0,0:0:0:0:
475,192,186230,1,0,0:0:0:0:
36,192,186316,1,0,0:0:0:0:
182,192,186316,1,0,0:0:0:0:
402,192,186402,1,0,0:0:0:0:
329,192,186402,1,0,0:0:0:0:
109,192,186487,1,0,0:0:0:0:
182,192,186487,1,0,0:0:0:0:
402,192,186487,1,0,0:0:0:0:
329,192,186487,1,0,0:0:0:0:
36,192,186573,1,0,0:0:0:0:
109,192,186659,1,0,0:0:0:0:
182,192,186659,1,0,0:0:0:0:
402,192,186659,1,0,0:0:0:0:
475,192,186659,1,0,0:0:0:0:
402,192,186744,1,0,0:0:0:0:
475,192,186744,1,0,0:0:0:0:
36,192,186744,1,0,0:0:0:0:
182,192,186830,1,0,0:0:0:0:
109,192,186830,1,0,0:0:0:0:
329,192,186830,1,0,0:0:0:0:
256,192,186916,1,0,0:0:0:0:
329,192,187002,1,0,0:0:0:0:
182,192,187002,1,0,0:0:0:0:
256,192,187087,1,0,0:0:0:0:
36,192,187173,1,0,0:0:0:0:
109,192,187173,1,0,0:0:0:0:
402,192,187173,1,0,0:0:0:0:
475,192,187173,1,0,0:0:0:0:
256,192,187259,1,0,0:0:0:0:
109,192,187344,1,0,0:0:0:0:
182,192,187344,1,0,0:0:0:0:
329,192,187344,1,0,0:0:0:0:
402,192,187344,1,0,0:0:0:0:
256,192,187430,1,0,0:0:0:0:
36,192,187516,1,0,0:0:0:0:
109,192,187516,1,0,0:0:0:0:
182,192,187516,1,0,0:0:0:0:
329,192,187516,1,0,0:0:0:0:
402,192,187516,1,0,0:0:0:0:
475,192,187516,1,0,0:0:0:0:
256,192,187687,1,0,0:0:0:0:
475,192,187687,1,0,0:0:0:0:
36,192,187687,1,0,0:0:0:0:
109,192,187687,1,0,0:0:0:0:
402,192,187773,1,0,0:0:0:0:
182,192,187773,1,0,0:0:0:0:
109,192,187859,1,0,0:0:0:0:
329,192,187859,1,0,0:0:0:0:
36,192,187859,1,0,0:0:0:0:
182,192,187944,1,0,0:0:0:0:
402,192,187944,1,0,0:0:0:0:
256,192,188030,1,0,0:0:0:0:
475,192,188030,1,0,0:0:0:0:
36,192,188030,1,0,0:0:0:0:
109,192,188030,1,0,0:0:0:0:
329,192,188116,1,0,0:0:0:0:
402,192,188116,1,0,0:0:0:0:
182,192,188116,1,0,0:0:0:0:
109,192,188202,1,0,0:0:0:0:
36,192,188202,1,0,0:0:0:0:
182,192,188287,1,0,0:0:0:0:
329,192,188287,1,0,0:0:0:0:
256,192,188373,1,0,0:0:0:0:
402,192,188373,1,0,0:0:0:0:
109,192,188373,1,0,0:0:0:0:
36,192,188373,1,0,0:0:0:0:
329,192,188459,1,0,0:0:0:0:
475,192,188459,1,0,0:0:0:0:
36,192,188544,1,0,0:0:0:0:
182,192,188544,1,0,0:0:0:0:
256,192,188544,1,0,0:0:0:0:
402,192,188544,1,0,0:0:0:0:
329,192,188630,1,0,0:0:0:0:
329,192,188716,1,0,0:0:0:0:
109,192,188716,1,0,0:0:0:0:
182,192,188716,1,0,0:0:0:0:
256,192,188802,1,0,0:0:0:0:
36,192,188802,1,0,0:0:0:0:
329,192,188887,1,0,0:0:0:0:
402,192,188887,1,0,0:0:0:0:
475,192,188887,1,0,0:0:0:0:
109,192,188887,1,0,0:0:0:0:
182,192,188887,1,0,0:0:0:0:
36,192,188973,1,0,0:0:0:0:
256,192,188973,1,0,0:0:0:0:
109,192,189059,1,0,0:0:0:0:
329,192,189059,1,0,0:0:0:0:
182,192,189144,1,0,0:0:0:0:
402,192,189144,1,0,0:0:0:0:
36,192,189230,1,0,0:0:0:0:
109,192,189230,1,0,0:0:0:0:
256,192,189230,1,0,0:0:0:0:
329,192,189230,1,0,0:0:0:0:
475,192,189230,1,0,0:0:0:0:
182,192,189316,1,0,0:0:0:0:
402,192,189316,1,0,0:0:0:0:
256,192,189402,1,0,0:0:0:0:
475,192,189402,1,0,0:0:0:0:
329,192,189487,1,0,0:0:0:0:
109,192,189487,1,0,0:0:0:0:
182,192,189573,1,0,0:0:0:0:
256,192,189573,1,0,0:0:0:0:
402,192,189573,1,0,0:0:0:0:
475,192,189573,1,0,0:0:0:0:
36,192,189573,1,0,0:0:0:0:
36,192,189916,1,0,0:0:0:0:
109,192,189916,1,0,0:0:0:0:
256,192,189916,1,0,0:0:0:0:
402,192,189916,1,0,0:0:0:0:
475,192,189916,1,0,0:0:0:0:
109,192,190259,1,0,0:0:0:0:
182,192,190259,1,0,0:0:0:0:
36,192,190259,128,0,190430:0:0:0:0:
329,192,190344,1,0,0:0:0:0:
402,192,190344,1,0,0:0:0:0:
182,192,190430,1,0,0:0:0:0:
256,192,190430,1,0,0:0:0:0:
109,192,190430,128,0,190602:0:0:0:0:
402,192,190516,1,0,0:0:0:0:
475,192,190516,1,0,0:0:0:0:
256,192,190602,1,0,0:0:0:0:
329,192,190602,1,0,0:0:0:0:
182,192,190602,128,0,190773:0:0:0:0:
36,192,190687,1,0,0:0:0:0:
109,192,190687,1,0,0:0:0:0:
329,192,190773,1,0,0:0:0:0:
402,192,190773,1,0,0:0:0:0:
256,192,190773,128,0,190944:0:0:0:0:
182,192,190859,1,0,0:0:0:0:
109,192,190859,1,0,0:0:0:0:
402,192,190944,1,0,0:0:0:0:
475,192,190944,1,0,0:0:0:0:
329,192,190944,128,0,191116:0:0:0:0:
256,192,191030,1,0,0:0:0:0:
182,192,191030,1,0,0:0:0:0:
475,192,191116,1,0,0:0:0:0:
36,192,191116,1,0,0:0:0:0:
402,192,191116,128,0,191287:0:0:0:0:
256,192,191202,1,0,0:0:0:0:
329,192,191202,1,0,0:0:0:0:
475,192,191287,128,0,191459:0:0:0:0:
36,192,191287,1,0,0:0:0:0:
182,192,191287,1,0,0:0:0:0:
109,192,191373,1,0,0:0:0:0:
329,192,191373,1,0,0:0:0:0:
182,192,191459,1,0,0:0:0:0:
402,192,191459,1,0,0:0:0:0:
256,192,191544,1,0,0:0:0:0:
475,192,191544,1,0,0:0:0:0:
36,192,191630,1,0,0:0:0:0:
109,192,191630,1,0,0:0:0:0:
329,192,191630,1,0,0:0:0:0:
402,192,191630,1,0,0:0:0:0:
182,192,191716,1,0,0:0:0:0:
256,192,191802,1,0,0:0:0:0:
109,192,191887,1,0,0:0:0:0:
329,192,191887,1,0,0:0:0:0:
36,192,191887,1,0,0:0:0:0:
475,192,191887,1,0,0:0:0:0:
182,192,191973,1,0,0:0:0:0:
256,192,192059,1,0,0:0:0:0:
329,192,192144,1,0,0:0:0:0:
402,192,192144,1,0,0:0:0:0:
475,192,192144,1,0,0:0:0:0:
109,192,192144,1,0,0:0:0:0:
36,192,192144,1,0,0:0:0:0:
36,192,192316,1,0,0:0:0:0:
182,192,192316,1,0,0:0:0:0:
256,192,192316,1,0,0:0:0:0:
475,192,192316,1,0,0:0:0:0:
402,192,192316,128,0,192487:0:0:0:0:
329,192,192487,128,0,192659:0:0:0:0:
109,192,192573,1,0,0:0:0:0:
256,192,192659,128,0,192830:0:0:0:0:
182,192,192830,128,0,192916:0:0:0:0:
402,192,192830,1,0,0:0:0:0:
109,192,192916,128,0,193002:0:0:0:0:
36,192,193002,1,0,0:0:0:0:
329,192,193002,1,0,0:0:0:0:
475,192,193002,1,0,0:0:0:0:
402,192,193002,1,0,0:0:0:0:
109,192,193087,1,0,0:0:0:0:
182,192,193087,1,0,0:0:0:0:
256,192,193087,1,0,0:0:0:0:
329,192,193173,1,0,0:0:0:0:
402,192,193173,1,0,0:0:0:0:
475,192,193173,1,0,0:0:0:0:
36,192,193259,1,0,0:0:0:0:
109,192,193259,1,0,0:0:0:0:
182,192,193259,1,0,0:0:0:0:
256,192,193259,1,0,0:0:0:0:
329,192,193344,1,0,0:0:0:0:
402,192,193344,1,0,0:0:0:0:
475,192,193344,1,0,0:0:0:0:
36,192,193430,1,0,0:0:0:0:
109,192,193430,1,0,0:0:0:0:
182,192,193430,1,0,0:0:0:0:
256,192,193516,1,0,0:0:0:0:
329,192,193516,1,0,0:0:0:0:
402,192,193516,1,0,0:0:0:0:
475,192,193516,1,0,0:0:0:0:
182,192,193602,1,0,0:0:0:0:
109,192,193602,1,0,0:0:0:0:
36,192,193602,1,0,0:0:0:0:
256,192,193687,1,0,0:0:0:0:
329,192,193687,1,0,0:0:0:0:
402,192,193687,128,0,193859:0:0:0:0:
475,192,193687,128,0,193859:0:0:0:0:
109,192,193859,128,0,194030:0:0:0:0:
182,192,193859,128,0,194030:0:0:0:0:
256,192,193944,1,0,0:0:0:0:
329,192,194030,128,0,194202:0:0:0:0:
402,192,194030,128,0,194202:0:0:0:0:
109,192,194202,128,0,194373:0:0:0:0:
36,192,194202,128,0,194373:0:0:0:0:
256,192,194202,1,0,0:0:0:0:
329,192,194287,1,0,0:0:0:0:
256,192,194373,1,0,0:0:0:0:
182,192,194373,1,0,0:0:0:0:
402,192,194373,1,0,0:0:0:0:
475,192,194373,1,0,0:0:0:0:
109,192,194459,1,0,0:0:0:0:
36,192,194459,1,0,0:0:0:0:
36,192,194544,1,0,0:0:0:0:
109,192,194544,1,0,0:0:0:0:
182,192,194630,1,0,0:0:0:0:
256,192,194630,1,0,0:0:0:0:
329,192,194630,1,0,0:0:0:0:
475,192,194630,1,0,0:0:0:0:
36,192,194716,1,0,0:0:0:0:
109,192,194716,1,0,0:0:0:0:
109,192,194802,1,0,0:0:0:0:
36,192,194802,1,0,0:0:0:0:
182,192,194887,1,0,0:0:0:0:
329,192,194887,1,0,0:0:0:0:
402,192,194887,1,0,0:0:0:0:
475,192,194887,1,0,0:0:0:0:
109,192,194973,1,0,0:0:0:0:
36,192,194973,1,0,0:0:0:0:
36,192,195059,1,0,0:0:0:0:
109,192,195059,1,0,0:0:0:0:
256,192,195059,1,0,0:0:0:0:
329,192,195059,1,0,0:0:0:0:
402,192,195059,1,0,0:0:0:0:
475,192,195059,1,0,0:0:0:0:
182,192,195230,1,0,0:0:0:0:
329,192,195230,1,0,0:0:0:0:
109,192,195316,1,0,0:0:0:0:
402,192,195316,1,0,0:0:0:0:
36,192,195402,128,0,195487:0:0:0:0:
475,192,195402,128,0,195487:0:0:0:0:
109,192,195487,128,0,195573:0:0:0:0:
402,192,195487,128,0,195573:0:0:0:0:
182,192,195573,128,0,195659:0:0:0:0:
329,192,195573,128,0,195659:0:0:0:0:
256,192,195659,128,0,195744:0:0:0:0:
36,192,195744,1,0,0:0:0:0:
109,192,195744,1,0,0:0:0:0:
402,192,195744,1,0,0:0:0:0:
475,192,195744,1,0,0:0:0:0:
