osu file format v14

[General]
AudioFilename: audio.mp3
AudioLeadIn: 0
PreviewTime: -1
Countdown: 0
SampleSet: Normal
StackLeniency: 0.7
Mode: 0
LetterboxInBreaks: 0
WidescreenStoryboard: 0

[Editor]
Bookmarks: 103083
DistanceSpacing: 0.4
BeatDivisor: 4
GridSize: 32
TimelineZoom: 1

[Metadata]
Title:Jingo Jungle - Group Cover [Polish Verision]
TitleUnicode:Jingo Jungle - Group Cover [Polish Verision]
Artist:Various Artists
ArtistUnicode:Various Artists
Creator:Dziuras
Version:Psycho
Source:Youjo Senki
Tags:
BeatmapID:2036319
BeatmapSetID:972605

[Difficulty]
HPDrainRate:4
CircleSize:3.5
OverallDifficulty:4
ApproachRate:8.5
SliderMultiplier:2.8
SliderTickRate:2

[Events]
//Background and Video events
//Break Periods
2,17897,19100
2,34744,41254
2,84590,87408
2,95667,102177
//Storyboard Layer 0 (Background)
//Storyboard Layer 1 (Fail)
//Storyboard Layer 2 (Pass)
//Storyboard Layer 3 (Foreground)
//Storyboard Layer 4 (Overlay)
//Storyboard Sound Samples

[TimingPoints]
3160,461.538461538462,4,1,0,100,1,0
6852,-66.6666666666667,4,1,0,100,0,0
6967,-66.6666666666667,4,2,0,5,0,0
7083,-66.6666666666667,4,1,0,100,0,0
7198,-66.6666666666667,4,2,0,5,0,0
7313,-66.6666666666667,4,1,0,100,0,0
7429,-66.6666666666667,4,2,0,5,0,0
7544,-66.6666666666667,4,1,0,100,0,0
7660,-66.6666666666667,4,2,0,5,0,0
7775,-100,4,1,0,100,0,0
8698,-66.6666666666667,4,1,0,100,0,0
8813,-66.6666666666667,4,2,0,5,0,0
8929,-66.6666666666667,4,1,0,100,0,0
9044,-66.6666666666667,4,2,0,5,0,0
9160,-66.6666666666667,4,1,0,100,0,0
9275,-66.6666666666667,4,2,0,5,0,0
9390,-66.6666666666667,4,1,0,100,0,0
9506,-66.6666666666667,4,2,0,5,0,0
9621,-100,4,1,0,100,0,0
14236,-66.6666666666667,4,1,0,100,0,0
14352,-66.6666666666667,4,2,0,5,0,0
14467,-66.6666666666667,4,1,0,100,0,0
14583,-66.6666666666667,4,2,0,5,0,0
14698,-66.6666666666667,4,1,0,100,0,0
14813,-66.6666666666667,4,2,0,5,0,0
14929,-66.6666666666667,4,1,0,100,0,0
15044,-66.6666666666667,4,2,0,5,0,0
15160,-100,4,1,0,100,0,0
16083,-66.6666666666667,4,1,0,100,0,0
16198,-66.6666666666667,4,2,0,5,0,0
16313,-66.6666666666667,4,1,0,100,0,0
16429,-66.6666666666667,4,2,0,5,0,0
16544,-66.6666666666667,4,1,0,100,0,0
16660,-66.6666666666667,4,2,0,5,0,0
16775,-66.6666666666667,4,1,0,100,0,0
16890,-66.6666666666667,4,2,0,5,0,0
17006,-100,4,1,0,100,0,0
41929,-133.333333333333,4,2,0,100,0,0
48275,-133.333333333333,4,2,0,5,0,0
48390,-133.333333333333,4,2,0,100,0,0
49198,-133.333333333333,4,2,0,5,0,0
49313,-66.6666666666667,4,2,0,100,0,0
49429,-66.6666666666667,4,2,0,5,0,0
49660,-66.6666666666667,4,2,0,100,0,0
49775,-66.6666666666667,4,2,0,5,0,0
50006,-66.6666666666667,4,2,0,100,0,0
50121,-66.6666666666667,4,2,0,5,0,0
50236,-66.6666666666667,4,2,0,100,0,0
50352,-66.6666666666667,4,2,0,5,0,0
51160,-100,4,1,0,100,0,0
69621,-66.6666666666667,4,1,0,100,0,0
69736,-66.6666666666667,4,2,0,5,0,0
69852,-66.6666666666667,4,1,0,100,0,0
69967,-66.6666666666667,4,2,0,5,0,0
70083,-66.6666666666667,4,1,0,100,0,0
70198,-66.6666666666667,4,2,0,5,0,0
70313,-66.6666666666667,4,1,0,100,0,0
70429,-66.6666666666667,4,2,0,5,0,0
70544,-100,4,1,0,100,0,0
71467,-66.6666666666667,4,1,0,100,0,0
71583,-66.6666666666667,4,2,0,5,0,0
71698,-66.6666666666667,4,1,0,100,0,0
71813,-66.6666666666667,4,2,0,5,0,0
71929,-66.6666666666667,4,1,0,100,0,0
72044,-66.6666666666667,4,2,0,5,0,0
72160,-66.6666666666667,4,1,0,100,0,0
72275,-66.6666666666667,4,2,0,5,0,0
72390,-100,4,1,0,100,0,0
77006,-66.6666666666667,4,1,0,100,0,0
77121,-66.6666666666667,4,2,0,5,0,0
77236,-66.6666666666667,4,1,0,100,0,0
77352,-66.6666666666667,4,2,0,5,0,0
77467,-66.6666666666667,4,1,0,100,0,0
77583,-66.6666666666667,4,2,0,5,0,0
77698,-66.6666666666667,4,1,0,100,0,0
77813,-66.6666666666667,4,2,0,5,0,0
77929,-100,4,1,0,100,0,0
78852,-66.6666666666667,4,1,0,100,0,0
78967,-66.6666666666667,4,2,0,5,0,0
79083,-66.6666666666667,4,1,0,100,0,0
79198,-66.6666666666667,4,2,0,5,0,0
79313,-66.6666666666667,4,1,0,100,0,0
79429,-66.6666666666667,4,2,0,5,0,0
79544,-66.6666666666667,4,1,0,100,0,0
79660,-66.6666666666667,4,2,0,5,0,0
79775,-100,4,1,0,100,0,0
82775,-133.333333333333,4,1,0,100,0,0
88083,-100,4,1,0,100,0,0
102852,-133.333333333333,4,2,0,100,0,0
109198,-133.333333333333,4,2,0,5,0,0
109313,-133.333333333333,4,2,0,100,0,0
110121,-133.333333333333,4,2,0,5,0,0
110236,-66.6666666666667,4,2,0,100,0,0
110352,-133.333333333333,4,2,0,5,0,0
110583,-66.6666666666667,4,2,0,100,0,0
110698,-133.333333333333,4,2,0,5,0,0
110929,-66.6666666666667,4,2,0,100,0,0
111044,-133.333333333333,4,2,0,5,0,0
111160,-66.6666666666667,4,2,0,100,0,0
111275,-133.333333333333,4,2,0,5,0,0
112083,-100,4,1,0,100,0,0

[HitObjects]
162,98,3160,5,2,0:0:0:0:
92,105,3390,2,0,P|113:151|196:194,1,140,0|2,0:0|0:0,0:0:0:0:
221,131,3852,1,0,0:0:0:0:
284,99,4083,2,0,P|305:145|258:240,1,140,2|0,0:0|0:0,0:0:0:0:
241,247,4429,1,0,0:0:0:0:
200,255,4544,1,10,0:0:0:0:
168,227,4660,1,0,0:0:0:0:
170,186,4775,2,0,P|214:156|181:84,1,140,0|2,0:0|0:0,0:0:0:0:
246,50,5236,6,0,P|292:71|335:154,1,140,0|2,0:0|0:0,0:0:0:0:
272,179,5698,1,0,0:0:0:0:
240,242,5929,6,0,P|286:263|381:216,1,140,2|0,0:0|0:0,0:0:0:0:
399,208,6275,1,0,0:0:0:0:
400,166,6390,1,10,0:0:0:0:
361,147,6506,1,0,0:0:0:0:
324,168,6621,1,0,0:0:0:0:
281,164,6852,6,0,P|209:143|164:120,1,105.000004005432,2|0,0:0|0:0,0:0:0:0:
181,133,7083,2,0,P|238:141|294:118,1,105.000004005432
281,132,7313,2,0,P|217:110|171:122,1,105.000004005432,2|0,0:0|0:0,0:0:0:0:
177,126,7544,2,0,P|224:142|280:128,1,105.000004005432
224,176,7775,2,0,P|186:223|227:291,1,140,2|0,0:0|0:0,0:0:0:0:
270,231,8121,1,0,0:0:0:0:
278,212,8236,2,0,P|323:179|285:137,1,70,10|0,0:0|0:0,0:0:0:0:
258,142,8467,1,0,0:0:0:0:
201,230,8698,6,0,P|257:235|302:258,1,105.000004005432,2|0,0:0|0:0,0:0:0:0:
301,261,8929,2,0,P|236:245|180:268,1,105.000004005432
201,262,9159,2,0,P|265:284|311:272,1,105.000004005432,2|0,0:0|0:0,0:0:0:0:
305,268,9390,2,0,P|258:252|202:266,1,105.000004005432
258,218,9621,2,0,P|296:171|255:103,1,140,2|0,0:0|0:0,0:0:0:0:
212,163,9967,1,0,0:0:0:0:
204,182,10082,2,0,P|159:215|197:257,1,70,10|0,0:0|0:0,0:0:0:0:
224,252,10313,1,0,0:0:0:0:
363,265,10544,5,2,0:0:0:0:
433,258,10775,2,0,P|404:211|329:169,1,140,0|2,0:0|0:0,0:0:0:0:
304,232,11236,1,0,0:0:0:0:
241,264,11467,2,0,P|220:218|267:123,1,140,2|0,0:0|0:0,0:0:0:0:
282,113,11813,1,0,0:0:0:0:
323,114,11928,1,10,0:0:0:0:
358,136,12044,1,0,0:0:0:0:
355,177,12159,2,0,P|311:207|344:279,1,140,0|2,0:0|0:0,0:0:0:0:
279,313,12621,6,0,P|233:292|190:209,1,140,0|2,0:0|0:0,0:0:0:0:
253,184,13082,1,0,0:0:0:0:
285,121,13313,6,0,P|239:100|144:147,1,140,2|0,0:0|0:0,0:0:0:0:
135,163,13659,1,0,0:0:0:0:
128,204,13774,1,10,0:0:0:0:
158,233,13890,1,0,0:0:0:0:
199,235,14005,1,0,0:0:0:0:
244,199,14236,6,0,P|300:204|345:227,1,105.000004005432,2|0,0:0|0:0,0:0:0:0:
344,230,14467,2,0,P|279:214|223:237,1,105.000004005432
244,231,14697,2,0,P|308:253|354:241,1,105.000004005432,2|0,0:0|0:0,0:0:0:0:
348,237,14928,2,0,P|301:221|245:235,1,105.000004005432
301,187,15160,2,0,P|339:140|298:72,1,140,2|0,0:0|0:0,0:0:0:0:
255,132,15505,1,0,0:0:0:0:
247,151,15620,2,0,P|202:184|240:226,1,70,10|0,0:0|0:0,0:0:0:0:
267,221,15851,1,0,0:0:0:0:
324,133,16082,6,0,P|252:112|207:89,1,105.000004005432,2|0,0:0|0:0,0:0:0:0:
224,102,16313,2,0,P|281:110|337:87,1,105.000004005432
324,101,16544,2,0,P|260:79|214:91,1,105.000004005432,2|0,0:0|0:0,0:0:0:0:
220,95,16774,2,0,P|267:111|323:97,1,105.000004005432
267,145,17006,2,0,P|229:192|270:260,1,140,2|0,0:0|0:0,0:0:0:0:
313,200,17351,1,0,0:0:0:0:
321,181,17467,2,0,P|366:148|328:106,1,70,10|0,0:0|0:0,0:0:0:0:
301,111,17697,1,0,0:0:0:0:
252,184,19775,5,10,0:0:0:0:
356,116,20006,1,0,0:0:0:0:
356,116,20121,1,0,0:0:0:0:
356,116,20236,2,0,P|380:192|364:255,1,140,2|0,0:0|0:0,0:0:0:0:
297,235,20583,1,0,0:0:0:0:
297,235,20698,2,0,P|220:205|204:174,1,70,2|0,0:0|0:0,0:0:0:0:
164,239,20929,2,0,P|231:299|322:297,1,140,0|2,0:0|0:0,0:0:0:0:
385,216,21390,1,0,0:0:0:0:
245,202,21621,5,2,0:0:0:0:
153,95,21852,2,0,P|111:90|91:129,1,70
96,116,22083,2,0,B|99:82|148:88|148:88|243:101,1,140,2|0,0:0|0:0,0:0:0:0:
289,101,22429,1,2,0:0:0:0:
286,135,22544,2,2,P|272:209|310:203,1,140
352,154,22890,1,0,0:0:0:0:
419,173,23006,2,2,P|433:99|395:105,1,140,2|0,0:0|0:0,0:0:0:0:
289,101,23467,5,2,0:0:0:0:
177,106,23698,1,0,0:0:0:0:
152,118,23813,1,0,0:0:0:0:
118,143,23929,2,0,P|173:216|243:221,1,140,2|0,0:0|0:0,0:0:0:0:
221,155,24390,1,2,0:0:0:0:
256,155,24506,1,8,0:0:0:0:
307,177,24621,1,0,0:0:0:0:
331,211,24736,1,0,0:0:0:0:
338,241,24852,2,0,P|272:281|207:277,1,140,2|0,0:0|0:0,0:0:0:0:
314,321,25313,5,2,0:0:0:0:
202,316,25544,1,0,0:0:0:0:
177,304,25659,1,0,0:0:0:0:
143,279,25775,2,0,P|198:206|268:201,1,140,2|0,0:0|0:0,0:0:0:0:
246,267,26236,1,2,0:0:0:0:
281,265,26352,1,8,0:0:0:0:
327,234,26467,1,0,0:0:0:0:
351,200,26582,1,0,0:0:0:0:
363,181,26698,2,0,P|297:141|232:145,1,140,2|0,0:0|0:0,0:0:0:0:
214,254,27160,5,10,0:0:0:0:
110,322,27391,1,0,0:0:0:0:
110,322,27506,1,0,0:0:0:0:
110,322,27621,2,0,P|86:246|102:183,1,140,2|0,0:0|0:0,0:0:0:0:
169,203,27968,1,0,0:0:0:0:
169,203,28083,2,0,P|246:233|262:264,1,70,2|0,0:0|0:0,0:0:0:0:
302,199,28314,2,0,P|235:139|144:141,1,140,0|2,0:0|0:0,0:0:0:0:
81,222,28775,1,0,0:0:0:0:
221,236,29006,5,2,0:0:0:0:
313,343,29237,2,0,P|347:340|367:301,1,70
370,322,29468,2,0,B|367:356|318:350|318:350|223:337,1,140,2|0,0:0|0:0,0:0:0:0:
177,337,29814,1,2,0:0:0:0:
180,303,29929,2,2,P|194:229|156:235,1,140
114,284,30275,1,0,0:0:0:0:
47,265,30391,2,2,P|33:339|71:333,1,140,2|0,0:0|0:0,0:0:0:0:
177,337,30852,5,2,0:0:0:0:
289,332,31083,1,0,0:0:0:0:
314,320,31198,1,0,0:0:0:0:
348,295,31314,2,0,P|293:222|223:217,1,140,2|0,0:0|0:0,0:0:0:0:
245,283,31775,1,2,0:0:0:0:
210,278,31890,1,8,0:0:0:0:
155,262,32006,1,0,0:0:0:0:
129,228,32121,1,0,0:0:0:0:
128,197,32237,2,0,P|194:157|259:161,1,140,2|0,0:0|0:0,0:0:0:0:
152,117,32698,5,2,0:0:0:0:
264,122,32929,1,0,0:0:0:0:
289,134,33044,1,0,0:0:0:0:
323,159,33160,2,0,P|268:232|198:237,1,140,2|0,0:0|0:0,0:0:0:0:
220,171,33621,1,2,0:0:0:0:
174,154,33736,1,8,0:0:0:0:
140,128,33852,1,0,0:0:0:0:
125,96,33967,1,0,0:0:0:0:
135,70,34083,1,2,0:0:0:0:
147,53,34198,1,0,0:0:0:0:
159,46,34313,1,0,0:0:0:0:
165,43,34429,1,0,0:0:0:0:
162,43,34544,1,2,0:0:0:0:
252,161,41929,5,4,0:0:0:0:
325,159,42160,1,0,0:0:0:0:
322,185,42275,1,0,0:0:0:0:
308,206,42390,2,0,P|263:247|216:265,1,105.000004005432
210,212,42736,2,0,P|172:230|181:264,1,52.5000020027161
185,301,43083,1,0,0:0:0:0:
159,298,43198,1,0,0:0:0:0:
138,284,43313,2,0,P|97:239|79:192,1,105.000004005432
130,179,43660,2,0,P|112:141|78:150,1,52.5000020027161,0|4,0:0|0:0,0:0:0:0:
53,143,44006,5,0,0:0:0:0:
56,117,44121,1,0,0:0:0:0:
70,96,44236,2,0,P|115:55|162:37,1,105.000004005432
175,88,44583,2,0,P|213:70|204:36,1,52.5000020027161
239,17,44929,1,0,0:0:0:0:
265,20,45044,1,0,0:0:0:0:
286,34,45159,2,0,P|327:79|345:126,1,105.000004005432
294,139,45506,2,0,P|312:177|346:168,1,52.5000020027161,0|4,0:0|0:0,0:0:0:0:
301,228,45852,5,0,0:0:0:0:
281,245,45967,1,0,0:0:0:0:
251,252,46083,2,0,P|180:235|176:188,1,105.000004005432
154,143,46429,2,0,B|146:135|142:131|101:139|81:170,1,52.5000020027161
154,143,46660,2,0,P|195:151|215:182,1,52.5000020027161
154,63,47006,2,0,P|221:58|280:68,1,105.000004005432
303,121,47467,5,0,0:0:0:0:
242,162,47698,1,0,0:0:0:0:
307,196,47929,2,0,P|376:210|410:140,1,157.500006008148
476,146,48390,2,0,P|474:226|230:203,1,367.500014019013
213,176,49313,6,0,P|151:186|103:158,1,105.000004005432,8|0,0:0|0:0,0:0:0:0:
120,177,49660,6,0,P|161:147|209:175,1,105.000004005432,8|0,0:0|0:0,0:0:0:0:
213,176,50006,6,0,P|159:175|95:169,1,105.000004005432,8|0,0:0|0:0,0:0:0:0:
108,174,50236,2,0,P|158:171|222:177,1,105.000004005432,8|0,0:0|0:0,0:0:0:0:
252,179,51160,6,0,P|330:164|333:99,1,140,8|2,0:0|0:0,0:0:0:0:
271,94,51506,1,0,0:0:0:0:
271,94,51621,2,0,P|221:78|186:110,1,70,8|0,0:0|0:0,0:0:0:0:
154,130,51852,2,0,P|128:163|136:211,1,70,2|0,0:0|0:0,0:0:0:0:
172,243,52083,2,0,P|233:288|323:273,1,140,8|2,0:0|0:0,0:0:0:0:
289,216,52429,1,0,0:0:0:0:
289,216,52544,2,0,P|291:175|326:151,1,70,8|0,0:0|0:0,0:0:0:0:
373,124,52775,2,0,P|363:78|291:54,1,70,2|0,0:0|0:0,0:0:0:0:
282,88,53006,5,8,0:0:0:0:
282,88,53121,1,0,0:0:0:0:
282,88,53236,2,0,P|272:126|227:153,1,70,2|0,0:0|0:0,0:0:0:0:
144,141,53467,2,0,P|154:179|199:206,1,70,8|0,0:0|0:0,0:0:0:0:
281,203,53698,2,0,P|271:241|226:268,1,70,2|0,0:0|0:0,0:0:0:0:
143,252,53929,2,0,P|153:290|245:328,1,140,8|2,0:0|0:0,0:0:0:0:
298,293,54275,1,0,0:0:0:0:
242,250,54390,2,0,P|188:205|187:189,1,70,8|0,0:0|0:0,0:0:0:0:
258,194,54621,2,0,P|209:146|177:143,1,70,2|0,0:0|0:0,0:0:0:0:
144,171,54852,6,0,P|149:87|212:74,1,140,8|2,0:0|0:0,0:0:0:0:
257,95,55198,1,0,0:0:0:0:
257,95,55313,2,0,P|323:128|325:165,1,70,8|0,0:0|0:0,0:0:0:0:
263,163,55544,2,0,P|334:198|359:191,1,70,2|0,0:0|0:0,0:0:0:0:
383,166,55775,2,0,P|390:249|346:305,1,140,8|2,0:0|0:0,0:0:0:0:
290,302,56121,1,0,0:0:0:0:
290,302,56236,2,8,P|206:291|194:265,1,70,8|0,0:0|0:0,0:0:0:0:
250,240,56467,2,0,P|181:233|158:281,1,70,2|0,0:0|0:0,0:0:0:0:
81,247,56698,6,0,P|61:204|75:170,1,70,8|0,0:0|0:0,0:0:0:0:
166,214,56929,2,0,P|186:171|172:137,1,70,2|0,0:0|0:0,0:0:0:0:
78,175,57160,2,0,P|58:132|72:98,1,70,8|0,0:0|0:0,0:0:0:0:
162,144,57390,2,0,P|182:101|168:67,1,70,2|0,0:0|0:0,0:0:0:0:
232,37,57621,2,0,P|305:43|373:103,1,140,8|2,0:0|0:0,0:0:0:0:
371,149,57967,1,0,0:0:0:0:
371,149,58083,2,0,P|362:224|347:236,1,70,8|0,0:0|0:0,0:0:0:0:
305,184,58313,2,0,P|297:263|314:277,1,70,2|0,0:0|0:0,0:0:0:0:
358,254,58544,6,0,P|300:331|250:332,1,140,8|2,0:0|0:0,0:0:0:0:
228,273,58890,1,0,0:0:0:0:
228,273,59006,2,0,P|147:267|120:243,1,70,8|0,0:0|0:0,0:0:0:0:
193,212,59236,2,0,P|123:187|106:200,1,70,2|0,0:0|0:0,0:0:0:0:
161,117,59467,1,8,0:0:0:0:
161,117,59583,1,0,0:0:0:0:
161,117,59698,2,0,P|204:86|235:97,1,70,2|0,0:0|0:0,0:0:0:0:
281,118,59929,2,0,P|359:139|387:110,1,70,8|0,0:0|0:0,0:0:0:0:
350,74,60160,2,0,P|413:108|420:142,1,70,2|0,0:0|0:0,0:0:0:0:
403,172,60390,5,8,0:0:0:0:
403,172,60506,1,0,0:0:0:0:
403,172,60621,2,0,P|380:245|339:255,1,70,2|0,0:0|0:0,0:0:0:0:
286,214,60852,2,0,P|309:287|350:297,1,70,10|0,0:0|0:0,0:0:0:0:
404,274,61083,2,0,P|381:347|340:357,1,70,2|0,0:0|0:0,0:0:0:0:
287,358,61313,2,0,P|235:353|189:310,1,70,10|0,0:0|0:0,0:0:0:0:
221,274,61544,1,2,0:0:0:0:
221,274,61660,1,0,0:0:0:0:
221,274,61775,2,0,P|142:256|129:244,1,70,8|0,0:0|0:0,0:0:0:0:
96,221,62006,2,0,P|180:201|192:213,1,70,2|0,0:0|0:0,0:0:0:0:
215,105,62236,6,0,P|289:59|314:59,1,70,8|0,0:0|0:0,0:0:0:0:
269,168,62467,2,0,P|343:214|368:214,1,70,2|0,0:0|0:0,0:0:0:0:
309,105,62698,2,0,P|383:59|408:59,1,70,8|0,0:0|0:0,0:0:0:0:
366,168,62929,2,0,P|440:214|465:214,1,70,2|0,0:0|0:0,0:0:0:0:
432,104,63160,2,0,P|484:165|493:230,1,140,8|2,0:0|0:0,0:0:0:0:
433,259,63506,1,0,0:0:0:0:
433,259,63621,2,0,P|365:292|344:292,1,70,8|0,0:0|0:0,0:0:0:0:
363,221,63852,2,0,P|294:237|271:275,1,70,2|0,0:0|0:0,0:0:0:0:
225,311,64083,6,0,P|170:268|166:253,1,70,8|0,0:0|0:0,0:0:0:0:
273,249,64313,2,0,P|328:206|332:191,1,70,2|0,0:0|0:0,0:0:0:0:
223,185,64544,2,0,P|168:142|164:127,1,70,8|0,0:0|0:0,0:0:0:0:
273,128,64775,2,0,P|328:85|332:70,1,70,2|0,0:0|0:0,0:0:0:0:
263,56,65006,2,0,P|165:47|107:72,1,140,8|2,0:0|0:0,0:0:0:0:
95,122,65352,1,0,0:0:0:0:
95,122,65467,2,0,P|84:198|92:214,1,70,8|0,0:0|0:0,0:0:0:0:
149,171,65698,2,0,P|152:251|130:274,1,70,2|0,0:0|0:0,0:0:0:0:
219,271,65929,5,2,0:0:0:0:
226,341,66159,2,0,P|272:320|315:237,1,140,0|2,0:0|0:0,0:0:0:0:
252,212,66621,1,0,0:0:0:0:
220,149,66852,2,0,P|266:128|361:175,1,140,2|0,0:0|0:0,0:0:0:0:
370,190,67198,1,0,0:0:0:0:
375,231,67313,1,10,0:0:0:0:
348,263,67429,1,0,0:0:0:0:
307,263,67544,2,0,P|277:219|205:252,1,140,0|2,0:0|0:0,0:0:0:0:
171,187,68005,6,0,P|192:141|275:98,1,140,0|2,0:0|0:0,0:0:0:0:
300,161,68467,1,0,0:0:0:0:
363,193,68698,6,0,P|384:147|337:52,1,140,2|0,0:0|0:0,0:0:0:0:
317,49,69044,1,0,0:0:0:0:
276,37,69159,1,10,0:0:0:0:
243,63,69275,1,0,0:0:0:0:
256,102,69390,1,0,0:0:0:0:
285,152,69621,6,0,P|264:208|241:253,1,105.000004005432,2|0,0:0|0:0,0:0:0:0:
254,252,69852,2,0,P|262:187|239:131,1,105.000004005432
253,152,70082,2,0,P|231:216|243:262,1,105.000004005432,2|0,0:0|0:0,0:0:0:0:
247,256,70313,2,0,P|263:209|249:153,1,105.000004005432
297,209,70544,2,0,P|344:247|412:206,1,140,2|0,0:0|0:0,0:0:0:0:
352,163,70890,1,0,0:0:0:0:
333,155,71005,2,0,P|300:110|258:148,1,70,10|0,0:0|0:0,0:0:0:0:
263,175,71236,1,0,0:0:0:0:
351,232,71467,6,0,P|356:160|379:115,1,105.000004005432,2|0,0:0|0:0,0:0:0:0:
382,132,71698,2,0,P|366:189|389:245,1,105.000004005432
383,232,71928,2,0,P|405:168|393:122,1,105.000004005432,2|0,0:0|0:0,0:0:0:0:
389,128,72159,2,0,P|373:175|387:231,1,105.000004005432
339,175,72390,2,0,P|292:137|224:178,1,140,2|0,0:0|0:0,0:0:0:0:
284,221,72736,1,0,0:0:0:0:
303,229,72851,2,0,P|336:274|378:236,1,70,10|0,0:0|0:0,0:0:0:0:
373,209,73082,1,0,0:0:0:0:
386,70,73313,5,2,0:0:0:0:
379,0,73544,2,0,P|332:29|290:104,1,140,0|2,0:0|0:0,0:0:0:0:
353,129,74005,1,0,0:0:0:0:
385,192,74236,2,0,P|339:213|244:166,1,140,2|0,0:0|0:0,0:0:0:0:
237,148,74582,1,0,0:0:0:0:
236,106,74697,1,10,0:0:0:0:
257,69,74813,1,0,0:0:0:0:
298,78,74929,2,0,P|328:122|400:89,1,140,0|2,0:0|0:0,0:0:0:0:
434,154,75390,6,0,P|413:200|330:243,1,140,0|2,0:0|0:0,0:0:0:0:
305,180,75851,1,0,0:0:0:0:
242,148,76082,6,0,P|221:194|268:289,1,140,2|0,0:0|0:0,0:0:0:0:
286,293,76428,1,0,0:0:0:0:
326,301,76543,1,10,0:0:0:0:
357,272,76659,1,0,0:0:0:0:
337,235,76774,1,0,0:0:0:0:
320,189,77006,6,0,P|325:117|348:72,1,105.000004005432,2|0,0:0|0:0,0:0:0:0:
351,89,77236,2,0,P|335:146|358:202,1,105.000004005432
352,189,77467,2,0,P|374:125|362:79,1,105.000004005432,2|0,0:0|0:0,0:0:0:0:
358,85,77697,2,0,P|342:132|356:188,1,105.000004005432
308,132,77929,2,0,P|261:94|193:135,1,140,2|0,0:0|0:0,0:0:0:0:
253,178,78274,1,0,0:0:0:0:
272,186,78390,2,0,P|305:231|347:193,1,70,10|0,0:0|0:0,0:0:0:0:
342,166,78620,1,0,0:0:0:0:
254,109,78852,6,0,P|233:165|210:210,1,105.000004005432,2|0,0:0|0:0,0:0:0:0:
223,209,79082,2,0,P|231:144|208:88,1,105.000004005432
222,109,79313,2,0,P|200:173|212:219,1,105.000004005432,2|0,0:0|0:0,0:0:0:0:
216,213,79544,2,0,P|232:166|218:110,1,105.000004005432
266,166,79775,2,0,P|313:204|381:163,1,140,2|0,0:0|0:0,0:0:0:0:
321,120,80120,1,0,0:0:0:0:
286,113,80236,1,10,0:0:0:0:
250,112,80352,1,0,0:0:0:0:
216,119,80467,1,0,0:0:0:0:
186,138,80583,1,0,0:0:0:0:
159,160,80698,5,2,0:0:0:0:
173,183,81160,5,2,0:0:0:0:
189,205,81621,5,2,0:0:0:0:
206,226,82083,5,2,0:0:0:0:
223,247,82544,5,2,0:0:0:0:
289,223,82775,2,0,P|366:184|395:159,2,105.000004005432,0|2|0,0:0|0:0|0:0,0:0:0:0:
250,160,83467,2,0,P|228:105|123:72,1,157.500006008148,2|0,0:0|0:0,0:0:0:0:
108,105,83929,1,2,0:0:0:0:
70,205,84160,2,0,P|109:261|182:260,1,105.000004005432,0|2,0:0|0:0,0:0:0:0:
253,76,88083,6,0,P|183:92|180:157,1,140
262,179,88544,2,0,P|350:171|326:106,1,140
185,109,89006,1,0,0:0:0:0:
145,198,89236,1,0,0:0:0:0:
169,211,89352,1,0,0:0:0:0:
266,219,89583,1,0,0:0:0:0:
292,210,89698,1,0,0:0:0:0:
385,189,89929,6,0,P|369:119|304:116,1,140
282,198,90390,2,0,P|290:286|355:262,1,140
352,121,90852,1,0,0:0:0:0:
263,81,91082,1,0,0:0:0:0:
250,105,91198,1,0,0:0:0:0:
242,202,91429,1,0,0:0:0:0:
251,228,91544,1,0,0:0:0:0:
280,317,91775,6,0,P|350:301|353:236,1,140
271,214,92236,2,0,P|183:222|207:287,1,140
348,284,92698,1,0,0:0:0:0:
388,195,92928,1,0,0:0:0:0:
364,182,93044,1,0,0:0:0:0:
267,174,93275,1,0,0:0:0:0:
241,183,93390,1,0,0:0:0:0:
150,212,93621,6,0,P|166:282|231:285,1,140
253,203,94082,2,0,P|245:115|180:139,1,140
183,280,94544,1,0,0:0:0:0:
272,320,94774,1,0,0:0:0:0:
285,296,94890,1,0,0:0:0:0:
293,199,95121,1,0,0:0:0:0:
284,173,95236,1,0,0:0:0:0:
236,90,95467,1,0,0:0:0:0:
260,223,102852,5,4,0:0:0:0:
187,225,103083,1,0,0:0:0:0:
190,199,103198,1,0,0:0:0:0:
204,178,103313,2,0,P|249:137|296:119,1,105.000004005432
302,172,103659,2,0,P|340:154|331:120,1,52.5000020027161
327,83,104006,1,0,0:0:0:0:
353,86,104121,1,0,0:0:0:0:
374,100,104236,2,0,P|415:145|433:192,1,105.000004005432
382,205,104583,2,0,P|400:243|434:234,1,52.5000020027161,0|4,0:0|0:0,0:0:0:0:
459,241,104929,5,0,0:0:0:0:
456,267,105044,1,0,0:0:0:0:
442,288,105159,2,0,P|397:329|350:347,1,105.000004005432
337,296,105506,2,0,P|299:314|308:348,1,52.5000020027161
273,367,105852,1,0,0:0:0:0:
247,364,105967,1,0,0:0:0:0:
226,350,106082,2,0,P|185:305|167:258,1,105.000004005432
218,245,106429,2,0,P|200:207|166:216,1,52.5000020027161,0|4,0:0|0:0,0:0:0:0:
211,156,106775,5,0,0:0:0:0:
231,139,106890,1,0,0:0:0:0:
261,132,107006,2,0,P|332:149|336:196,1,105.000004005432
358,241,107352,2,0,B|366:249|370:253|411:245|431:214,1,52.5000020027161
358,241,107583,2,0,P|317:233|297:202,1,52.5000020027161
358,321,107929,2,0,P|291:326|232:316,1,105.000004005432
209,263,108390,5,0,0:0:0:0:
270,222,108621,1,0,0:0:0:0:
205,188,108852,2,0,P|136:174|102:244,1,157.500006008148
36,238,109313,2,0,P|38:158|282:181,1,367.500014019013
299,208,110236,6,0,P|337:174|385:202,1,105.000004005432,8|0,0:0|0:0,0:0:0:0:
392,207,110583,6,0,P|335:221|287:193,1,105.000004005432,8|0,0:0|0:0,0:0:0:0:
299,208,110929,6,0,P|345:201|409:207,1,105.000004005432,8|0,0:0|0:0,0:0:0:0:
404,210,111160,2,0,P|354:213|290:207,1,105.000004005432,8|0,0:0|0:0,0:0:0:0:
260,205,112083,6,0,P|182:220|179:285,1,140,8|2,0:0|0:0,0:0:0:0:
241,290,112429,1,0,0:0:0:0:
241,290,112544,2,0,P|291:306|326:274,1,70,8|0,0:0|0:0,0:0:0:0:
358,254,112775,2,0,P|384:221|376:173,1,70,2|0,0:0|0:0,0:0:0:0:
340,141,113006,2,0,P|279:96|189:111,1,140,8|2,0:0|0:0,0:0:0:0:
223,168,113352,1,0,0:0:0:0:
223,168,113467,2,0,P|221:209|186:233,1,70,8|0,0:0|0:0,0:0:0:0:
139,260,113698,2,0,P|149:306|221:330,1,70,2|0,0:0|0:0,0:0:0:0:
230,296,113929,5,8,0:0:0:0:
230,296,114044,1,0,0:0:0:0:
230,296,114159,2,0,P|240:258|285:231,1,70,2|0,0:0|0:0,0:0:0:0:
368,243,114390,2,0,P|358:205|313:178,1,70,8|0,0:0|0:0,0:0:0:0:
231,181,114621,2,0,P|241:143|286:116,1,70,2|0,0:0|0:0,0:0:0:0:
369,132,114852,2,0,P|359:94|267:56,1,140,8|2,0:0|0:0,0:0:0:0:
214,91,115198,1,0,0:0:0:0:
270,134,115313,2,0,P|324:179|325:195,1,70,8|0,0:0|0:0,0:0:0:0:
254,190,115544,2,0,P|303:238|335:241,1,70,2|0,0:0|0:0,0:0:0:0:
368,213,115775,6,0,P|363:297|300:310,1,140,8|2,0:0|0:0,0:0:0:0:
255,289,116121,1,0,0:0:0:0:
255,289,116236,2,0,P|189:256|187:219,1,70,8|0,0:0|0:0,0:0:0:0:
249,221,116467,2,0,P|178:186|153:193,1,70,2|0,0:0|0:0,0:0:0:0:
129,218,116698,2,0,P|122:135|166:79,1,140,8|2,0:0|0:0,0:0:0:0:
222,82,117044,1,0,0:0:0:0:
222,82,117159,2,8,P|306:93|318:119,1,70,8|0,0:0|0:0,0:0:0:0:
262,144,117390,2,0,P|331:151|354:103,1,70,2|0,0:0|0:0,0:0:0:0:
431,137,117621,6,0,P|451:180|437:214,1,70,8|0,0:0|0:0,0:0:0:0:
346,170,117852,2,0,P|326:213|340:247,1,70,2|0,0:0|0:0,0:0:0:0:
434,209,118083,2,0,P|454:252|440:286,1,70,8|0,0:0|0:0,0:0:0:0:
350,240,118313,2,0,P|330:283|344:317,1,70,2|0,0:0|0:0,0:0:0:0:
280,347,118544,2,0,P|207:341|139:281,1,140,8|2,0:0|0:0,0:0:0:0:
141,235,118890,1,0,0:0:0:0:
141,235,119006,2,0,P|150:160|165:148,1,70,8|0,0:0|0:0,0:0:0:0:
207,200,119236,2,0,P|215:121|198:107,1,70,2|0,0:0|0:0,0:0:0:0:
154,130,119467,6,0,P|212:53|262:52,1,140,8|2,0:0|0:0,0:0:0:0:
284,111,119813,1,0,0:0:0:0:
284,111,119929,2,0,P|365:117|392:141,1,70,8|0,0:0|0:0,0:0:0:0:
319,172,120159,2,0,P|389:197|406:184,1,70,2|0,0:0|0:0,0:0:0:0:
351,267,120390,1,8,0:0:0:0:
351,267,120506,1,0,0:0:0:0:
351,267,120621,2,0,P|308:298|277:287,1,70,2|0,0:0|0:0,0:0:0:0:
231,266,120852,2,0,P|153:245|125:274,1,70,8|0,0:0|0:0,0:0:0:0:
162,310,121083,2,0,P|99:276|92:242,1,70,2|0,0:0|0:0,0:0:0:0:
109,212,121313,5,8,0:0:0:0:
109,212,121429,1,0,0:0:0:0:
109,212,121544,2,0,P|132:139|173:129,1,70,2|0,0:0|0:0,0:0:0:0:
226,170,121775,2,0,P|203:97|162:87,1,70,10|0,0:0|0:0,0:0:0:0:
108,110,122006,2,0,P|131:37|172:27,1,70,2|0,0:0|0:0,0:0:0:0:
225,26,122236,2,0,P|277:31|323:74,1,70,10|0,0:0|0:0,0:0:0:0:
291,110,122467,1,2,0:0:0:0:
291,110,122583,1,0,0:0:0:0:
291,110,122698,2,0,P|370:128|383:140,1,70,8|0,0:0|0:0,0:0:0:0:
416,163,122929,2,0,P|332:183|320:171,1,70,2|0,0:0|0:0,0:0:0:0:
297,279,123159,6,0,P|223:325|198:325,1,70,8|0,0:0|0:0,0:0:0:0:
243,216,123390,2,0,P|169:170|144:170,1,70,2|0,0:0|0:0,0:0:0:0:
203,279,123621,2,0,P|129:325|104:325,1,70,8|0,0:0|0:0,0:0:0:0:
146,216,123852,2,0,P|72:170|47:170,1,70,2|0,0:0|0:0,0:0:0:0:
80,280,124083,2,0,P|28:219|19:154,1,140,8|2,0:0|0:0,0:0:0:0:
79,125,124429,1,0,0:0:0:0:
79,125,124544,2,0,P|147:92|168:92,1,70,8|0,0:0|0:0,0:0:0:0:
149,163,124775,2,0,P|218:147|241:109,1,70,2|0,0:0|0:0,0:0:0:0:
287,73,125006,6,0,P|342:116|346:131,1,70,8|0,0:0|0:0,0:0:0:0:
239,135,125236,2,0,P|184:178|180:193,1,70,2|0,0:0|0:0,0:0:0:0:
289,199,125467,2,0,P|344:242|348:257,1,70,8|0,0:0|0:0,0:0:0:0:
239,256,125698,2,0,P|184:299|180:314,1,70,2|0,0:0|0:0,0:0:0:0:
249,328,125929,2,0,P|347:337|405:312,1,140,8|2,0:0|0:0,0:0:0:0:
417,262,126275,1,0,0:0:0:0:
417,262,126390,2,0,P|428:186|420:170,1,70,8|0,0:0|0:0,0:0:0:0:
363,213,126621,2,0,P|360:133|382:110,1,70,2|0,0:0|0:0,0:0:0:0:
293,113,126852,5,2,0:0:0:0:
283,42,127198,1,0,0:0:0:0:
207,113,127313,2,0,P|214:184|256:241,1,140
332,263,127890,1,0,0:0:0:0:
382,203,128236,1,0,0:0:0:0:
340,97,128467,1,0,0:0:0:0:
235,161,128698,5,2,0:0:0:0:
307,177,129044,1,0,0:0:0:0:
223,246,129159,2,0,P|153:229|103:179,1,140
92,101,129736,1,0,0:0:0:0:
159,60,130082,1,0,0:0:0:0:
258,116,130313,1,0,0:0:0:0:
184,226,130544,5,2,0:0:0:0:
194,297,130890,1,0,0:0:0:0:
270,226,131005,2,0,P|263:155|221:98,1,140
145,76,131582,1,0,0:0:0:0:
95,136,131928,1,0,0:0:0:0:
137,242,132159,1,0,0:0:0:0:
242,178,132390,5,2,0:0:0:0:
170,162,132736,1,0,0:0:0:0:
254,93,132851,2,0,P|324:110|374:160,1,140
385,238,133428,1,0,0:0:0:0:
318,279,133774,1,0,0:0:0:0:
219,223,134005,1,0,0:0:0:0:
