osu file format v14

[General]
AudioFilename: audio.mp3
AudioLeadIn: 0
PreviewTime: 57437
Countdown: 0
SampleSet: Soft
StackLeniency: 0.7
Mode: 0
LetterboxInBreaks: 0
WidescreenStoryboard: 1

[Editor]
Bookmarks: 162031
DistanceSpacing: 1
BeatDivisor: 4
GridSize: 8
TimelineZoom: 1.9

[Metadata]
Title:Isekai Quartet
TitleUnicode:異世界かるてっと
Artist:Various Artists
ArtistUnicode:Various Artists
Creator:ZeRo2z2
Version:Hard
Source:異世界かるてっと
Tags:OverLord Re:Zero − Starting Life in Another World konosuba op opening Kono Subarashii Sekai ni Shukufuku wo! youjo senki
BeatmapID:2194571
BeatmapSetID:1050089

[Difficulty]
HPDrainRate:5
CircleSize:3.8
OverallDifficulty:7
ApproachRate:7.5
SliderMultiplier:1.4
SliderTickRate:1

[Events]
//Background and Video events
0,0,"1014517.jpg",0,0
//Break Periods
2,41135,50245
2,109243,118353
2,138837,142272
2,174313,178353
//Storyboard Layer 0 (Background)
//Storyboard Layer 1 (Fail)
//Storyboard Layer 2 (Pass)
//Storyboard Layer 3 (Foreground)
//Storyboard Layer 4 (Overlay)
//Storyboard Sound Samples

[TimingPoints]
800,405.405405405405,4,2,0,60,1,0
800,-100,4,2,0,60,0,0
4043,-100,4,3,0,60,0,0
4448,-100,4,3,0,65,0,0
4854,-100,4,3,0,70,0,0
5259,-100,4,3,0,75,0,0
5664,-100,4,2,0,75,0,0
7286,-100,4,2,2,75,0,0
8097,-100,4,2,1,60,0,0
8299,-100,4,2,2,60,0,0
15394,-100,4,2,0,50,0,0
20259,-100,4,1,2,60,0,0
21881,-100,4,2,0,60,0,0
26745,-100,4,2,2,60,0,0
27759,-100,4,2,0,55,0,0
30698,-100,4,2,0,15,0,0
30799,-100,4,2,0,55,0,0
34347,-100,4,2,0,5,0,0
34448,-100,4,2,0,50,0,0
35968,-100,4,2,0,5,0,0
36070,-100,4,2,0,50,0,0
39718,-100,4,1,2,50,0,0
51070,-100,4,2,0,50,0,0
51779,-100,4,2,0,5,0,0
51881,-100,4,2,0,55,0,0
52590,-100,4,2,0,5,0,0
52691,-100,4,2,0,60,0,0
53401,-100,4,2,0,5,0,0
53502,-100,4,2,0,65,0,0
54212,-100,4,2,0,5,0,0
54313,-100,4,2,0,68,0,0
57151,-100,4,2,3,68,0,0
57556,-66.6666666666667,4,2,0,75,0,1
59482,-66.6666666666667,4,2,0,5,0,1
59583,-66.6666666666667,4,2,0,75,0,1
62421,-100,4,2,0,75,0,1
62725,-100,4,2,0,5,0,1
62827,-100,4,2,0,75,0,1
63131,-100,4,2,0,5,0,1
63232,-100,4,2,0,75,0,1
63536,-100,4,2,0,5,0,1
63637,-100,4,2,0,75,0,1
63941,-100,4,2,0,5,0,1
64043,-66.6666666666667,4,2,0,75,0,1
66678,-100,4,2,0,75,0,1
67286,-66.6666666666667,4,2,0,75,0,1
70529,-100,4,2,0,60,0,0
73772,-100,4,3,0,60,0,0
74178,-100,4,3,0,65,0,0
74583,-100,4,3,0,70,0,0
74989,-100,4,3,0,75,0,0
75394,-100,4,2,0,75,0,0
77421,-100,4,2,0,75,0,0
77725,-100,4,2,0,5,0,0
77827,-100,4,2,2,75,0,0
83502,-100,4,2,0,50,0,0
85833,-100,4,2,2,50,0,0
85935,-100,4,2,0,50,0,0
88367,-100,4,1,2,50,0,0
95867,-100,4,2,0,50,0,0
98806,-100,4,2,0,5,0,0
98908,-100,4,2,0,50,0,0
102455,-100,4,2,0,5,0,0
102555,-100,4,2,0,50,0,0
107827,-100,4,1,2,50,0,0
119178,-100,4,2,0,50,0,0
119887,-100,4,2,0,5,0,0
119989,-100,4,2,0,55,0,0
120698,-100,4,2,0,5,0,0
120799,-100,4,2,0,60,0,0
121509,-100,4,2,0,5,0,0
121610,-100,4,2,0,65,0,0
122320,-100,4,2,0,5,0,0
122421,-100,4,2,0,70,0,0
125259,-100,4,2,3,70,0,0
125664,-66.6666666666667,4,2,0,75,0,1
130529,-100,4,2,0,75,0,1
130833,-100,4,2,0,5,0,1
130935,-100,4,2,0,75,0,1
131239,-100,4,2,0,5,0,1
131340,-100,4,2,0,75,0,1
131644,-100,4,2,0,5,0,1
131745,-100,4,2,0,75,0,1
132049,-100,4,2,0,5,0,1
132151,-66.6666666666667,4,2,0,75,0,1
134786,-100,4,2,0,75,0,1
135394,-66.6666666666667,4,2,0,75,0,1
137016,-222.222222222222,4,2,0,75,0,1
138637,-100,4,2,0,50,0,0
143502,-100,4,2,0,30,0,0
144718,-100,4,2,0,40,0,0
147151,-100,4,2,0,45,0,0
147556,-100,4,2,0,50,0,0
147962,-100,4,2,0,55,0,0
148367,-100,4,2,0,60,0,0
148772,-100,4,2,0,65,0,0
149178,-100,4,2,0,70,0,0
149583,-100,4,2,0,75,0,0
149989,-100,4,3,2,75,0,0
150191,-100,4,2,0,60,0,0
154854,-100,4,2,2,60,0,0
156171,-100,4,2,0,60,0,0
156475,-100,4,2,2,60,0,0
157286,-100,4,2,0,60,0,0
161340,-133.333333333333,4,2,0,60,0,0
162049,-133.333333333333,4,2,0,5,0,0
162151,-133.333333333333,4,2,0,60,0,0
163164,-133.333333333333,4,2,0,45,0,0
166205,-133.333333333333,4,2,0,30,0,0
166408,-133.333333333333,4,2,0,45,0,0
169651,-133.333333333333,4,2,0,30,0,0
170056,-133.333333333333,4,2,0,40,0,0
170462,-133.333333333333,4,2,0,50,0,0
170867,-133.333333333333,4,2,0,65,0,0
171070,-250,4,2,0,65,0,0
173097,-250,4,2,0,20,0,0
179178,-66.6666666666667,4,1,2,65,0,0
180799,-66.6666666666667,4,2,0,75,0,1
186374,-66.6666666666667,4,2,0,5,0,1
186475,-66.6666666666667,4,2,0,75,0,1
192455,-66.6666666666667,4,2,0,5,0,1
192556,-66.6666666666667,4,2,0,75,0,1
192860,-66.6666666666667,4,2,0,5,0,1
192962,-66.6666666666667,4,2,0,75,0,1
193266,-66.6666666666667,4,2,0,5,0,1
193367,-66.6666666666667,4,2,0,75,0,1
193671,-66.6666666666667,4,2,0,5,0,1
193772,-66.6666666666667,4,2,0,75,0,1
196610,-133.333333333333,4,2,0,75,0,1
197827,-76.9230769230769,4,2,0,75,0,1
200259,-100,4,2,0,60,0,0
206745,-100,4,2,2,60,0,0
209989,-100,4,2,2,60,0,0
219313,-100,4,3,2,60,0,0

[Colours]
Combo1 : 0,128,0
Combo2 : 128,0,255
Combo3 : 255,255,0
Combo4 : 255,128,0

[HitObjects]
115,223,800,6,0,P|112:258|122:292,2,70
221,55,1408,2,2,B|240:134|190:118|208:194,1,140
251,292,2016,2,0,P|273:247|275:216,1,70
290,138,2421,6,0,P|328:119|367:129,1,70
347,285,2827,1,0,0:0:0:0:
231,384,3029,2,2,B|250:305|200:321|218:245,1,140
265,165,3637,2,0,P|287:213|318:240,1,70,4|0,0:0|0:0,0:0:0:0:
492,255,4043,6,0,L|518:291,3,35
488,180,4448,2,0,L|514:144,3,35
412,181,4854,2,0,L|386:145,3,35
421,253,5259,2,0,L|390:285,3,35
502,147,5664,1,12,0:0:0:0:
239,50,7286,5,8,0:0:0:0:
120,134,7590,1,8,0:0:0:0:
253,194,7894,1,8,0:0:0:0:
204,125,8097,1,4,0:0:0:0:
145,228,8299,1,8,0:0:0:0:
145,228,8502,1,8,0:0:0:0:
32,35,8908,6,0,P|94:60|137:109,1,105
53,174,9516,2,0,P|88:231|172:203,1,140,0|8,0:0|0:0,0:0:0:0:
121,85,10124,1,8,0:0:0:0:
368,0,10529,6,0,B|310:10|310:10|336:61,1,105
410,118,11137,2,0,B|378:181|378:181|305:153,1,140,0|8,0:0|0:0,0:0:0:0:
330,51,11745,1,8,0:0:0:0:
0,369,12151,6,0,P|62:344|100:289,1,105
21,230,12759,2,0,P|56:173|140:201,1,140,0|8,0:0|0:0,0:0:0:0:
86,316,13367,1,8,0:0:0:0:
304,85,13772,5,8,0:0:0:0:
304,85,13975,1,8,0:0:0:0:
292,193,14178,1,8,0:0:0:0:
292,193,14381,1,8,0:0:0:0:
171,116,14583,1,12,0:0:0:0:
404,65,14989,5,0,0:0:0:0:
199,221,15394,6,0,P|170:256|164:303,1,70,8|0,0:1|0:0,0:0:0:0:
193,177,15799,2,0,P|148:185|114:217,1,70,8|0,0:1|0:0,0:0:0:0:
217,140,16205,2,0,P|178:118|130:120,1,70,8|0,0:1|0:0,0:0:0:0:
259,128,16610,2,0,P|243:85|205:56,1,70,8|0,0:1|0:0,0:0:0:0:
299,145,17016,2,0,P|314:102|304:56,1,70,8|0,0:1|0:0,0:0:0:0:
319,184,17421,2,0,P|358:161|380:119,1,70,8|0,0:1|0:0,0:0:0:0:
228,177,17827,1,8,0:1:0:0:
317,250,18029,1,0,0:0:0:0:
227,242,18232,5,8,0:1:0:0:
319,184,18435,1,0,0:0:0:0:
319,184,18536,1,0,0:0:0:0:
319,184,18637,2,0,P|369:162|395:172,1,70,8|0,0:1|0:0,0:0:0:0:
228,116,19043,2,0,P|278:94|304:104,1,70,8|0,0:1|0:0,0:0:0:0:
181,216,19448,2,0,P|231:194|257:204,1,70,8|0,0:1|0:0,0:0:0:0:
77,151,19854,2,0,P|127:129|153:139,1,70,8|0,0:1|0:0,0:0:0:0:
76,260,20259,5,8,0:0:0:0:
76,260,20664,1,8,0:0:0:0:
76,260,21070,1,8,0:0:0:0:
130,329,21272,5,8,0:0:0:0:
155,347,21374,1,8,0:0:0:0:
186,342,21475,1,6,0:0:0:0:
181,216,21678,5,0,0:0:0:0:
181,216,21779,1,0,0:0:0:0:
181,216,21881,2,0,P|152:181|146:134,1,70,8|0,0:1|0:0,0:0:0:0:
243,156,22286,2,0,P|198:148|164:116,1,70,8|0,0:1|0:0,0:0:0:0:
257,63,22691,2,0,P|218:85|170:83,1,70,8|0,0:1|0:0,0:0:0:0:
196,0,23097,2,0,P|180:43|142:72,1,70,8|0,0:1|0:0,0:0:0:0:
93,0,23502,2,0,P|108:43|98:89,1,70,8|0,0:1|0:0,0:0:0:0:
0,50,23908,2,0,P|39:73|61:115,1,70,8|0,0:1|0:0,0:0:0:0:
101,171,24313,1,8,0:1:0:0:
0,123,24516,1,0,0:0:0:0:
101,171,24718,5,8,0:1:0:0:
40,266,24921,1,0,0:0:0:0:
40,266,25022,1,0,0:0:0:0:
40,266,25124,2,0,P|90:288|116:278,1,70,8|0,0:1|0:0,0:0:0:0:
153,353,25529,2,0,P|203:331|229:341,1,70,8|0,0:1|0:0,0:0:0:0:
242,244,25935,2,0,P|292:266|318:256,1,70,8|0,0:1|0:0,0:0:0:0:
346,331,26340,2,0,P|396:309|422:319,1,70,8|0,0:1|0:0,0:0:0:0:
384,228,26745,5,8,0:0:0:0:
322,108,27151,1,8,0:0:0:0:
193,165,27556,1,8,0:0:0:0:
155,50,27759,2,8,L|192:72,5,35
215,75,28367,5,4,0:3:0:0:
238,54,28468,1,0,0:0:0:0:
268,43,28570,1,0,0:0:0:0:
298,38,28671,1,0,0:0:0:0:
327,49,28772,2,0,P|318:96|293:127,1,70
212,145,29178,5,4,0:0:0:0:
195,171,29279,1,0,0:0:0:0:
188,202,29381,1,0,0:0:0:0:
195,232,29482,1,0,0:0:0:0:
213,257,29583,2,0,P|242:291|291:303,1,70
401,325,29989,6,0,P|392:282|361:261,1,70,4|0,0:0|0:0,0:0:0:0:
297,198,30394,2,0,L|374:127,1,105
377,131,30799,2,0,P|433:156|454:175,1,70,4|0,0:0|0:0,0:0:0:0:
512,272,31205,2,0,P|475:308|429:302,1,70
343,258,31610,5,4,0:3:0:0:
320,279,31712,1,0,0:0:0:0:
290,290,31813,1,0,0:0:0:0:
260,295,31914,1,0,0:0:0:0:
231,284,32016,2,0,P|240:237|265:206,1,70
346,188,32421,5,4,0:0:0:0:
363,162,32522,1,0,0:0:0:0:
370,131,32624,1,0,0:0:0:0:
363,101,32725,1,0,0:0:0:0:
345,76,32827,2,0,P|316:42|267:30,1,70
261,187,33232,5,8,0:0:0:0:
218,68,33435,1,8,0:0:0:0:
306,127,33637,1,8,0:0:0:0:
184,138,33840,1,8,0:0:0:0:
310,59,34043,2,0,P|349:89|379:159,1,105
386,183,34448,2,0,P|342:213|331:252,1,70
280,274,34854,6,0,P|309:309|315:356,1,70,8|0,0:1|0:0,0:0:0:0:
242,191,35259,2,0,P|287:199|321:231,1,70,8|0,0:1|0:0,0:0:0:0:
146,136,35664,2,0,P|192:112|243:114,1,105,8|0,0:1|0:0,0:0:0:0:
259,82,36070,2,0,P|243:39|205:10,1,70,8|0,0:1|0:0,0:0:0:0:
319,164,36475,2,0,P|334:121|324:75,1,70,8|0,0:1|0:0,0:0:0:0:
323,252,36881,2,0,P|362:229|384:187,1,70,8|0,0:1|0:0,0:0:0:0:
276,195,37286,1,8,0:1:0:0:
273,295,37489,1,0,0:0:0:0:
385,289,37691,5,8,0:1:0:0:
389,182,37894,1,0,0:0:0:0:
389,182,37995,1,0,0:0:0:0:
389,182,38097,2,0,P|426:159|465:170,1,70,8|0,0:1|0:0,0:0:0:0:
449,246,38502,2,0,P|485:266|525:258,1,70,8|0,0:1|0:0,0:0:0:0:
473,346,38908,2,0,P|438:345|410:365,1,70,8|0,0:1|0:0,0:0:0:0:
325,384,39313,2,0,P|290:384|262:364,1,70,8|0,0:1|0:0,0:0:0:0:
301,241,39718,5,8,0:0:0:0:
273,215,40124,1,8,0:0:0:0:
246,190,40529,1,8,0:0:0:0:
145,314,40935,1,12,0:2:0:0:
99,265,51070,5,6,0:0:0:0:
108,163,51272,1,0,0:0:0:0:
187,236,51475,2,0,P|250:247|298:278,1,105
306,309,51881,5,2,0:0:0:0:
393,384,52083,1,0,0:0:0:0:
390,265,52286,2,0,P|380:221|338:142,1,105
327,128,52691,5,2,0:0:0:0:
359,7,52894,1,0,0:0:0:0:
427,101,53097,2,0,P|438:153|425:214,1,105
396,250,53502,5,2,0:0:0:0:
496,335,53705,1,0,0:0:0:0:
376,366,53908,2,0,P|331:340|311:304,1,70
353,217,54313,2,0,P|311:194|216:210,1,140
304,292,54921,5,0,0:0:0:0:
281,363,55124,1,0,0:0:0:0:
233,303,55327,1,0,0:0:0:0:
206,371,55529,1,0,0:0:0:0:
159,312,55732,1,0,0:0:0:0:
85,384,55935,1,10,0:0:0:0:
188,116,56239,1,10,0:0:0:0:
252,199,56543,1,10,0:0:0:0:
252,199,56745,1,10,0:0:0:0:
109,323,57151,5,8,0:0:0:0:
107,117,57556,6,0,P|170:93|212:101,1,105.000004005432,0|8,0:0|0:3,0:0:0:0:
119,181,57962,2,0,P|60:200|11:186,1,105.000004005432,0|8,0:0|0:3,0:0:0:0:
115,51,58367,1,0,0:0:0:0:
209,124,58570,1,8,0:3:0:0:
96,160,58772,1,0,0:0:0:0:
96,160,58975,1,8,0:3:0:0:
186,31,59178,2,0,B|244:34|244:34|313:114,1,157.500006008148
304,143,59583,6,0,P|330:216|377:245,2,105.000004005432,0|8|0,0:0|0:3|0:0,0:0:0:0:
332,36,60191,1,8,0:3:0:0:
431,56,60394,2,0,P|425:114|406:163,1,105.000004005432,0|8,0:0|0:3,0:0:0:0:
310,223,60799,5,4,0:2:0:0:
365,123,61002,1,8,0:0:0:0:
310,223,61205,1,0,0:0:0:0:
412,185,61408,1,8,0:0:0:0:
310,223,61610,1,0,0:0:0:0:
405,261,61813,1,8,0:0:0:0:
310,223,62016,1,0,0:0:0:0:
362,322,62218,1,8,0:0:0:0:
310,223,62421,6,0,P|264:215|205:239,1,105,4|0,0:0|0:0,0:0:0:0:
193,290,62827,2,0,P|167:331|133:301,1,105,4|0,0:0|0:0,0:0:0:0:
101,261,63232,2,0,P|106:207|134:154,1,105,4|0,0:0|0:0,0:0:0:0:
159,132,63637,2,0,P|212:87|208:29,1,105,4|0,0:0|0:0,0:0:0:0:
176,23,64043,6,0,P|213:87|262:103,1,105.000004005432,2|8,0:0|0:3,0:0:0:0:
384,115,64448,2,0,P|368:66|323:42,1,105.000004005432,2|8,0:0|0:3,0:0:0:0:
264,148,64854,1,0,0:0:0:0:
344,47,65056,1,8,0:3:0:0:
370,166,65259,1,0,0:0:0:0:
233,73,65462,2,0,B|287:13|322:61|322:61|358:36|358:36|438:82,1,210.000008010865,8|8,0:3|0:3,0:0:0:0:
490,144,66070,5,0,0:0:0:0:
412,218,66272,2,0,P|441:278|427:325,1,105.000004005432,8|0,0:3|0:0,0:0:0:0:
310,301,66678,2,0,L|267:276,5,35,8|0|0|0|8|0,0:3|0:0|0:0|0:0|0:3|0:0,0:0:0:0:
260,239,67286,2,0,P|218:224|142:261,1,105.000004005432,4|8,0:0|0:3,0:0:0:0:
131,352,67691,2,0,P|192:363|240:343,1,105.000004005432,0|8,0:0|0:3,0:0:0:0:
114,278,68097,2,0,P|95:212|84:172,1,105.000004005432,0|8,0:0|0:3,0:0:0:0:
0,161,68502,2,0,P|76:99|101:82,1,105.000004005432,0|8,0:0|0:3,0:0:0:0:
142,177,68908,6,0,B|194:117|194:117|225:167|225:167|263:122|263:122|304:169|304:169|344:120|344:120|386:170|386:170|420:132,1,420.000016021729
401,38,70124,1,4,0:0:0:0:
363,287,70529,6,0,P|394:269|415:241,2,70,0|0|8,0:3|0:0|0:3,0:0:0:0:
165,300,71137,2,2,B|218:239|234:288|285:229,1,140
339,137,71745,2,0,P|290:145|264:162,1,70,8|0,0:3|0:3,0:3:0:0:
200,197,72151,6,0,P|162:177|146:131,1,70,0|0,0:3|0:3,0:3:0:0:
248,56,72556,1,0,0:0:0:0:
426,99,72759,2,2,B|350:130|393:161|321:191,1,140
240,214,73367,2,0,P|246:170|258:141,1,70,4|0,0:0|0:0,0:0:0:0:
269,35,73772,6,0,L|279:-9,3,35,0|0|0|0,0:3|0:3|0:3|0:3,0:3:0:0:
207,81,74178,2,0,L|162:81,3,35,0|0|0|0,0:3|0:3|0:3|0:3,0:3:0:0:
252,142,74583,2,0,L|248:186,3,35,0|0|0|0,0:3|0:3|0:3|0:3,0:3:0:0:
305,92,74989,2,0,L|349:99,3,35,0|0|0|0,0:3|0:3|0:3|0:3,0:3:0:0:
132,65,75394,1,12,0:0:0:0:
7,313,77016,6,0,P|48:281|64:201,1,105,4|0,0:0|0:0,0:0:0:0:
40,87,77624,2,0,P|104:105|157:163,1,140,2|8,0:0|0:0,0:0:0:0:
66,232,78232,1,8,0:0:0:0:
358,26,78637,6,0,P|399:58|412:134,1,105,4|0,0:0|0:0,0:0:0:0:
391,252,79245,2,0,P|455:234|508:176,1,140,2|8,0:0|0:0,0:0:0:0:
415,106,79854,1,8,0:0:0:0:
148,0,80259,6,0,P|107:32|96:104,1,105,4|0,0:0|0:0,0:0:0:0:
115,226,80867,2,0,P|51:208|-2:150,1,140,0|8,0:0|0:0,0:0:0:0:
92,81,81475,1,8,0:0:0:0:
227,266,81881,5,0,0:0:0:0:
219,106,82286,1,0,0:0:0:0:
339,194,82691,1,0,0:0:0:0:
253,179,82894,1,0,0:3:0:0:
253,179,82995,1,0,0:3:0:0:
253,179,83097,1,4,0:3:0:0:
288,326,83502,6,0,P|317:361|323:408,1,70,8|0,0:1|0:0,0:0:0:0:
215,294,83908,2,0,P|170:302|136:334,1,70,8|0,0:1|0:0,0:0:0:0:
304,263,84313,2,0,P|343:241|391:243,1,70,8|0,0:1|0:0,0:0:0:0:
227,214,84718,2,0,P|211:171|173:142,1,70,8|0,0:1|0:0,0:0:0:0:
337,171,85124,2,0,P|331:127|349:82,1,70,8|0,0:1|0:0,0:0:0:0:
207,88,85529,2,0,P|239:55|255:-22,1,105,8|0,0:1|0:0,0:0:0:0:
304,1,85935,2,2,P|312:43|347:73,1,70,10|2,0:1|0:1,0:1:0:0:
443,119,86340,6,0,P|422:146|389:161,1,70,10|0,0:0|0:0,0:0:0:0:
319,184,86644,1,0,0:0:0:0:
319,184,86745,2,0,P|369:162|395:172,1,70,8|0,0:1|0:0,0:0:0:0:
454,274,87151,2,0,P|404:252|378:262,1,70,8|0,0:1|0:0,0:0:0:0:
300,350,87556,2,0,P|350:328|376:338,1,70,8|0,0:1|0:0,0:0:0:0:
489,384,87962,2,0,P|439:362|413:372,1,70,8|0,0:1|0:0,0:0:0:0:
458,298,88367,5,8,0:0:0:0:
302,265,88772,1,8,0:0:0:0:
154,176,89178,1,8,0:0:0:0:
85,0,89583,1,6,0:0:0:0:
60,206,89989,6,0,P|31:241|25:288,1,70,8|0,0:1|0:0,0:0:0:0:
120,177,90394,2,0,P|165:169|199:137,1,70,8|0,0:1|0:0,0:0:0:0:
63,143,90799,2,0,P|24:121|-24:123,1,70,8|0,0:1|0:0,0:0:0:0:
86,213,91205,2,0,P|102:256|140:285,1,70,8|0,0:1|0:0,0:0:0:0:
130,153,91610,2,0,P|145:110|135:64,1,70,8|0,0:1|0:0,0:0:0:0:
61,181,92016,2,0,P|22:204|0:246,1,70,8|0,0:1|0:0,0:0:0:0:
69,302,92421,1,8,0:1:0:0:
133,221,92624,1,0,0:0:0:0:
236,252,92827,5,8,0:1:0:0:
319,184,93029,1,0,0:0:0:0:
319,184,93131,1,0,0:0:0:0:
319,184,93232,2,0,P|369:162|395:172,1,70,8|0,0:1|0:0,0:0:0:0:
339,254,93637,2,0,P|289:276|263:266,1,70,8|0,0:1|0:0,0:0:0:0:
185,215,94043,2,0,P|225:192|261:203,1,70,8|0,0:1|0:0,0:0:0:0:
209,284,94448,2,0,P|159:306|133:296,1,70,8|0,0:1|0:0,0:0:0:0:
76,260,94854,5,8,0:0:0:0:
76,260,95259,1,8,0:0:0:0:
76,260,95664,1,8,0:0:0:0:
155,334,95867,2,8,L|192:312,5,35
215,309,96475,5,4,0:3:0:0:
238,330,96577,1,0,0:0:0:0:
268,341,96678,1,0,0:0:0:0:
298,346,96779,1,0,0:0:0:0:
327,335,96881,2,0,P|318:288|293:257,1,70
212,239,97286,5,4,0:0:0:0:
195,213,97387,1,0,0:0:0:0:
188,182,97489,1,0,0:0:0:0:
195,152,97590,1,0,0:0:0:0:
213,127,97691,2,0,P|242:93|291:81,1,70
401,59,98097,6,0,P|392:102|361:123,1,70,4|0,0:0|0:0,0:0:0:0:
297,186,98502,2,0,L|387:265,1,105
377,253,98908,2,0,P|433:228|454:209,1,70,4|0,0:0|0:0,0:0:0:0:
512,112,99313,2,0,P|475:76|429:82,1,70
343,126,99718,5,4,0:3:0:0:
320,105,99820,1,0,0:0:0:0:
290,94,99921,1,0,0:0:0:0:
260,89,100022,1,0,0:0:0:0:
231,100,100124,2,0,P|240:147|265:178,1,70
346,196,100529,5,4,0:0:0:0:
363,222,100631,1,0,0:0:0:0:
370,253,100732,1,0,0:0:0:0:
363,283,100833,1,0,0:0:0:0:
345,308,100935,2,0,P|316:342|267:354,1,70
271,201,101340,5,8,0:0:0:0:
148,241,101543,1,8,0:0:0:0:
251,273,101745,1,8,0:0:0:0:
182,166,101948,1,8,0:0:0:0:
182,312,102151,1,12,0:0:0:0:
97,100,102556,1,2,0:0:0:0:
392,326,102962,6,0,P|363:361|357:408,1,70,8|0,0:1|0:0,0:0:0:0:
446,298,103367,2,0,P|491:306|525:338,1,70,8|0,0:1|0:0,0:0:0:0:
392,264,103772,2,0,P|353:242|305:244,1,70,8|0,0:1|0:0,0:0:0:0:
436,237,104178,2,0,P|445:193|469:160,1,70,8|0,0:1|0:0,0:0:0:0:
510,38,104583,2,0,P|510:72|497:105,1,70,8|0,0:1|0:0,0:0:0:0:
409,107,104989,2,0,P|397:70|413:19,1,70,8|0,0:1|0:0,0:0:0:0:
330,80,105394,1,8,0:1:0:0:
281,154,105597,1,0,0:0:0:0:
198,121,105799,5,8,0:1:0:0:
198,2,106002,1,0,0:0:0:0:
198,2,106104,1,0,0:0:0:0:
198,2,106205,2,0,P|246:8|276:31,1,70,12|0,0:1|0:0,0:0:0:0:
163,79,106610,2,0,P|126:64|87:67,1,70,8|0,0:1|0:0,0:0:0:0:
157,158,107016,2,0,P|198:157|247:177,1,70,8|0,0:1|0:0,0:0:0:0:
128,230,107421,2,0,P|87:214|52:218,1,70,8|0,0:1|0:0,0:0:0:0:
129,322,107827,5,8,0:0:0:0:
155,339,108232,1,8,0:0:0:0:
186,358,108637,1,8,0:0:0:0:
266,175,109043,1,12,0:0:0:0:
0,78,119178,5,6,0:0:0:0:
104,0,119381,1,0,0:0:0:0:
111,124,119583,2,0,P|124:193|102:245,1,105
82,264,119989,5,2,0:0:0:0:
135,384,120191,1,0,0:0:0:0:
215,263,120394,2,0,P|209:199|173:148,1,105
191,122,120799,5,2,0:0:0:0:
247,0,121002,1,0,0:0:0:0:
317,111,121205,2,0,P|328:163|315:224,1,105
320,256,121610,5,2,0:0:0:0:
356,384,121813,1,0,0:0:0:0:
242,336,122016,2,0,P|197:310|177:274,1,70
233,221,122421,2,0,P|191:198|96:214,1,140
157,313,123029,5,0,0:0:0:0:
157,313,123232,1,0,0:0:0:0:
275,282,123435,5,0,0:0:0:0:
218,384,123637,1,0,0:0:0:0:
197,253,123840,5,0,0:0:0:0:
294,384,124043,1,10,0:0:0:0:
188,116,124347,1,10,0:0:0:0:
252,199,124651,1,10,0:0:0:0:
252,199,124854,1,10,0:0:0:0:
109,323,125259,5,8,0:0:0:0:
316,18,125664,6,0,P|379:-6|421:2,1,105.000004005432,0|8,0:0|0:3,0:0:0:0:
331,93,126070,2,0,P|272:112|223:98,1,105.000004005432,0|8,0:0|0:3,0:0:0:0:
150,13,126475,1,0,0:0:0:0:
101,95,126678,1,8,0:3:0:0:
162,164,126881,1,0,0:0:0:0:
162,164,127083,1,8,0:3:0:0:
348,29,127286,2,0,B|290:32|290:32|221:112,1,157.500006008148
215,162,127691,6,0,P|189:235|142:264,2,105.000004005432,0|8|0,0:0|0:3|0:0,0:0:0:0:
193,25,128299,1,8,0:3:0:0:
54,62,128502,2,0,P|60:120|79:169,1,105.000004005432,0|8,0:0|0:3,0:0:0:0:
187,224,128908,5,4,0:2:0:0:
137,161,129110,1,8,0:0:0:0:
129,275,129313,1,0,0:0:0:0:
137,161,129516,1,8,0:0:0:0:
77,217,129718,1,0,0:0:0:0:
137,161,129921,1,8,0:0:0:0:
25,161,130124,1,0,0:0:0:0:
137,161,130327,1,8,0:0:0:0:
84,102,130529,6,0,P|51:76|96:49,1,105,4|0,0:0|0:0,0:0:0:0:
154,111,130935,2,0,P|189:140|156:172,1,105,4|0,0:0|0:0,0:0:0:0:
101,213,131340,2,0,P|61:235|93:268,1,105,4|0,0:0|0:0,0:0:0:0:
146,315,131745,2,0,P|207:278|269:276,1,105,4|0,0:0|0:0,0:0:0:0:
248,307,132151,6,0,P|285:371|334:387,1,105.000004005432,2|8,0:0|0:3,0:0:0:0:
477,312,132556,2,0,P|461:361|416:385,1,105.000004005432,2|8,0:0|0:3,0:0:0:0:
363,249,132962,1,2,0:0:0:0:
399,330,133164,1,8,0:3:0:0:
329,384,133367,1,2,0:0:0:0:
248,264,133570,2,0,B|302:324|328:256|328:256|373:301|373:301|433:264,1,210.000008010865,8|8,0:3|0:3,0:0:0:0:
512,205,134178,5,2,0:0:0:0:
412,166,134381,2,0,P|441:106|427:59,1,105.000004005432,8|2,0:3|0:0,0:0:0:0:
310,83,134786,2,0,L|267:108,5,35,8|0|0|0|8|0,0:3|0:0|0:0|0:0|0:3|0:0,0:0:0:0:
260,145,135394,2,0,P|218:160|142:123,1,105.000004005432,4|8,0:0|0:3,0:0:0:0:
131,32,135799,2,0,P|192:21|240:41,1,105.000004005432,0|8,0:0|0:3,0:0:0:0:
114,106,136205,2,0,P|95:172|84:212,1,105.000004005432,0|8,0:0|0:3,0:0:0:0:
73,295,136610,2,0,P|149:357|174:374,1,105.000004005432,0|8,0:0|0:3,0:0:0:0:
229,90,137016,2,0,B|218:190|229:257|229:257|277:250|324:257,1,251.999992309571,0|4,0:0|0:0,0:0:0:0:
257,194,143097,5,4,0:0:0:0:
467,143,143502,5,0,0:0:0:0:
382,54,143705,1,0,0:0:0:0:
331,191,143908,1,8,0:3:0:0:
331,191,144110,5,0,0:0:0:0:
387,132,144313,1,0,0:0:0:0:
276,69,144516,1,0,0:0:0:0:
256,207,144718,5,8,0:3:0:0:
256,207,144921,1,0,0:0:0:0:
182,109,145124,1,0,0:0:0:0:
311,142,145327,5,0,0:0:0:0:
265,270,145529,2,0,L|306:253,12,35,8|0|0|0|0|0|0|0|8|0|0|0|2,0:3|0:0|0:0|0:0|0:0|0:0|0:0|0:0|0:3|0:0|0:0|0:0|0:0,0:0:0:0:
128,139,147151,5,8,0:0:0:0:
128,139,147354,1,8,0:0:0:0:
191,68,147556,1,8,0:0:0:0:
191,68,147759,1,8,0:0:0:0:
94,0,147962,1,8,0:0:0:0:
94,0,148164,1,8,0:0:0:0:
101,174,148367,1,8,0:0:0:0:
101,174,148570,1,8,0:0:0:0:
196,96,148772,2,0,L|233:97,10,35
135,181,149989,6,0,P|164:208|220:214,1,70,4|0,0:0|0:0,0:0:0:0:
249,154,150394,2,0,P|282:139|310:87,1,70
401,12,150799,2,0,P|384:72|390:104,1,70
469,112,151205,2,0,P|456:160|422:196,1,70
329,185,151610,2,0,L|340:144,6,35
307,270,152421,5,0,0:0:0:0:
307,270,152522,1,0,0:0:0:0:
307,270,152624,1,0,0:0:0:0:
414,273,152827,2,0,P|457:250|495:260,1,70
512,333,153232,5,4,0:0:0:0:
512,333,153435,1,0,0:0:0:0:
439,384,153637,1,0,0:0:0:0:
439,384,153840,1,0,0:0:0:0:
352,361,154043,6,0,P|311:360|296:330,1,70
309,268,154448,2,0,P|338:247|371:265,1,70
249,268,154854,5,8,0:0:0:0:
158,185,155259,1,8,0:0:0:0:
71,83,155664,1,8,0:0:0:0:
219,70,156070,1,8,0:0:0:0:
151,108,156272,5,0,0:0:0:0:
151,108,156374,1,0,0:0:0:0:
151,108,156475,1,4,0:3:0:0:
298,99,157286,6,0,P|336:125|344:152,1,70
351,219,157691,2,0,P|335:261|313:278,1,70
251,308,158097,2,0,P|200:308|170:341,1,70
128,369,158502,2,0,P|98:344|98:294,1,70
50,233,158908,5,8,0:0:0:0:
74,213,159009,1,8,0:0:0:0:
104,207,159110,1,8,0:0:0:0:
134,217,159212,1,8,0:0:0:0:
173,239,159313,2,8,L|215:231,4,35,8|8|8|8|12,0:0|0:0|0:0|0:0|0:0,0:0:0:0:
41,271,159921,1,0,0:0:0:0:
41,271,160124,6,0,P|57:313|79:330,1,70
198,331,160529,2,0,P|147:331|117:364,1,70
129,254,160935,1,0,0:0:0:0:
129,254,161137,1,0,0:0:0:0:
8,143,161340,6,2,B|88:67|116:141|189:74,1,183.750007009506
211,45,162151,2,2,P|286:87|370:194,1,210.000008010865
304,296,163164,6,0,L|274:237,1,52.5000020027161
220,124,163570,2,0,L|247:178,1,52.5000020027161
225,268,163975,1,0,0:0:0:0:
315,211,164178,1,8,0:0:0:0:
263,331,164381,1,0,0:0:0:0:
177,216,164583,6,0,B|212:181|247:203|277:172,1,105.000004005432
217,111,165191,1,0,0:0:0:0:
264,245,165394,1,0,0:0:0:0:
389,59,165799,1,8,0:0:0:0:
304,282,166205,5,4,0:0:0:0:
304,282,166408,2,0,L|356:312,1,52.5000020027161
504,376,166813,2,0,L|439:351,1,52.5000020027161
423,253,167218,1,0,0:0:0:0:
360,384,167421,2,0,L|386:332,1,52.5000020027161,8|0,0:0|0:0,0:0:0:0:
376,132,167827,6,0,B|344:165|342:181|342:181|347:210|329:241,1,105.000004005432
255,163,168435,2,0,L|204:156,1,52.5000020027161
422,195,168840,2,0,L|473:202,2,52.5000020027161
307,70,169448,5,0,0:0:0:0:
222,160,169651,1,0,0:0:0:0:
341,181,169854,1,0,0:0:0:0:
235,59,170056,1,0,0:0:0:0:
225,237,170259,5,0,0:0:0:0:
376,166,170462,1,0,0:0:0:0:
270,10,170664,1,0,0:0:0:0:
196,154,170867,1,0,0:0:0:0:
349,75,171070,2,0,L|411:77,2,56
259,327,172286,6,0,L|273:158,1,168
253,183,179178,5,8,0:0:0:0:
253,183,179583,1,8,0:0:0:0:
253,183,179989,1,8,0:0:0:0:
253,183,180394,1,8,0:0:0:0:
15,258,180799,6,0,P|77:271|130:296,1,105.000004005432,0|8,0:0|0:3,0:0:0:0:
179,384,181205,2,0,P|121:377|77:361,1,105.000004005432,0|8,0:0|0:3,0:0:0:0:
136,280,181610,1,0,0:0:0:0:
60,363,181813,1,8,0:3:0:0:
47,248,182016,1,0,0:0:0:0:
193,300,182218,2,0,P|169:363|138:383,2,105.000004005432,8|0|8,0:3|0:0|0:3,0:0:0:0:
164,179,182827,2,0,P|182:112|242:82,1,105.000004005432,0|8,0:0|0:3,0:0:0:0:
304,62,183232,2,0,P|318:125|321:181,1,105.000004005432,0|8,0:0|0:3,0:0:0:0:
363,285,183637,5,0,0:0:0:0:
363,285,183840,1,8,0:3:0:0:
414,187,184043,2,0,P|476:212|496:250,1,105.000004005432,4|8,0:0|0:3,0:0:0:0:
436,349,184448,2,0,P|470:293|512:276,1,105.000004005432,0|8,0:0|0:3,0:0:0:0:
386,252,184854,2,0,P|411:203|464:165,1,105.000004005432,0|8,0:0|0:3,0:0:0:0:
344,152,185259,2,0,P|380:98|440:78,1,105.000004005432,0|8,0:0|0:3,0:0:0:0:
386,219,185664,2,0,B|292:216|282:318|240:309|240:309|217:229|217:229|113:283,1,367.500014019013
121,331,186475,2,0,P|172:359|311:176,1,315.000012016297
242,67,187286,6,0,B|220:124|220:124|208:179,1,105.000004005432,2|8,0:0|0:3,0:0:0:0:
257,275,187691,2,0,B|280:218|280:218|289:152,1,105.000004005432,2|8,0:0|0:3,0:0:0:0:
169,106,188097,1,2,0:0:0:0:
213,181,188299,1,8,0:3:0:0:
249,105,188502,1,2,0:0:0:0:
131,137,188705,2,0,P|120:178|154:236,2,105.000004005432,8|0|8,0:3|0:0|0:3,0:0:0:0:
213,10,189313,2,0,P|228:70|214:138,1,105.000004005432,2|8,0:0|0:3,0:0:0:0:
196,234,189718,1,6,0:0:0:0:
82,326,189921,6,0,P|78:257|88:202,2,105.000004005432,8|0|8,0:0|0:0|0:0,0:0:0:0:
168,316,190529,1,2,0:0:0:0:
62,315,190732,1,8,0:0:0:0:
168,316,190935,1,8,0:0:0:0:
92,243,191137,1,10,0:0:0:0:
168,316,191340,5,8,0:0:0:0:
169,210,191543,1,10,0:0:0:0:
168,316,191745,1,8,0:0:0:0:
240,239,191948,1,10,0:0:0:0:
168,316,192151,2,0,P|107:342|109:271,1,157.500006008148,4|0,0:0|0:0,0:0:0:0:
165,198,192556,2,0,P|163:130|101:156,1,157.500006008148,4|0,0:0|0:0,0:0:0:0:
0,208,192962,2,0,P|1:275|63:249,1,157.500006008148,4|0,0:0|0:0,0:0:0:0:
64,140,193367,2,0,P|62:72|0:98,1,157.500006008148,4|0,0:0|0:0,0:0:0:0:
0,165,193772,6,0,P|66:145|102:107,1,105.000004005432,0|10,0:0|0:3,0:0:0:0:
124,12,194178,2,0,P|78:41|36:93,1,105.000004005432,0|10,0:0|0:3,0:0:0:0:
167,147,194583,1,0,0:0:0:0:
169,70,194786,1,10,0:3:0:0:
104,110,194989,1,0,0:0:0:0:
194,184,195191,2,0,B|235:137|278:183|278:183|349:201|360:97,1,210.000008010865,10|10,0:3|0:3,0:0:0:0:
224,89,195799,1,0,0:0:0:0:
284,225,196002,2,0,P|319:171|327:115,1,105.000004005432,10|0,0:3|0:0,0:0:0:0:
198,167,196408,1,10,0:3:0:0:
291,288,196610,6,8,L|286:245,4,26.2500010013581,8|8|10|8|12,0:0|0:0|0:3|0:0|0:0,0:0:0:0:
373,292,197421,2,0,P|340:266|305:262,1,52.5000020027161,0|10,0:0|0:3,0:0:0:0:
358,194,197827,2,0,P|408:207|453:253,1,90.9999958343508,0|10,0:0|0:3,0:0:0:0:
296,112,198232,2,0,P|353:112|396:131,1,90.9999958343508,0|10,0:0|0:3,0:0:0:0:
268,3,198637,2,0,B|212:60|212:60|281:101|281:101|202:155|202:155|287:185|266:237,1,363.999983337403
3,372,199854,1,0,0:0:0:0:
397,161,200259,6,0,P|400:126|390:92,2,70,4|0|0,0:0|0:0|0:0,0:0:0:0:
291,329,200867,2,2,B|272:250|322:266|304:190,1,140
261,92,201475,2,0,P|239:137|237:168,1,70
226,243,201881,6,0,P|188:262|149:252,1,70,4|0,0:0|0:0,0:0:0:0:
155,137,202286,1,0,0:0:0:0:
281,0,202489,2,2,B|262:79|312:63|294:139,1,140
249,183,203097,2,0,P|222:145|196:136,1,70,4|0,0:2|0:2,0:2:0:0:
20,129,203502,6,0,L|-6:93,3,35
24,204,203908,2,0,L|-2:240,3,35
100,203,204313,2,0,L|126:239,3,35
91,131,204718,2,0,L|122:99,3,35
7,229,205124,1,12,0:0:0:0:
448,22,206745,6,0,B|439:80|439:80|478:153,1,140
504,63,207354,2,0,P|469:120|385:92,1,140,0|8,0:0|0:0,0:0:0:0:
418,1,207962,1,8,0:0:0:0:
166,144,208367,6,0,B|238:157|238:157|196:215,1,140
287,197,208975,2,0,B|216:181|215:87,1,140,0|8,0:0|0:0,0:0:0:0:
352,101,209583,1,8,0:0:0:0:
512,369,209989,6,0,P|450:344|401:274,1,140
492,305,210597,2,0,B|419:301|419:301|400:372,1,140,0|8,0:0|0:0,0:0:0:0:
477,225,211205,1,8,0:0:0:0:
32,35,211610,6,0,P|94:60|143:130,1,140
0,142,212218,1,8,0:0:0:0:
238,28,212421,2,0,P|213:120|96:152,1,210
103,0,213232,5,8,0:0:0:0:
284,130,213536,1,8,0:0:0:0:
108,83,213840,1,8,0:0:0:0:
334,0,214245,1,8,0:0:0:0:
334,0,214448,1,12,0:0:0:0:
200,288,214854,5,8,0:0:0:0:
277,113,215158,1,8,0:0:0:0:
284,268,215462,1,8,0:0:0:0:
125,117,215867,1,8,0:0:0:0:
125,117,216070,1,12,0:0:0:0:
447,120,216475,5,8,0:0:0:0:
255,151,216779,1,8,0:0:0:0:
409,194,217083,1,8,0:0:0:0:
279,4,217489,1,8,0:0:0:0:
279,4,217691,1,12,0:0:0:0:
244,225,218097,5,10,0:0:0:0:
244,225,218198,1,10,0:0:0:0:
244,225,218299,1,10,0:0:0:0:
403,204,218502,1,10,0:0:0:0:
315,341,218705,1,10,0:0:0:0:
169,76,219313,5,4,0:3:0:0:
