osu file format v14

[General]
AudioFilename: audio.mp3
AudioLeadIn: 0
PreviewTime: 46435
Countdown: 0
SampleSet: Soft
StackLeniency: 0.7
Mode: 0
LetterboxInBreaks: 0
WidescreenStoryboard: 1

[Editor]
DistanceSpacing: 0.4
BeatDivisor: 4
GridSize: 16
TimelineZoom: 3.199999

[Metadata]
Title:Isekai Girls Talk (TV Size)
TitleUnicode:Isekai Girls♡Talk (TV Size)
Artist:Various Artists
ArtistUnicode:Various Artists
Creator:NotABox
Version:notbox
Source:異世界かるてっと [Isekai Quartet]
Tags:Isekai Quartet オーバーロード Overlord この素晴らしい世界に祝福を! Kono Subarashii Sekai ni Shukufuku wo Konosuba Re:ゼロから始める異世界生活 Re:Zero kara Hajimeru Isekai Seikatsu 幼女戦記 Youjo Senki SirCormano Bareto Eduuu
BeatmapID:2067047
BeatmapSetID:988103

[Difficulty]
HPDrainRate:5.8
CircleSize:3.8
OverallDifficulty:8.7
ApproachRate:9.1
SliderMultiplier:1.5
SliderTickRate:1

[Events]
//Background and Video events
0,0,"isekaigirls.jpg",0,0
//Break Periods
//Storyboard Layer 0 (Background)
//Storyboard Layer 1 (Fail)
//Storyboard Layer 2 (Pass)
//Storyboard Layer 3 (Foreground)
//Storyboard Sound Samples

[TimingPoints]
-153,352.941176470588,4,2,1,54,1,0
11141,-83.3333333333333,4,2,1,54,0,0
13611,-71.4285714285714,4,2,1,54,0,0
13964,-83.3333333333333,4,2,1,54,0,0
15552,-62.5,4,2,1,54,0,0
15729,-71.4285714285714,4,2,1,54,0,0
15905,-83.3333333333333,4,2,1,54,0,0
16435,-100,4,2,1,54,0,0
16788,-83.3333333333333,4,2,1,54,0,0
19258,-71.4285714285714,4,2,1,54,0,0
19611,-83.3333333333333,4,2,1,54,0,0
22082,-100,4,2,1,54,0,0
22435,-76.9230769230769,4,2,1,54,0,0
33729,-100,4,2,1,54,0,0
39376,-83.3333333333333,4,2,1,54,0,0
42199,-71.4285714285714,4,2,1,54,0,0
45376,-133.333333333333,4,2,1,54,0,0
45729,-100,4,2,1,54,0,0
46082,-80,4,2,1,54,0,0
46435,-66.6666666666667,4,2,1,54,0,1
51199,-76.9230769230769,4,2,1,54,0,1
51552,-66.6666666666667,4,2,1,54,0,1
54023,-76.9230769230769,4,2,1,54,0,1
54905,-76.9230769230769,4,2,1,54,0,0
56317,-71.4285714285714,4,2,1,54,0,0
57729,-66.6666666666667,4,2,1,54,0,1
64611,-66.6666666666667,4,2,1,54,0,0
66199,-66.6666666666667,4,2,1,54,0,1
69023,-250,4,2,1,54,0,0
70435,-90.9090909090909,4,2,1,54,0,0
70699,-90.9090909090909,4,2,1,5,0,0
70788,-90.9090909090909,4,2,1,54,0,0
71052,-90.9090909090909,4,2,1,5,0,0
71141,-90.9090909090909,4,2,1,54,0,0
71317,-90.9090909090909,4,2,1,5,0,0
71494,-71.4285714285714,4,2,1,35,0,0
71846,-90.9090909090909,4,2,1,54,0,0
72111,-90.9090909090909,4,2,1,5,0,0
72199,-90.9090909090909,4,2,1,54,0,0
72464,-90.9090909090909,4,2,1,5,0,0
72552,-90.9090909090909,4,2,1,54,0,0
72905,-90.9090909090909,4,2,1,34,0,0

[Colours]
Combo1 : 255,0,255
Combo2 : 0,255,255
Combo3 : 18,124,255
Combo4 : 242,24,57
Combo5 : 255,192,0
Combo6 : 255,128,64

[HitObjects]
326,137,9729,5,0,0:0:0:0:
325,154,9906,5,0,0:0:0:0:
323,172,10082,5,0,0:0:0:0:
322,189,10258,5,0,0:0:0:0:
321,206,10435,5,0,0:0:0:0:
331,68,10611,1,0,0:0:0:0:
376,267,10788,2,0,B|342:288|342:288|268:282,1,112.5,0|0,3:0|3:0,3:0:0:0:
214,346,11141,6,0,P|238:261|221:215,1,134.999995880127
195,184,11494,1,0,0:0:0:0:
46,283,11670,2,0,L|135:275,1,89.9999972534181,0|0,3:0|3:0,3:0:0:0:
279,260,12023,1,0,0:0:0:0:
91,180,12199,1,0,0:0:0:0:
291,375,12376,6,0,L|299:286,1,89.9999972534181,0|0,3:0|3:0,3:0:0:0:
318,163,12729,1,0,0:0:0:0:
318,163,12817,1,0,0:0:0:0:
318,163,12905,1,0,0:0:0:0:
420,330,13082,1,0,0:0:0:0:
257,256,13258,1,0,0:0:0:0:
446,207,13435,1,0,0:0:0:0:
298,329,13611,6,0,B|258:345|220:329|220:329|178:313|138:329,1,157.499995193482
106,352,13964,6,0,B|149:311|149:311|138:175,1,179.999994506836,0|0,3:0|3:0,3:0:0:0:
61,110,14494,2,0,P|128:149|203:132,1,134.999995880127
222,121,14846,1,0,0:0:0:0:
38,220,15023,1,0,0:0:0:0:
145,67,15199,1,0,0:0:0:0:
145,67,15288,1,0,0:0:0:0:
145,67,15376,1,0,0:0:0:0:
228,184,15552,6,0,P|253:201|282:211,1,60
287,132,15729,6,0,P|296:157|312:178,1,52.4999983978272
363,118,15905,6,0,P|358:140|358:162,1,44.999998626709
435,149,16082,5,0,0:0:0:0:
300,56,16258,1,0,0:0:0:0:
256,61,16346,1,0,0:0:0:0:
211,65,16435,6,0,P|188:128|227:186,1,112.5
278,203,16788,6,0,L|189:211,1,89.9999972534181,0|0,3:0|3:0,3:0:0:0:
58,223,17141,1,0,0:0:0:0:
161,92,17317,1,0,0:0:0:0:
161,92,17405,1,0,0:0:0:0:
161,92,17494,1,0,0:0:0:0:
236,266,17670,2,0,P|279:280|324:276,1,89.9999972534181
177,344,18023,1,0,0:0:0:0:
177,344,18111,1,0,0:0:0:0:
177,344,18199,5,0,0:0:0:0:
292,199,18376,2,0,B|316:173|316:173|311:108,1,89.9999972534181,0|0,3:0|3:0,3:0:0:0:
306,35,18729,1,0,0:0:0:0:
379,243,18905,1,0,0:0:0:0:
220,134,19082,1,0,0:0:0:0:
248,326,19258,6,0,P|317:294|343:222,1,157.499995193482
299,149,19611,6,0,B|322:183|322:183|418:192,1,134.999995880127,0|0,3:0|3:0,3:0:0:0:
460,195,19964,1,0,0:0:0:0:
252,72,20141,2,0,P|212:127|207:161,1,89.9999972534181
222,254,20494,1,0,0:0:0:0:
103,89,20670,1,0,0:0:0:0:
308,156,20846,1,0,0:0:0:0:
308,156,20935,1,0,0:0:0:0:
308,156,21023,5,0,0:0:0:0:
329,163,21199,5,0,0:0:0:0:
351,165,21376,5,0,0:0:0:0:
373,163,21552,5,0,0:0:0:0:
395,156,21729,5,0,0:0:0:0:
240,212,21905,1,0,0:0:0:0:
418,65,22082,2,0,L|431:212,1,112.5,0|0,3:0|3:0,3:0:0:0:
474,243,22435,6,0,P|432:218|384:217,1,97.4999955368044
341,239,22699,1,0,0:0:0:0:
341,239,22788,1,0,0:0:0:0:
504,162,22964,1,0,0:0:0:0:
402,310,23141,1,0,0:0:0:0:
324,147,23317,1,0,3:0:0:0:
484,258,23494,1,0,0:0:0:0:
261,291,23670,1,0,0:0:0:0:
402,124,23846,5,0,0:0:0:0:
443,359,24023,1,0,0:0:0:0:
324,143,24199,1,0,0:0:0:0:
289,334,24376,1,0,0:0:0:0:
479,183,24552,1,0,0:0:0:0:
251,161,24729,2,0,B|190:155|190:155|158:173,2,97.4999955368044,0|0|0,3:0|3:0|3:0,3:0:0:0:
302,296,25258,6,0,P|249:275|219:236,1,97.4999955368044
282,59,25611,1,0,0:0:0:0:
304,210,25788,1,0,0:0:0:0:
160,109,25964,1,0,0:0:0:0:
386,140,26141,1,0,0:0:0:0:
177,215,26317,1,0,0:0:0:0:
403,246,26494,1,0,0:0:0:0:
218,64,26670,5,0,0:0:0:0:
305,322,26846,1,0,0:0:0:0:
393,92,27023,1,0,0:0:0:0:
239,172,27199,2,0,P|173:166|109:96,1,146.249993305207
70,46,27552,2,0,L|80:158,1,97.4999955368044,0|0,3:0|3:0,3:0:0:0:
147,293,27905,2,0,L|155:195,1,97.4999955368044,0|0,3:0|3:0,3:0:0:0:
7,186,28258,6,0,B|48:229|48:229|184:218,1,194.999991073609,0|0,3:0|3:0,3:0:0:0:
319,203,28788,1,0,0:0:0:0:
85,147,28964,1,0,0:0:0:0:
180,294,29141,1,0,0:0:0:0:
297,62,29317,1,0,0:0:0:0:
336,262,29494,5,0,0:0:0:0:
202,45,29670,1,0,0:0:0:0:
151,208,29846,1,0,0:0:0:0:
345,70,30023,2,0,P|416:103|346:141,2,194.999991073609
295,207,30905,6,0,P|359:228|411:225,1,97.4999955368044
478,182,31258,2,0,P|427:226|404:273,1,97.4999955368044
408,352,31611,2,8,P|394:286|365:242,2,97.4999955368044,0|0|8,0:0|0:0|0:0,0:0:0:0:
505,276,32141,1,0,0:0:0:0:
390,180,32317,5,0,0:0:0:0:
366,184,32494,5,0,0:0:0:0:
342,189,32670,5,0,0:0:0:0:
324,205,32846,5,0,0:0:0:0:
308,223,33023,5,0,0:0:0:0:
374,107,33199,1,0,0:0:0:0:
340,306,33376,2,0,P|291:308|225:240,1,146.249993305207
216,194,33729,5,0,0:0:0:0:
208,292,34082,5,0,0:0:0:0:
216,194,34435,5,0,0:0:0:0:
208,292,34611,1,0,0:0:0:0:
216,194,34788,5,0,0:0:0:0:
208,292,34964,1,0,0:0:0:0:
97,167,35141,5,0,0:0:0:0:
105,265,35494,5,0,0:0:0:0:
97,167,35847,5,0,0:0:0:0:
105,265,36023,1,0,0:0:0:0:
97,167,36200,5,0,0:0:0:0:
105,265,36376,1,0,0:0:0:0:
194,114,36552,6,0,P|229:101|288:105,1,75
248,181,36817,1,0,0:0:0:0:
248,181,36905,2,0,P|284:190|330:227,1,75,0|0,3:0|3:0,3:0:0:0:
254,267,37170,1,0,3:0:0:0:
254,267,37258,6,0,P|278:295|294:352,1,75,0|0,3:0|3:0,3:0:0:0:
370,367,37611,2,0,P|383:332|408:304,1,75,0|0,3:0|3:0,3:0:0:0:
484,213,37964,6,0,L|386:221,1,75,0|0,3:0|3:0,3:0:0:0:
323,124,38317,2,0,L|397:130,2,75,0|0|0,3:0|3:0|3:0,3:0:0:0:
445,201,38846,5,0,0:0:0:0:
467,171,38934,1,0,0:0:0:0:
477,135,39022,1,0,0:0:0:0:
472,98,39110,1,0,0:0:0:0:
454,65,39198,1,0,0:0:0:0:
349,25,39376,5,0,0:0:0:0:
321,208,39552,1,0,0:0:0:0:
191,43,39729,5,0,0:0:0:0:
236,261,39905,1,0,0:0:0:0:
367,41,40082,5,0,0:0:0:0:
261,293,40258,1,0,0:0:0:0:
88,101,40435,2,0,P|144:90|184:100,1,89.9999972534181
373,177,40788,5,0,0:0:0:0:
99,232,40964,1,0,0:0:0:0:
394,182,41141,5,0,0:0:0:0:
119,75,41317,1,0,0:0:0:0:
413,150,41494,5,0,0:0:0:0:
115,255,41670,1,0,0:0:0:0:
319,17,41846,2,0,L|327:115,1,89.9999972534181,0|0,3:0|3:0,3:0:0:0:
276,169,42199,6,0,P|304:154|334:149,3,52.4999983978272
329,228,42552,2,0,P|311:247|300:271,3,52.4999983978272
242,338,42905,6,0,P|230:314|213:294,3,52.4999983978272
166,358,43258,2,0,P|143:344|117:338,3,52.4999983978272
40,359,43611,5,0,0:0:0:0:
40,359,43700,1,0,0:0:0:0:
40,359,43788,2,0,L|45:306,1,52.4999983978272,0|0,3:0|3:0,3:0:0:0:
132,198,43964,5,0,0:0:0:0:
132,198,44053,1,0,0:0:0:0:
132,198,44141,2,0,L|137:251,1,52.4999983978272,0|0,3:0|3:0,3:0:0:0:
142,302,44317,5,0,3:0:0:0:
170,345,44405,1,0,3:0:0:0:
219,365,44493,1,0,3:0:0:0:
269,356,44581,1,0,3:0:0:0:
306,320,44669,1,0,3:0:0:0:
319,270,44758,1,0,3:0:0:0:
300,221,44846,1,0,3:0:0:0:
259,192,44934,1,0,3:0:0:0:
208,187,45022,1,0,3:0:0:0:
230,268,45376,6,0,P|253:233|259:192,1,84.3750032186509
230,268,45729,6,0,P|282:246|322:205,1,112.5
230,268,46082,6,0,P|298:282|367:269,1,140.625
419,191,46435,6,0,P|395:272|487:219,1,225.000008583069
485,112,46964,2,0,B|428:93|428:93|360:108,1,112.500004291535
192,160,47317,1,0,0:0:0:0:
427,176,47494,1,0,0:0:0:0:
215,63,47670,1,0,0:0:0:0:
282,287,47846,5,0,0:0:0:0:
322,34,48023,1,0,0:0:0:0:
419,235,48199,1,0,0:0:0:0:
193,59,48376,2,0,P|248:48|301:66,1,112.500004291535
399,158,48729,1,0,0:0:0:0:
230,244,48905,2,0,L|241:97,1,112.500004291535,0|0,3:0|3:0,3:0:0:0:
226,28,49258,5,0,0:0:0:0:
312,310,49435,1,0,0:0:0:0:
315,68,49611,5,0,0:0:0:0:
194,335,49788,1,0,0:0:0:0:
196,40,49964,5,0,0:0:0:0:
339,336,50141,1,0,0:0:0:0:
402,93,50317,1,0,0:0:0:0:
112,200,50494,6,8,P|123:254|158:299,1,112.500004291535,0|0,0:0|0:0,0:0:0:0:
174,118,50846,2,8,P|120:101|65:108,1,112.500004291535,0|0,3:0|3:0,3:0:0:0:
214,212,51199,6,0,B|255:194|309:214|309:214|357:234|408:214,1,194.999991073609
257,286,51729,1,0,0:0:0:0:
355,144,51905,1,0,0:0:0:0:
360,344,52082,5,0,0:0:0:0:
229,125,52258,1,0,0:0:0:0:
415,209,52435,2,0,B|387:233|387:233|292:225,1,112.500004291535,0|0,3:0|3:0,3:0:0:0:
214,215,52788,1,0,0:0:0:0:
362,149,52964,1,0,0:0:0:0:
290,343,53141,1,0,0:0:0:0:
204,87,53317,5,0,0:0:0:0:
205,104,53670,5,0,0:0:0:0:
207,122,54023,6,0,B|252:163|252:163|388:152,1,194.999991073609,0|0,3:0|3:0,3:0:0:0:
437,86,54552,5,0,0:0:0:0:
407,124,54640,1,0,0:0:0:0:
398,171,54728,1,0,0:0:0:0:
411,217,54816,1,0,0:0:0:0:
444,253,54905,6,0,L|370:258,1,48.7499977684022,0|0,3:0|3:0,3:0:0:0:
166,276,55082,1,0,0:0:0:0:
487,166,55258,6,0,L|413:160,1,48.7499977684022,0|0,3:0|3:0,3:0:0:0:
209,143,55435,1,0,0:0:0:0:
437,325,55611,5,0,0:0:0:0:
349,29,55788,1,0,0:0:0:0:
276,221,55964,6,0,P|194:234|141:190,1,146.249993305207
120,157,56317,5,0,0:0:0:0:
277,311,56494,1,0,0:0:0:0:
265,66,56670,5,0,0:0:0:0:
145,339,56846,1,0,0:0:0:0:
106,44,57023,6,0,L|111:118,1,48.7499977684022,0|0,3:0|3:0,3:0:0:0:
254,353,57199,2,0,L|257:304,1,48.7499977684022,0|0,3:0|3:0,3:0:0:0:
389,24,57376,1,0,0:0:0:0:
389,24,57729,5,0,0:0:0:0:
327,217,57905,1,0,0:0:0:0:
470,98,58082,1,0,0:0:0:0:
257,113,58258,2,0,L|114:122,1,112.500004291535,0|0,3:0|3:0,3:0:0:0:
75,48,58611,2,0,P|102:96|98:151,1,112.500004291535
43,227,58964,1,0,0:0:0:0:
239,35,59141,5,0,0:0:0:0:
22,115,59317,1,0,0:0:0:0:
238,183,59494,1,0,0:0:0:0:
107,288,59670,2,0,P|80:240|84:185,1,112.500004291535
130,100,60023,1,0,0:0:0:0:
26,335,60199,1,0,0:0:0:0:
165,230,60376,1,0,0:0:0:0:
165,230,60464,1,0,0:0:0:0:
165,230,60552,6,0,B|210:189|210:189|346:200,1,168.750006437302,0|0,3:0|3:0,3:0:0:0:
357,200,60905,1,0,0:0:0:0:
125,148,61082,1,0,0:0:0:0:
246,277,61258,1,0,0:0:0:0:
316,113,61435,2,0,P|358:106|444:140,1,112.500004291535
260,191,61788,6,0,P|232:158|219:66,1,112.500004291535,0|0,0:3|0:3,0:3:0:0:
357,200,62141,2,0,P|334:251|292:287,1,112.500004291535,0|0,0:3|0:3,0:3:0:0:
316,113,62493,6,0,B|368:96|425:123|425:123|420:90|435:54,1,168.750006437302
445,30,62846,1,0,0:0:0:0:
357,200,63023,1,0,0:0:0:0:
231,91,63199,1,0,0:0:0:0:
231,91,63288,1,0,0:0:0:0:
231,91,63376,5,0,0:0:0:0:
360,28,63552,1,0,3:0:0:0:
268,198,63729,1,0,3:0:0:0:
138,69,63905,1,0,3:0:0:0:
364,180,64082,2,0,P|355:235|320:278,1,112.500004291535
471,206,64435,1,0,0:0:0:0:
235,333,64611,5,0,0:0:0:0:
234,316,64964,5,0,0:0:0:0:
233,299,65317,6,0,P|152:255|144:335,1,168.750006437302
160,346,65670,6,0,P|190:351|228:333,1,56.2500021457673,0|0,3:0|3:0,3:0:0:0:
359,213,65846,6,0,L|302:216,1,56.2500021457673,0|0,3:0|3:0,3:0:0:0:
83,164,66023,2,0,L|139:167,1,56.2500021457673,0|0,3:0|3:0,3:0:0:0:
307,37,66199,5,0,0:0:0:0:
292,329,66376,1,0,0:0:0:0:
146,39,66552,5,0,0:0:0:0:
173,342,66729,1,0,0:0:0:0:
337,46,66905,5,0,0:0:0:0:
157,362,67082,1,0,0:0:0:0:
110,51,67258,5,0,0:0:0:0:
312,362,67435,1,0,0:0:0:0:
397,97,67611,5,0,0:0:0:0:
46,299,67788,1,0,0:0:0:0:
204,32,67964,5,0,0:0:0:0:
420,307,68141,1,0,0:0:0:0:
70,352,68317,6,0,L|126:348,1,56.2500021457673,0|0,3:0|3:0,3:0:0:0:
509,200,68494,2,0,L|452:196,1,56.2500021457673,0|0,3:0|3:0,3:0:0:0:
61,53,68670,6,0,L|64:109,1,56.2500021457673,0|0,3:0|3:0,3:0:0:0:
286,384,68846,2,0,L|289:327,1,56.2500021457673,0|0,3:0|3:0,3:0:0:0:
458,18,69023,1,0,0:0:0:0:
422,320,69905,5,0,0:0:0:0:
420,286,69993,1,0,0:0:0:0:
416,250,70082,1,0,0:0:0:0:
310,67,70435,5,0,0:0:0:0:
309,84,70788,5,0,0:0:0:0:
307,102,71140,5,0,0:0:0:0:
306,119,71494,6,0,L|303:145,6,26.2499991989136,8|8|0|0|0|0|0,3:0|3:0|3:0|3:0|3:0|3:0|3:0,3:0:0:0:
191,175,71846,5,0,0:0:0:0:
192,192,72199,5,0,0:0:0:0:
194,210,72551,5,0,0:0:0:0:
195,227,72905,6,0,L|197:253,6,20.6250006294251,8|8|0|0|0|0|0,3:0|3:0|3:0|3:0|3:0|3:0|3:0,3:0:0:0:
276,320,73258,5,0,0:0:0:0:
276,320,73964,6,0,P|336:337|285:242,1,247.500007553101
448,315,74670,1,0,0:0:0:0:
217,266,75376,5,0,0:0:0:0:
