osu file format v14

[General]
AudioFilename: audio.mp3
AudioLeadIn: 0
PreviewTime: 28216
Countdown: 0
SampleSet: Soft
StackLeniency: 1
Mode: 0
LetterboxInBreaks: 0
WidescreenStoryboard: 0

[Editor]
Bookmarks: 72427,161086,231612,337330
DistanceSpacing: 0.8
BeatDivisor: 4
GridSize: 16
TimelineZoom: 1.4

[Metadata]
Title:Iruma-kun! Songs Compilation
TitleUnicode:Iruma-kun! Songs Compilation
Artist:Various Artists
ArtistUnicode:Various Artists
Creator:Yudragen
Version:Welcome to Babyls!
Source:魔入りました!入間くん
Tags:mairimashita iruma-kun iruma kun welcome to demon school! school magical babyrinth devi kyuu devi-kyuu! no! satisfaction! ! kokoro showtime show time da pump yuu serizawa devi-cue amatsuki ココロショータイム デビきゅー anime japanese pop rock op opening ed ending medley insert babyls anthem 芹澤 優 天月-あまつき- colors
BeatmapID:3547092
BeatmapSetID:1735493

[Difficulty]
HPDrainRate:5
CircleSize:4.3
OverallDifficulty:8
ApproachRate:9.4
SliderMultiplier:2.6
SliderTickRate:1

[Events]
//Background and Video events
0,0,"FE965hgacAIf9oL.jpg",0,0
//Break Periods
//Storyboard Layer 0 (Background)
//Storyboard Layer 1 (Fail)
//Storyboard Layer 2 (Pass)
//Storyboard Layer 3 (Foreground)
//Storyboard Layer 4 (Overlay)
//Storyboard Sound Samples

[TimingPoints]
699,431.654676258993,4,2,1,100,1,0
699,-250,4,2,1,30,0,0
1130,-142.857142857143,4,2,1,50,0,0
1562,-100,4,2,1,70,0,0
1993,-76.9230769230769,4,2,1,90,0,0
2425,-86.9565217391304,4,2,1,80,0,0
7605,-181.818181818182,4,2,1,60,0,0
8037,-125,4,2,1,70,0,0
8468,-95.2380952380952,4,2,1,80,0,0
8900,-76.9230769230769,4,2,1,90,0,0
9332,-86.9565217391304,4,2,1,80,0,0
11058,-204.081632653061,4,2,1,70,0,0
11166,-212.765957446809,4,2,1,5,0,0
14511,-117.647058823529,4,2,1,50,0,0
21418,-100,4,2,1,65,0,0
21526,-100,4,2,1,5,0,0
21634,-100,4,2,1,65,0,0
22929,-83.3333333333333,4,2,1,65,0,0
23145,-100,4,2,1,65,0,0
24655,-83.3333333333333,4,2,1,65,0,0
24871,-100,4,2,1,80,0,0
26598,-68.9655172413793,4,2,1,95,0,0
28324,-76.9230769230769,4,2,1,90,0,1
33504,-133.333333333334,4,2,1,85,0,1
33936,-100,4,2,1,90,0,1
34367,-80,4,2,1,95,0,1
34799,-66.6666666666667,4,2,1,100,0,1
35231,-76.9230769230769,4,2,1,90,0,1
40411,-68.9655172413793,4,2,1,95,0,1
41706,-95.2380952380952,4,2,1,80,0,0
42137,-76.9230769230769,4,2,1,90,0,1
47317,-68.9655172413793,4,2,1,90,0,1
48181,-86.9565217391304,4,2,1,90,0,1
49043,-76.9230769230769,4,2,1,90,0,1
54224,-68.9655172413793,4,2,1,90,0,1
55950,-76.9230769230769,4,2,1,90,0,1
61130,-68.9655172413793,4,2,1,90,0,1
62856,-76.9230769230769,4,2,1,90,0,1
68037,-62.5,4,2,1,90,0,1
69332,-55.5555555555556,4,2,1,90,0,1
69763,-117.64705882353,4,2,1,100,0,0
69871,-117.64705882353,4,2,1,5,0,0
72427,333.333333333333,4,2,1,40,1,0
72427,-100,4,2,1,40,0,0
74093,-100,4,2,1,80,0,0
75093,-166.666666666667,4,2,1,70,0,0
75426,-125,4,2,1,75,0,0
75760,-100,4,2,1,80,0,0
76093,-83.3333333333333,4,2,1,85,0,0
76426,-200,4,2,1,60,0,0
81759,-166.666666666667,4,2,1,60,0,0
87093,-142.857142857143,4,2,1,70,0,0
92426,-133.333333333333,4,2,1,75,0,0
93759,-125,4,2,1,80,0,0
96426,-111.111111111111,4,2,1,85,0,0
97759,-125,4,2,1,75,0,0
103093,-111.111111111111,4,2,1,90,0,0
108426,-111.111111111111,4,2,1,80,0,0
108759,-125,4,2,1,70,0,0
109093,-142.857142857143,4,2,1,60,0,0
109426,-166.666666666667,4,2,1,55,0,0
109759,-166.666666666667,4,2,1,50,0,0
111093,-117.647058823529,4,2,1,90,0,1
134093,-100,4,2,1,60,0,0
136426,-105.263157894737,4,2,1,75,0,0
141760,-100,4,2,1,90,0,1
147093,-125,4,2,1,60,0,0
161086,413.793103448276,4,2,1,40,1,0
161086,-142.857142857143,4,2,1,30,0,0
161913,-117.647058823529,4,2,1,40,0,0
162741,-100,4,2,1,50,0,0
163154,-90.9090909090909,4,2,1,60,0,0
163568,-83.3333333333333,4,2,1,70,0,0
163982,-76.9230769230769,4,2,1,80,0,0
164396,-125,4,2,1,60,0,0
166051,-90.9090909090909,4,2,1,75,0,0
172672,-83.3333333333333,4,2,1,85,0,0
179292,-95.2380952380952,4,2,1,70,0,0
189637,-80,4,2,1,70,0,0
190051,-95.2380952380952,4,2,1,70,0,0
190465,-80,4,2,1,70,0,0
190879,-90.9090909090909,4,2,1,75,0,0
191292,-86.9565217391304,4,2,1,80,0,0
191706,-80,4,2,1,85,0,0
192120,-83.3333333333333,4,2,1,90,0,0
192534,-133.333333333333,4,2,1,60,0,0
194189,-76.9230769230769,4,2,1,85,0,1
204120,-68.9655172413793,4,2,1,90,0,1
207430,-76.9230769230769,4,2,1,85,0,1
217361,-68.9655172413793,4,2,1,90,0,1
223982,-83.3333333333333,4,2,1,80,0,0
226879,-83.3333333333333,4,2,2,80,0,0
227292,-83.3333333333333,4,2,1,80,0,0
230603,-83.3333333333333,4,2,1,5,0,0
231592,512.820512820513,4,2,1,100,1,0
232617,-250,4,2,1,15,0,0
233002,-200,4,2,1,25,0,0
233386,-166.666666666667,4,2,1,40,0,0
233643,-111.111111111111,4,2,1,50,0,0
234156,-100,4,2,1,60,0,0
234668,-90.9090909090908,4,2,1,65,0,0
235438,-83.3333333333333,4,2,1,70,0,0
235950,-86.9565217391304,4,2,1,70,0,0
237745,-100,4,2,1,60,0,0
250309,-80,4,2,1,60,0,0
252104,-111.111111111111,4,2,1,60,0,0
254156,-90.9090909090909,4,2,1,65,0,0
266463,-111.111111111111,4,2,1,70,0,0
268258,-83.3333333333333,4,2,1,70,0,0
270566,-142.857142857143,4,2,1,50,0,0
276720,-117.647058823529,4,2,1,70,0,0
278771,-86.9565217391304,4,2,1,75,0,0
282104,-76.9230769230769,4,2,1,85,0,0
282874,-83.3333333333333,4,2,1,80,0,0
286976,-80,4,2,1,85,0,1
293643,-76.9230769230769,4,2,1,85,0,1
293899,-74.0740740740741,4,2,1,85,0,1
294156,-71.4285714285714,4,2,1,85,0,1
294412,-68.9655172413793,4,2,1,85,0,1
294668,-66.6666666666667,4,2,1,85,0,1
294925,-64.5161290322581,4,2,1,85,0,1
295181,-80,4,2,1,85,0,1
298515,-74.0740740740741,4,2,1,85,0,1
299284,-80,4,2,1,85,0,1
303386,-74.0740740740741,4,2,1,95,0,1
311335,-95.2380952380952,4,2,1,95,0,0
311848,-80,4,2,1,90,0,0
313643,-90.9090909090909,4,2,1,75,0,0
327745,-71.4285714285714,4,2,1,85,0,0
328258,-83.3333333333333,4,2,1,85,0,0
330053,-200,4,2,1,60,0,0
330780,-200,4,2,1,5,0,0
337313,500,4,2,1,10,1,0
337313,-285.714285714286,4,2,1,10,0,0
337646,-285.714285714286,4,2,1,5,0,0
337813,-235.294117647059,4,2,1,20,0,0
338813,-235.294117647059,4,2,1,30,0,0
340313,-235.294117647059,4,2,1,40,0,0
342729,-235.294117647059,4,2,1,5,0,0
342813,-235.294117647059,4,2,1,40,0,0
357313,-200,4,2,1,40,0,0
386313,-400,4,2,1,40,0,0
386563,-400,4,2,1,5,0,0

[Colours]
Combo1 : 233,71,71
Combo2 : 91,193,227
Combo3 : 165,80,241
Combo4 : 63,105,231
Combo5 : 221,210,210
Combo6 : 91,66,238

[HitObjects]
114,172,699,6,0,P|78:191|63:242,1,78,4|0,0:2|0:0,0:0:0:0:
290,302,1130,2,0,P|258:262|162:252,1,136.499995834351,4|0,0:2|0:0,0:0:0:0:
379,90,1562,2,0,P|327:151|202:136,1,195,4|0,0:2|0:0,0:0:0:0:
407,311,1993,2,0,P|401:270|314:240,1,84.4999961318971,4|0,0:2|0:0,0:0:0:0:
486,107,2209,2,0,P|480:148|393:178,1,84.4999961318971,2|0,0:1|0:0,0:0:0:0:
213,50,2425,6,0,B|192:39|166:42|166:42|199:-8|288:-1|307:43|296:106,1,224.250004277229,6|0,0:0|0:0,0:0:0:0:
375,131,2857,2,0,P|340:135|284:162,2,74.7500014257431,8|0|0,0:2|0:0|3:0,0:0:0:0:
132,331,3288,2,0,B|104:303|104:303|113:252,1,74.7500014257431,2|0,1:2|0:0,0:0:0:0:
213,189,3504,1,0,3:0:0:0:
213,189,3612,1,2,0:2:0:0:
213,189,3720,2,0,L|189:282,1,74.7500014257431,8|0,0:2|0:0,0:0:0:0:
44,193,3936,2,0,P|81:184|130:167,1,74.7500014257431,2|0,3:2|0:0,0:0:0:0:
348,18,4152,5,6,0:2:0:0:
297,24,4260,1,2,0:0:0:0:
262,63,4368,1,2,3:2:0:0:
265,114,4475,1,2,0:0:0:0:
303,149,4583,2,0,P|346:174|367:212,1,74.7500014257431,8|0,0:2|0:0,0:0:0:0:
454,324,4799,5,2,3:2:0:0:
510,287,4907,1,2,3:2:0:0:
443,312,5015,2,0,P|410:305|352:299,1,74.7500014257431,6|0,0:2|0:0,0:0:0:0:
195,378,5231,1,8,0:2:0:0:
276,284,5339,1,2,0:0:0:0:
215,236,5447,2,0,L|228:322,1,74.7500014257431,8|0,1:2|0:0,0:0:0:0:
356,203,5663,2,0,P|374:164|351:105,1,74.7500014257431,0|2,3:0|0:0,0:0:0:0:
241,0,5878,5,6,0:2:0:0:
190,12,5986,1,2,0:0:0:0:
166,58,6094,1,2,3:2:0:0:
180,108,6202,1,2,0:0:0:0:
222,138,6310,2,0,L|301:110,1,74.7500014257431,8|0,0:2|0:1,0:0:0:0:
463,25,6526,1,0,3:0:0:0:
463,25,6634,1,0,3:0:0:0:
463,25,6742,2,0,P|404:70|403:151,1,149.500002851486,2|0,1:2|0:0,0:0:0:0:
446,306,7065,1,0,1:0:0:0:
503,256,7173,2,0,P|493:197|455:162,1,74.7500014257431,8|0,1:2|0:0,0:0:0:0:
260,61,7389,5,4,0:3:0:0:
324,96,7497,1,4,0:3:0:0:
260,61,7605,2,0,L|165:89,1,71.5000021820069,6|4,0:2|0:3,0:0:0:0:
290,308,8037,2,0,L|176:274,1,104,6|0,0:2|3:0,0:0:0:0:
282,174,8360,1,4,0:3:0:0:
260,158,8468,2,0,L|109:202,1,136.499995834351,6|8,0:2|0:2,0:0:0:0:
212,384,8900,2,0,L|31:330,1,168.999992263794,6|0,0:2|0:3,0:0:0:0:
99,60,9224,5,4,0:3:0:0:
120,34,9332,2,0,B|137:107|137:107|214:134|214:134|235:224,1,224.250004277229,6|0,0:2|0:0,0:0:0:0:
354,288,9763,2,4,B|356:233|402:217|402:217|423:131|335:109,1,224.250004277229,12|4,0:2|0:0,0:0:0:0:
301,21,10195,5,4,1:3:0:0:
187,108,10339,1,4,0:3:0:0:
300,186,10483,1,4,0:3:0:0:
235,274,10627,5,4,1:3:0:0:
271,342,10770,1,4,0:3:0:0:
210,384,10914,1,4,0:3:0:0:
285,40,11058,6,0,B|241:8|204:-19|85:37|67:167|191:245|319:243|320:115|290:125|259:137|261:35|471:0|639:62|667:261|567:383|411:411|350:413|302:367|264:247|291:224|340:197|376:194,1,987.349990960541,2|0,0:0|0:0,0:0:0:0:
380,209,14511,5,4,0:2:0:0:
392,241,14943,1,0,1:0:0:0:
308,275,15375,1,0,1:0:0:0:
223,213,15806,1,0,1:0:0:0:
155,331,16238,5,0,1:0:0:0:
57,243,16670,1,0,1:0:0:0:
115,69,17101,1,0,1:0:0:0:
349,44,17533,1,0,1:0:0:0:
363,126,17749,1,0,1:0:0:0:
285,99,17965,5,0,1:0:0:0:
371,260,18396,1,0,1:0:0:0:
240,373,18828,1,0,1:0:0:0:
118,325,19260,1,0,1:0:0:0:
40,356,19691,5,0,1:0:0:0:
0,217,20123,1,0,1:0:0:0:
130,150,20555,1,0,1:0:0:0:
130,150,20663,1,2,0:2:0:0:
130,150,20770,2,0,L|193:176,1,55.2500010538101,2|0,0:3|0:0,0:0:0:0:
229,238,20986,1,0,1:0:0:0:
181,14,21202,1,2,3:0:0:0:
229,238,21418,6,0,P|265:213|260:153,1,97.5,6|0,0:2|0:0,0:0:0:0:
252,150,21634,1,2,0:0:0:0:
110,362,21850,2,0,P|102:297|86:234,1,130,0|0,1:0|3:0,0:0:0:0:
346,304,22281,1,0,1:0:0:0:
346,304,22389,2,0,P|367:259|367:218,1,65,2|0,0:0|3:0,0:0:0:0:
443,230,22605,2,0,P|431:178|413:146,1,65,2|0,0:0|1:2,0:0:0:0:
479,370,22929,6,0,P|456:318|494:354,1,155.999995239258,2|0,0:1|1:0,0:0:0:0:
367,379,23360,1,2,0:0:0:0:
250,331,23576,1,0,1:2:0:0:
205,166,23792,1,2,0:0:0:0:
342,50,24008,1,0,1:0:0:0:
342,50,24116,2,0,P|391:70|422:75,1,65,2|0,0:0|3:0,0:0:0:0:
415,148,24332,2,0,P|446:139|475:125,1,65,2|0,0:0|1:0,0:0:0:0:
304,178,24655,6,0,P|289:143|321:172,1,116.999996429443,2|0,0:1|0:0,0:0:0:0:
309,258,24871,5,6,1:2:0:0:
278,308,24979,1,0,1:0:0:0:
224,331,25087,1,0,1:0:0:0:
169,308,25195,1,0,1:0:0:0:
97,302,25303,5,10,1:2:0:0:
53,253,25411,1,0,1:0:0:0:
59,188,25519,1,0,1:0:0:0:
112,151,25627,1,0,1:0:0:0:
139,85,25734,5,2,1:2:0:0:
210,83,25842,1,0,1:3:0:0:
253,139,25950,1,0,1:3:0:0:
245,209,26058,1,0,1:3:0:0:
165,264,26166,5,12,3:2:0:0:
138,226,26274,1,4,3:0:0:0:
167,202,26382,1,4,3:0:0:0:
184,212,26490,1,4,3:0:0:0:
239,277,26598,6,0,B|300:300|300:300|325:352|325:352|419:384,1,188.500005752564,6|0,1:2|0:0,0:0:0:0:
271,176,26922,2,0,P|174:200|57:226,1,188.500005752564,6|0,1:2|0:0,0:0:0:0:
238,101,27245,2,0,P|249:52|248:-5,1,94.2500028762818,6|0,1:2|0:0,0:0:0:0:
149,292,27461,2,0,P|160:341|159:398,1,94.2500028762818,6|0,1:2|0:0,0:0:0:0:
249,8,27893,1,6,1:2:0:0:
177,14,28001,1,0,1:3:0:0:
135,80,28109,1,0,1:3:0:0:
166,149,28216,1,0,1:3:0:0:
236,188,28324,6,0,P|311:165|406:141,1,168.999992263794,6|0,1:2|0:0,0:0:0:0:
491,111,28648,1,0,3:0:0:0:
491,111,28756,2,0,P|444:64|401:85,1,84.4999961318971,10|0,1:2|0:0,0:0:0:0:
398,142,28972,2,0,P|358:151|339:188,1,84.4999961318971,0|0,3:0|0:0,0:0:0:0:
484,326,29188,1,2,1:2:0:0:
429,380,29296,2,0,P|440:303|467:215,1,168.999992263794,2|0,3:0|0:0,0:0:0:0:
341,280,29619,2,0,P|266:303|213:330,1,84.4999961318971,8|0,1:2|0:0,0:0:0:0:
326,371,29835,2,0,P|238:338|121:320,1,168.999992263794,2|0,3:1|1:0,0:0:0:0:
96,259,30159,5,0,3:0:0:0:
96,259,30267,2,0,P|91:324|96:357,1,84.4999961318971,2|0,3:2|0:0,0:0:0:0:
219,186,30483,2,0,P|214:121|219:88,1,84.4999961318971,8|0,1:2|0:0,0:0:0:0:
0,172,30699,2,0,P|14:249|25:283,1,84.4999961318971,2|0,3:2|0:0,0:0:0:0:
284,283,30914,2,0,P|298:206|309:172,1,84.4999961318971,2|0,1:2|0:0,0:0:0:0:
264,25,31130,5,8,1:0:0:0:
226,366,31346,1,8,1:2:0:0:
292,117,31562,5,0,3:0:0:0:
292,117,31670,1,0,3:0:0:0:
292,117,31778,2,0,B|189:142|254:182|128:212,1,168.999992263794,2|0,1:2|0:0,0:0:0:0:
16,248,32101,1,0,3:0:0:0:
71,200,32209,2,0,P|141:218|172:333,1,168.999992263794,10|0,1:2|0:0,0:0:0:0:
79,384,32533,1,0,3:0:0:0:
79,384,32641,2,0,P|92:291|94:257,1,84.4999961318971,2|0,1:2|0:0,0:0:0:0:
266,253,32857,2,0,P|327:274|377:294,1,84.4999961318971,0|0,3:0|0:0,0:0:0:0:
161,378,33073,1,8,1:2:0:0:
206,55,33288,2,0,P|215:152|221:192,1,126.749994197846,2|0,0:1|0:0,0:0:0:0:
219,180,33504,6,0,B|241:76|273:162|281:18,1,146.250005578995,6|0,0:2|0:0,0:0:0:0:
133,241,33936,2,0,B|104:124|58:204|38:69,1,195,6|0,0:2|0:0,0:0:0:0:
245,311,34368,2,0,B|276:226|292:295|329:188,1,121.875,6|0,0:2|0:2,0:0:0:0:
311,194,34583,1,8,0:2:0:0:
123,383,34799,2,0,B|77:279|46:366|-3:234,1,195.00000743866,6|0,0:2|0:0,0:0:0:0:
59,190,35123,1,4,3:3:0:0:
103,258,35231,1,6,0:2:0:0:
103,258,35447,6,0,P|143:246|185:243,1,84.4999961318971,2|0,3:2|0:0,0:0:0:0:
174,154,35663,2,0,P|216:156|256:168,1,84.4999961318971,10|0,1:2|0:0,0:0:0:0:
362,214,35878,2,0,P|352:175|344:102,1,84.4999961318971,2|0,3:2|0:0,0:0:0:0:
449,26,36094,1,2,1:2:0:0:
478,95,36202,2,0,P|371:86|345:1,1,168.999992263794,2|2,3:2|0:0,0:0:0:0:
240,76,36526,2,0,P|242:16|297:-17,1,84.4999961318971,8|0,1:2|0:0,0:0:0:0:
346,131,36742,6,0,P|330:234|309:351,1,168.999992263794,2|0,3:1|1:0,0:0:0:0:
190,378,37065,1,0,3:0:0:0:
190,378,37173,2,0,B|170:338|170:338|180:299,1,84.4999961318971,2|0,3:2|0:0,0:0:0:0:
380,247,37389,2,0,B|399:286|399:286|389:325,1,84.4999961318971,10|0,1:2|0:0,0:0:0:0:
161,197,37605,2,0,P|204:211|271:229,1,84.4999961318971,2|0,3:2|0:0,0:0:0:0:
280,67,37821,1,2,1:2:0:0:
215,31,37929,2,0,P|196:102|224:156,1,84.4999961318971,2|0,0:0|0:0,0:0:0:0:
79,248,38145,1,2,3:2:0:0:
79,248,38252,2,0,P|60:177|88:123,1,84.4999961318971,8|0,1:2|0:0,0:0:0:0:
86,65,38468,2,0,P|45:76|5:89,1,84.4999961318971,2|0,0:1|0:0,0:0:0:0:
163,325,38684,5,2,1:2:0:0:
186,263,38792,1,0,1:0:0:0:
246,241,38900,1,0,1:0:0:0:
309,257,39008,1,0,1:0:0:0:
355,303,39116,1,10,1:2:0:0:
407,341,39224,1,0,1:0:0:0:
471,332,39332,1,0,1:0:0:0:
512,283,39440,1,0,1:0:0:0:
506,218,39547,1,2,1:2:0:0:
464,167,39655,1,0,1:0:0:0:
398,165,39763,1,0,1:0:0:0:
347,206,39871,1,0,1:0:0:0:
418,277,39979,5,8,1:2:0:0:
448,265,40087,1,4,3:0:0:0:
437,240,40195,1,4,3:0:0:0:
406,250,40303,1,4,3:0:0:0:
484,340,40411,5,2,1:0:0:0:
416,374,40519,2,0,P|324:343|247:327,1,94.2500028762818,2|0,1:0|0:0,0:0:0:0:
257,256,40734,5,2,1:0:0:0:
154,294,40842,2,0,P|185:202|201:125,1,94.2500028762818,2|0,1:0|0:0,0:0:0:0:
286,126,41058,5,2,1:0:0:0:
208,15,41166,2,0,P|300:46|377:62,1,94.2500028762818,2|0,1:0|0:0,0:0:0:0:
392,168,41382,5,2,1:0:0:0:
511,74,41490,2,0,P|480:166|464:243,1,94.2500028762818,2|0,1:0|0:0,0:0:0:0:
424,384,41706,6,0,P|411:352|411:318,1,68.2499979171754,10|0,1:2|0:0,0:0:0:0:
487,309,41922,2,0,P|486:342|498:374,1,68.2499979171754,0|0,1:0|0:0,0:0:0:0:
248,380,42137,6,0,L|228:239,1,84.4999961318971,6|0,1:2|0:0,0:0:0:0:
165,350,42353,2,0,L|152:263,1,84.4999961318971,2|0,3:2|0:0,0:0:0:0:
333,287,42569,2,0,L|353:146,1,84.4999961318971,10|0,1:2|0:0,0:0:0:0:
424,253,42785,2,0,L|436:166,1,84.4999961318971,2|0,3:2|0:0,0:0:0:0:
216,210,43001,2,0,L|196:69,1,84.4999961318971,2|0,1:2|0:0,0:0:0:0:
113,174,43216,2,0,L|100:87,1,84.4999961318971,2|0,3:2|0:0,0:0:0:0:
309,132,43432,2,0,L|329:-9,1,84.4999961318971,10|0,1:2|0:0,0:0:0:0:
425,87,43648,2,0,L|437:0,1,84.4999961318971,2|0,3:2|0:0,0:0:0:0:
443,4,43864,6,0,L|431:91,1,84.4999961318971,2|0,1:0|0:0,0:0:0:0:
326,50,44080,2,0,L|314:137,1,84.4999961318971,2|0,3:2|0:0,0:0:0:0:
96,93,44296,2,0,L|109:180,1,84.4999961318971,10|0,1:2|0:0,0:0:0:0:
200,127,44511,2,0,L|213:214,1,84.4999961318971,2|0,3:2|0:0,0:0:0:0:
441,173,44727,2,0,L|429:260,1,84.4999961318971,2|0,1:2|0:0,0:0:0:0:
350,207,44943,2,0,L|338:294,1,84.4999961318971,2|0,3:2|0:0,0:0:0:0:
147,268,45159,2,0,L|160:355,1,84.4999961318971,10|0,1:2|0:0,0:0:0:0:
229,298,45375,2,0,L|242:385,1,84.4999961318971,2|0,3:2|0:0,0:0:0:0:
45,345,45591,5,6,1:2:0:0:
45,345,45806,2,0,P|22:285|39:253,1,84.4999961318971,2|0,3:2|0:0,0:0:0:0:
0,132,46022,2,0,B|78:150|78:150|90:159|90:159|197:184,1,168.999992263794,10|2,1:2|0:2,0:0:0:0:
265,210,46346,1,4,0:3:0:0:
162,175,46454,2,0,P|191:142|272:148,1,84.4999961318971,2|0,3:2|3:0,3:0:0:0:
426,65,46670,1,2,0:1:0:0:
349,16,46778,2,0,B|345:69|335:116|329:142,1,84.4999961318971,2|8,0:2|0:2,0:0:0:0:
426,220,46993,1,0,3:0:0:0:
500,166,47101,2,0,P|504:209|511:252,1,84.4999961318971,2|0,1:0|0:2,0:0:0:0:
190,372,47317,6,0,P|257:354|350:345,1,141.375004314423,6|0,1:2|0:0,0:0:0:0:
328,345,47533,2,0,B|353:302|353:302|330:226,1,94.2500028762818,2|0,3:2|0:0,0:0:0:0:
181,229,47749,1,6,1:2:0:0:
133,199,47857,1,0,3:0:0:0:
125,143,47965,1,2,3:2:0:0:
153,95,48073,1,0,3:0:0:0:
204,75,48181,2,0,L|265:98,2,49.8333342838288,6|0|0,1:2|3:0|3:0,0:0:0:0:
229,5,48396,2,0,L|290:28,2,49.8333342838288,2|0|0,0:2|3:0|3:0,0:0:0:0:
120,48,48612,2,0,B|111:87|111:87|129:147,1,74.7500014257431,10|0,1:2|0:0,0:0:0:0:
108,208,48828,2,0,P|140:196|182:185,1,74.7500014257431,0|0,3:0|0:0,0:0:0:0:
457,142,49044,6,0,P|504:177|500:262,1,84.4999961318971,6|0,1:2|0:0,0:0:0:0:
361,382,49260,2,0,P|324:336|350:254,1,84.4999961318971,2|0,3:2|0:0,0:0:0:0:
416,234,49475,2,0,P|439:287|393:359,1,84.4999961318971,10|0,1:2|0:0,0:0:0:0:
220,377,49691,2,0,P|211:319|274:261,1,84.4999961318971,2|0,3:2|0:0,0:0:0:0:
331,130,49907,2,0,P|324:188|248:227,1,84.4999961318971,2|0,1:2|0:0,0:0:0:0:
96,332,50123,2,0,P|106:291|137:262,1,84.4999961318971,2|0,3:2|0:0,0:0:0:0:
242,125,50339,2,0,P|221:161|184:181,1,84.4999961318971,10|0,1:2|0:0,0:0:0:0:
19,221,50555,2,0,P|48:191|89:181,1,84.4999961318971,2|0,3:2|0:0,0:0:0:0:
92,187,50770,6,0,P|51:197|22:227,1,84.4999961318971,6|0,1:2|0:0,0:0:0:0:
180,176,50986,2,0,P|217:156|238:120,1,84.4999961318971,2|0,3:2|0:0,0:0:0:0:
143,270,51202,2,0,P|112:299|101:340,1,84.4999961318971,10|0,1:2|0:0,0:0:0:0:
302,207,51418,2,0,P|323:171|323:129,1,84.4999961318971,2|0,3:2|0:0,0:0:0:0:
229,296,51634,2,0,P|217:336|228:377,1,84.4999961318971,2|0,1:2|0:0,0:0:0:0:
428,310,51850,2,0,P|429:269|408:232,1,84.4999961318971,2|0,3:2|3:0,0:0:0:0:
328,310,52065,2,0,P|338:351|368:381,1,84.4999961318971,10|0,1:2|0:0,0:0:0:0:
507,207,52281,2,0,P|487:170|450:149,1,84.4999961318971,2|0,3:2|0:0,0:0:0:0:
235,28,52497,6,0,P|125:72|42:97,1,168.999992263794,6|2,0:2|1:2,0:0:0:0:
238,280,52929,1,8,3:2:0:0:
281,219,53037,2,2,P|263:133|258:85,1,84.4999961318971,2|2,3:0|0:0,0:0:0:0:
93,198,53252,1,0,3:0:0:0:
45,260,53360,2,0,P|115:289|174:333,1,84.4999961318971,0|0,1:2|0:0,0:0:0:0:
385,384,53576,1,2,3:2:0:0:
421,282,53684,2,0,P|330:313|298:317,1,84.4999961318971,2|8,3:2|1:2,0:0:0:0:
178,182,53900,1,0,1:0:0:0:
209,111,54008,1,0,1:0:0:0:
271,155,54116,1,0,1:0:0:0:
330,106,54224,6,0,B|441:87|368:66|522:37,1,188.500005752564,6|4,1:2|3:0,0:0:0:0:
433,178,54547,1,0,0:0:0:0:
512,196,54655,2,0,B|375:221|448:242|337:261,1,188.500005752564,6|4,1:2|3:0,0:0:0:0:
390,41,54979,1,4,3:0:0:0:
326,93,55087,2,0,B|437:74|364:53|500:27,2,188.500005752564,6|4|6,1:2|3:0|1:2,0:0:0:0:
247,93,55627,1,0,3:0:0:0:
247,93,55734,2,0,P|240:9|248:-29,1,94.2500028762818,2|0,3:2|0:0,0:0:0:0:
3,236,55950,6,0,P|42:250|64:285,1,84.4999961318971,6|0,0:0|0:0,0:0:0:0:
144,259,56166,2,0,P|161:296|152:337,1,84.4999961318971,2|0,3:2|0:0,0:0:0:0:
93,179,56382,2,0,P|115:144|154:129,1,84.4999961318971,10|0,1:2|0:0,0:0:0:0:
183,57,56598,2,0,P|222:71|244:106,1,84.4999961318971,2|0,3:2|0:0,0:0:0:0:
240,339,56814,2,0,P|254:299|289:277,1,84.4999961318971,2|0,1:2|0:0,0:0:0:0:
258,203,57029,2,0,P|295:185|336:194,1,84.4999961318971,2|0,3:2|0:0,0:0:0:0:
506,384,57245,2,0,P|471:361|456:322,1,84.4999961318971,10|0,1:2|0:0,0:0:0:0:
375,308,57461,2,0,P|389:268|424:246,1,84.4999961318971,2|0,3:2|0:0,0:0:0:0:
428,251,57677,6,0,P|393:273|379:313,1,84.4999961318971,6|0,1:2|0:0,0:0:0:0:
462,319,57893,2,0,P|477:358|512:381,1,84.4999961318971,2|0,3:2|0:0,0:0:0:0:
337,200,58109,2,0,P|296:191|259:209,1,84.4999961318971,10|0,1:2|0:0,0:0:0:0:
294,282,58324,2,0,P|259:304|245:344,1,84.4999961318971,2|0,3:2|0:0,0:0:0:0:
242,108,58540,2,0,P|220:73|181:59,1,84.4999961318971,2|0,1:2|0:0,0:0:0:0:
157,131,58756,2,0,P|118:146|96:181,1,84.4999961318971,2|0,3:2|0:0,0:0:0:0:
142,332,58972,2,0,P|151:291|134:254,1,84.4999961318971,10|0,1:2|0:0,0:0:0:0:
61,295,59188,2,0,P|39:260|0:246,1,84.4999961318971,2|0,3:2|0:0,0:0:0:0:
229,206,59404,6,0,P|295:216|368:235,1,126.749994197846,6|0,0:0|0:0,0:0:0:0:
353,230,59619,2,0,L|337:123,1,84.4999961318971,2|0,3:2|0:0,0:0:0:0:
358,0,59835,1,10,1:2:0:0:
341,22,59943,1,2,0:2:0:0:
384,46,60051,1,2,3:2:0:0:
324,65,60159,1,2,0:2:0:0:
430,115,60267,2,0,P|471:125|535:169,1,84.4999961318971,2|0,1:2|0:0,0:0:0:0:
242,97,60483,2,0,B|221:58|221:58|235:-23,1,84.4999961318971,2|0,3:1|0:0,0:0:0:0:
443,223,60699,2,0,B|352:241|389:286|285:311,1,168.999992263794,10|0,1:2|3:0,0:0:0:0:
118,197,61022,5,4,3:0:0:0:
191,161,61130,2,0,P|195:213|183:313,1,94.2500028762818,6|0,1:2|0:0,0:0:0:0:
24,312,61346,2,0,P|28:260|16:160,1,94.2500028762818,2|0,1:0|0:0,0:0:0:0:
208,50,61562,2,0,P|99:79|62:85,1,94.2500028762818,6|0,1:2|0:0,0:0:0:0:
89,384,61778,1,4,3:0:0:0:
151,342,61886,1,4,3:0:0:0:
220,384,61993,2,0,P|264:369|310:358,1,94.2500028762818,6|0,1:2|0:0,0:0:0:0:
512,264,62209,2,0,B|439:248|439:248|417:210|417:210|309:183,2,188.500005752564,6|8|2,1:2|1:2|1:1,0:0:0:0:
427,349,62749,5,0,3:0:0:0:
427,349,62857,2,0,L|413:237,1,84.4999961318971,6|0,1:2|0:2,0:2:0:0:
258,92,63073,2,0,L|268:175,1,84.4999961318971,2|0,3:2|0:2,0:2:0:0:
314,383,63288,2,0,L|324:299,1,84.4999961318971,10|0,1:2|0:2,0:2:0:0:
167,63,63504,2,0,L|156:146,1,84.4999961318971,2|0,3:2|0:2,0:2:0:0:
223,349,63720,2,0,L|212:265,1,84.4999961318971,2|0,1:2|0:2,0:2:0:0:
359,57,63936,2,0,L|369:140,1,84.4999961318971,2|0,3:2|0:2,0:2:0:0:
104,371,64152,2,0,L|114:287,1,84.4999961318971,10|0,1:2|0:2,0:2:0:0:
70,31,64368,2,0,L|59:114,1,84.4999961318971,2|0,3:2|0:2,0:2:0:0:
65,115,64583,6,0,L|75:31,1,84.4999961318971,6|0,1:2|0:2,0:2:0:0:
109,289,64799,2,0,L|98:372,1,84.4999961318971,2|0,3:2|0:2,0:2:0:0:
364,147,65015,2,0,L|354:64,1,84.4999961318971,10|0,1:2|0:2,0:2:0:0:
210,273,65231,2,0,L|221:357,1,84.4999961318971,2|0,3:2|0:2,0:2:0:0:
160,148,65447,2,0,L|171:65,1,84.4999961318971,2|0,1:2|0:2,0:2:0:0:
327,301,65663,2,0,L|317:385,1,84.4999961318971,2|0,3:2|0:2,0:2:0:0:
266,179,65878,2,0,L|256:96,1,84.4999961318971,10|0,1:2|0:2,0:2:0:0:
423,269,66094,2,0,L|433:352,1,84.4999961318971,2|0,3:2|0:2,0:2:0:0:
445,61,66310,5,6,1:2:0:0:
145,205,66526,1,2,3:2:0:0:
127,182,66634,1,4,3:0:0:0:
139,148,66742,1,8,1:2:0:0:
178,124,66850,1,0,1:0:0:0:
228,138,66957,1,2,1:2:0:0:
263,185,67065,1,2,1:2:0:0:
246,254,67173,1,2,1:2:0:0:
179,301,67281,1,2,1:2:0:0:
91,270,67389,1,2,1:2:0:0:
40,174,67497,1,2,1:2:0:0:
100,122,67605,1,10,1:2:0:0:
108,143,67713,1,4,3:0:0:0:
128,143,67822,2,0,P|137:104|111:73,1,84.4999961318971,2|4,3:2|3:0,0:0:0:0:
37,40,68037,5,6,1:0:0:0:
37,40,68145,1,2,1:0:0:0:
130,0,68252,1,2,1:2:0:0:
194,69,68360,1,2,1:2:0:0:
284,48,68468,1,8,1:2:0:0:
130,299,68684,1,2,1:2:0:0:
204,206,68792,1,2,1:1:0:0:
303,271,68900,1,8,1:2:0:0:
368,210,69008,1,2,1:2:0:0:
429,255,69116,2,0,B|450:202|450:202|429:120,1,104,2|0,1:2|0:0,0:0:0:0:
156,119,69332,6,0,P|124:91|163:105,1,116.999996429443,6|0,1:0|0:0,0:0:0:0:
317,314,69547,2,0,P|348:286|309:300,1,116.999996429443,6|0,1:0|0:0,0:0:0:0:
228,365,69763,6,0,P|236:198|256:19,1,331.500006322861,6|0,0:0|0:0,0:0:0:0:
194,39,72427,5,2,1:2:0:0:
124,89,72593,1,2,1:2:0:0:
178,180,72760,1,2,1:2:0:0:
151,148,74093,6,0,P|114:165|87:306,1,195,6|0,0:0|0:0,0:0:0:0:
163,288,74427,2,0,P|216:351|344:322,1,195,6|0,0:0|0:0,0:0:0:0:
326,266,74760,2,0,P|420:220|414:87,1,195,6|0,0:0|0:0,0:0:0:0:
376,45,75093,6,0,L|227:82,1,116.999996429443,2|0,3:2|0:0,0:0:0:0:
357,137,75427,2,0,L|193:177,1,156,4|0,3:2|0:0,0:0:0:0:
344,228,75760,2,0,L|147:276,1,195,4|0,1:2|0:0,0:0:0:0:
327,318,76093,2,0,L|90:376,1,233.999992858887,6|0,1:0|0:0,0:0:0:0:
18,361,76427,6,0,B|32:263|52:324|60:214,1,130,2|0,3:2|3:0,0:0:0:0:
61,114,76927,1,2,0:0:0:0:
122,189,77093,2,0,P|136:141|134:108,2,65,2|0|0,3:2|0:0|3:0,0:0:0:0:
0,282,77593,5,2,0:0:0:0:
0,282,77760,2,0,P|58:291|144:329,1,130,2|0,3:2|3:0,0:0:0:0:
277,171,78427,2,0,P|299:140|274:34,1,130,2|0,0:0|3:0,0:0:0:0:
227,10,78927,1,2,0:0:0:0:
244,247,79093,6,0,P|230:315|225:328,1,65,2|0,3:2|0:0,0:0:0:0:
354,209,79427,2,0,P|368:277|373:290,1,65,0|0,3:0|0:0,0:0:0:0:
175,128,79760,2,0,P|164:187|156:215,1,65,2|0,3:2|0:0,0:0:0:0:
390,66,80093,2,0,P|404:134|409:147,1,65,0|0,3:0|0:0,0:0:0:0:
149,48,80426,6,0,P|89:55|41:129,1,130,2|0,3:2|0:0,0:0:0:0:
9,172,81093,1,2,3:2:0:0:
79,203,81426,1,2,3:2:0:0:
12,332,81760,6,0,P|104:304|173:285,1,155.999995239258,2|0,1:2|3:0,0:0:0:0:
328,212,82260,1,0,1:0:0:0:
257,172,82426,2,0,P|250:251|257:274,1,77.999997619629,2|0,3:2|0:0,0:0:0:0:
415,299,82760,2,0,P|483:278|523:271,1,77.999997619629,8|0,1:2|0:0,0:0:0:0:
287,315,83093,6,0,B|189:333|256:366|118:389,1,155.999995239258,2|0,1:2|0:0,0:0:0:0:
74,181,83593,1,0,1:0:0:0:
27,243,83760,2,0,P|90:277|152:281,1,116.999996429443,2|0,3:2|0:0,0:0:0:0:
134,282,84093,2,0,P|146:230|160:188,1,77.999997619629,8|0,1:2|0:0,0:0:0:0:
228,29,84426,6,0,P|157:62|82:80,1,155.999995239258,0|0,1:0|3:0,0:0:0:0:
245,141,84926,1,0,1:0:0:0:
331,90,85093,2,0,P|323:30|326:-15,1,77.999997619629,2|0,3:2|0:0,0:0:0:0:
428,198,85426,2,0,P|429:236|435:275,1,77.999997619629,10|0,1:2|0:0,0:0:0:0:
512,126,85760,5,0,1:0:0:0:
396,119,85926,1,4,0:3:0:0:
331,200,86093,1,4,3:0:0:0:
330,289,86260,1,4,0:3:0:0:
382,343,86426,1,0,1:0:0:0:
382,343,86760,2,0,P|420:335|482:322,1,77.999997619629,8|0,0:2|0:0,0:0:0:0:
278,135,87093,6,0,P|231:142|200:343,1,272.999991668701,2|0,1:2|1:0,0:0:0:0:
402,256,87760,2,0,P|390:164|377:45,1,181.999994445801,2|8,1:2|0:2,0:0:0:0:
409,0,88260,1,2,0:0:0:0:
174,112,88426,6,0,P|142:52|259:51,1,227.499993057251,0|0,1:0|0:2,0:0:0:0:
252,48,88926,1,2,1:2:0:0:
219,288,89093,2,0,B|163:275|163:275|133:209|133:209|72:194,1,181.999994445801,2|8,1:2|0:2,0:0:0:0:
44,267,89593,1,0,0:0:0:0:
230,187,89760,6,0,P|303:173|419:146,1,181.999994445801,2|0,1:2|0:0,0:0:0:0:
442,233,90260,1,2,1:2:0:0:
314,46,90426,2,0,P|305:103|297:155,1,90.9999972229005,2|0,1:2|0:0,0:0:0:0:
374,340,90760,1,8,1:2:0:0:
240,205,90926,1,2,3:2:0:0:
374,340,91093,6,0,P|352:306|295:301,1,90.9999972229005,2|0,1:2|0:0,0:0:0:0:
251,355,91426,1,0,3:0:0:0:
251,355,91593,1,0,1:0:0:0:
100,217,91760,2,0,P|78:187|105:118,1,90.9999972229005,2|0,3:2|3:0,3:0:0:0:
299,57,92093,2,0,P|255:66|231:104,1,90.9999972229005,10|0,1:2|3:0,3:0:0:0:
269,198,92426,5,2,1:2:0:0:
289,184,92593,1,0,3:0:0:0:
327,178,92760,1,8,1:2:0:0:
374,190,92926,1,0,1:0:0:0:
410,236,93093,1,0,1:0:0:0:
420,290,93260,1,0,3:0:0:0:
386,354,93426,1,8,1:2:0:0:
308,368,93593,1,0,3:0:0:0:
146,235,93760,5,2,1:2:0:0:
224,265,93926,1,0,3:0:0:0:
138,312,94093,1,8,1:2:0:0:
213,342,94260,1,0,1:0:0:0:
404,128,94426,5,2,1:2:0:0:
309,164,94593,1,0,3:0:0:0:
413,221,94760,1,8,1:2:0:0:
322,257,94926,1,0,1:0:0:0:
252,18,95093,5,2,1:2:0:0:
240,0,95204,2,0,L|220:89,1,69.3333333333333,2|2,0:0|3:2,0:0:0:0:
331,61,95426,5,10,1:2:0:0:
340,42,95538,2,0,L|360:131,1,69.3333333333333,2|2,0:0|3:2,0:0:0:0:
199,157,95760,5,2,1:2:0:0:
187,140,95871,2,0,L|167:229,1,69.3333333333333,2|2,0:0|3:2,0:0:0:0:
312,216,96093,5,10,1:2:0:0:
326,189,96204,2,0,L|346:278,1,69.3333333333333,2|2,0:0|3:2,0:0:0:0:
238,332,96426,5,12,1:2:0:0:
274,86,96593,1,0,1:2:0:0:
238,332,96760,1,8,1:2:0:0:
274,86,96926,1,0,1:2:0:0:
335,310,97093,5,0,1:0:0:0:
367,294,97176,1,0,1:0:0:0:
389,266,97260,1,0,1:0:0:0:
396,231,97343,1,0,1:0:0:0:
385,196,97426,1,0,1:0:0:0:
360,171,97510,1,0,1:0:0:0:
326,159,97593,1,0,1:0:0:0:
291,165,97676,1,0,1:0:0:0:
262,186,97760,5,6,1:2:0:0:
382,65,97926,1,2,0:0:0:0:
262,186,98093,2,0,P|253:132|238:50,1,104,10|0,1:2|0:0,0:0:0:0:
386,223,98426,1,2,1:2:0:0:
163,139,98593,1,2,3:2:0:0:
386,223,98760,2,0,P|426:189|485:191,1,104,10|0,1:2|0:0,0:0:0:0:
274,280,99093,5,0,1:0:0:0:
479,338,99260,1,2,3:2:0:0:
226,353,99426,2,0,P|279:368|342:389,1,104,10|0,1:2|0:0,0:0:0:0:
343,137,99760,1,2,1:2:0:0:
397,340,99926,1,2,1:2:0:0:
421,97,100093,1,8,1:2:0:0:
368,267,100260,1,2,3:2:0:0:
347,58,100426,5,2,1:2:0:0:
446,272,100593,1,2,0:0:0:0:
238,168,100760,1,10,1:2:0:0:
502,216,100926,1,2,3:2:0:0:
190,231,101093,2,0,P|141:246|78:263,1,104,0|0,1:0|0:0,0:0:0:0:
328,355,101426,2,0,P|353:310|347:260,1,104,10|2,3:2|0:0,0:0:0:0:
223,4,101760,5,0,1:0:0:0:
167,4,101871,1,2,0:0:0:0:
135,49,101982,1,2,0:0:0:0:
155,100,102093,1,10,0:2:0:0:
313,163,102260,1,2,0:0:0:0:
104,247,102426,1,2,1:2:0:0:
208,167,102593,1,2,0:0:0:0:
402,194,102760,1,10,1:2:0:0:
449,380,102926,1,2,3:2:0:0:
187,273,103093,5,6,1:2:0:0:
467,232,103260,1,2,1:2:0:0:
286,353,103426,1,10,1:2:0:0:
120,231,103593,1,0,1:2:0:0:
389,179,103760,5,6,1:2:0:0:
113,136,103926,1,2,1:2:0:0:
290,260,104093,1,10,1:2:0:0:
456,135,104260,1,0,1:2:0:0:
176,70,104426,5,6,1:2:0:0:
229,304,104593,1,2,1:2:0:0:
454,217,104760,1,10,1:2:0:0:
316,185,104926,1,0,1:0:0:0:
364,19,105093,5,6,1:2:0:0:
305,259,105260,1,2,1:2:0:0:
91,176,105426,1,10,1:2:0:0:
236,126,105593,1,0,1:0:0:0:
105,355,105760,5,6,1:2:0:0:
379,283,105926,1,2,1:2:0:0:
162,170,106093,2,0,P|170:227|163:290,1,116.999996429443,8|0,1:2|1:0,0:0:0:0:
355,370,106426,5,6,1:2:0:0:
64,240,106593,1,2,1:2:0:0:
331,101,106760,2,0,P|323:158|330:221,1,116.999996429443,8|0,1:2|1:0,0:0:0:0:
213,351,107093,5,2,1:2:0:0:
374,384,107260,1,2,1:2:0:0:
497,229,107426,1,10,1:2:0:0:
375,0,107593,1,2,1:2:0:0:
223,229,107760,5,2,1:2:0:0:
180,209,107843,1,0,1:0:0:0:
156,168,107926,1,2,1:2:0:0:
153,121,108010,1,0,1:0:0:0:
181,83,108093,1,10,1:2:0:0:
224,66,108176,1,0,1:0:0:0:
270,71,108260,1,2,1:2:0:0:
305,102,108343,1,0,1:0:0:0:
310,144,108426,6,0,L|253:160,3,58.4999982147217,0|0|0|0,1:0|3:0|3:0|3:0,0:0:0:0:
379,186,108760,2,0,L|436:202,3,52,2|0|0|0,3:2|3:0|3:0|3:0,0:0:0:0:
321,245,109093,2,0,L|264:261,3,45.4999986114502,2|0|0|0,3:2|3:0|3:0|3:0,0:0:0:0:
372,310,109426,2,0,L|429:326,3,38.9999988098145,2|0|0|0,3:2|3:0|3:0|3:0,0:0:0:0:
323,380,109760,5,2,0:0:0:0:
289,353,109926,1,2,0:0:0:0:
270,366,110093,2,0,B|179:372|216:329|101:329,2,155.999995239258,2|0|0,0:0|0:0|0:0,0:0:0:0:
423,100,111093,5,6,1:2:0:0:
234,222,111260,1,2,3:2:0:0:
135,167,111426,1,10,1:2:0:0:
321,138,111593,1,2,3:2:0:0:
340,336,111760,1,2,1:2:0:0:
156,263,111926,1,2,3:2:0:0:
269,68,112093,2,0,P|329:51|406:31,1,110.50000210762,10|0,1:2|0:0,0:0:0:0:
343,253,112426,5,2,1:2:0:0:
221,136,112593,1,2,3:2:0:0:
48,308,112760,2,0,B|22:262|22:262|55:193,1,110.50000210762,10|0,1:2|0:0,0:0:0:0:
286,86,113093,2,0,P|269:182|257:282,1,165.75000316143,2|0,1:2|0:0,0:0:0:0:
260,249,113426,2,0,P|198:266|141:289,1,110.50000210762,8|0,1:2|0:0,0:0:0:0:
335,301,113760,5,2,1:2:0:0:
147,198,113926,1,2,0:2:0:0:
382,233,114093,1,10,1:2:0:0:
183,126,114260,1,2,0:2:0:0:
266,367,114426,1,2,1:2:0:0:
450,309,114593,1,2,3:2:0:0:
370,129,114760,1,10,1:2:0:0:
307,258,114926,5,2,3:2:0:0:
307,258,115010,1,0,3:0:0:0:
307,258,115093,1,0,1:0:0:0:
309,64,115260,1,2,3:2:0:0:
478,170,115426,1,10,1:2:0:0:
369,327,115593,1,2,3:2:0:0:
248,183,115760,2,0,P|309:164|377:141,1,110.50000210762,2|0,1:2|0:0,0:0:0:0:
250,379,116093,2,0,B|152:358|212:313|90:292,1,165.75000316143,10|0,1:2|0:0,0:0:0:0:
97,313,116426,5,6,1:2:0:0:
5,163,116593,1,2,3:2:0:0:
233,52,116760,1,10,1:2:0:0:
44,85,116926,1,2,3:2:0:0:
216,258,117093,1,0,1:2:0:0:
345,103,117260,1,2,3:2:0:0:
160,0,117426,2,0,P|147:88|138:150,1,110.50000210762,8|0,1:2|0:0,0:0:0:0:
286,168,117760,5,2,1:2:0:0:
75,243,117926,1,2,3:2:0:0:
335,228,118093,2,0,P|382:232|429:295,1,110.50000210762,10|0,1:2|0:0,0:0:0:0:
97,384,118426,2,0,P|129:333|256:329,1,165.75000316143,2|0,1:2|0:2,0:0:0:0:
227,313,118760,2,0,P|216:237|206:163,1,110.50000210762,8|0,1:2|0:0,0:0:0:0:
101,0,119093,5,6,1:2:0:0:
52,207,119260,1,2,3:2:0:0:
162,34,119426,1,10,1:2:0:0:
113,241,119593,1,2,3:2:0:0:
280,222,119760,1,2,1:2:0:0:
254,66,119926,1,2,3:2:0:0:
20,138,120093,1,10,1:2:0:0:
203,192,120260,5,2,3:2:0:0:
203,192,120343,1,0,3:0:0:0:
203,192,120426,1,0,1:0:0:0:
106,91,120593,1,2,3:2:0:0:
334,165,120760,1,10,1:2:0:0:
213,323,120926,1,2,3:2:0:0:
61,205,121093,2,0,P|19:250|31:317,1,110.50000210762,2|0,1:2|0:0,0:0:0:0:
310,238,121426,2,0,P|291:114|282:23,1,165.75000316143,8|0,1:2|0:0,0:0:0:0:
277,64,121760,5,6,1:2:0:0:
412,146,121926,1,2,3:2:0:0:
392,318,122093,1,10,1:2:0:0:
193,355,122260,1,2,3:2:0:0:
135,289,122426,1,2,1:2:0:0:
322,230,122593,1,2,3:2:0:0:
320,0,122760,2,0,P|369:42|364:92,1,110.50000210762,10|0,1:2|0:0,0:0:0:0:
240,280,123093,5,2,1:2:0:0:
157,42,123260,1,2,3:2:0:0:
240,280,123426,2,0,P|196:249|192:196,1,110.50000210762,10|0,1:2|0:0,0:0:0:0:
463,79,123760,2,0,P|448:175|433:278,1,165.75000316143,2|0,1:2|0:0,0:0:0:0:
441,246,124093,2,0,P|382:220|311:198,1,110.50000210762,8|0,1:2|0:0,0:0:0:0:
86,208,124426,6,0,B|154:214|183:152|168:148|154:145|194:82|267:98,1,221.000004215241,6|8,1:2|1:2,0:0:0:0:
147,32,124926,1,2,3:2:0:0:
282,255,125093,2,0,P|291:173|311:31,1,221.000004215241,2|8,1:2|1:2,0:0:0:0:
242,1,125593,1,2,3:2:0:0:
371,202,125760,5,2,1:2:0:0:
198,262,125926,1,0,3:0:0:0:
371,202,126093,1,8,1:2:0:0:
159,169,126260,1,2,3:2:0:0:
358,384,126426,2,0,B|383:344|383:344|358:268,1,110.50000210762,2|0,1:2|3:0,0:0:0:0:
355,286,126676,1,0,3:0:0:0:
355,286,126760,1,8,1:2:0:0:
206,365,126926,1,2,3:2:0:0:
223,89,127093,6,0,P|272:112|325:130,2,110.50000210762,2|0|8,1:2|3:0|1:2,0:0:0:0:
337,38,127593,1,2,3:2:0:0:
124,280,127760,2,0,P|173:256|226:238,2,110.50000210762,2|0|8,1:2|3:0|1:2,0:0:0:0:
163,164,128260,1,2,3:2:0:0:
3,338,128426,6,0,B|0:226|57:289|56:149,1,165.75000316143,2|0,1:2|0:0,0:0:0:0:
54,185,128760,2,0,B|32:132|32:132|50:73,1,110.50000210762,10|0,1:2|0:0,0:0:0:0:
373,59,129093,2,0,P|286:86|206:111,1,165.75000316143,2|0,1:2|0:0,0:0:0:0:
214,108,129426,2,0,P|202:42|191:-2,1,110.50000210762,10|0,1:2|0:0,0:0:0:0:
379,146,129760,6,0,P|437:165|445:310,1,221.000004215241,6|10,1:2|1:2,0:0:0:0:
377,261,130260,1,0,3:0:0:0:
212,372,130426,2,0,P|219:316|285:290,1,110.50000210762,2|0,1:2|0:0,0:0:0:0:
68,159,130760,2,0,P|75:215|141:241,1,110.50000210762,10|0,1:2|0:0,0:0:0:0:
330,76,131093,6,0,B|271:93|271:93|252:128|252:128|165:155,1,165.75000316143,6|0,1:2|0:0,0:0:0:0:
176,140,131426,1,8,1:2:0:0:
358,384,131593,2,0,L|384:150,1,221.000004215241,4|0,1:2|0:0,0:0:0:0:
254,336,132093,2,0,B|234:287|234:287|255:233,1,110.50000210762,10|0,1:2|0:0,0:0:0:0:
404,65,132426,5,6,1:2:0:0:
276,8,132593,1,2,1:2:0:0:
103,75,132760,1,2,1:2:0:0:
107,279,132926,1,2,1:2:0:0:
156,213,133260,1,2,1:2:0:0:
280,214,133593,1,2,1:2:0:0:
368,329,133760,5,6,1:2:0:0:
106,380,133926,1,6,1:2:0:0:
5,135,134093,1,6,1:2:0:0:
116,0,135426,6,0,B|228:30|171:96|311:119,1,195,6|0,1:2|0:0,0:0:0:0:
422,85,135760,2,0,B|321:142|393:191|264:250,1,195,6|0,1:2|0:0,0:0:0:0:
167,166,136093,2,0,B|248:247|166:276|276:366,1,195,6|0,1:2|0:0,0:0:0:0:
319,384,136426,5,6,1:2:0:0:
367,316,136593,1,2,3:2:0:0:
446,349,136760,1,10,1:2:0:0:
446,349,136926,1,0,3:0:0:0:
175,305,137093,5,6,1:2:0:0:
122,230,137260,1,2,3:2:0:0:
35,266,137427,1,10,1:2:0:0:
35,266,137593,1,0,3:0:0:0:
286,219,137760,5,6,1:2:0:0:
344,136,137927,1,2,3:2:0:0:
440,176,138094,1,10,1:2:0:0:
440,176,138260,1,0,3:0:0:0:
197,94,138426,5,6,1:2:0:0:
133,2,138593,1,2,3:2:0:0:
27,46,138760,1,10,1:2:0:0:
27,46,138926,1,0,3:0:0:0:
252,216,139093,5,6,1:2:0:0:
290,59,139260,1,2,3:2:0:0:
252,216,139426,2,0,P|267:307|271:373,1,123.499996702194,10|0,1:2|0:0,0:0:0:0:
394,262,139760,1,6,1:2:0:0:
356,105,139927,1,2,3:2:0:0:
394,262,140093,2,0,P|379:353|375:419,1,123.499996702194,10|0,1:2|0:0,0:0:0:0:
158,210,140426,5,6,1:2:0:0:
196,53,140593,1,2,3:2:0:0:
158,210,140759,2,0,P|173:301|177:367,1,123.499996702194,10|0,1:2|0:0,0:0:0:0:
470,194,141093,1,6,1:2:0:0:
432,37,141260,1,2,3:2:0:0:
470,194,141426,2,0,P|455:285|451:351,1,123.499996702194,10|0,1:2|0:0,0:0:0:0:
122,88,141760,5,2,1:2:0:0:
355,184,141926,1,2,3:2:0:0:
245,377,142093,1,8,1:2:0:0:
164,309,142260,1,0,1:0:0:0:
234,19,142426,5,2,1:2:0:0:
21,146,142592,1,2,3:2:0:0:
243,279,142759,1,8,1:2:0:0:
179,193,142926,1,0,1:0:0:0:
416,225,143093,5,2,1:2:0:0:
369,3,143259,1,2,3:2:0:0:
156,86,143426,1,8,1:2:0:0:
250,141,143593,1,0,1:0:0:0:
222,359,143760,5,2,1:2:0:0:
326,131,143926,1,2,3:2:0:0:
502,285,144093,1,8,1:2:0:0:
420,358,144260,1,0,1:0:0:0:
124,148,144426,5,6,1:2:0:0:
342,251,144593,1,2,1:2:0:0:
416,14,144760,1,8,1:2:0:0:
316,50,144926,1,0,1:0:0:0:
437,130,145093,5,2,1:2:0:0:
189,199,145260,1,2,1:2:0:0:
428,302,145427,1,8,1:2:0:0:
331,232,145593,1,0,1:0:0:0:
497,34,145760,5,2,1:2:0:0:
290,150,145927,1,2,1:2:0:0:
392,367,146094,1,8,1:2:0:0:
505,257,146260,1,0,1:0:0:0:
173,384,146426,5,2,1:2:0:0:
134,350,146510,1,0,1:0:0:0:
124,300,146593,1,2,1:2:0:0:
145,253,146676,1,0,1:0:0:0:
194,233,146760,2,0,L|291:275,1,65,10|0,1:2|3:0,0:0:0:0:
153,143,146926,2,0,L|93:168,1,65,0|0,1:2|3:0,0:0:0:0:
5,256,147093,5,6,1:2:0:0:
5,256,147260,1,2,3:2:0:0:
274,181,147426,2,0,P|284:96|301:13,1,156,8|0,1:2|0:0,0:0:0:0:
297,26,147760,2,0,P|231:52|173:55,1,104,2|0,1:2|0:0,0:0:0:0:
404,246,148093,2,0,P|414:175|400:122,1,104,10|0,1:2|0:0,0:0:0:0:
142,170,148426,5,2,1:2:0:0:
311,270,148593,1,2,3:2:0:0:
142,170,148760,2,0,P|90:179|71:253,1,104,10|0,1:2|0:0,0:0:0:0:
256,375,149093,2,0,P|241:326|195:306,1,104,2|0,1:2|0:0,0:0:0:0:
323,106,149426,2,0,P|321:156|282:187,1,104,10|0,1:2|0:0,0:0:0:0:
11,15,149760,6,0,P|110:33|213:50,1,156,2|0,1:2|0:0,0:0:0:0:
172,59,150093,1,8,1:2:0:0:
60,110,150260,1,2,3:2:0:0:
261,7,150426,2,0,P|250:70|242:148,1,104,2|0,1:2|0:0,0:0:0:0:
43,295,150760,2,0,B|16:248|16:248|46:180,1,104,10|0,1:2|0:0,0:0:0:0:
308,168,151093,5,2,1:2:0:0:
139,250,151260,1,2,3:2:0:0:
308,168,151426,2,0,P|374:186|431:198,1,104,10|0,1:2|0:0,0:0:0:0:
334,354,151760,1,2,1:2:0:0:
334,354,151843,1,2,0:0:0:0:
334,354,151926,2,0,L|318:302,1,52,2|2,3:2|0:0,0:0:0:0:
230,195,152093,1,10,1:2:0:0:
230,195,152176,1,2,0:0:0:0:
230,195,152259,2,0,L|214:247,1,52,2|2,3:2|0:0,0:0:0:0:
140,302,152426,5,6,1:2:0:0:
348,231,152593,1,2,3:2:0:0:
72,243,152760,2,0,P|63:162|105:128,1,104,10|0,1:2|0:0,0:0:0:0:
321,0,153093,2,0,P|310:110|299:205,1,156,2|0,1:2|0:0,0:0:0:0:
304,155,153426,2,0,P|334:118|402:119,1,104,10|0,1:2|0:0,0:0:0:0:
252,277,153760,5,2,1:2:0:0:
196,62,153926,1,2,3:2:0:0:
252,277,154093,2,0,B|235:329|235:329|261:389,1,104,10|0,1:2|0:0,0:0:0:0:
336,376,154343,1,0,3:0:0:0:
336,376,154426,2,0,P|386:355|438:339,1,104,2|0,1:2|0:0,0:0:0:0:
197,197,154760,2,0,P|122:221|50:250,1,156,10|0,1:2|0:0,0:0:0:0:
34,244,155093,5,2,1:2:0:0:
191,330,155260,1,2,3:2:0:0:
289,156,155426,2,0,P|274:77|269:18,1,104,10|0,1:2|0:0,0:0:0:0:
117,0,155760,2,0,P|82:65|114:116,1,104,2|0,1:2|0:0,0:0:0:0:
352,266,156093,2,0,P|386:200|354:149,1,104,10|0,1:2|0:0,0:0:0:0:
218,0,156426,5,2,1:2:0:0:
218,0,156760,1,8,1:2:0:0:
240,367,157093,5,2,1:2:0:0:
201,377,157176,1,0,1:0:0:0:
162,372,157259,1,0,1:0:0:0:
127,352,157343,1,0,1:0:0:0:
103,321,157426,1,8,1:2:0:0:
93,283,157509,1,8,1:2:0:0:
99,243,157593,1,0,1:0:0:0:
119,209,157676,1,0,1:0:0:0:
186,195,157760,5,2,1:2:0:0:
219,228,157843,1,0,1:0:0:0:
264,245,157926,1,0,1:0:0:0:
314,240,158010,1,0,1:0:0:0:
355,218,158093,1,8,1:2:0:0:
385,182,158176,1,0,1:0:0:0:
399,135,158260,1,0,1:0:0:0:
395,88,158343,1,0,1:0:0:0:
333,53,158426,5,4,1:2:0:0:
277,348,158593,1,4,1:2:0:0:
248,0,158760,1,4,1:2:0:0:
39,83,161086,6,0,P|102:91|87:160,1,136.499995834351,2|0,0:2|3:0,0:0:0:0:
37,217,161499,2,0,L|15:148,1,45.4999986114502,8|0,1:2|0:0,0:0:0:0:
128,58,161706,1,2,3:2:0:0:
292,280,161913,5,2,1:0:0:0:
292,280,162017,2,0,P|243:240|292:181,1,110.50000210762,2|0,0:2|0:0,0:0:0:0:
187,147,162327,2,0,P|273:81|340:137,1,165.75000316143,10|0,1:2|0:0,0:0:0:0:
360,165,162741,5,2,1:2:0:0:
424,129,162844,1,2,1:2:0:0:
420,63,162948,1,2,3:2:0:0:
146,262,163154,5,2,1:2:0:0:
83,218,163258,1,2,1:2:0:0:
95,142,163361,1,2,3:2:0:0:
292,362,163568,6,0,B|347:351|353:305|353:305|395:265|465:282|480:344,1,233.999992858887,10|0,1:2|0:0,0:0:0:0:
505,233,163982,2,0,P|514:209|461:151,1,84.4999961318971,10|0,1:2|0:0,0:0:0:0:
265,36,164189,1,0,3:0:0:0:
200,84,164292,1,0,3:0:0:0:
250,146,164396,1,0,3:0:0:0:
215,260,164603,6,0,L|146:276,1,52,2|0,3:0|0:0,0:0:0:0:
147,300,164810,1,8,1:2:0:0:
328,95,165017,2,0,L|397:111,1,52,2|0,3:0|0:0,0:0:0:0:
396,135,165224,1,8,1:2:0:0:
125,138,165430,2,0,L|110:30,1,104,2|8,3:1|1:2,0:0:0:0:
365,234,165844,2,0,L|348:303,1,52,2|2,3:2|0:0,0:0:0:0:
322,353,166051,5,2,1:2:0:0:
352,368,166154,1,2,3:2:0:0:
299,384,166258,1,2,3:0:0:0:
152,228,166465,2,0,P|215:246|264:263,1,107.25000327301,8|0,1:2|0:0,0:0:0:0:
254,259,166672,2,0,P|267:219|255:179,1,71.5000021820069,2|0,3:2|0:0,0:0:0:0:
305,117,166879,1,0,1:0:0:0:
184,335,167086,1,2,3:0:0:0:
26,190,167292,2,0,P|0:121|27:53,1,143.000004364014,8|0,1:2|3:0,0:0:0:0:
281,22,167706,5,2,1:2:0:0:
205,10,167810,1,2,3:0:0:0:
159,69,167913,1,4,3:0:0:0:
181,138,168017,1,4,3:0:0:0:
253,164,168120,1,8,1:2:0:0:
295,137,168223,1,2,3:0:0:0:
284,116,168327,2,0,L|195:92,1,71.5000021820069,2|0,3:2|0:0,0:0:0:0:
101,229,168534,2,0,B|93:268|93:268|118:312,1,71.5000021820069,2|0,1:2|0:0,0:0:0:0:
184,268,168741,2,0,P|254:269|296:338,1,143.000004364014,2|0,3:1|1:0,0:0:0:0:
397,349,169051,1,0,3:0:0:0:
356,374,169154,1,2,3:0:0:0:
381,383,169258,1,0,3:0:0:0:
479,353,169361,5,2,1:2:0:0:
511,285,169465,1,4,3:0:0:0:
442,239,169568,1,6,3:0:0:0:
482,175,169672,1,4,3:0:0:0:
453,103,169775,1,8,1:2:0:0:
222,116,169982,2,0,P|253:99|269:68,1,71.5000021820069,2|0,3:0|0:0,0:0:0:0:
208,27,170189,2,0,L|95:57,1,71.5000021820069,2|0,1:2|0:0,0:0:0:0:
185,201,170396,2,0,L|72:231,1,71.5000021820069,2|0,1:2|0:0,0:0:0:0:
370,124,170603,2,0,L|548:171,1,143.000004364014,10|0,1:2|0:0,0:0:0:0:
316,257,171017,5,2,1:2:0:0:
231,296,171120,1,2,3:0:0:0:
306,335,171223,1,4,3:0:0:0:
255,365,171327,1,4,3:0:0:0:
283,383,171430,1,10,1:2:0:0:
288,168,171637,2,0,P|283:134|276:48,1,71.5000021820069,2|0,3:2|0:0,0:0:0:0:
288,9,171844,1,0,1:0:0:0:
318,5,171948,1,0,3:0:0:0:
324,19,172051,2,0,L|239:0,1,71.5000021820069,2|0,3:0|0:0,0:0:0:0:
188,70,172258,2,0,P|109:77|71:123,1,143.000004364014,10|0,1:2|0:0,0:0:0:0:
154,359,172672,5,6,1:2:0:0:
203,293,172775,1,2,3:0:0:0:
275,328,172879,1,2,3:2:0:0:
271,368,172982,1,4,3:0:0:0:
250,368,173086,2,0,L|266:257,1,77.999997619629,10|0,1:2|0:0,0:0:0:0:
365,120,173292,2,0,P|388:166|379:205,1,77.999997619629,2|0,3:2|0:0,0:0:0:0:
128,213,173499,1,2,1:2:0:0:
78,161,173603,2,0,P|86:69|182:26,1,155.999995239258,2|0,3:1|0:0,0:0:0:0:
370,10,173913,2,0,P|333:22|296:36,1,77.999997619629,10|0,1:2|0:0,0:0:0:0:
161,129,174120,2,0,P|200:135|234:155,1,77.999997619629,2|0,3:0|0:0,0:0:0:0:
391,317,174327,5,2,1:2:0:0:
358,236,174430,1,2,3:0:0:0:
409,170,174534,1,2,3:2:0:0:
451,164,174637,1,4,3:0:0:0:
464,193,174741,2,0,P|446:272|434:283,1,77.999997619629,10|0,1:2|0:0,0:0:0:0:
228,302,174948,1,2,3:2:0:0:
228,302,175051,2,0,L|108:270,1,77.999997619629,2|0,3:1|1:0,0:0:0:0:
140,198,175258,2,0,B|98:207|98:207|65:255,1,77.999997619629,2|0,3:2|0:0,0:0:0:0:
186,384,175465,1,2,3:2:0:0:
261,380,175568,2,0,L|240:168,1,155.999995239258,10|2,1:2|3:1,0:0:0:0:
277,153,175879,1,2,3:2:0:0:
214,73,175982,5,6,1:2:0:0:
266,0,176086,1,4,3:0:0:0:
194,56,176189,2,0,P|152:59|105:96,1,77.999997619629,2|4,3:2|3:0,0:0:0:0:
348,249,176396,2,0,P|412:225|446:161,1,116.999996429443,10|0,1:2|0:0,0:0:0:0:
439,186,176603,2,0,P|427:122|420:73,1,77.999997619629,2|0,3:2|0:0,0:0:0:0:
161,173,176810,2,0,B|123:245|123:245|166:344,1,155.999995239258,2|0,1:2|3:0,0:0:0:0:
255,239,177120,1,2,3:1:0:0:
276,169,177223,2,0,L|296:58,2,77.999997619629,10|0|2,1:2|0:2|0:1,0:0:0:0:
29,60,177637,5,2,1:2:0:0:
94,103,177741,1,2,3:2:0:0:
56,169,177844,2,0,L|-22:140,1,77.999997619629,2|4,3:0|3:0,0:0:0:0:
149,42,178051,1,8,1:2:0:0:
142,246,178258,2,0,L|41:280,1,77.999997619629,2|0,3:1|0:0,0:0:0:0:
241,88,178465,1,0,1:0:0:0:
283,339,178672,2,0,L|182:305,1,77.999997619629,2|0,3:1|0:0,0:0:0:0:
329,10,178879,1,10,1:2:0:0:
422,312,179086,5,2,1:2:0:0:
346,266,179189,1,2,1:1:0:0:
422,231,179292,2,0,P|481:217|477:111,1,136.499995834351,6|2,1:2|3:2,0:0:0:0:
441,100,179603,1,0,3:0:0:0:
441,100,179706,2,0,L|341:128,1,68.2499979171754,10|0,1:2|0:0,0:0:0:0:
290,160,179913,2,0,L|308:43,1,68.2499979171754,2|0,3:2|0:0,0:0:0:0:
165,214,180120,2,0,P|97:219|34:254,2,136.499995834351,2|2|10,1:2|3:0|1:2,0:0:0:0:
205,49,180741,6,0,P|196:93|204:151,1,68.2499979171754,2|0,3:1|0:0,0:0:0:0:
280,327,180948,1,0,1:0:0:0:
319,289,181051,1,4,3:0:0:0:
314,261,181154,2,0,P|277:244|228:248,1,68.2499979171754,2|0,3:2|3:0,0:0:0:0:
109,125,181361,2,0,P|75:127|44:143,1,68.2499979171754,2|0,1:2|0:0,0:0:0:0:
179,302,181568,1,2,1:0:0:0:
310,134,181775,1,0,1:0:0:0:
374,173,181879,2,0,B|449:147|406:120|487:94,1,136.499995834351,2|0,3:0|3:0,0:0:0:0:
297,26,182189,1,10,1:2:0:0:
297,26,182292,1,0,3:0:0:0:
297,26,182396,2,0,P|334:38|378:58,1,68.2499979171754,2|0,3:0|3:0,0:0:0:0:
328,266,182603,5,2,1:2:0:0:
266,221,182706,1,4,1:3:0:0:
210,273,182810,1,2,3:0:0:0:
247,337,182913,1,4,3:0:0:0:
274,345,183017,2,0,P|287:295|211:213,1,136.499995834351,10|0,1:2|3:0,0:0:0:0:
244,133,183327,1,4,3:0:0:0:
244,133,183430,2,0,P|180:118|129:98,1,68.2499979171754,2|0,1:2|0:0,0:0:0:0:
256,0,183637,2,0,P|175:25|72:36,1,136.499995834351,2|8,3:2|1:2,0:0:0:0:
117,328,184051,2,0,P|103:236|91:205,1,68.2499979171754,2|0,3:1|0:0,0:0:0:0:
372,153,184258,5,2,1:2:0:0:
372,153,184361,1,0,3:0:0:0:
372,153,184465,2,0,P|380:249|391:315,1,136.499995834351,2|8,3:0|1:2,0:0:0:0:
345,374,184775,1,4,3:0:0:0:
386,288,184879,2,0,P|415:341|396:377,1,68.2499979171754,2|0,3:0|0:0,0:0:0:0:
190,214,185086,2,0,P|245:219|282:289,1,136.499995834351,2|2,1:2|3:2,0:0:0:0:
226,344,185396,1,0,3:0:0:0:
226,344,185499,2,0,L|148:364,1,68.2499979171754,8|0,1:2|0:0,0:0:0:0:
1,216,185706,5,2,3:1:0:0:
60,266,185810,1,4,3:0:0:0:
17,199,185913,2,0,P|40:145|91:131,1,68.2499979171754,6|0,1:2|0:0,0:0:0:0:
141,37,186120,2,0,P|168:84|153:139,1,68.2499979171754,2|0,3:2|0:0,0:0:0:0:
0,36,186327,2,0,P|60:68|98:81,1,68.2499979171754,10|0,1:2|0:0,0:0:0:0:
167,240,186534,2,0,P|197:225|227:207,1,68.2499979171754,2|0,3:2|0:0,0:0:0:0:
381,245,186741,2,0,P|409:170|406:51,1,136.499995834351,2|2,1:2|3:0,0:0:0:0:
339,84,187051,1,0,3:0:0:0:
339,84,187154,2,0,P|327:13|303:-23,1,68.2499979171754,10|0,1:2|0:0,0:0:0:0:
174,135,187361,5,2,3:1:0:0:
234,180,187465,1,4,3:0:0:0:
164,206,187568,2,0,L|73:227,1,68.2499979171754,0|0,1:2|0:0,0:0:0:0:
247,348,187775,2,0,P|202:334|138:319,1,102.374996875763,2|0,3:2|0:0,0:0:0:0:
148,321,187982,2,0,P|139:365|129:407,1,68.2499979171754,10|0,1:2|0:0,0:0:0:0:
335,260,188189,2,0,P|345:232|315:158,1,68.2499979171754,2|0,3:2|0:0,0:0:0:0:
149,0,188396,1,2,1:2:0:0:
98,52,188499,2,0,P|171:98|254:80,1,136.499995834351,2|0,3:1|0:0,0:0:0:0:
449,0,188810,1,10,1:2:0:0:
449,0,189017,2,0,P|438:82|435:119,1,68.2499979171754,2|0,3:0|0:0,0:0:0:0:
512,202,189223,5,6,1:2:0:0:
512,202,189327,2,0,P|475:180|458:263,1,136.499995834351,2|0,3:2|0:0,0:0:0:0:
268,346,189637,2,0,P|216:304|234:246,1,121.875,10|0,1:2|0:0,0:0:0:0:
224,256,189844,2,0,L|310:280,1,81.25,2|0,3:2|0:0,0:0:0:0:
379,134,190051,6,0,P|398:96|287:59,1,204.749993751526,6|0,1:2|0:0,0:0:0:0:
119,225,190465,2,0,P|50:220|43:154,1,121.875,10|0,1:2|0:0,0:0:0:0:
35,178,190672,2,0,L|55:87,1,81.25,2|0,3:2|0:0,0:0:0:0:
164,3,190879,5,6,1:2:0:0:
200,72,190982,1,4,3:0:0:0:
134,112,191086,1,2,3:0:0:0:
307,173,191292,5,10,1:2:0:0:
253,205,191396,1,4,3:0:0:0:
283,260,191499,1,2,3:0:0:0:
177,314,191706,5,2,1:2:0:0:
198,352,191809,1,4,3:0:0:0:
160,374,191913,1,2,3:0:0:0:
265,81,192120,6,0,P|259:45|256:-11,1,77.999997619629,10|0,1:2|0:0,0:0:0:0:
308,156,192327,1,8,1:2:0:0:
239,235,192430,1,0,1:0:0:0:
279,300,192534,5,2,1:2:0:0:
128,221,192948,1,4,1:3:0:0:
378,91,193361,1,4,1:3:0:0:
159,8,193775,1,6,1:3:0:0:
181,18,193879,1,2,3:2:0:0:
189,45,193982,1,2,3:2:0:0:
177,66,194086,1,2,3:2:0:0:
171,141,194189,6,0,L|-4:92,1,168.999992263794,4|0,1:2|0:0,0:0:0:0:
102,218,194499,1,0,3:0:0:0:
75,240,194603,2,0,L|58:139,1,84.4999961318971,10|0,1:2|0:0,0:0:0:0:
275,37,194810,2,0,B|298:71|298:71|281:141,1,84.4999961318971,2|0,3:1|0:0,0:0:0:0:
138,325,195017,2,0,B|215:305|215:305|251:224|251:224|388:193,1,253.499988395691,2|0,1:0|0:0,0:0:0:0:
444,269,195430,1,10,1:2:0:0:
463,310,195534,1,0,3:0:0:0:
439,319,195637,2,0,L|425:204,1,84.4999961318971,2|0,3:0|0:0,0:0:0:0:
342,15,195844,5,2,1:1:0:0:
416,0,195948,1,4,3:0:0:0:
448,66,196051,1,2,3:0:0:0:
414,96,196154,1,4,3:0:0:0:
390,85,196258,2,0,P|357:49|270:51,1,84.4999961318971,10|0,1:2|0:0,0:0:0:0:
124,96,196465,2,0,P|113:53|154:1,1,84.4999961318971,2|0,3:1|0:0,0:0:0:0:
125,233,196672,2,0,P|44:183|45:69,1,168.999992263794,2|0,1:0|0:0,0:0:0:0:
230,38,196982,1,0,3:0:0:0:
221,64,197086,2,0,P|223:107|205:158,1,84.4999961318971,10|0,1:2|0:0,0:0:0:0:
300,158,197292,2,0,P|311:198|309:240,1,84.4999961318971,0|0,3:0|0:0,0:0:0:0:
294,383,197499,5,6,1:2:0:0:
224,355,197603,2,0,P|309:338|386:312,1,168.999992263794,2|4,3:1|3:0,0:0:0:0:
501,366,197913,2,0,P|479:269|474:229,1,84.4999961318971,10|0,1:2|0:0,0:0:0:0:
404,26,198120,2,0,P|360:46|352:110,1,84.4999961318971,2|0,1:0|3:0,0:0:0:0:
484,177,198327,2,0,P|488:128|437:89,1,84.4999961318971,2|0,1:0|0:0,0:0:0:0:
387,163,198534,2,0,P|325:216|246:198,1,168.999992263794,2|8,3:2|1:2,0:0:0:0:
168,247,198844,1,0,3:0:0:0:
157,221,198948,2,0,P|163:179|173:98,1,84.4999961318971,2|0,3:2|0:0,0:0:0:0:
330,241,199154,6,0,B|391:313|391:313|360:411,1,168.999992263794,2|0,1:0|0:0,0:0:0:0:
197,363,199465,1,2,3:1:0:0:
188,333,199568,2,0,B|219:299|219:299|303:310,1,84.4999961318971,8|0,1:2|0:0,0:0:0:0:
461,216,199775,2,0,B|450:259|450:259|396:286,1,84.4999961318971,2|0,3:1|0:0,0:0:0:0:
234,94,199982,2,0,B|315:85|315:85|391:198,1,168.999992263794,2|2,1:0|3:2,0:0:0:0:
245,210,200292,1,0,3:0:0:0:
220,187,200396,2,0,L|103:162,1,84.4999961318971,10|0,3:2|3:0,3:0:0:0:
52,224,200603,2,0,L|34:141,1,84.4999961318971,2|0,3:2|0:0,0:0:0:0:
241,0,200810,6,0,P|320:14|348:90,1,168.999992263794,6|0,1:2|3:0,0:0:0:0:
239,233,201120,1,0,3:0:0:0:
209,210,201223,2,0,P|219:164|270:144,1,84.4999961318971,10|0,1:2|0:0,0:0:0:0:
456,114,201430,2,0,L|437:236,1,84.4999961318971,2|0,1:0|0:0,0:0:0:0:
317,355,201637,2,0,L|353:158,1,168.999992263794,2|0,1:0|0:0,0:0:0:0:
196,75,201948,2,0,P|97:103|60:111,1,84.4999961318971,2|8,3:2|1:2,0:0:0:0:
24,82,202154,1,0,3:0:0:0:
2,69,202258,2,0,P|13:109|25:150,1,84.4999961318971,2|0,3:2|3:2,0:0:0:0:
176,353,202465,5,2,1:0:0:0:
223,285,202568,1,4,3:0:0:0:
154,242,202672,1,2,3:2:0:0:
90,292,202775,1,4,3:0:0:0:
102,314,202879,2,0,L|181:281,1,84.4999961318971,8|0,1:2|0:0,0:0:0:0:
294,127,203086,2,0,P|297:79|255:27,1,84.4999961318971,2|0,1:0|0:0,0:0:0:0:
352,225,203292,2,0,P|322:313|359:411,1,168.999992263794,2|0,1:0|0:0,0:0:0:0:
494,384,203603,1,0,3:0:0:0:
494,384,203706,2,0,P|456:368|426:339,2,84.4999961318971,10|0|0,1:2|3:0|3:0,0:0:0:0:
21,213,204120,6,0,L|53:41,1,141.375004314423,2|0,1:0|0:0,0:0:0:0:
46,74,204327,2,0,L|93:187,1,94.2500028762818,2|0,1:3|0:0,0:0:0:0:
156,269,204534,2,0,L|192:60,1,188.500005752564,10|0,1:2|3:0,0:0:0:0:
309,152,204844,1,0,3:0:0:0:
292,169,204948,2,0,P|296:123|332:93,1,94.2500028762818,2|0,1:0|0:0,0:0:0:0:
481,247,205154,2,0,P|476:292|440:322,1,94.2500028762818,2|0,3:1|0:0,0:0:0:0:
407,123,205361,2,0,P|452:127|482:163,1,94.2500028762818,10|0,1:2|0:0,0:0:0:0:
361,292,205568,2,0,P|315:287|285:251,2,94.2500028762818,2|0|0,3:1|0:0|1:0,0:0:0:0:
200,365,205879,5,0,3:0:0:0:
180,384,205982,2,0,B|141:346|166:288|177:296|186:302|219:247|182:205,1,188.500005752564,2|8,3:1|1:2,0:0:0:0:
221,62,206292,1,0,3:0:0:0:
235,83,206396,2,0,P|155:119|100:112,1,94.2500028762818,2|0,3:2|0:0,0:0:0:0:
0,7,206603,1,2,1:2:0:0:
72,36,206706,1,0,3:0:0:0:
12,77,206810,1,2,3:0:0:0:
54,109,206913,1,4,3:0:0:0:
32,131,207017,2,0,B|13:173|13:173|29:229,1,94.2500028762818,10|0,1:2|0:0,0:0:0:0:
231,316,207223,5,0,1:0:0:0:
161,281,207327,1,0,1:0:0:0:
225,333,207430,2,0,L|424:272,1,168.999992263794,6|0,1:2|0:0,0:0:0:0:
457,332,207741,1,0,3:0:0:0:
482,346,207844,2,0,B|494:306|494:306|475:250,1,84.4999961318971,10|0,1:2|0:0,0:0:0:0:
312,195,208051,2,0,P|319:153|328:112,1,84.4999961318971,2|0,1:0|0:0,0:0:0:0:
471,9,208258,2,0,P|492:101|408:123,1,168.999992263794,2|0,1:0|0:0,0:0:0:0:
244,49,208568,1,0,3:0:0:0:
224,18,208672,2,0,P|180:45|170:80,1,84.4999961318971,10|0,1:2|0:0,0:0:0:0:
100,128,208879,2,0,P|116:165|153:184,1,84.4999961318971,2|0,3:0|0:0,0:0:0:0:
287,341,209086,5,2,1:0:0:0:
298,294,209189,1,4,3:0:0:0:
257,272,209292,2,0,L|124:317,1,84.4999961318971,2|0,3:2|3:0,0:0:0:0:
78,279,209499,2,0,B|63:322|63:322|82:356,1,84.4999961318971,10|0,1:2|0:0,0:0:0:0:
345,207,209706,2,0,L|363:54,1,126.749994197846,2|0,1:0|0:0,0:0:0:0:
359,81,209913,2,0,P|271:91|254:165,1,168.999992263794,2|0,1:0|3:0,0:0:0:0:
453,229,210223,1,0,3:0:0:0:
483,214,210327,2,0,P|445:312|352:259,1,168.999992263794,10|0,3:2|3:0,3:0:0:0:
40,77,210741,5,4,1:2:0:0:
123,49,210844,1,4,3:0:0:0:
156,123,210948,1,2,3:0:0:0:
137,177,211051,1,4,3:0:0:0:
103,172,211154,2,0,P|94:134|90:85,1,84.4999961318971,8|0,1:2|0:0,0:0:0:0:
243,0,211361,2,0,P|246:42|255:83,1,84.4999961318971,2|0,1:0|0:0,0:0:0:0:
326,220,211568,2,0,P|284:203|212:184,1,84.4999961318971,2|0,1:0|0:0,0:0:0:0:
355,21,211775,2,0,P|452:54|572:112,1,168.999992263794,2|8,3:2|1:2,0:0:0:0:
407,144,212086,1,0,3:0:0:0:
434,157,212189,2,0,P|443:250|439:284,1,84.4999961318971,2|0,3:2|0:0,0:0:0:0:
354,338,212396,5,2,1:0:0:0:
306,354,212499,1,4,3:0:0:0:
272,323,212603,1,2,3:0:0:0:
202,278,212706,1,2,3:2:0:0:
205,237,212810,1,8,1:2:0:0:
245,218,212913,1,4,3:0:0:0:
284,144,213017,2,0,P|330:110|318:41,1,84.4999961318971,2|0,3:1|0:0,0:0:0:0:
72,3,213223,2,0,L|194:33,1,126.749994197846,2|0,1:0|0:0,0:0:0:0:
194,33,213430,2,0,L|301:2,1,84.4999961318971,2|0,3:2|0:0,0:0:0:0:
25,143,213637,2,0,L|105:117,1,84.4999961318971,10|0,1:2|0:0,0:0:0:0:
174,267,213844,2,0,L|254:241,1,84.4999961318971,2|0,3:2|0:0,0:0:0:0:
62,376,214051,5,6,1:2:0:0:
0,341,214154,2,0,P|20:254|138:279,1,168.999992263794,2|0,3:1|0:0,0:0:0:0:
331,301,214465,2,0,P|323:346|313:411,1,84.4999961318971,8|0,1:2|0:0,0:0:0:0:
155,168,214672,2,0,P|147:123|137:58,1,84.4999961318971,2|0,1:0|0:0,0:0:0:0:
228,334,214879,2,0,P|248:212|260:153,1,168.999992263794,2|2,1:0|3:2,0:0:0:0:
312,27,215189,1,0,3:0:0:0:
334,15,215292,2,0,B|346:58|346:58|332:95,1,84.4999961318971,8|0,1:2|0:0,0:0:0:0:
237,81,215499,2,0,B|223:44|223:44|235:0,1,84.4999961318971,2|0,3:2|0:0,0:0:0:0:
448,109,215706,5,2,1:0:0:0:
483,152,215810,1,4,3:0:0:0:
458,202,215913,2,0,P|421:236|350:216,1,84.4999961318971,2|0,3:2|3:0,0:0:0:0:
362,31,216120,2,0,L|458:7,1,84.4999961318971,10|0,1:2|0:0,0:0:0:0:
290,190,216327,2,0,L|193:156,1,84.4999961318971,2|0,1:0|0:0,0:0:0:0:
138,14,216534,2,0,B|75:31|75:31|45:71|45:71|-23:94,1,168.999992263794,2|0,1:0|3:0,0:0:0:0:
61,215,216844,1,0,3:0:0:0:
88,231,216948,2,0,L|107:122,2,84.4999961318971,10|0|0,1:2|0:0|3:0,0:0:0:0:
338,356,217361,6,0,B|306:317|338:265|349:270|361:277|386:226|345:173,1,188.500005752564,6|0,1:0|3:0,0:0:0:0:
226,95,217672,1,4,3:0:0:0:
193,190,217775,2,0,B|225:151|193:99|182:104|170:111|145:60|186:7,1,188.500005752564,10|0,1:0|3:0,0:0:0:0:
369,20,218086,1,4,3:0:0:0:
394,47,218189,2,0,P|324:71|288:95,1,94.2500028762818,2|0,1:0|0:0,0:0:0:0:
125,264,218396,2,0,P|195:288|231:312,1,94.2500028762818,2|0,1:0|0:0,0:0:0:0:
149,100,218603,2,0,P|140:52|145:-2,1,94.2500028762818,10|0,1:2|0:0,0:0:0:0:
363,164,218810,2,0,P|369:273|349:381,1,188.500005752564,2|0,3:1|1:0,0:0:0:0:
280,186,219120,5,0,3:0:0:0:
264,155,219223,2,0,P|223:153|195:222,1,94.2500028762818,2|0,3:1|0:0,0:0:0:0:
193,276,219430,2,0,P|246:290|299:315,1,94.2500028762818,8|0,1:2|0:0,0:0:0:0:
482,226,219637,2,0,P|472:180|464:117,1,94.2500028762818,2|0,3:2|0:0,0:0:0:0:
368,0,219844,1,0,1:0:0:0:
357,31,219948,2,0,P|251:59|164:70,1,188.500005752564,0|0,3:0|0:0,0:0:0:0:
62,12,220258,1,8,1:2:0:0:
77,258,220465,5,0,1:0:0:0:
105,190,220568,1,0,1:0:0:0:
58,270,220672,2,0,P|2:222|41:151,1,94.2500028762818,2|0,1:0|0:0,0:0:0:0:
133,93,220879,1,2,3:0:0:0:
133,93,220982,1,4,3:0:0:0:
212,127,221086,2,0,P|216:81|251:51,1,94.2500028762818,10|0,1:1|0:0,0:0:0:0:
350,162,221292,1,2,3:0:0:0:
350,162,221396,1,4,3:0:0:0:
406,216,221499,2,0,P|441:186|487:190,1,94.2500028762818,2|0,1:1|0:0,0:0:0:0:
367,362,221706,2,0,P|304:328|300:274,1,94.2500028762818,2|0,3:1|0:0,0:0:0:0:
164,285,221913,2,0,P|176:240|215:215,1,94.2500028762818,10|0,1:2|0:0,0:0:0:0:
349,0,222120,2,0,P|282:85|221:69,1,141.375004314423,2|0,1:1|0:0,0:0:0:0:
259,85,222327,6,0,P|237:51|159:43,1,94.2500028762818,0|0,1:3|0:0,0:0:0:0:
19,80,222534,1,2,3:2:0:0:
0,116,222637,1,4,3:0:0:0:
21,153,222741,2,0,P|33:198|39:245,1,94.2500028762818,10|0,1:2|0:0,0:0:0:0:
133,220,222948,2,0,P|126:173|114:127,1,94.2500028762818,4|0,3:0|0:0,0:0:0:0:
0,338,223154,1,0,1:0:0:0:
70,369,223258,2,0,P|158:338|252:331,1,188.500005752564,4|0,3:0|3:0,0:0:0:0:
253,208,223568,2,0,P|300:213|344:230,1,94.2500028762818,8|0,1:2|3:0,0:0:0:0:
405,334,223775,1,0,1:0:0:0:
476,308,223879,1,0,1:0:0:0:
396,356,223982,5,6,1:2:0:0:
333,314,224086,1,2,3:2:0:0:
266,351,224189,2,0,L|147:372,1,77.999997619629,2|0,3:2|0:0,0:0:0:0:
200,111,224396,2,0,P|257:104|317:135,1,116.999996429443,10|0,1:2|0:0,0:0:0:0:
310,128,224603,2,0,P|298:196|297:215,1,77.999997619629,2|0,3:2|0:0,0:0:0:0:
67,294,224810,2,0,P|83:202|93:108,1,155.999995239258,2|0,1:0|0:0,0:0:0:0:
205,3,225120,1,2,3:1:0:0:
166,69,225223,2,0,P|237:89|281:112,1,77.999997619629,10|0,1:2|0:0,0:0:0:0:
313,32,225430,2,0,P|349:45|387:53,1,77.999997619629,0|0,3:1|0:0,0:0:0:0:
432,283,225637,5,2,1:0:0:0:
370,249,225741,1,4,3:0:0:0:
389,183,225844,2,0,P|416:161|461:161,1,77.999997619629,2|0,3:0|0:0,0:0:0:0:
354,362,226051,2,0,P|250:333|205:323,1,116.999996429443,10|0,1:2|0:0,0:0:0:0:
240,331,226258,2,0,P|232:258|224:209,1,77.999997619629,2|0,3:2|0:0,0:0:0:0:
111,137,226465,2,0,P|127:229|136:322,1,155.999995239258,2|0,1:2|3:0,0:0:0:0:
285,106,226879,1,8,1:0:0:0:
297,133,226982,2,0,P|228:156|208:81,1,155.999995239258,0|0,3:2|0:0,0:0:0:0:
263,0,227292,5,2,1:0:0:0:
325,45,227396,1,2,3:2:0:0:
387,4,227499,2,0,P|441:16|497:35,1,77.999997619629,2|0,3:2|0:0,0:0:0:0:
393,214,227706,2,0,P|376:160|401:113,1,77.999997619629,10|0,1:2|0:0,0:0:0:0:
476,128,227913,2,0,P|493:182|468:229,1,77.999997619629,2|0,3:2|0:0,0:0:0:0:
391,343,228120,2,0,B|281:310|375:288|234:245,1,155.999995239258,2|0,1:0|3:0,0:0:0:0:
171,164,228430,1,2,3:2:0:0:
110,202,228534,2,0,P|100:111|107:90,1,77.999997619629,8|0,1:2|0:0,0:0:0:0:
167,75,228741,2,0,P|168:36|180:0,1,77.999997619629,2|0,3:1|0:0,0:0:0:0:
345,115,228948,5,2,1:0:0:0:
329,44,229051,1,2,3:2:0:0:
334,128,229154,2,0,P|275:141|227:163,1,77.999997619629,2|0,3:2|0:0,0:0:0:0:
315,241,229361,2,0,P|329:313|332:360,1,77.999997619629,10|0,1:2|0:0,0:0:0:0:
413,198,229568,2,0,P|456:183|517:172,1,77.999997619629,2|0,3:2|0:0,0:0:0:0:
231,54,229775,2,0,P|184:40|95:29,1,116.999996429443,2|0,1:0|0:0,0:0:0:0:
116,30,229982,2,0,P|126:98|127:132,1,77.999997619629,2|0,3:2|0:0,0:0:0:0:
434,87,230189,2,0,P|430:48|422:9,1,77.999997619629,2|0,3:2|0:0,0:0:0:0:
238,256,230396,5,0,1:0:0:0:
261,186,230499,2,0,P|342:198|378:279,1,155.999995239258,0|0,1:0|0:0,0:0:0:0:
222,120,232617,6,0,L|152:100,1,52,2|0,0:2|0:0,0:0:0:0:
170,192,233002,2,0,P|114:205|84:223,1,65,2|0,0:2|0:0,0:0:0:0:
254,199,233386,1,2,0:0:0:0:
82,28,233643,6,0,P|75:68|65:115,1,58.4999982147217,2|0,1:2|0:0,0:0:0:0:
298,68,233899,2,0,P|304:34|297:-7,1,58.4999982147217,2|0,3:2|0:0,0:0:0:0:
130,156,234156,2,0,P|137:222|144:312,1,130,10|2,1:2|3:2,0:0:0:0:
313,334,234583,1,0,3:0:0:0:
313,334,234668,2,0,P|259:349|162:388,1,143.000004364014,2|0,1:2|0:0,0:0:0:0:
247,149,235053,2,0,P|285:158|333:188,1,71.5000021820069,2|4,0:0|0:3,0:0:0:0:
444,261,235352,5,4,1:3:0:0:
444,261,235438,2,0,B|447:140|490:231|480:83,1,155.999995239258,4|0,1:2|0:0,0:0:0:0:
21,36,235950,6,0,B|161:27|161:27|194:65,1,186.875003564358,4|0,1:2|0:0,0:0:0:0:
276,48,236335,2,0,L|228:252,1,186.875003564358,4|0,1:2|0:0,0:0:0:0:
146,222,236720,2,0,B|101:176|101:176|263:149,1,186.875003564358,4|0,1:2|0:0,0:0:0:0:
312,219,237104,2,0,B|270:251|270:251|432:278,1,186.875003564358,4|0,1:2|0:0,0:0:0:0:
500,298,237489,2,0,L|487:198,1,74.7500014257431,4|0,1:2|0:0,0:0:0:0:
299,118,237745,6,0,P|353:145|423:133,1,130,6|2,1:2|1:3,0:0:0:0:
234,17,238258,2,0,P|193:24|150:59,1,65,10|0,1:2|0:0,0:0:0:0:
90,30,238515,1,4,1:3:0:0:
209,116,238686,1,4,3:0:0:0:
209,116,238771,2,0,P|192:195|186:239,1,97.5,2|0,1:2|0:0,0:0:0:0:
189,211,239027,2,0,P|137:232|105:255,1,65,0|0,3:2|0:0,0:0:0:0:
31,297,239284,2,0,P|15:260|25:217,1,65,10|0,1:2|0:0,0:0:0:0:
181,315,239540,2,0,B|217:315|252:342|245:345|240:349|265:371|303:374,1,130,2|0,1:2|1:0,0:0:0:0:
440,146,240053,6,0,B|430:157|430:157|446:257|446:257|436:283,1,130,2|8,1:1|1:2,0:0:0:0:
354,120,240566,2,0,B|344:131|344:131|360:231|360:231|350:257,1,130,2|0,1:1|1:2,0:0:0:0:
127,75,241079,2,0,B|137:86|137:86|121:186|121:186|131:212,1,130,2|8,1:1|1:2,0:0:0:0:
213,49,241506,1,4,3:0:0:0:
213,49,241592,2,0,B|223:60|223:60|207:160|207:160|217:186,1,130,2|4,1:1|1:2,0:0:0:0:
41,343,242104,6,0,P|59:273|59:246,1,65,2|0,1:2|0:0,0:0:0:0:
120,221,242361,1,10,1:2:0:0:
53,167,242489,1,4,3:0:0:0:
120,221,242617,2,0,P|171:230|190:334,1,130,2|0,1:2|1:0,0:0:0:0:
333,193,243002,1,0,3:0:0:0:
333,193,243130,2,0,P|292:229|256:224,1,65,2|0,1:2|0:0,0:0:0:0:
183,127,243386,2,0,P|195:61|196:34,1,65,2|0,1:2|0:0,0:0:0:0:
390,114,243643,2,0,B|484:138|415:146|566:188,2,130,2|0|2,1:2|1:3|1:2,0:0:0:0:
92,120,244412,5,10,1:2:0:0:
23,164,244540,1,4,3:0:0:0:
126,196,244668,2,0,P|157:207|205:232,1,65,2|0,1:2|0:0,0:0:0:0:
269,109,244925,2,0,P|281:53|264:-6,1,97.5,2|0,1:2|0:0,0:0:0:0:
273,14,245181,2,0,P|209:22|171:36,1,65,2|0,1:2|0:0,0:0:0:0:
285,220,245438,2,0,P|304:315|305:404,1,130,2|2,1:2|1:2,0:0:0:0:
289,114,245865,5,4,3:0:0:0:
267,137,245950,2,0,P|228:136|183:94,1,65,4|0,1:2|0:0,0:0:0:0:
413,278,246207,2,0,P|427:231|417:184,1,97.5,2|0,1:2|0:0,0:0:0:0:
417,184,246463,2,0,P|451:141|448:102,1,65,10|0,1:2|0:0,0:0:0:0:
314,0,246720,2,0,P|280:43|283:82,1,65,2|0,1:2|0:0,0:0:0:0:
512,2,246976,2,0,B|413:19|490:39|368:58,1,130,2|0,1:2|1:0,0:0:0:0:
191,144,247361,1,4,3:0:0:0:
125,40,247489,2,0,P|160:24|202:22,1,65,10|0,1:2|0:0,0:0:0:0:
337,141,247745,2,0,P|304:145|275:160,1,65,2|0,1:2|0:0,0:0:0:0:
40,328,248002,6,0,P|37:280|57:248,1,65,2|0,1:2|0:0,0:0:0:0:
178,159,248258,2,0,P|187:223|192:246,1,65,2|0,1:2|0:0,0:0:0:0:
18,169,248515,2,0,P|33:147|96:142,1,65,10|0,1:2|0:0,0:0:0:0:
272,241,248771,2,0,B|334:257|304:265|360:274,1,86.6666666666667,2|0,1:2|1:2,1:2:0:0:
369,302,249027,2,0,P|360:242|349:158,2,130,2|0|8,1:2|1:0|1:2,1:2:0:0:
297,370,249711,1,4,1:3:0:0:
273,384,249797,2,0,B|264:352|264:352|275:303,1,65,2|0,1:2|0:0,0:0:0:0:
435,185,250053,5,4,1:2:0:0:
172,28,250309,2,0,L|316:-7,1,121.875,2|0,1:0|0:0,0:0:0:0:
308,71,250566,2,0,L|189:99,1,121.875,2|0,1:0|0:0,0:0:0:0:
101,73,250822,1,2,1:2:0:0:
426,167,251079,1,4,1:2:0:0:
206,313,251335,2,0,L|350:348,1,121.875,2|0,1:0|0:0,0:0:0:0:
342,270,251592,2,0,L|223:241,1,121.875,2|0,1:0|0:0,0:0:0:0:
133,266,251848,5,2,1:2:0:0:
415,186,252104,2,0,B|473:189|501:137|494:102|481:52|390:39|361:93|373:103|387:117|337:168|274:144,1,350.99998928833,4|2,1:2|1:2,0:0:0:0:
237,161,253386,1,2,1:2:0:0:
156,92,253643,1,2,1:2:0:0:
240,0,253899,1,2,1:2:0:0:
240,0,254156,6,0,B|229:94|298:36|271:156,1,143.000004364014,6|2,1:2|1:2,0:0:0:0:
377,148,254540,1,4,3:0:0:0:
243,245,254668,2,0,P|274:257|334:287,1,71.5000021820069,8|0,1:2|0:0,0:0:0:0:
387,253,254925,1,2,3:0:0:0:
387,253,255053,1,4,3:0:0:0:
211,328,255181,2,0,P|155:327|96:384,1,143.000004364014,2|2,1:2|1:2,0:0:0:0:
304,290,255566,1,4,3:0:0:0:
164,218,255694,2,0,P|154:152|139:82,1,107.25000327301,10|0,1:2|0:0,0:0:0:0:
146,112,255950,2,0,P|95:98|56:83,1,71.5000021820069,2|0,1:2|0:0,0:0:0:0:
273,156,256207,5,2,1:2:0:0:
332,205,256335,2,0,P|383:219|422:234,2,71.5000021820069,0|2|0,3:0|1:2|0:0,0:0:0:0:
258,28,256720,1,10,1:2:0:0:
361,108,256848,1,4,3:0:0:0:
425,59,256976,2,0,P|460:36|524:47,1,71.5000021820069,2|0,1:2|0:0,0:0:0:0:
195,118,257233,2,0,P|125:129|37:162,1,143.000004364014,2|2,1:2|1:2,0:0:0:0:
199,238,257617,1,4,3:0:0:0:
106,370,257745,1,10,1:2:0:0:
32,259,257874,1,4,3:0:0:0:
117,222,258002,2,0,P|109:257|107:293,1,71.5000021820069,2|0,1:2|0:0,0:0:0:0:
338,357,258258,6,0,B|324:242|314:324|303:218,1,143.000004364014,6|2,1:2|1:2,0:0:0:0:
381,142,258643,1,0,0:0:0:0:
274,52,258771,1,10,1:2:0:0:
274,52,258856,1,2,0:0:0:0:
274,52,258942,1,2,0:0:0:0:
274,52,259027,2,0,P|248:76|203:95,1,71.5000021820069,2|2,1:2|3:2,0:0:0:0:
35,173,259284,2,0,P|10:116|27:16,1,143.000004364014,2|2,1:2|1:2,0:0:0:0:
87,1,259668,1,4,3:0:0:0:
187,171,259797,2,0,P|185:219|162:257,1,71.5000021820069,10|0,3:2|3:0,3:0:0:0:
3,318,260053,2,0,P|49:286|80:281,1,71.5000021820069,2|0,1:2|0:0,0:0:0:0:
272,297,260309,6,0,B|369:331|277:353|451:388,1,143.000004364014,0|2,1:2|1:2,0:0:0:0:
415,229,260694,1,4,3:0:0:0:
474,352,260822,1,8,1:2:0:0:
492,251,260950,1,4,3:0:0:0:
352,306,261079,2,0,P|340:228|340:207,1,71.5000021820069,2|0,1:2|0:0,0:0:0:0:
418,48,261335,2,0,P|488:78|495:120,1,107.25000327301,2|0,1:2|0:0,0:0:0:0:
495,102,261592,2,0,P|442:122|403:152,1,71.5000021820069,2|0,1:2|0:0,0:0:0:0:
252,55,261848,1,10,1:2:0:0:
330,122,261976,1,4,3:0:0:0:
232,38,262104,2,0,P|250:112|255:143,1,71.5000021820069,2|0,1:2|0:0,0:0:0:0:
153,347,262361,6,0,P|106:333|90:279,1,71.5000021820069,4|0,1:2|0:0,0:0:0:0:
254,201,262617,2,0,P|309:215|340:324,1,143.000004364014,2|8,1:2|1:2,0:0:0:0:
272,349,263002,1,4,3:0:0:0:
150,243,263130,2,0,P|138:195|177:154,1,71.5000021820069,2|0,1:2|0:0,0:0:0:0:
346,34,263386,2,0,P|397:58|498:86,1,143.000004364014,2|2,1:2|1:2,0:0:0:0:
349,201,263771,1,4,3:0:0:0:
231,109,263899,2,0,P|219:34|207:5,1,71.5000021820069,10|0,1:2|0:0,0:0:0:0:
330,123,264156,5,2,1:2:0:0:
186,232,264284,1,4,3:0:0:0:
264,310,264412,2,0,P|323:323|433:383,1,143.000004364014,2|0,1:2|0:0,0:0:0:0:
316,216,264797,1,4,3:0:0:0:
167,384,264925,2,0,P|154:350|153:314,1,71.5000021820069,8|0,1:2|0:0,0:0:0:0:
246,147,265181,1,2,1:2:0:0:
246,147,265309,1,2,3:2:0:0:
185,216,265438,1,2,1:2:0:0:
305,236,265566,1,2,3:2:0:0:
163,73,265694,1,2,1:2:0:0:
338,36,265822,1,2,3:2:0:0:
263,69,265950,2,0,P|250:8|241:-21,1,71.5000021820069,10|2,1:2|3:2,0:0:0:0:
409,189,266207,2,0,P|415:153|424:119,1,71.5000021820069,2|2,1:2|3:2,0:0:0:0:
210,307,266463,5,6,1:2:0:0:
187,298,266592,1,2,0:0:0:0:
174,278,266720,1,2,0:0:0:0:
171,254,266848,1,2,0:0:0:0:
183,234,266976,1,2,0:0:0:0:
203,221,267104,1,2,0:0:0:0:
226,220,267233,1,2,0:0:0:0:
247,229,267361,1,2,0:0:0:0:
323,204,267489,5,6,1:2:0:0:
355,216,267617,1,2,0:2:0:0:
366,249,267745,1,2,0:0:0:0:
434,296,267874,5,6,1:2:0:0:
434,348,268002,1,2,0:0:0:0:
389,376,268130,1,2,0:0:0:0:
316,335,268258,6,0,B|252:280|316:199|330:212|346:226|410:154|340:99,1,272.999991668701,6|0,1:2|0:0,0:0:0:0:
345,103,268771,2,0,P|313:131|240:135,1,77.999997619629,2|0,1:0|0:0,0:0:0:0:
253,258,269027,2,0,P|213:243|173:181,1,77.999997619629,2|0,1:0|0:0,0:0:0:0:
248,39,269284,2,0,P|215:59|193:91,1,77.999997619629,2|0,1:0|0:0,0:0:0:0:
83,311,269540,2,0,P|74:273|81:235,1,77.999997619629,2|0,1:0|0:0,0:0:0:0:
71,0,269797,2,0,P|72:38|88:73,1,77.999997619629,2|0,1:0|0:0,0:0:0:0:
28,137,270053,1,6,1:2:0:0:
28,137,270309,1,0,1:0:0:0:
327,149,270566,6,0,P|266:173|230:200,1,90.9999972229005,4|2,1:2|3:2,0:0:0:0:
154,221,270993,1,4,3:0:0:0:
154,221,271079,2,0,P|167:279|176:338,1,90.9999972229005,2|2,1:2|3:2,0:0:0:0:
458,340,271592,1,2,1:2:0:0:
393,209,271848,2,0,L|382:296,1,60.666664815267,2|4,3:2|3:0,0:0:0:0:
488,245,272104,2,0,L|471:140,1,90.9999972229005,2|4,1:2|3:0,0:0:0:0:
497,29,272532,5,4,3:0:0:0:
512,48,272617,2,0,P|455:39|424:-13,1,90.9999972229005,2|0,1:2|3:0,0:0:0:0:
362,85,273044,1,4,3:0:0:0:
362,85,273130,2,0,P|302:95|265:148,1,90.9999972229005,0|0,1:0|3:0,0:0:0:0:
89,265,273643,2,0,L|101:144,1,90.9999972229005,0|2,1:0|3:0,0:0:0:0:
182,178,274070,1,4,3:0:0:0:
199,181,274156,2,0,P|206:208|206:242,1,45.4999986114502,0|0,1:0|0:0,0:0:0:0:
274,272,274412,2,0,P|247:308|213:324,1,45.4999986114502,2|4,3:2|3:0,0:0:0:0:
9,203,274668,5,6,1:2:0:0:
283,0,274925,1,2,3:2:0:0:
283,0,275053,1,4,3:0:0:0:
216,70,275181,2,0,L|300:77,1,45.4999986114502,0|0,1:0|0:0,0:0:0:0:
288,148,275438,2,0,L|418:122,1,90.9999972229005,2|2,3:2|1:2,0:0:0:0:
280,357,275950,1,2,3:0:0:0:
363,338,276121,1,4,3:0:0:0:
363,338,276207,2,0,L|371:294,1,45.4999986114502,2|0,1:2|0:0,0:0:0:0:
178,384,276463,2,0,L|160:312,1,45.4999986114502,2|0,3:2|0:0,0:0:0:0:
207,137,276720,6,0,P|259:171|252:241,1,110.50000210762,2|2,1:2|3:0,0:0:0:0:
216,271,277104,1,2,3:2:0:0:
250,17,277233,1,2,1:2:0:0:
250,17,277361,1,2,3:2:0:0:
291,58,277489,1,2,3:2:0:0:
201,105,277617,1,2,3:2:0:0:
320,146,277745,1,2,1:2:0:0:
150,206,277874,1,2,3:2:0:0:
361,262,278002,1,2,3:0:0:0:
174,311,278130,1,2,3:2:0:0:
309,332,278258,1,2,1:2:0:0:
237,357,278386,1,2,3:2:0:0:
295,378,278515,1,2,3:0:0:0:
264,384,278643,1,2,3:2:0:0:
273,236,278771,6,0,P|276:196|288:130,1,74.7500014257431,6|0,1:2|0:0,0:0:0:0:
107,5,279027,2,0,P|94:39|98:76,1,74.7500014257431,2|0,3:2|0:0,0:0:0:0:
355,117,279284,2,0,P|430:86|490:73,1,112.125002138615,10|0,1:2|0:0,0:0:0:0:
459,78,279540,1,2,1:2:0:0:
173,197,279711,1,4,3:0:0:0:
173,197,279797,2,0,P|177:117|260:92,1,149.500002851486,2|2,1:2|1:2,0:0:0:0:
270,155,280181,1,0,3:0:0:0:
140,294,280309,2,0,P|71:265|28:255,1,99.6666685676575,10|0,1:2|0:0,0:0:0:0:
47,258,280566,1,2,1:2:0:0:
257,249,280694,1,4,3:0:0:0:
69,377,280822,6,0,P|152:343|262:331,1,149.500002851486,6|2,1:2|1:2,0:0:0:0:
293,384,281207,1,0,3:0:0:0:
169,121,281335,2,0,P|158:156|152:193,1,74.7500014257431,10|0,1:2|0:0,0:0:0:0:
429,325,281592,2,0,B|422:224|377:304|372:165,1,149.500002851486,6|0,1:2|1:0,0:0:0:0:
373,192,282104,6,0,L|489:159,1,84.4999961318971,2|0,1:2|0:0,0:0:0:0:
257,93,282361,2,0,L|338:69,1,84.4999961318971,2|0,1:2|0:0,0:0:0:0:
209,309,282617,2,0,L|290:285,1,84.4999961318971,2|0,1:2|0:0,0:0:0:0:
158,26,282874,6,0,P|63:38|21:89,1,155.999995239258,6|0,1:2|1:0,0:0:0:0:
135,145,283258,1,4,3:0:0:0:
37,223,283386,2,0,P|72:222|126:274,1,77.999997619629,10|0,1:2|0:0,0:0:0:0:
172,342,283643,1,0,1:0:0:0:
210,257,283771,1,4,3:0:0:0:
0,368,283899,2,0,P|35:355|90:340,1,77.999997619629,2|0,1:2|0:0,0:0:0:0:
214,163,284156,1,2,1:2:0:0:
319,296,284327,1,8,1:2:0:0:
319,296,284412,2,0,P|323:257|330:207,1,77.999997619629,2|0,1:2|0:0,0:0:0:0:
130,45,284668,2,0,P|124:83|120:122,1,77.999997619629,2|0,1:2|0:0,0:0:0:0:
430,51,284925,6,0,P|368:55|322:124,1,116.999996429443,6|0,1:2|0:0,0:0:0:0:
330,91,285181,2,0,P|257:68|224:59,1,77.999997619629,2|0,1:2|0:0,0:0:0:0:
232,241,285438,2,0,B|134:257|189:289|94:311,1,155.999995239258,10|0,1:2|1:0,0:0:0:0:
225,373,285822,1,4,3:0:0:0:
56,200,285950,2,0,P|-1:275|48:364,1,155.999995239258,2|0,1:2|1:0,0:0:0:0:
217,153,286378,1,0,1:0:0:0:
217,153,286463,2,0,P|164:143|104:104,1,103.999996826172,10|0,1:2|0:0,0:0:0:0:
149,48,286720,2,0,P|194:72|245:82,1,103.999996826172,0|0,1:2|0:0,0:0:0:0:
323,138,286976,6,0,P|327:75|338:21,1,108.333333333333,6|0,1:2|0:0,0:0:0:0:
264,2,287233,1,2,1:2:0:0:
454,180,287489,1,10,1:2:0:0:
305,298,287660,1,0,1:0:0:0:
321,285,287745,2,0,P|293:254|218:251,1,108.333333333333,2|0,1:2|0:0,0:0:0:0:
142,216,288002,2,0,P|134:270|121:328,1,108.333333333333,2|0,1:2|0:0,0:0:0:0:
232,384,288258,2,0,P|220:337|217:305,1,54.1666666666667,2|0,1:2|0:0,0:0:0:0:
229,164,288429,1,0,1:0:0:0:
204,150,288515,2,0,B|99:176|182:188|59:223,1,162.5,10|2,1:2|1:2,0:0:0:0:
228,31,288942,5,4,1:3:0:0:
294,61,289027,2,0,P|340:69|445:120,1,162.5,2|0,1:2|1:0,0:0:0:0:
367,308,289455,1,2,1:2:0:0:
357,289,289540,2,0,P|405:250|488:247,1,108.333333333333,8|0,1:2|0:0,0:0:0:0:
488,313,289797,1,2,1:2:0:0:
265,372,290053,2,0,P|223:290|248:253,1,108.333333333333,2|0,1:2|0:0,0:0:0:0:
163,222,290309,2,0,P|183:190|233:190,1,54.1666666666667,2|0,1:2|0:0,0:0:0:0:
301,187,290480,1,2,1:2:0:0:
285,201,290566,2,0,P|275:150|270:93,1,108.333333333333,8|0,1:2|0:0,0:0:0:0:
232,20,290822,1,2,1:2:0:0:
135,334,291079,6,0,P|81:319|15:302,1,108.333333333333,6|0,1:2|0:0,0:0:0:0:
230,328,291335,2,0,P|283:342|350:360,1,108.333333333333,2|0,1:2|0:0,0:0:0:0:
186,213,291592,2,0,P|113:229|48:240,1,108.333333333333,10|0,1:2|0:0,0:0:0:0:
269,248,291848,2,0,P|322:237|375:226,1,108.333333333333,2|0,1:2|0:0,0:0:0:0:
255,159,292104,2,0,B|234:43|287:117|259:-3,1,162.5,2|2,1:2|1:2,0:0:0:0:
148,129,292532,1,0,1:0:0:0:
126,139,292617,2,0,P|129:73|196:64,1,108.333333333333,10|0,1:2|0:0,0:0:0:0:
371,0,292874,2,0,P|374:66|441:75,1,108.333333333333,2|0,1:2|0:0,0:0:0:0:
440,292,293130,6,0,P|365:275|357:200,1,162.5,2|4,1:2|1:3,0:0:0:0:
494,116,293557,1,4,1:3:0:0:
512,128,293643,2,0,P|502:177|441:162,1,112.666661509196,10|0,1:1|0:0,0:0:0:0:
245,144,293899,2,0,L|253:59,1,58.5000002231598,2|0,1:0|0:0,0:0:0:0:
271,17,294070,1,4,3:0:0:0:
230,78,294156,2,0,L|243:222,1,121.333329630534,2|0,1:0|0:0,0:0:0:0:
295,257,294412,2,0,L|286:335,1,62.8333352508546,2|0,1:0|0:0,0:0:0:0:
250,383,294583,1,4,3:0:0:0:
306,333,294668,2,0,B|416:361|333:370|461:390,1,130.000004959107,10|0,1:0|0:0,0:0:0:0:
202,277,294925,2,0,B|92:305|175:314|47:334,1,134.333334358215,2|0,1:0|0:0,0:0:0:0:
328,166,295181,6,0,P|368:175|450:206,1,108.333333333333,6|0,1:2|0:0,0:0:0:0:
407,104,295438,2,0,P|385:36|379:-5,1,108.333333333333,2|0,1:2|0:0,0:0:0:0:
306,83,295694,1,10,1:2:0:0:
492,281,295950,2,0,L|408:305,1,54.1666666666667,2|0,1:2|0:0,0:0:0:0:
383,384,296121,1,4,3:0:0:0:
317,346,296207,2,0,B|294:299|294:299|327:237,1,108.333333333333,2|0,1:2|0:0,0:0:0:0:
457,186,296463,1,2,1:2:0:0:
202,35,296634,1,4,3:0:0:0:
214,21,296720,2,0,L|227:133,1,108.333333333333,10|0,1:2|0:0,0:0:0:0:
353,70,296976,2,0,L|265:50,1,54.1666666666667,2|0,1:2|0:0,0:0:0:0:
105,196,297147,5,4,3:0:0:0:
138,129,297233,2,0,P|206:133|210:218,1,162.5,6|2,1:2|1:2,0:0:0:0:
65,291,297617,1,2,3:0:0:0:
231,374,297745,2,0,P|223:341|130:348,1,108.333333333333,10|0,1:2|0:0,0:0:0:0:
97,371,298002,2,0,L|5:392,2,54.1666666666667,2|0|0,1:2|0:0|3:0,0:0:0:0:
203,204,298258,1,4,1:3:0:0:
203,204,298515,6,0,B|224:149|224:149|185:61,1,117.00000044632,2|0,1:0|0:0,0:0:0:0:
94,198,298771,2,0,B|35:207|35:207|-20:285,1,117.00000044632,10|0,1:0|0:0,0:0:0:0:
142,292,299027,2,0,B|179:337|179:337|274:347,1,117.00000044632,2|0,1:0|0:0,0:0:0:0:
352,384,299284,6,0,L|327:223,2,162.5,6|0|10,1:2|1:0|1:2,0:0:0:0:
492,187,300053,2,0,P|502:156|488:109,1,54.1666666666667,0|0,1:0|0:0,0:0:0:0:
455,54,300224,1,4,3:0:0:0:
442,71,300309,2,0,P|392:84|326:103,1,108.333333333333,2|0,1:2|0:0,0:0:0:0:
251,132,300566,2,0,L|262:44,1,54.1666666666667,2|0,1:2|0:0,0:0:0:0:
214,16,300737,1,4,3:0:0:0:
240,86,300822,2,0,P|183:123|133:102,1,108.333333333333,10|0,1:2|0:0,0:0:0:0:
72,161,301079,2,0,P|34:91|57:41,1,108.333333333333,2|0,3:2|0:0,0:0:0:0:
207,221,301335,6,0,P|198:290|179:420,1,162.5,6|2,1:2|1:2,0:0:0:0:
15,208,301762,1,4,3:0:0:0:
0,225,301848,2,0,L|24:346,1,108.333333333333,10|0,1:2|0:0,0:0:0:0:
98,255,302104,2,0,B|118:209|118:209|86:120,1,108.333333333333,2|0,1:2|0:0,0:0:0:0:
18,101,302361,1,2,1:2:0:0:
314,2,302617,2,0,L|254:25,1,54.1666666666667,2|0,1:2|0:0,0:0:0:0:
198,91,302788,1,4,3:0:0:0:
258,137,302874,2,0,L|395:186,1,108.333333333333,10|0,1:2|0:0,0:0:0:0:
293,249,303130,2,0,L|156:298,1,108.333333333333,2|4,1:2|3:0,0:0:0:0:
266,379,303386,5,6,1:2:0:0:
252,11,303643,1,2,1:3:0:0:
97,244,303899,2,0,L|79:107,1,117.00000044632,10|0,1:2|0:0,0:0:0:0:
155,70,304156,2,0,B|184:119|184:119|171:189,1,117.00000044632,2|0,1:3|0:0,0:0:0:0:
8,308,304412,2,0,B|68:325|68:325|90:367|90:367|172:390,1,175.500000669479,2|2,1:2|3:0,0:0:0:0:
331,201,304797,5,2,1:1:0:0:
273,328,304925,2,0,P|256:266|277:215,1,87.7500003347397,8|0,1:2|0:0,0:0:0:0:
420,133,305181,2,0,P|437:195|416:246,1,87.7500003347397,2|0,1:2|0:0,0:0:0:0:
60,150,305438,5,4,1:2:0:0:
506,259,305694,1,2,1:3:0:0:
290,26,305950,2,0,P|239:42|223:106,1,117.00000044632,10|0,1:2|0:0,0:0:0:0:
272,157,306207,2,0,L|350:130,1,58.5000002231598,4|0,3:0|0:0,0:0:0:0:
390,96,306378,1,4,3:0:0:0:
332,155,306463,2,0,B|287:157|258:206|269:211|283:215|247:265|197:258,1,175.500000669479,2|2,3:2|3:0,0:0:0:0:
88,378,306891,5,2,1:0:0:0:
70,361,306976,2,0,L|96:223,1,117.00000044632,8|0,1:2|0:0,0:0:0:0:
21,201,307233,2,0,L|0:315,1,117.00000044632,2|0,1:2|0:0,0:0:0:0:
247,370,307489,5,6,1:2:0:0:
263,12,307745,1,2,1:3:0:0:
391,292,308002,2,0,B|425:247|425:247|400:183,1,117.00000044632,10|0,1:2|0:0,0:0:0:0:
325,132,308258,2,0,L|307:269,1,117.00000044632,2|0,1:2|0:0,0:0:0:0:
484,324,308515,2,0,B|528:349|528:349|377:394,1,175.500000669479,2|2,1:2|3:0,0:0:0:0:
227,278,308942,5,4,1:3:0:0:
216,297,309027,2,0,P|166:269|155:214,1,117.00000044632,10|0,1:2|0:0,0:0:0:0:
65,185,309284,2,0,P|75:129|125:102,1,117.00000044632,2|0,1:2|0:0,0:0:0:0:
206,21,309540,6,0,L|234:183,1,117.00000044632,2|0,1:2|0:0,0:0:0:0:
295,181,309797,2,0,P|318:156|357:150,1,58.5000002231598,2|0,1:3|0:0,0:0:0:0:
149,204,310053,2,0,L|121:366,1,117.00000044632,10|0,1:2|0:0,0:0:0:0:
60,364,310310,2,0,P|37:339|-2:333,1,58.5000002231598,2|0,1:3|0:0,0:0:0:0:
256,283,310566,2,0,B|313:293|313:293|351:340|351:340|448:354,1,175.500000669479,2|2,1:2|3:0,0:0:0:0:
434,268,310950,1,2,1:2:0:0:
231,373,311079,1,8,1:2:0:0:
489,363,311250,5,4,1:3:0:0:
499,345,311335,2,0,L|474:184,1,136.499995834351,6|0,1:2|0:0,0:0:0:0:
254,18,311848,6,0,B|160:47|160:47|212:139,1,203.125,4|0,1:2|0:0,0:0:0:0:
294,165,312233,2,0,B|422:116|422:116|385:173,1,203.125,4|0,1:2|0:0,0:0:0:0:
374,279,312617,2,0,L|177:219,1,203.125,4|0,1:2|0:0,0:0:0:0:
121,287,313002,2,0,B|42:262|42:262|93:144,1,203.125,4|0,1:2|0:0,0:0:0:0:
11,110,313386,2,0,B|22:73|22:73|10:28,1,81.25,4|0,1:2|0:0,0:0:0:0:
99,5,313643,6,0,L|216:32,1,95.3333362426759,6|0,1:2|0:0,0:0:0:0:
278,21,313899,2,0,L|259:105,1,47.6666681213379,2|0,1:0|0:0,0:0:0:0:
78,171,314156,2,0,L|99:318,1,143.000004364014,10|4,1:2|1:3,0:0:0:0:
408,281,314583,1,4,3:0:0:0:
408,281,314668,2,0,P|405:221|310:225,1,143.000004364014,2|0,1:0|1:0,0:0:0:0:
219,273,315096,1,4,3:0:0:0:
219,273,315181,2,0,L|231:365,1,47.6666681213379,10|0,1:2|0:0,0:0:0:0:
261,384,315352,1,4,3:0:0:0:
208,329,315438,2,0,L|227:149,1,143.000004364014,2|2,1:0|1:0,0:0:0:0:
20,18,315950,6,0,B|-10:57|-10:57|22:126,1,95.3333362426759,2|0,1:0|0:0,0:0:0:0:
90,109,316207,2,0,P|155:59|215:60,1,143.000004364014,10|4,1:2|1:3,0:0:0:0:
384,26,316634,1,4,3:0:0:0:
384,26,316720,2,0,P|432:86|417:131,1,95.3333362426759,2|0,1:0|0:0,0:0:0:0:
364,140,316976,1,4,1:3:0:0:
444,286,317147,1,2,3:1:0:0:
444,286,317233,2,0,B|354:269|418:234|286:212,1,143.000004364014,10|2,1:2|1:2,0:0:0:0:
155,173,317660,5,6,1:2:0:0:
175,243,317745,1,4,1:3:0:0:
175,243,318002,2,0,P|123:258|58:286,1,95.3333362426759,2|0,1:0|0:0,0:0:0:0:
109,105,318258,2,0,P|153:87|199:74,1,95.3333362426759,10|0,1:2|0:0,0:0:0:0:
251,12,318515,1,4,1:3:0:0:
355,173,318686,1,4,3:0:0:0:
355,173,318771,2,0,B|366:75|385:124|388:27,1,143.000004364014,2|0,1:0|0:0,0:0:0:0:
249,163,319198,1,2,3:1:0:0:
249,163,319284,2,0,B|251:251|270:202|281:300,1,143.000004364014,10|2,1:2|1:2,0:0:0:0:
292,82,319797,5,2,1:2:0:0:
292,82,320053,2,0,P|261:36|207:39,1,95.3333362426759,2|0,1:0|0:0,0:0:0:0:
150,141,320309,2,0,P|91:155|59:257,1,143.000004364014,10|4,1:2|1:3,0:0:0:0:
224,329,320737,1,4,3:0:0:0:
161,365,320822,2,0,P|145:301|170:251,1,95.3333362426759,2|0,1:0|0:0,0:0:0:0:
227,236,321079,2,0,P|255:248|300:264,1,47.6666681213379,4|0,1:3|0:0,0:0:0:0:
355,317,321250,1,2,3:1:0:0:
355,317,321335,2,0,P|340:227|334:188,1,95.3333362426759,10|0,1:2|0:0,0:0:0:0:
401,170,321592,1,2,1:2:0:0:
250,34,321762,5,0,1:0:0:0:
210,93,321848,2,0,P|266:114|343:43,1,143.000004364014,4|2,1:2|1:0,0:0:0:0:
113,9,322361,2,0,P|64:58|67:128,1,143.000004364014,10|4,1:2|3:0,0:0:0:0:
183,294,322874,2,0,P|228:269|281:260,1,95.3333362426759,2|0,1:0|0:0,0:0:0:0:
334,211,323130,1,4,3:0:0:0:
198,77,323301,1,4,3:0:0:0:
198,77,323386,2,0,P|259:101|333:105,1,95.3333362426759,10|0,1:2|0:0,0:0:0:0:
368,109,323643,2,0,P|367:36|357:-17,1,95.3333362426759,2|0,1:2|0:0,0:0:0:0:
286,0,323899,5,2,1:2:0:0:
205,274,324156,2,0,P|195:246|206:165,1,95.3333362426759,2|0,1:0|0:0,0:0:0:0:
322,193,324412,2,0,P|333:262|312:330,1,143.000004364014,10|4,1:2|1:3,0:0:0:0:
132,353,324839,1,4,3:0:0:0:
132,353,324925,2,0,P|191:367|250:407,1,95.3333362426759,2|0,1:0|0:0,0:0:0:0:
302,353,325181,2,0,P|337:331|377:322,1,47.6666681213379,4|0,1:3|0:0,0:0:0:0:
437,353,325352,1,2,3:1:0:0:
437,353,325438,2,0,P|449:310|424:262,1,95.3333362426759,10|0,1:2|0:0,0:0:0:0:
469,167,325694,2,0,P|400:177|364:202,1,95.3333362426759,2|0,1:2|0:0,0:0:0:0:
298,200,325950,5,6,1:2:0:0:
298,200,326036,1,4,3:0:0:0:
219,280,326207,2,0,P|206:198|204:151,1,95.3333362426759,2|0,1:0|3:0,0:0:0:0:
254,122,326463,1,10,1:2:0:0:
70,221,326634,1,4,3:0:0:0:
70,221,326720,2,0,P|82:152|84:97,1,95.3333362426759,2|0,1:2|0:0,0:0:0:0:
110,35,326976,2,0,B|36:19|36:19|-4:95,1,143.000004364014,2|2,1:0|1:2,3:0:0:0:
214,207,327403,1,4,3:0:0:0:
214,207,327489,2,0,B|262:202|262:202|300:260,1,95.3333362426759,8|2,1:2|1:2,3:0:0:0:
259,325,327745,6,0,B|235:314|189:313|170:377|235:416|294:377|289:344|291:314|343:291|406:295|424:349,1,303.333324076335,6|0,1:0|0:0,0:0:0:0:
512,292,328258,2,0,P|508:343|477:384,1,103.999996826172,2|0,1:0|0:0,0:0:0:0:
412,213,328515,2,0,P|408:162|377:122,1,103.999996826172,2|0,1:0|0:0,0:0:0:0:
311,286,328771,2,0,P|294:334|254:366,1,103.999996826172,2|0,1:0|0:0,0:0:0:0:
257,159,329027,2,0,P|240:111|200:80,1,103.999996826172,2|0,1:0|0:0,0:0:0:0:
153,264,329284,2,0,P|124:307|77:327,1,103.999996826172,2|0,1:0|0:0,0:0:0:0:
93,97,329540,2,0,P|64:54|17:35,1,103.999996826172,2|0,1:0|0:0,0:0:0:0:
55,200,329797,1,4,1:3:0:0:
55,200,330053,6,0,B|151:185|70:178|195:164,1,130,4|4,3:0|0:1,0:0:0:0:
256,192,330694,12,0,336463,0:0:0:0:
329,115,337313,6,0,L|410:96,1,75.8333310190837,2|0,0:0|0:0,0:0:0:0:
411,112,337813,1,2,0:0:0:0:
260,52,338313,1,2,0:0:0:0:
380,228,338813,2,0,L|266:195,1,110.50000210762,2|2,0:0|3:2,0:0:0:0:
257,223,340313,2,0,L|143:190,1,110.50000210762,2|2,3:2|3:2,0:0:0:0:
73,366,341146,5,2,0:0:0:0:
73,366,341313,2,0,P|114:367|153:306,1,110.50000210762,2|2,3:2|0:0,0:0:0:0:
225,84,342313,2,0,P|266:85|296:128,1,92.0833350896836,2|0,3:2|0:0,0:0:0:0:
291,143,342813,1,2,0:0:0:0:
124,183,343146,1,2,0:0:0:0:
124,183,343313,2,0,B|198:194|160:213|239:226,1,110.50000210762,2|2,3:2|0:0,0:0:0:0:
387,354,344146,1,2,0:0:0:0:
439,301,344313,2,0,P|432:250|425:177,1,110.50000210762,2|0,0:0|0:0,0:0:0:0:
214,19,345313,6,0,P|127:33|90:123,1,184.166670179367,2|0,3:2|0:0,0:0:0:0:
96,206,346313,2,0,B|137:223|194:185|185:178|174:171|224:127|256:140,1,184.166670179367,2|0,3:2|0:0,0:0:0:0:
344,95,347313,2,0,P|328:214|316:329,1,221.000004215241,2|2,3:2|3:2,0:0:0:0:
142,351,348813,5,2,0:0:0:0:
186,331,348979,1,2,0:0:0:0:
98,284,349146,1,2,0:0:0:0:
212,250,349313,2,0,B|240:194|240:194|209:114|209:114|245:32,1,221.000004215241,2|2,3:2|3:2,0:0:0:0:
432,306,350813,5,2,0:0:0:0:
388,286,350979,1,2,0:0:0:0:
476,239,351146,1,2,0:0:0:0:
362,205,351313,2,0,B|334:149|334:149|364:69|364:69|329:-13,1,221.000004215241,2|2,3:2|3:2,0:0:0:0:
61,106,352813,5,2,0:0:0:0:
155,157,353146,1,2,0:0:0:0:
155,157,353313,2,0,P|94:183|58:201,1,73.6666680717469,2|0,3:2|0:0,0:0:0:0:
173,303,353813,2,0,P|112:277|76:259,1,73.6666680717469,2|0,0:0|0:0,0:0:0:0:
274,190,354313,2,0,P|213:216|177:234,1,73.6666680717469,2|0,3:2|0:0,0:0:0:0:
328,325,354813,2,0,P|267:299|231:281,1,73.6666680717469,2|0,0:0|0:0,0:0:0:0:
356,242,355313,2,0,P|371:202|366:20,1,221.000004215241,2|2,3:2|3:2,0:0:0:0:
89,180,356813,2,0,L|73:73,1,92.0833350896836,2|0,0:0|0:0,0:0:0:0:
63,76,357313,6,0,P|108:75|158:123,1,86.6666666666667,2|0,3:2|0:0,0:0:0:0:
222,55,357813,2,0,P|317:83|333:88,1,86.6666666666667,2|0,3:2|0:0,0:0:0:0:
297,159,358313,2,0,P|293:214|288:259,1,86.6666666666667,2|0,3:2|0:0,0:0:0:0:
329,312,358813,1,2,0:0:0:0:
190,206,359146,1,2,0:0:0:0:
190,206,359313,1,2,3:2:0:0:
381,145,359646,1,2,3:2:0:0:
381,145,359813,1,2,3:2:0:0:
165,57,360146,1,2,3:2:0:0:
165,57,360313,1,2,3:2:0:0:
387,8,360646,1,2,3:2:0:0:
387,8,360813,2,0,P|347:45|305:36,1,86.6666666666667,2|0,0:0|0:0,0:0:0:0:
238,4,361313,6,0,P|245:60|252:162,1,130,2|0,3:2|0:0,0:0:0:0:
140,311,362146,1,2,3:2:0:0:
140,311,362313,2,0,P|154:238|155:212,1,86.6666666666667,2|0,3:2|0:0,0:0:0:0:
234,229,362813,2,0,B|292:246|241:246|340:276,1,86.6666666666667,2|0,3:2|0:0,0:0:0:0:
381,241,363313,1,2,3:2:0:0:
327,88,363646,1,2,3:2:0:0:
327,88,363813,1,2,3:2:0:0:
235,219,364146,1,2,3:2:0:0:
235,219,364313,1,2,3:2:0:0:
136,46,364646,1,2,3:2:0:0:
136,46,364813,1,2,3:2:0:0:
49,220,365146,5,2,3:2:0:0:
0,169,365313,2,0,P|45:128|128:150,1,130,2|0,3:2|0:0,0:0:0:0:
216,295,366313,2,0,P|211:338|208:373,1,43.3333333333333,2|0,3:2|0:0,0:0:0:0:
211,337,366813,1,2,0:0:0:0:
291,312,366979,1,2,0:0:0:0:
160,242,367146,1,2,0:0:0:0:
303,193,367313,2,0,P|316:130|309:87,1,86.6666666666667,2|0,3:2|0:0,0:0:0:0:
347,38,367813,2,0,P|283:24|241:6,1,86.6666666666667,2|0,3:2|0:0,0:0:0:0:
206,76,368313,2,0,P|160:86|107:112,1,86.6666666666667,2|0,3:2|0:0,0:0:0:0:
59,58,368813,1,2,3:2:0:0:
192,241,369146,5,2,0:0:0:0:
117,280,369313,2,0,P|116:215|113:159,1,86.6666666666667,2|0,3:2|0:0,0:0:0:0:
275,124,369813,2,0,P|273:167|273:210,1,86.6666666666667,2|0,3:2|0:0,0:0:0:0:
341,301,370313,2,0,P|401:280|445:271,1,86.6666666666667,2|0,3:2|0:0,0:0:0:0:
477,203,370813,2,0,P|468:165|465:142,1,43.3333333333333,2|0,3:2|0:0,0:0:0:0:
387,178,371146,1,2,0:0:0:0:
512,85,371313,2,0,P|462:69|418:46,1,86.6666666666667,2|0,3:2|0:0,0:0:0:0:
346,17,371813,2,0,P|316:41|250:68,1,86.6666666666667,2|0,3:2|0:0,0:0:0:0:
181,106,372313,2,0,P|187:56|191:3,1,86.6666666666667,2|0,3:2|0:0,0:0:0:0:
114,22,372813,1,2,3:2:0:0:
259,200,373146,5,2,3:2:0:0:
197,249,373313,2,0,P|130:220|34:206,1,130,2|2,3:2|3:2,0:0:0:0:
264,367,374313,1,2,3:2:0:0:
383,259,374646,1,2,3:2:0:0:
392,286,374813,1,2,3:2:0:0:
211,267,375146,1,2,3:2:0:0:
226,217,375313,1,2,3:2:0:0:
429,149,375646,1,2,3:2:0:0:
403,88,375813,1,2,3:2:0:0:
196,26,376146,1,2,3:2:0:0:
169,93,376313,1,2,3:2:0:0:
358,188,376646,1,2,0:0:0:0:
291,227,376813,2,0,B|199:241|268:268|134:283,1,130,2|2,3:2|3:2,0:0:0:0:
18,63,377813,6,0,P|49:62|90:106,1,86.6666666666667,2|0,3:2|0:0,0:0:0:0:
164,79,378313,2,0,P|166:143|165:188,1,86.6666666666667,2|0,3:2|0:0,0:0:0:0:
244,156,378813,2,0,P|275:157|316:113,1,86.6666666666667,2|0,3:2|0:0,0:0:0:0:
394,151,379313,2,0,P|385:81|372:-10,2,130,2|2|2,3:2|3:2|3:2,0:0:0:0:
223,256,380813,1,2,0:0:0:0:
476,361,381313,5,2,3:2:0:0:
349,242,381646,1,2,3:2:0:0:
349,242,381813,1,2,3:2:0:0:
278,354,382146,1,2,3:2:0:0:
278,354,382313,1,2,3:2:0:0:
214,170,382646,1,2,3:2:0:0:
214,170,382813,1,2,3:2:0:0:
149,359,383146,1,2,3:2:0:0:
149,359,383313,2,0,P|139:270|130:234,1,86.6666666666667,2|0,3:2|0:0,0:0:0:0:
58,252,383813,2,0,P|65:209|68:166,1,86.6666666666667,2|0,3:2|0:0,0:0:0:0:
144,168,384313,2,0,P|151:99|150:25,1,130,2|2,0:0|0:0,0:0:0:0:
421,102,385313,6,0,B|351:118|393:128|294:158,1,130,2|0,3:2|0:0,0:0:0:0:
442,220,386063,1,2,0:0:0:0:
363,328,386313,6,0,B|207:301|317:232|145:190,1,260,2|0,3:2|0:0,0:0:0:0:
