osu file format v14

[General]
AudioFilename: anikis.mp3
AudioLeadIn: 0
PreviewTime: 485909
Countdown: 0
SampleSet: Normal
StackLeniency: 0.7
Mode: 1
LetterboxInBreaks: 0
WidescreenStoryboard: 0

[Editor]
Bookmarks: 3305,44022,90175,145560,208637,240945,277868,327098,371761,427914,455607,486376,535606,668970
DistanceSpacing: 2
BeatDivisor: 4
GridSize: 32
TimelineZoom: 1.4

[Metadata]
Title:International Wrestling Festival 2016 -MAKE SPANKING GREAT AGAIN!-
TitleUnicode:International Wrestling Festival 2016 -MAKE SPANKING GREAT AGAIN!-
Artist:Various Artists
ArtistUnicode:Various Artists
Creator:Surono
Version:TAIKONIKI COLLAB
Source:
Tags:Collaboration Youtube Medley Pokemon Blue/Red BGM Super Smash Bros Mamoru-kun has been Cursed! Bomber Hey!! Sash! AQUA Bakemonogatari 4th OP Tensi House Donkey Kong Country 2 Li Huanzhi Final Fantasy The Black Eyed Peas Dick Dale Undertale Kinnikuman Korean beatmania IIDX 19 Lincle Route 1 Multi-Man Karakuri Spirits Ai Wa Binchotan Ecuador Barbie Girl Renai Circulation Cake House Stickerbrush Symphony Spring Festival Overture Chocobo Theme Pump It Death by Glamour Storming Path Love B.B.B. Subス Neavy KinkyOats gi79ol kyokuP Gerardo Firestorm Kintama (금구슬) Xarlable + Meta 0922288C MowtenDoo Guiz MatrixMarioX Geezer Fotzu Aniki Gay Year's Eve Marathon Midnaait
BeatmapID:1172567
BeatmapSetID:553773

[Difficulty]
HPDrainRate:3
CircleSize:2
OverallDifficulty:6.9
ApproachRate:10
SliderMultiplier:1.4
SliderTickRate:1

[Events]
//Background and Video events
0,0,"ANIKIS.jpg",0,15
//Break Periods
2,8760,13537
2,16033,20128
//Storyboard Layer 0 (Background)
//Storyboard Layer 1 (Fail)
//Storyboard Layer 2 (Pass)
//Storyboard Layer 3 (Foreground)
//Storyboard Sound Samples

[TimingPoints]
3306,454.545454545455,4,1,0,100,1,0
3306,-40,4,1,0,100,0,0
3419,-100,4,1,0,100,0,0
13874,-100,4,1,0,69,0,0
15237,-100,4,1,0,100,0,0
20806,454.545454545455,4,1,0,100,1,0
41374,-95.2380952380952,4,1,0,100,0,0
41544,-90.9090909090909,4,1,0,100,0,0
41715,384.615384615385,4,1,0,100,1,0
43253,384.615384615385,4,1,0,100,1,8
44022,384.615384615385,4,1,0,100,1,0
48156,-100,4,1,0,30,0,0
49310,-100,4,1,0,100,0,0
50175,-100,4,1,0,100,0,1
90175,-100,4,1,0,100,0,0
96714,-111.111111111111,4,1,0,100,0,0
108252,-108.695652173913,4,1,0,100,0,0
108348,-106.382978723404,4,1,0,100,0,0
108445,-104.166666666667,4,1,0,100,0,0
108541,-102.040816326531,4,1,0,100,0,0
108637,-100,4,1,0,100,0,0
120945,-90.9090909090909,4,1,0,100,0,1
145175,-95.2380952380952,4,1,0,100,0,1
145560,-100,4,1,0,100,0,0
174214,-104.166666666667,4,1,0,100,0,0
174406,-108.695652173913,4,1,0,100,0,0
174598,-113.636363636364,4,1,0,100,0,0
174791,-119.047619047619,4,1,0,100,0,0
175175,-100,4,1,0,100,0,0
177483,-40,4,1,0,100,0,0
177868,-100,4,1,0,100,0,0
184022,-100,4,1,0,100,0,1
208637,-83.3333333333333,4,1,0,100,0,0
209022,-90.9090909090909,4,1,0,100,0,0
209406,-100,4,1,0,100,0,0
228637,-100,4,1,0,100,0,1
240945,-100,4,1,0,100,0,0
252483,-103.092783505155,4,1,0,100,0,0
252579,-104.166666666667,4,1,0,100,0,0
252675,-105.263157894737,4,1,0,100,0,0
252772,-106.382978723404,4,1,0,100,0,0
252868,-107.52688172043,4,1,0,100,0,0
252964,-108.695652173913,4,1,0,100,0,0
253060,-109.89010989011,4,1,0,100,0,0
253156,-111.111111111111,4,1,0,100,0,0
253252,-112.359550561798,4,1,0,100,0,0
253637,-117.647058823529,4,1,0,100,0,0
264887,-114.942528735632,4,1,0,100,0,0
264983,-112.359550561798,4,1,0,100,0,0
265079,-109.89010989011,4,1,0,100,0,0
265175,-107.52688172043,4,1,0,100,0,0
265368,-105.263157894737,4,1,0,100,0,0
265464,-103.092783505155,4,1,0,100,0,0
265560,-100,4,1,0,100,0,1
277868,-100,4,1,0,100,0,0
296329,-100,4,1,0,100,0,1
327098,-100,4,1,0,100,0,0
370175,401.33779264214,4,1,0,100,1,0
370175,-95.2380952380952,4,1,0,69,0,0
371379,384.615384615385,4,1,0,100,1,8
371763,384.615384615385,4,1,0,100,1,0
380993,-100,4,1,0,100,0,1
397147,384.615384615385,4,1,0,100,1,8
427916,-105.263157894737,4,1,0,100,0,0
430127,-106.382978723404,4,1,0,100,0,0
430320,-107.52688172043,4,1,0,100,0,0
430416,-108.695652173913,4,1,0,100,0,0
430512,-109.89010989011,4,1,0,100,0,0
430608,-111.111111111111,4,1,0,100,0,0
433202,-109.89010989011,4,1,0,100,0,0
433395,-107.52688172043,4,1,0,100,0,0
433491,-106.382978723404,4,1,0,100,0,0
433587,-105.263157894737,4,1,0,100,0,0
433683,-104.166666666667,4,1,0,100,0,0
433875,-102.040816326531,4,1,0,100,0,0
434068,-100,4,1,0,100,0,0
437721,-83.3333333333333,4,1,0,100,0,0
438491,-100,4,1,0,100,0,0
439260,-83.3333333333333,4,1,0,100,0,0
440029,-100,4,1,0,100,0,0
440798,-83.3333333333333,4,1,0,100,0,0
441568,-100,4,1,0,100,0,0
442337,-83.3333333333333,4,1,0,100,0,0
443012,-100,4,1,0,100,0,0
454742,-102.040816326531,4,1,0,100,0,0
454838,-104.166666666667,4,1,0,100,0,0
454934,-106.382978723404,4,1,0,100,0,0
455030,-108.695652173913,4,1,0,100,0,0
455126,-111.111111111111,4,1,0,100,0,0
455222,-113.636363636364,4,1,0,100,0,0
455319,-116.279069767442,4,1,0,100,0,0
455415,-119.047619047619,4,1,0,100,0,0
455511,-121.951219512195,4,1,0,100,0,0
455607,-125,4,1,0,100,0,0
460608,-119.047619047619,4,1,0,100,0,0
460800,-113.636363636364,4,1,0,100,0,0
460993,-108.695652173913,4,1,0,100,0,0
461185,-104.166666666667,4,1,0,100,0,0
461376,-100,4,1,0,100,0,0
461570,-95.2380952380952,4,1,0,100,0,0
461762,-90.9090909090909,4,1,0,100,0,0
484070,-91.743119266055,4,1,0,100,0,0
484262,-93.4579439252336,4,1,0,100,0,0
484355,-94.3396226415094,4,1,0,100,0,0
484451,-95.2380952380952,4,1,0,100,0,0
484547,-96.1538461538461,4,1,0,100,0,0
484644,-97.0873786407767,4,1,0,100,0,0
484740,-98.0392156862745,4,1,0,100,0,0
484836,-99.009900990099,4,1,0,100,0,0
485028,-100,4,1,0,100,0,0
486377,-100,4,1,0,100,0,1
510800,-99.009900990099,4,1,0,100,0,1
510864,-98.0392156862745,4,1,0,100,0,1
510929,-97.0873786407767,4,1,0,100,0,1
510993,-96.1538461538461,4,1,0,100,0,1
511089,-95.2380952380952,4,1,0,100,0,1
535223,-96.1538461538461,4,1,0,100,0,1
535416,-98.0392156862745,4,1,0,100,0,1
535608,-100,4,1,0,100,0,0
548204,-111.111111111111,4,1,0,100,0,0
558397,-100,4,1,0,100,0,0
565223,-100,4,1,0,100,0,1
594454,-117.647058823529,4,1,0,100,0,0
594550,-117.647058823529,4,1,0,20,0,0
603300,384.615384615385,4,1,0,20,1,8
603735,337.837837837838,4,1,0,100,1,8
604072,337.837837837838,4,1,0,100,1,0
625355,-133.333333333333,4,1,0,100,0,0
625693,-100,4,1,0,100,0,1
668936,-100,4,1,0,100,0,0

[HitObjects]
256,192,3306,5,12,0:0:0:0:
256,192,7321,1,0,0:0:0:0:
256,192,7396,1,8,0:0:0:0:
256,192,13987,12,0,15124,0:0:0:0:
256,192,20578,5,0,0:0:0:0:
256,192,20692,1,0,0:0:0:0:
256,192,20806,1,12,0:0:0:0:
256,192,21033,1,8,0:0:0:0:
256,192,21260,1,0,0:0:0:0:
256,192,21487,1,0,0:0:0:0:
256,192,21601,1,0,0:0:0:0:
256,192,21715,1,8,0:0:0:0:
256,192,21942,1,8,0:0:0:0:
256,192,22169,1,0,0:0:0:0:
256,192,22396,1,0,0:0:0:0:
256,192,22510,1,0,0:0:0:0:
256,192,22624,1,8,0:0:0:0:
256,192,22851,1,8,0:0:0:0:
256,192,23078,1,8,0:0:0:0:
256,192,23192,1,0,0:0:0:0:
256,192,23306,1,8,0:0:0:0:
256,192,23419,1,8,0:0:0:0:
256,192,23533,1,0,0:0:0:0:
256,192,23760,1,8,0:0:0:0:
256,192,23987,1,8,0:0:0:0:
256,192,24215,1,8,0:0:0:0:
256,192,24328,1,8,0:0:0:0:
256,192,24442,1,0,0:0:0:0:
256,192,24669,1,8,0:0:0:0:
256,192,24896,1,0,0:0:0:0:
256,192,25124,1,8,0:0:0:0:
256,192,25237,1,8,0:0:0:0:
256,192,25351,1,0,0:0:0:0:
256,192,25578,1,8,0:0:0:0:
256,192,25806,1,0,0:0:0:0:
256,192,26033,1,8,0:0:0:0:
256,192,26146,1,8,0:0:0:0:
256,192,26260,1,0,0:0:0:0:
256,192,26487,1,8,0:0:0:0:
256,192,26715,1,0,0:0:0:0:
256,192,26828,1,8,0:0:0:0:
256,192,26942,1,8,0:0:0:0:
256,192,27056,1,0,0:0:0:0:
256,192,27169,1,8,0:0:0:0:
256,192,27396,1,8,0:0:0:0:
256,192,27624,1,8,0:0:0:0:
256,192,27851,5,0,0:0:0:0:
256,192,27965,1,0,0:0:0:0:
256,192,28078,1,8,0:0:0:0:
256,192,28306,1,8,0:0:0:0:
256,192,28533,1,0,0:0:0:0:
256,192,28760,1,0,0:0:0:0:
256,192,28874,1,0,0:0:0:0:
256,192,28987,1,8,0:0:0:0:
256,192,29215,1,8,0:0:0:0:
256,192,29442,1,0,0:0:0:0:
256,192,29669,1,0,0:0:0:0:
256,192,29783,1,0,0:0:0:0:
256,192,29896,1,8,0:0:0:0:
256,192,30124,1,8,0:0:0:0:
256,192,30351,1,8,0:0:0:0:
256,192,30465,1,0,0:0:0:0:
256,192,30578,1,0,0:0:0:0:
256,192,30692,1,8,0:0:0:0:
256,192,30806,1,0,0:0:0:0:
256,192,31033,1,8,0:0:0:0:
256,192,31260,1,8,0:0:0:0:
256,192,31487,1,8,0:0:0:0:
256,192,31601,1,8,0:0:0:0:
256,192,31715,1,0,0:0:0:0:
256,192,31942,1,8,0:0:0:0:
256,192,32169,1,4,0:0:0:0:
256,192,32396,1,8,0:0:0:0:
256,192,32510,1,0,0:0:0:0:
256,192,32624,1,0,0:0:0:0:
256,192,32851,1,8,0:0:0:0:
256,192,33078,1,4,0:0:0:0:
256,192,33306,1,8,0:0:0:0:
256,192,33419,1,0,0:0:0:0:
256,192,33533,1,8,0:0:0:0:
256,192,33760,1,0,0:0:0:0:
256,192,33987,1,0,0:0:0:0:
256,192,34101,1,0,0:0:0:0:
256,192,34215,1,0,0:0:0:0:
256,192,34328,1,0,0:0:0:0:
256,192,34442,1,12,0:0:0:0:
256,192,34669,1,8,0:0:0:0:
256,192,34896,1,0,0:0:0:0:
256,192,35010,1,8,0:0:0:0:
256,192,35124,1,0,0:0:0:0:
256,192,35237,1,0,0:0:0:0:
256,192,35351,1,8,0:0:0:0:
256,192,35578,1,8,0:0:0:0:
256,192,35806,1,0,0:0:0:0:
256,192,36033,1,0,0:0:0:0:
256,192,36146,1,0,0:0:0:0:
256,192,36260,1,8,0:0:0:0:
256,192,36374,1,0,0:0:0:0:
256,192,36487,1,8,0:0:0:0:
256,192,36715,1,8,0:0:0:0:
256,192,36828,1,0,0:0:0:0:
256,192,36942,1,0,0:0:0:0:
256,192,37056,1,0,0:0:0:0:
256,192,37169,1,8,0:0:0:0:
256,192,37396,1,8,0:0:0:0:
256,192,37510,1,8,0:0:0:0:
256,192,37624,1,0,0:0:0:0:
256,192,37851,1,0,0:0:0:0:
256,192,37965,1,0,0:0:0:0:
256,192,38078,1,8,0:0:0:0:
256,192,38306,1,0,0:0:0:0:
256,192,38419,1,0,0:0:0:0:
256,192,38533,1,8,0:0:0:0:
256,192,38646,1,0,0:0:0:0:
256,192,38760,1,8,0:0:0:0:
256,192,38874,1,8,0:0:0:0:
256,192,38987,1,0,0:0:0:0:
256,192,39215,1,8,0:0:0:0:
256,192,39442,1,0,0:0:0:0:
256,192,39669,1,0,0:0:0:0:
256,192,39783,1,0,0:0:0:0:
256,192,39896,1,8,0:0:0:0:
256,192,40010,1,0,0:0:0:0:
256,192,40124,1,8,0:0:0:0:
256,192,40351,1,8,0:0:0:0:
256,192,40465,1,0,0:0:0:0:
256,192,40578,1,0,0:0:0:0:
256,192,40692,1,8,0:0:0:0:
256,192,40806,1,8,0:0:0:0:
256,192,41033,1,0,0:0:0:0:
256,192,41260,1,8,0:0:0:0:
256,192,41487,1,8,0:0:0:0:
256,192,41601,1,8,0:0:0:0:
256,192,41715,5,4,0:0:0:0:
224,160,43638,1,8,0:0:0:0:
224,160,43734,1,8,0:0:0:0:
224,160,43830,1,0,0:0:0:0:
224,160,44022,1,12,0:0:0:0:
224,160,44214,1,8,0:0:0:0:
224,160,44406,1,0,0:0:0:0:
224,160,44598,1,12,0:0:0:0:
224,160,44983,1,8,0:0:0:0:
224,160,45175,1,0,0:0:0:0:
224,160,45368,1,12,0:0:0:0:
224,160,45752,1,0,0:0:0:0:
224,160,45945,1,8,0:0:0:0:
224,160,46137,1,4,0:0:0:0:
224,160,46522,1,0,0:0:0:0:
224,160,46714,1,0,0:0:0:0:
224,160,46906,1,12,0:0:0:0:
224,160,47483,1,0,0:0:0:0:
224,160,47868,1,0,0:0:0:0:
256,192,48252,8,0,49214,0:0:0:0:
288,160,49406,5,12,0:0:0:0:
288,160,49695,1,12,0:0:0:0:
288,160,49983,1,12,0:0:0:0:
288,160,50175,1,4,0:0:0:0:
256,160,50368,1,0,0:0:0:0:
256,160,50464,1,0,0:0:0:0:
256,160,50560,1,8,0:0:0:0:
256,160,50656,1,8,0:0:0:0:
256,160,50752,1,0,0:0:0:0:
256,160,50848,1,0,0:0:0:0:
256,160,50945,1,8,0:0:0:0:
256,160,51137,1,8,0:0:0:0:
256,160,51233,1,8,0:0:0:0:
256,160,51329,1,0,0:0:0:0:
256,160,51522,1,0,0:0:0:0:
256,160,51618,1,8,0:0:0:0:
256,160,51714,1,8,0:0:0:0:
256,160,51906,1,8,0:0:0:0:
256,160,52098,1,0,0:0:0:0:
256,160,52291,1,8,0:0:0:0:
256,160,52387,1,8,0:0:0:0:
256,160,52483,1,0,0:0:0:0:
256,160,52675,1,0,0:0:0:0:
256,160,52772,1,8,0:0:0:0:
256,160,52868,1,0,0:0:0:0:
256,160,52964,1,0,0:0:0:0:
256,160,53060,1,8,0:0:0:0:
256,160,53252,1,0,0:0:0:0:
224,160,53445,1,0,0:0:0:0:
256,160,53541,1,0,0:0:0:0:
256,160,53637,1,8,0:0:0:0:
256,160,53733,1,0,0:0:0:0:
256,160,53829,1,8,0:0:0:0:
256,160,53925,1,8,0:0:0:0:
256,160,54022,1,0,0:0:0:0:
288,160,54214,1,0,0:0:0:0:
256,160,54310,1,8,0:0:0:0:
256,160,54406,1,0,0:0:0:0:
256,160,54502,1,0,0:0:0:0:
256,160,54598,1,8,0:0:0:0:
256,160,54791,1,0,0:0:0:0:
288,128,54887,1,8,0:0:0:0:
288,128,54983,1,0,0:0:0:0:
288,128,55079,1,0,0:0:0:0:
288,128,55175,1,8,0:0:0:0:
288,128,55272,1,0,0:0:0:0:
288,128,55368,1,8,0:0:0:0:
288,160,55560,1,8,0:0:0:0:
288,160,55656,1,8,0:0:0:0:
288,160,55752,1,0,0:0:0:0:
288,160,55945,1,0,0:0:0:0:
288,160,56041,1,0,0:0:0:0:
288,160,56137,1,0,0:0:0:0:
256,160,56329,1,12,0:0:0:0:
256,160,56522,1,0,0:0:0:0:
256,160,56714,1,8,0:0:0:0:
256,160,56810,1,8,0:0:0:0:
256,160,56906,1,0,0:0:0:0:
256,160,57002,1,0,0:0:0:0:
256,160,57098,1,8,0:0:0:0:
256,160,57291,1,8,0:0:0:0:
256,160,57483,1,0,0:0:0:0:
256,160,57675,1,0,0:0:0:0:
256,160,57772,1,8,0:0:0:0:
256,160,57868,1,8,0:0:0:0:
256,160,58060,1,8,0:0:0:0:
256,160,58252,1,0,0:0:0:0:
256,160,58445,1,8,0:0:0:0:
256,160,58541,1,8,0:0:0:0:
256,160,58637,1,0,0:0:0:0:
256,160,58829,1,12,0:0:0:0:
256,160,59022,1,12,0:0:0:0:
256,160,59214,1,0,0:0:0:0:
256,160,59406,1,8,0:0:0:0:
224,160,59598,1,0,0:0:0:0:
256,160,59695,1,0,0:0:0:0:
256,160,59791,1,8,0:0:0:0:
256,160,59887,1,0,0:0:0:0:
256,160,59983,1,8,0:0:0:0:
256,160,60079,1,8,0:0:0:0:
256,160,60175,1,0,0:0:0:0:
288,160,60368,1,0,0:0:0:0:
256,160,60464,1,8,0:0:0:0:
256,160,60560,1,0,0:0:0:0:
256,160,60656,1,0,0:0:0:0:
256,160,60752,1,8,0:0:0:0:
288,128,60848,1,0,0:0:0:0:
256,160,60945,1,8,0:0:0:0:
288,128,61137,1,0,0:0:0:0:
288,128,61233,1,0,0:0:0:0:
288,128,61329,1,8,0:0:0:0:
288,128,61425,1,0,0:0:0:0:
288,128,61522,1,8,0:0:0:0:
288,160,61714,1,8,0:0:0:0:
288,160,61810,1,8,0:0:0:0:
288,160,61906,1,0,0:0:0:0:
288,160,62098,1,8,0:0:0:0:
288,160,62195,1,8,0:0:0:0:
288,160,62291,1,0,0:0:0:0:
288,160,62387,1,0,0:0:0:0:
256,160,62483,1,8,0:0:0:0:
224,96,62675,1,8,0:0:0:0:
224,96,62868,1,0,0:0:0:0:
224,128,63060,1,8,0:0:0:0:
224,128,63156,1,8,0:0:0:0:
224,96,63252,1,8,0:0:0:0:
224,96,63445,1,8,0:0:0:0:
224,96,63637,1,0,0:0:0:0:
224,96,63733,1,0,0:0:0:0:
224,96,63829,1,8,0:0:0:0:
224,96,64022,1,4,0:0:0:0:
224,160,64310,1,0,0:0:0:0:
224,160,64406,1,8,0:0:0:0:
224,160,64598,1,0,0:0:0:0:
32,160,64791,1,8,0:0:0:0:
32,160,64983,1,0,0:0:0:0:
32,160,65079,1,8,0:0:0:0:
192,160,65175,1,0,0:0:0:0:
32,160,65272,1,0,0:0:0:0:
32,160,65368,1,8,0:0:0:0:
32,160,65560,1,8,0:0:0:0:
32,160,65752,1,0,0:0:0:0:
32,160,65945,1,8,0:0:0:0:
32,160,66041,1,8,0:0:0:0:
32,160,66137,1,0,0:0:0:0:
32,160,66233,1,8,0:0:0:0:
32,160,66329,1,0,0:0:0:0:
32,160,66522,1,0,0:0:0:0:
32,160,66618,1,0,0:0:0:0:
32,160,66714,1,8,0:0:0:0:
32,160,66906,1,8,0:0:0:0:
32,160,67002,1,8,0:0:0:0:
32,160,67098,1,0,0:0:0:0:
32,160,67387,1,8,0:0:0:0:
32,160,67483,1,0,0:0:0:0:
32,160,67675,1,8,0:0:0:0:
32,160,67772,1,8,0:0:0:0:
32,160,67868,1,8,0:0:0:0:
32,160,68060,1,0,0:0:0:0:
32,160,68156,1,8,0:0:0:0:
64,160,68252,1,0,0:0:0:0:
64,160,68348,1,0,0:0:0:0:
32,160,68445,1,8,0:0:0:0:
32,160,68541,1,0,0:0:0:0:
32,160,68637,1,8,0:0:0:0:
32,160,68829,1,8,0:0:0:0:
32,160,69022,1,0,0:0:0:0:
32,160,69118,1,0,0:0:0:0:
32,160,69214,1,8,0:0:0:0:
32,160,69406,1,0,0:0:0:0:
32,160,69598,1,0,0:0:0:0:
32,160,69695,1,0,0:0:0:0:
64,160,69791,1,8,0:0:0:0:
32,160,69983,1,0,0:0:0:0:
256,192,70175,1,12,0:0:0:0:
256,192,70368,1,0,0:0:0:0:
256,192,70464,1,0,0:0:0:0:
256,192,70560,1,8,0:0:0:0:
256,192,70656,1,8,0:0:0:0:
256,192,70752,1,0,0:0:0:0:
256,192,70945,1,12,0:0:0:0:
256,192,71137,1,0,0:0:0:0:
256,192,71233,1,0,0:0:0:0:
256,192,71329,1,8,0:0:0:0:
256,192,71522,1,0,0:0:0:0:
256,192,71714,1,12,0:0:0:0:
256,192,71906,1,0,0:0:0:0:
256,192,72002,1,8,0:0:0:0:
256,192,72098,1,0,0:0:0:0:
256,192,72291,1,0,0:0:0:0:
256,192,72387,1,0,0:0:0:0:
256,192,72483,1,8,0:0:0:0:
256,192,72579,1,0,0:0:0:0:
256,192,72675,1,8,0:0:0:0:
256,192,72772,1,8,0:0:0:0:
256,192,72868,1,0,0:0:0:0:
256,192,72964,1,8,0:0:0:0:
256,192,73060,1,0,0:0:0:0:
256,192,73252,1,12,0:0:0:0:
256,192,73445,1,8,0:0:0:0:
256,192,73541,1,0,0:0:0:0:
256,192,73637,1,8,0:0:0:0:
32,96,73733,1,8,0:0:0:0:
256,192,73829,1,0,0:0:0:0:
256,192,74022,1,8,0:0:0:0:
256,192,74214,1,0,0:0:0:0:
256,192,74406,1,8,0:0:0:0:
256,192,74502,1,8,0:0:0:0:
256,192,74598,1,0,0:0:0:0:
256,192,74695,1,8,0:0:0:0:
256,192,74791,1,8,0:0:0:0:
256,192,74983,1,8,0:0:0:0:
256,192,75079,1,0,0:0:0:0:
256,192,75175,1,8,0:0:0:0:
256,192,75272,1,8,0:0:0:0:
256,192,75368,1,0,0:0:0:0:
256,224,75464,1,8,0:0:0:0:
256,192,75560,1,0,0:0:0:0:
256,192,75656,1,0,0:0:0:0:
256,192,75752,1,0,0:0:0:0:
256,192,75848,1,8,0:0:0:0:
256,192,75945,1,0,0:0:0:0:
256,192,76041,1,0,0:0:0:0:
256,192,76137,1,8,0:0:0:0:
256,192,76329,1,12,0:0:0:0:
224,128,76618,1,0,0:0:0:0:
224,128,76714,1,8,0:0:0:0:
224,128,76906,1,8,0:0:0:0:
224,128,77002,1,8,0:0:0:0:
224,128,77098,1,0,0:0:0:0:
224,128,77291,1,0,0:0:0:0:
224,128,77387,1,8,0:0:0:0:
224,128,77579,1,0,0:0:0:0:
224,128,77675,1,8,0:0:0:0:
224,128,77772,1,8,0:0:0:0:
224,128,77868,1,0,0:0:0:0:
224,128,78060,1,8,0:0:0:0:
224,128,78156,1,8,0:0:0:0:
224,128,78252,1,0,0:0:0:0:
224,128,78445,1,8,0:0:0:0:
224,192,78637,1,0,0:0:0:0:
224,192,78733,1,8,0:0:0:0:
224,192,78829,1,0,0:0:0:0:
224,192,78893,1,0,0:0:0:0:
224,192,78957,1,0,0:0:0:0:
224,192,79022,1,8,0:0:0:0:
224,192,79118,1,0,0:0:0:0:
224,192,79214,1,8,0:0:0:0:
224,192,79310,1,8,0:0:0:0:
224,192,79406,1,8,0:0:0:0:
224,192,79598,1,8,0:0:0:0:
224,192,79663,1,8,0:0:0:0:
224,192,79727,1,8,0:0:0:0:
224,192,79791,1,0,0:0:0:0:
224,192,79887,1,0,0:0:0:0:
224,192,79983,1,8,0:0:0:0:
224,192,80079,1,0,0:0:0:0:
224,192,80175,1,8,0:0:0:0:
160,96,80368,1,8,0:0:0:0:
160,96,80464,1,0,0:0:0:0:
160,96,80560,1,8,0:0:0:0:
160,96,80656,1,8,0:0:0:0:
160,96,80752,1,0,0:0:0:0:
160,96,80848,1,8,0:0:0:0:
160,96,80945,1,0,0:0:0:0:
160,96,81137,1,0,0:0:0:0:
160,96,81233,1,0,0:0:0:0:
160,96,81329,1,8,0:0:0:0:
160,96,81522,1,0,0:0:0:0:
160,96,81714,1,0,0:0:0:0:
160,96,81810,1,0,0:0:0:0:
160,96,81906,1,8,0:0:0:0:
160,96,82002,1,0,0:0:0:0:
160,96,82098,1,8,0:0:0:0:
160,96,82195,1,0,0:0:0:0:
160,96,82291,1,8,0:0:0:0:
160,96,82387,1,8,0:0:0:0:
160,96,82483,1,0,0:0:0:0:
160,96,82868,1,12,0:0:0:0:
160,96,83060,1,0,0:0:0:0:
160,96,83156,1,0,0:0:0:0:
160,96,83252,1,0,0:0:0:0:
160,96,83637,1,12,0:0:0:0:
160,96,83829,1,0,0:0:0:0:
160,96,83925,1,8,0:0:0:0:
160,96,84022,1,0,0:0:0:0:
160,96,84406,1,12,0:0:0:0:
160,96,84598,1,0,0:0:0:0:
160,96,84695,1,0,0:0:0:0:
160,96,84791,1,8,0:0:0:0:
160,96,84887,1,8,0:0:0:0:
160,96,84983,1,0,0:0:0:0:
160,96,85175,1,12,0:0:0:0:
160,96,85368,1,0,0:0:0:0:
160,96,85560,1,8,0:0:0:0:
128,160,85752,1,0,0:0:0:0:
128,96,85848,1,0,0:0:0:0:
128,128,85945,1,8,0:0:0:0:
128,96,86137,1,0,0:0:0:0:
128,128,86329,1,8,0:0:0:0:
128,160,86425,1,8,0:0:0:0:
128,160,86522,1,0,0:0:0:0:
128,160,86618,1,0,0:0:0:0:
128,128,86714,1,8,0:0:0:0:
128,128,86906,1,8,0:0:0:0:
128,160,87002,1,8,0:0:0:0:
128,128,87098,1,0,0:0:0:0:
128,160,87291,1,0,0:0:0:0:
128,160,87387,1,0,0:0:0:0:
128,160,87483,1,8,0:0:0:0:
128,160,87675,1,0,0:0:0:0:
128,160,87772,1,8,0:0:0:0:
160,160,87868,1,0,0:0:0:0:
128,128,88060,1,8,0:0:0:0:
128,128,88156,1,8,0:0:0:0:
128,128,88252,1,8,0:0:0:0:
128,128,88445,1,8,0:0:0:0:
256,192,88637,1,0,0:0:0:0:
256,192,88829,1,0,0:0:0:0:
256,192,89022,1,8,0:0:0:0:
256,192,89214,1,0,0:0:0:0:
256,192,89406,1,8,0:0:0:0:
256,192,89598,1,8,0:0:0:0:
256,192,89695,1,8,0:0:0:0:
256,192,89791,5,8,0:0:0:0:
128,128,89983,1,0,0:0:0:0:
256,192,90175,5,12,0:0:0:0:
256,192,90368,1,8,0:0:0:0:
256,192,90464,1,8,0:0:0:0:
256,192,90560,1,0,0:0:0:0:
256,192,90752,1,8,0:0:0:0:
256,192,90848,1,0,0:0:0:0:
256,192,90945,1,8,0:0:0:0:
256,192,91041,1,8,0:0:0:0:
256,192,91137,1,0,0:0:0:0:
256,192,91233,1,0,0:0:0:0:
256,192,91329,1,8,0:0:0:0:
256,192,91522,1,0,0:0:0:0:
256,192,91618,1,0,0:0:0:0:
256,192,91714,1,8,0:0:0:0:
256,192,91810,1,0,0:0:0:0:
256,192,91906,1,8,0:0:0:0:
256,192,92002,1,8,0:0:0:0:
256,192,92098,1,0,0:0:0:0:
256,192,92291,1,0,0:0:0:0:
256,192,92483,1,8,0:0:0:0:
256,192,92579,1,8,0:0:0:0:
256,192,92675,1,0,0:0:0:0:
256,192,92772,1,0,0:0:0:0:
256,192,92868,1,8,0:0:0:0:
256,192,92964,1,0,0:0:0:0:
256,192,93060,1,8,0:0:0:0:
256,192,93156,1,8,0:0:0:0:
256,192,93252,1,0,0:0:0:0:
256,192,93445,1,8,0:0:0:0:
256,192,93541,1,0,0:0:0:0:
256,192,93637,1,8,0:0:0:0:
256,192,93701,1,0,0:0:0:0:
256,192,93765,1,0,0:0:0:0:
256,192,93829,1,8,0:0:0:0:
256,192,93925,1,8,0:0:0:0:
256,192,94022,1,0,0:0:0:0:
256,192,94118,1,0,0:0:0:0:
256,192,94214,1,8,0:0:0:0:
256,192,94406,1,8,0:0:0:0:
256,192,94598,1,0,0:0:0:0:
256,192,94695,1,0,0:0:0:0:
256,192,94791,1,8,0:0:0:0:
256,192,94887,1,0,0:0:0:0:
256,192,94983,1,8,0:0:0:0:
256,192,95079,1,8,0:0:0:0:
256,192,95175,1,8,0:0:0:0:
256,192,95368,1,0,0:0:0:0:
256,192,95464,1,8,0:0:0:0:
256,192,95560,1,0,0:0:0:0:
256,192,95656,1,0,0:0:0:0:
256,192,95752,1,8,0:0:0:0:
256,192,95848,1,0,0:0:0:0:
256,192,95945,1,8,0:0:0:0:
256,192,96041,1,8,0:0:0:0:
256,192,96137,1,0,0:0:0:0:
256,192,96329,1,12,0:0:0:0:
256,192,96714,1,0,0:0:0:0:
256,192,96906,1,8,0:0:0:0:
256,192,97098,1,0,0:0:0:0:
256,192,97291,1,8,0:0:0:0:
256,192,97355,1,8,0:0:0:0:
256,192,97419,1,8,0:0:0:0:
256,192,97483,1,0,0:0:0:0:
256,192,97675,1,8,0:0:0:0:
256,192,97868,1,0,0:0:0:0:
256,192,98060,1,8,0:0:0:0:
256,192,98156,1,8,0:0:0:0:
256,192,98252,1,0,0:0:0:0:
256,192,98445,1,0,0:0:0:0:
256,192,99022,1,0,0:0:0:0:
256,192,99214,1,8,0:0:0:0:
256,192,99406,1,8,0:0:0:0:
256,192,99598,1,0,0:0:0:0:
256,192,99695,1,8,0:0:0:0:
256,192,99791,1,0,0:0:0:0:
256,192,99983,1,8,0:0:0:0:
256,192,100175,1,8,0:0:0:0:
256,192,100368,1,0,0:0:0:0:
256,192,100432,1,8,0:0:0:0:
256,192,100496,1,8,0:0:0:0:
256,192,100560,1,0,0:0:0:0:
256,192,100752,1,0,0:0:0:0:
256,192,100945,1,8,0:0:0:0:
256,192,102098,1,8,0:0:0:0:
256,192,102291,1,0,0:0:0:0:
256,192,102483,1,8,0:0:0:0:
256,192,102675,1,0,0:0:0:0:
256,192,102772,1,0,0:0:0:0:
256,192,102868,1,0,0:0:0:0:
256,192,103060,1,8,0:0:0:0:
256,192,103252,1,0,0:0:0:0:
256,192,103637,1,0,0:0:0:0:
256,192,103829,1,0,0:0:0:0:
256,192,104022,1,8,0:0:0:0:
256,192,104214,1,0,0:0:0:0:
256,192,104406,1,8,0:0:0:0:
256,192,104598,1,8,0:0:0:0:
256,192,104791,1,8,0:0:0:0:
256,192,105175,1,0,0:0:0:0:
256,192,105368,1,8,0:0:0:0:
256,192,105560,1,8,0:0:0:0:
256,192,105752,1,8,0:0:0:0:
256,192,105945,1,0,0:0:0:0:
256,192,106137,1,8,0:0:0:0:
256,192,106329,1,8,0:0:0:0:
256,192,106522,1,0,0:0:0:0:
256,192,106714,1,8,0:0:0:0:
256,192,106906,1,0,0:0:0:0:
256,192,107098,1,8,0:0:0:0:
256,192,108252,1,8,0:0:0:0:
256,192,108348,1,8,0:0:0:0:
256,192,108445,1,0,0:0:0:0:
256,192,108541,1,0,0:0:0:0:
256,192,108637,1,8,0:0:0:0:
256,192,108829,1,0,0:0:0:0:
256,192,108925,1,0,0:0:0:0:
256,192,109022,1,8,0:0:0:0:
256,192,109214,1,8,0:0:0:0:
256,192,109406,1,0,0:0:0:0:
256,192,109598,1,8,0:0:0:0:
256,192,109663,1,0,0:0:0:0:
256,192,109727,1,0,0:0:0:0:
256,192,109791,1,8,0:0:0:0:
256,192,109983,1,0,0:0:0:0:
256,192,110079,1,0,0:0:0:0:
256,192,110175,1,0,0:0:0:0:
256,192,110368,1,0,0:0:0:0:
256,192,110464,1,8,0:0:0:0:
256,192,110560,1,8,0:0:0:0:
256,192,110752,1,8,0:0:0:0:
256,192,110945,1,0,0:0:0:0:
256,192,111329,1,8,0:0:0:0:
256,192,111522,1,8,0:0:0:0:
256,192,111618,1,8,0:0:0:0:
256,192,111714,1,0,0:0:0:0:
256,192,111906,1,0,0:0:0:0:
256,192,112002,1,0,0:0:0:0:
256,192,112098,1,8,0:0:0:0:
256,192,112291,1,0,0:0:0:0:
256,192,112483,1,8,0:0:0:0:
256,192,112675,1,0,0:0:0:0:
256,192,112739,1,0,0:0:0:0:
256,192,112804,1,0,0:0:0:0:
256,192,112868,1,8,0:0:0:0:
256,192,113060,1,8,0:0:0:0:
256,192,113252,1,0,0:0:0:0:
256,192,113637,1,8,0:0:0:0:
256,192,114022,1,0,0:0:0:0:
256,192,114406,1,8,0:0:0:0:
256,192,114598,1,8,0:0:0:0:
256,192,114791,1,12,0:0:0:0:
256,192,115175,1,8,0:0:0:0:
256,192,115368,1,0,0:0:0:0:
256,192,115560,1,0,0:0:0:0:
256,192,115752,1,0,0:0:0:0:
256,192,115945,1,8,0:0:0:0:
256,192,116041,1,0,0:0:0:0:
256,192,116137,1,8,0:0:0:0:
256,192,116329,1,8,0:0:0:0:
256,192,116522,1,0,0:0:0:0:
256,192,116714,1,8,0:0:0:0:
256,192,116906,1,8,0:0:0:0:
256,192,117098,1,0,0:0:0:0:
256,192,117483,1,8,0:0:0:0:
256,192,117579,1,8,0:0:0:0:
256,192,117675,1,8,0:0:0:0:
256,192,117868,1,4,0:0:0:0:
256,192,118252,1,8,0:0:0:0:
256,192,118348,1,8,0:0:0:0:
256,192,118445,1,8,0:0:0:0:
256,192,118637,1,12,0:0:0:0:
256,192,118829,1,0,0:0:0:0:
256,192,119022,1,8,0:0:0:0:
256,192,119118,1,0,0:0:0:0:
256,192,119214,1,0,0:0:0:0:
256,192,119406,1,4,0:0:0:0:
256,192,119791,1,8,0:0:0:0:
256,192,119887,1,8,0:0:0:0:
256,192,119983,1,8,0:0:0:0:
256,192,120175,1,12,0:0:0:0:
256,192,120560,1,12,0:0:0:0:
256,192,120945,1,4,0:0:0:0:
256,192,121329,1,4,0:0:0:0:
256,192,121714,1,12,0:0:0:0:
256,192,122002,1,12,0:0:0:0:
256,192,122291,1,12,0:0:0:0:
256,192,122675,1,4,0:0:0:0:
256,192,122868,1,4,0:0:0:0:
256,192,123060,1,0,0:0:0:0:
256,192,123124,1,0,0:0:0:0:
256,192,123188,1,0,0:0:0:0:
256,192,123252,1,8,0:0:0:0:
256,192,123541,1,12,0:0:0:0:
256,192,123829,1,12,0:0:0:0:
256,192,124214,1,4,0:0:0:0:
256,192,124406,1,4,0:0:0:0:
256,192,124598,1,0,0:0:0:0:
256,192,124663,1,0,0:0:0:0:
256,192,124727,1,0,0:0:0:0:
256,192,124791,1,8,0:0:0:0:
256,192,125079,1,12,0:0:0:0:
256,192,125368,1,12,0:0:0:0:
256,192,125945,1,4,0:0:0:0:
256,192,126329,1,4,0:0:0:0:
256,192,126714,1,4,0:0:0:0:
256,192,126906,1,8,0:0:0:0:
256,192,127098,1,4,0:0:0:0:
256,192,127387,1,0,0:0:0:0:
256,192,127483,1,8,0:0:0:0:
256,192,127675,1,0,0:0:0:0:
256,192,127868,1,8,0:0:0:0:
256,192,127964,1,0,0:0:0:0:
256,192,128060,1,8,0:0:0:0:
256,192,128124,1,0,0:0:0:0:
256,192,128188,1,0,0:0:0:0:
256,192,128252,1,8,0:0:0:0:
256,192,128445,1,8,0:0:0:0:
256,192,128637,1,0,0:0:0:0:
256,192,128829,1,0,0:0:0:0:
256,192,128925,1,0,0:0:0:0:
256,192,129022,1,8,0:0:0:0:
256,192,129214,1,8,0:0:0:0:
256,192,129310,1,8,0:0:0:0:
256,192,129406,1,0,0:0:0:0:
256,192,129695,1,0,0:0:0:0:
256,192,129791,1,8,0:0:0:0:
256,192,129983,1,8,0:0:0:0:
256,192,130175,1,0,0:0:0:0:
256,192,130464,1,0,0:0:0:0:
256,192,130560,1,8,0:0:0:0:
256,192,130752,1,8,0:0:0:0:
256,192,130945,1,0,0:0:0:0:
256,192,131233,1,8,0:0:0:0:
256,192,131329,1,8,0:0:0:0:
256,192,131522,1,0,0:0:0:0:
256,192,131714,1,0,0:0:0:0:
256,192,131810,1,8,0:0:0:0:
256,192,131906,5,0,0:0:0:0:
256,192,132002,1,0,0:0:0:0:
256,192,132098,1,8,0:0:0:0:
256,192,132195,1,8,0:0:0:0:
256,192,132291,1,0,0:0:0:0:
256,192,132483,1,12,0:0:0:0:
256,192,132868,1,12,0:0:0:0:
256,192,133252,1,4,0:0:0:0:
256,192,133541,1,0,0:0:0:0:
256,192,133637,1,8,0:0:0:0:
256,192,133829,1,8,0:0:0:0:
256,192,134022,1,8,0:0:0:0:
256,192,134310,1,0,0:0:0:0:
256,192,134406,1,8,0:0:0:0:
256,192,134598,1,0,0:0:0:0:
256,192,134791,1,0,0:0:0:0:
256,192,134983,1,8,0:0:0:0:
256,192,135175,1,8,0:0:0:0:
256,192,135239,1,8,0:0:0:0:
256,192,135304,1,8,0:0:0:0:
256,192,135368,1,0,0:0:0:0:
256,192,135560,1,8,0:0:0:0:
256,192,135848,1,8,0:0:0:0:
256,192,135945,1,8,0:0:0:0:
256,192,136137,1,0,0:0:0:0:
256,192,136233,1,8,0:0:0:0:
256,192,136329,1,0,0:0:0:0:
256,192,136618,1,0,0:0:0:0:
256,192,136714,1,8,0:0:0:0:
256,192,136906,1,0,0:0:0:0:
256,192,137098,1,8,0:0:0:0:
256,192,137291,1,0,0:0:0:0:
256,192,137483,1,8,0:0:0:0:
256,192,137627,1,8,0:0:0:0:
256,192,137675,1,0,0:0:0:0:
256,192,137868,1,4,0:0:0:0:
256,192,138252,1,12,0:0:0:0:
256,192,138637,1,4,0:0:0:0:
256,192,139022,1,12,0:0:0:0:
256,192,139406,1,12,0:0:0:0:
256,192,139695,1,8,0:0:0:0:
256,192,139791,1,8,0:0:0:0:
256,192,139983,1,8,0:0:0:0:
256,192,140175,1,0,0:0:0:0:
256,192,140272,1,0,0:0:0:0:
256,192,140368,1,0,0:0:0:0:
256,192,140560,1,8,0:0:0:0:
256,192,140752,1,0,0:0:0:0:
256,192,140945,1,0,0:0:0:0:
256,192,141137,1,8,0:0:0:0:
256,192,141329,1,8,0:0:0:0:
256,192,141522,1,0,0:0:0:0:
256,192,141714,1,8,0:0:0:0:
256,192,142098,1,8,0:0:0:0:
256,192,142195,1,0,0:0:0:0:
256,192,142291,1,0,0:0:0:0:
256,192,142483,1,12,0:0:0:0:
256,192,142868,1,8,0:0:0:0:
256,192,143060,1,0,0:0:0:0:
256,192,143252,1,12,0:0:0:0:
256,192,143445,1,8,0:0:0:0:
256,192,143637,1,12,0:0:0:0:
256,192,143829,1,0,0:0:0:0:
256,192,144022,1,12,0:0:0:0:
256,192,144406,1,8,0:0:0:0:
256,192,144502,1,8,0:0:0:0:
256,192,144598,1,8,0:0:0:0:
256,192,145175,1,0,0:0:0:0:
192,128,145560,5,8,0:0:0:0:
192,128,145752,1,8,0:0:0:0:
192,128,145945,1,8,0:0:0:0:
192,128,146041,1,8,0:0:0:0:
192,128,146233,1,8,0:0:0:0:
192,128,146425,1,8,0:0:0:0:
192,128,146618,1,8,0:0:0:0:
192,128,146714,1,8,0:0:0:0:
192,128,146906,1,8,0:0:0:0:
192,128,147098,1,0,0:0:0:0:
192,128,147291,1,0,0:0:0:0:
192,128,147483,1,8,0:0:0:0:
192,128,147579,1,8,0:0:0:0:
192,128,147675,1,8,0:0:0:0:
192,128,147772,1,8,0:0:0:0:
192,128,147868,1,8,0:0:0:0:
192,128,148060,1,8,0:0:0:0:
192,128,148252,1,0,0:0:0:0:
192,128,148348,1,0,0:0:0:0:
192,128,148445,1,8,0:0:0:0:
192,128,148541,1,8,0:0:0:0:
192,128,148637,1,0,0:0:0:0:
192,128,148829,1,0,0:0:0:0:
192,128,148925,1,0,0:0:0:0:
192,128,149022,1,8,0:0:0:0:
192,128,149214,1,8,0:0:0:0:
192,128,149310,1,8,0:0:0:0:
192,128,149406,1,0,0:0:0:0:
192,128,149598,1,8,0:0:0:0:
192,128,149695,1,8,0:0:0:0:
192,128,149791,1,0,0:0:0:0:
192,128,149887,1,0,0:0:0:0:
192,128,149983,1,0,0:0:0:0:
192,128,150079,1,0,0:0:0:0:
192,128,150175,1,8,0:0:0:0:
192,128,150368,1,8,0:0:0:0:
192,128,150560,1,0,0:0:0:0:
192,128,150752,1,8,0:0:0:0:
192,128,150848,1,8,0:0:0:0:
192,128,150945,1,0,0:0:0:0:
192,128,151041,1,8,0:0:0:0:
192,128,151137,1,0,0:0:0:0:
192,128,151233,1,8,0:0:0:0:
192,128,151329,1,0,0:0:0:0:
192,128,151522,1,0,0:0:0:0:
192,128,151618,1,0,0:0:0:0:
192,128,151714,1,8,0:0:0:0:
192,128,151906,1,8,0:0:0:0:
192,128,152002,1,8,0:0:0:0:
192,128,152098,1,0,0:0:0:0:
192,128,152291,1,8,0:0:0:0:
192,128,152483,1,0,0:0:0:0:
192,128,152675,1,0,0:0:0:0:
192,128,152772,1,0,0:0:0:0:
192,128,152868,1,8,0:0:0:0:
192,128,153060,1,8,0:0:0:0:
160,128,153252,1,0,0:0:0:0:
192,128,153348,1,0,0:0:0:0:
160,128,153445,1,8,0:0:0:0:
192,128,153541,1,8,0:0:0:0:
192,128,153637,1,0,0:0:0:0:
192,128,153829,1,8,0:0:0:0:
192,128,153925,1,8,0:0:0:0:
192,128,154022,1,8,0:0:0:0:
192,128,154214,1,8,0:0:0:0:
192,128,154406,1,0,0:0:0:0:
192,128,154502,1,0,0:0:0:0:
192,128,154598,1,8,0:0:0:0:
192,128,154791,1,8,0:0:0:0:
192,128,154983,1,8,0:0:0:0:
192,128,155175,1,8,0:0:0:0:
192,128,155272,1,8,0:0:0:0:
192,128,155368,1,8,0:0:0:0:
192,128,155464,1,0,0:0:0:0:
192,128,155560,1,8,0:0:0:0:
192,128,155656,1,8,0:0:0:0:
192,128,155752,1,0,0:0:0:0:
192,128,155848,1,0,0:0:0:0:
192,128,155945,1,8,0:0:0:0:
192,128,156137,1,8,0:0:0:0:
192,128,156233,1,0,0:0:0:0:
192,128,156329,1,8,0:0:0:0:
192,128,156393,1,8,0:0:0:0:
192,128,156457,1,8,0:0:0:0:
192,128,156522,1,0,0:0:0:0:
192,128,156618,1,0,0:0:0:0:
192,128,156714,1,8,0:0:0:0:
192,128,156778,1,0,0:0:0:0:
192,128,156842,1,0,0:0:0:0:
192,128,156906,1,8,0:0:0:0:
192,128,157002,1,0,0:0:0:0:
192,128,157098,1,8,0:0:0:0:
192,128,157291,1,8,0:0:0:0:
192,128,157483,1,8,0:0:0:0:
192,128,157868,1,4,0:0:0:0:
192,128,158060,1,0,0:0:0:0:
192,128,158156,1,0,0:0:0:0:
192,128,158252,1,8,0:0:0:0:
192,128,158445,1,8,0:0:0:0:
192,128,158637,1,0,0:0:0:0:
192,128,158829,1,0,0:0:0:0:
192,128,158925,1,0,0:0:0:0:
192,128,159022,1,8,0:0:0:0:
192,128,159214,1,0,0:0:0:0:
192,128,159406,1,8,0:0:0:0:
192,128,159502,1,8,0:0:0:0:
192,128,159598,1,0,0:0:0:0:
192,128,159695,1,0,0:0:0:0:
192,128,159791,1,8,0:0:0:0:
192,128,159983,1,8,0:0:0:0:
192,128,160079,1,8,0:0:0:0:
192,128,160175,1,0,0:0:0:0:
192,128,160368,1,8,0:0:0:0:
192,128,160560,1,0,0:0:0:0:
192,128,160945,1,0,0:0:0:0:
192,128,161137,1,0,0:0:0:0:
192,128,161233,1,0,0:0:0:0:
192,128,161329,1,8,0:0:0:0:
192,128,161522,1,8,0:0:0:0:
192,128,161618,1,8,0:0:0:0:
192,128,161714,1,0,0:0:0:0:
192,128,161906,1,0,0:0:0:0:
192,128,162098,1,8,0:0:0:0:
192,128,162483,1,8,0:0:0:0:
192,128,162579,1,8,0:0:0:0:
192,128,162675,1,0,0:0:0:0:
192,128,162868,1,8,0:0:0:0:
192,128,163060,1,0,0:0:0:0:
192,128,163156,1,0,0:0:0:0:
192,128,163252,1,8,0:0:0:0:
192,128,163445,1,8,0:0:0:0:
192,128,163637,1,0,0:0:0:0:
192,128,163829,1,0,0:0:0:0:
192,128,163925,1,0,0:0:0:0:
192,128,164022,1,8,0:0:0:0:
192,128,164214,1,0,0:0:0:0:
192,128,164310,1,0,0:0:0:0:
192,128,164406,1,8,0:0:0:0:
192,128,164502,1,8,0:0:0:0:
192,128,164598,1,0,0:0:0:0:
192,128,164791,1,8,0:0:0:0:
192,128,164983,1,0,0:0:0:0:
192,128,165079,1,0,0:0:0:0:
192,128,165175,1,8,0:0:0:0:
192,128,165272,1,8,0:0:0:0:
192,128,165368,1,0,0:0:0:0:
160,128,165560,1,8,0:0:0:0:
160,128,165752,1,0,0:0:0:0:
192,128,165848,1,0,0:0:0:0:
192,128,165945,1,8,0:0:0:0:
192,128,166137,1,0,0:0:0:0:
192,128,166233,1,0,0:0:0:0:
192,128,166329,1,8,0:0:0:0:
192,128,166522,1,8,0:0:0:0:
192,128,166714,1,8,0:0:0:0:
192,128,166810,1,0,0:0:0:0:
192,128,166906,1,8,0:0:0:0:
192,128,167098,1,0,0:0:0:0:
192,128,167291,1,0,0:0:0:0:
192,128,167387,1,0,0:0:0:0:
192,128,167483,1,8,0:0:0:0:
192,128,167675,1,8,0:0:0:0:
192,128,167868,1,8,0:0:0:0:
192,128,167964,1,8,0:0:0:0:
192,128,168060,1,0,0:0:0:0:
192,128,168156,1,8,0:0:0:0:
192,128,168348,1,0,0:0:0:0:
192,128,168445,1,8,0:0:0:0:
192,128,168541,1,8,0:0:0:0:
192,128,168637,1,0,0:0:0:0:
192,128,168829,1,0,0:0:0:0:
192,128,168925,1,0,0:0:0:0:
192,128,169022,1,8,0:0:0:0:
192,128,169118,1,8,0:0:0:0:
192,128,169214,1,0,0:0:0:0:
192,128,169406,1,8,0:0:0:0:
192,128,169534,1,8,0:0:0:0:
192,128,169663,1,8,0:0:0:0:
192,128,169791,1,8,0:0:0:0:
192,128,169919,1,8,0:0:0:0:
192,128,170047,1,8,0:0:0:0:
192,128,170175,1,8,0:0:0:0:
256,160,170945,1,0,0:0:0:0:
256,160,171329,1,8,0:0:0:0:
224,160,171714,1,4,0:0:0:0:
256,160,172002,1,8,0:0:0:0:
224,160,172098,1,0,0:0:0:0:
256,160,172291,1,8,0:0:0:0:
256,160,172483,1,8,0:0:0:0:
256,160,172579,1,8,0:0:0:0:
256,160,172675,1,0,0:0:0:0:
256,160,172772,1,8,0:0:0:0:
256,160,172868,1,8,0:0:0:0:
256,160,172964,1,0,0:0:0:0:
256,160,173060,1,8,0:0:0:0:
256,160,173156,1,0,0:0:0:0:
256,160,173252,1,8,0:0:0:0:
256,160,173445,1,8,0:0:0:0:
256,160,173541,1,8,0:0:0:0:
256,160,173637,1,0,0:0:0:0:
256,160,173829,1,0,0:0:0:0:
256,160,173925,1,0,0:0:0:0:
256,160,174022,1,8,0:0:0:0:
256,160,174214,1,0,0:0:0:0:
256,160,174406,1,8,0:0:0:0:
256,160,174598,1,8,0:0:0:0:
256,160,174791,1,0,0:0:0:0:
256,160,175175,1,8,0:0:0:0:
256,160,175368,1,8,0:0:0:0:
256,160,175464,1,8,0:0:0:0:
224,160,175560,1,0,0:0:0:0:
256,160,175752,1,8,0:0:0:0:
256,160,175945,1,0,0:0:0:0:
224,160,177483,5,12,0:0:0:0:
224,160,177868,1,8,0:0:0:0:
192,160,178060,1,0,0:0:0:0:
256,160,178156,1,0,0:0:0:0:
224,160,178252,1,8,0:0:0:0:
256,160,178445,1,0,0:0:0:0:
256,160,178637,1,8,0:0:0:0:
256,160,178733,1,8,0:0:0:0:
256,160,178829,1,0,0:0:0:0:
256,160,178925,1,0,0:0:0:0:
256,160,179022,1,8,0:0:0:0:
256,160,179214,1,0,0:0:0:0:
256,160,179406,1,8,0:0:0:0:
256,160,179598,1,8,0:0:0:0:
256,160,179695,1,8,0:0:0:0:
256,160,179791,1,0,0:0:0:0:
256,160,179983,1,0,0:0:0:0:
256,160,180175,1,8,0:0:0:0:
256,160,180272,1,0,0:0:0:0:
256,160,180368,1,8,0:0:0:0:
256,160,180464,1,8,0:0:0:0:
256,160,180560,1,0,0:0:0:0:
256,160,180752,1,0,0:0:0:0:
256,160,180945,1,8,0:0:0:0:
256,160,181233,1,8,0:0:0:0:
256,160,181329,1,0,0:0:0:0:
256,160,181522,1,8,0:0:0:0:
256,160,181618,1,8,0:0:0:0:
256,160,181714,1,0,0:0:0:0:
256,160,181906,1,8,0:0:0:0:
256,160,182098,1,0,0:0:0:0:
256,160,182195,1,8,0:0:0:0:
256,160,182291,1,0,0:0:0:0:
256,160,182483,1,8,0:0:0:0:
256,160,182772,1,0,0:0:0:0:
256,160,182868,1,8,0:0:0:0:
256,192,183060,1,0,0:0:0:0:
256,160,183252,1,8,0:0:0:0:
256,160,183348,1,8,0:0:0:0:
256,160,183445,1,8,0:0:0:0:
256,160,183541,1,8,0:0:0:0:
256,160,183637,1,0,0:0:0:0:
256,160,183733,1,0,0:0:0:0:
256,160,183829,1,0,0:0:0:0:
256,160,183925,1,0,0:0:0:0:
224,160,184022,1,8,0:0:0:0:
256,160,184310,1,0,0:0:0:0:
224,160,184406,1,8,0:0:0:0:
256,160,184598,1,0,0:0:0:0:
256,160,184791,1,8,0:0:0:0:
256,160,184983,1,0,0:0:0:0:
256,160,185079,1,0,0:0:0:0:
256,160,185175,1,8,0:0:0:0:
256,160,185368,1,0,0:0:0:0:
256,160,185560,1,8,0:0:0:0:
256,160,185848,1,8,0:0:0:0:
256,160,185945,1,0,0:0:0:0:
256,160,186137,1,0,0:0:0:0:
256,160,186329,1,12,0:0:0:0:
256,160,186522,1,12,0:0:0:0:
256,160,186714,1,12,0:0:0:0:
256,160,187098,1,8,0:0:0:0:
256,160,187387,1,8,0:0:0:0:
256,160,187483,1,0,0:0:0:0:
256,160,187675,1,8,0:0:0:0:
256,160,187772,1,8,0:0:0:0:
256,160,187868,1,0,0:0:0:0:
256,160,188060,1,8,0:0:0:0:
256,160,188252,1,0,0:0:0:0:
256,160,188348,1,8,0:0:0:0:
256,160,188445,1,0,0:0:0:0:
256,160,188637,1,8,0:0:0:0:
256,160,188925,1,0,0:0:0:0:
256,160,189022,1,8,0:0:0:0:
256,192,189214,1,0,0:0:0:0:
256,160,189406,1,8,0:0:0:0:
256,160,189502,1,0,0:0:0:0:
256,160,189598,1,8,0:0:0:0:
256,160,189791,1,0,0:0:0:0:
256,160,189887,1,8,0:0:0:0:
256,160,189983,1,0,0:0:0:0:
256,160,190175,1,8,0:0:0:0:
256,160,190464,1,8,0:0:0:0:
224,160,190560,1,0,0:0:0:0:
256,160,190752,1,8,0:0:0:0:
256,160,190945,1,0,0:0:0:0:
256,160,191041,1,0,0:0:0:0:
256,160,191137,1,8,0:0:0:0:
256,160,191233,1,8,0:0:0:0:
256,160,191329,1,0,0:0:0:0:
256,160,191522,1,8,0:0:0:0:
256,160,191714,1,0,0:0:0:0:
256,160,191810,1,8,0:0:0:0:
256,160,191906,1,0,0:0:0:0:
256,160,192002,1,8,0:0:0:0:
256,160,192098,1,0,0:0:0:0:
256,160,192291,1,0,0:0:0:0:
256,160,192483,1,8,0:0:0:0:
256,160,192579,1,8,0:0:0:0:
256,160,192675,1,0,0:0:0:0:
256,160,192772,1,8,0:0:0:0:
256,160,192868,1,8,0:0:0:0:
256,160,192964,1,0,0:0:0:0:
256,160,193060,1,8,0:0:0:0:
256,160,193156,1,8,0:0:0:0:
256,160,193252,1,0,0:0:0:0:
256,160,193541,1,8,0:0:0:0:
256,160,193637,1,0,0:0:0:0:
256,160,193829,1,8,0:0:0:0:
256,160,193925,1,8,0:0:0:0:
256,160,194022,1,0,0:0:0:0:
256,160,194214,1,8,0:0:0:0:
288,160,194310,1,8,0:0:0:0:
256,160,194406,1,0,0:0:0:0:
256,160,194502,1,8,0:0:0:0:
256,160,194598,1,0,0:0:0:0:
256,160,194791,1,8,0:0:0:0:
256,160,195079,1,0,0:0:0:0:
256,160,195175,1,8,0:0:0:0:
256,192,195368,1,0,0:0:0:0:
256,160,195560,1,8,0:0:0:0:
256,160,195656,1,8,0:0:0:0:
256,160,195752,1,8,0:0:0:0:
256,160,195945,1,8,0:0:0:0:
256,160,196137,1,0,0:0:0:0:
288,160,196329,1,8,0:0:0:0:
288,160,196522,1,0,0:0:0:0:
288,160,196714,1,8,0:0:0:0:
288,160,196810,1,8,0:0:0:0:
288,160,196906,1,8,0:0:0:0:
288,160,197098,1,0,0:0:0:0:
288,160,197291,1,8,0:0:0:0:
288,160,197483,1,0,0:0:0:0:
288,160,197675,1,8,0:0:0:0:
288,160,197868,1,8,0:0:0:0:
288,160,197964,1,8,0:0:0:0:
288,160,198060,1,0,0:0:0:0:
288,160,198156,1,0,0:0:0:0:
288,160,198252,1,8,0:0:0:0:
288,160,198445,1,0,0:0:0:0:
288,160,198637,1,8,0:0:0:0:
288,160,198733,1,8,0:0:0:0:
288,160,198829,1,0,0:0:0:0:
288,160,199022,1,8,0:0:0:0:
288,160,199214,1,0,0:0:0:0:
288,160,199406,1,8,0:0:0:0:
288,160,199598,1,8,0:0:0:0:
288,160,199695,1,8,0:0:0:0:
288,160,199791,1,0,0:0:0:0:
288,160,199983,1,8,0:0:0:0:
288,160,200175,1,0,0:0:0:0:
288,160,200272,1,0,0:0:0:0:
288,160,200368,1,8,0:0:0:0:
288,160,200560,1,8,0:0:0:0:
288,160,200752,1,0,0:0:0:0:
288,160,200945,1,8,0:0:0:0:
288,160,201137,1,0,0:0:0:0:
288,160,201233,1,0,0:0:0:0:
288,160,201329,1,8,0:0:0:0:
288,160,201522,1,8,0:0:0:0:
288,160,201714,1,0,0:0:0:0:
288,160,201906,1,8,0:0:0:0:
288,160,202098,1,8,0:0:0:0:
288,160,202291,1,8,0:0:0:0:
288,128,202387,1,8,0:0:0:0:
288,160,202483,1,0,0:0:0:0:
288,160,202675,1,0,0:0:0:0:
288,160,202772,1,0,0:0:0:0:
288,160,202868,1,8,0:0:0:0:
288,160,203060,1,0,0:0:0:0:
288,160,203156,1,0,0:0:0:0:
288,160,203252,1,0,0:0:0:0:
288,160,203445,1,0,0:0:0:0:
288,160,203541,1,0,0:0:0:0:
288,160,203637,1,8,0:0:0:0:
288,160,203829,1,0,0:0:0:0:
288,160,204022,1,8,0:0:0:0:
288,160,204118,1,0,0:0:0:0:
288,160,204214,1,0,0:0:0:0:
288,160,204310,1,0,0:0:0:0:
288,160,204406,1,8,0:0:0:0:
288,160,204598,1,8,0:0:0:0:
288,160,204695,1,8,0:0:0:0:
288,160,204791,1,0,0:0:0:0:
288,160,204887,1,0,0:0:0:0:
288,160,204983,1,0,0:0:0:0:
288,160,205175,1,8,0:0:0:0:
288,160,205560,1,0,0:0:0:0:
288,160,205656,1,0,0:0:0:0:
288,160,205752,1,0,0:0:0:0:
288,160,205848,1,0,0:0:0:0:
288,160,205945,1,8,0:0:0:0:
288,160,206137,1,8,0:0:0:0:
288,160,206233,1,8,0:0:0:0:
288,160,206329,1,0,0:0:0:0:
288,160,206522,1,0,0:0:0:0:
288,160,206618,1,0,0:0:0:0:
288,160,206714,1,8,0:0:0:0:
288,160,206906,1,8,0:0:0:0:
288,160,207002,1,8,0:0:0:0:
288,160,207098,1,0,0:0:0:0:
288,160,207195,1,0,0:0:0:0:
288,160,207291,1,0,0:0:0:0:
288,160,207387,1,0,0:0:0:0:
288,160,207483,1,8,0:0:0:0:
288,160,207675,1,8,0:0:0:0:
288,160,207772,1,0,0:0:0:0:
288,160,207868,1,8,0:0:0:0:
288,160,207964,1,8,0:0:0:0:
288,160,208060,1,0,0:0:0:0:
288,160,208156,1,0,0:0:0:0:
288,160,208252,5,8,0:0:0:0:
192,160,208637,1,4,0:0:0:0:
256,192,209022,1,4,0:0:0:0:
256,192,209406,1,8,0:0:0:0:
256,192,209502,1,0,0:0:0:0:
256,192,209598,1,0,0:0:0:0:
256,192,209695,1,8,0:0:0:0:
256,192,209791,1,0,0:0:0:0:
256,192,209887,1,0,0:0:0:0:
256,192,209983,1,8,0:0:0:0:
256,192,210047,1,0,0:0:0:0:
256,192,210111,1,0,0:0:0:0:
256,192,210175,1,8,0:0:0:0:
256,192,210464,1,0,0:0:0:0:
256,192,210560,1,8,0:0:0:0:
256,192,210752,1,8,0:0:0:0:
256,192,210848,1,8,0:0:0:0:
256,192,210945,1,0,0:0:0:0:
256,192,211137,1,0,0:0:0:0:
256,192,211233,1,0,0:0:0:0:
256,192,211329,1,8,0:0:0:0:
256,192,211425,1,0,0:0:0:0:
256,192,211522,1,8,0:0:0:0:
256,192,211618,1,8,0:0:0:0:
256,192,211714,1,8,0:0:0:0:
256,192,212002,1,8,0:0:0:0:
256,192,212098,1,8,0:0:0:0:
256,192,212291,1,0,0:0:0:0:
256,192,212387,1,0,0:0:0:0:
256,192,212483,1,0,0:0:0:0:
256,192,212675,1,0,0:0:0:0:
256,192,212772,1,0,0:0:0:0:
256,192,212868,1,8,0:0:0:0:
256,192,212964,1,8,0:0:0:0:
256,192,213060,1,8,0:0:0:0:
256,192,213156,1,8,0:0:0:0:
256,192,213252,1,0,0:0:0:0:
256,192,213541,1,0,0:0:0:0:
256,192,213637,1,8,0:0:0:0:
256,192,213829,1,8,0:0:0:0:
256,192,213925,1,8,0:0:0:0:
256,192,214022,1,0,0:0:0:0:
256,192,214214,1,0,0:0:0:0:
256,192,214310,1,0,0:0:0:0:
256,192,214406,1,8,0:0:0:0:
256,192,214502,1,0,0:0:0:0:
256,192,214598,1,0,0:0:0:0:
256,192,214695,1,8,0:0:0:0:
256,192,214791,1,8,0:0:0:0:
256,192,214983,1,0,0:0:0:0:
256,192,215079,1,8,0:0:0:0:
256,192,215175,1,8,0:0:0:0:
256,192,215272,1,0,0:0:0:0:
256,192,215368,1,0,0:0:0:0:
256,192,215464,1,0,0:0:0:0:
256,192,215560,1,8,0:0:0:0:
256,192,215752,1,8,0:0:0:0:
256,192,215848,1,8,0:0:0:0:
256,192,215945,1,8,0:0:0:0:
256,192,216041,1,8,0:0:0:0:
256,192,216137,1,8,0:0:0:0:
256,192,216233,1,8,0:0:0:0:
256,192,216329,1,0,0:0:0:0:
256,192,216618,1,0,0:0:0:0:
256,192,216714,1,8,0:0:0:0:
256,192,216906,1,8,0:0:0:0:
256,192,217002,1,8,0:0:0:0:
256,192,217098,1,0,0:0:0:0:
256,192,217291,1,0,0:0:0:0:
256,192,217387,1,8,0:0:0:0:
256,192,217483,1,8,0:0:0:0:
256,192,217579,1,0,0:0:0:0:
256,192,217675,1,8,0:0:0:0:
256,192,217772,1,8,0:0:0:0:
256,192,217868,1,0,0:0:0:0:
256,192,218060,1,0,0:0:0:0:
256,192,218156,1,8,0:0:0:0:
256,192,218252,1,8,0:0:0:0:
256,192,218445,1,0,0:0:0:0:
256,192,218541,1,0,0:0:0:0:
256,192,218637,1,8,0:0:0:0:
256,192,218829,1,0,0:0:0:0:
256,192,218925,1,0,0:0:0:0:
256,192,219022,1,8,0:0:0:0:
256,192,219118,1,8,0:0:0:0:
256,192,219214,1,8,0:0:0:0:
256,192,219310,1,8,0:0:0:0:
256,192,219406,1,0,0:0:0:0:
256,192,219695,1,0,0:0:0:0:
256,192,219791,1,8,0:0:0:0:
256,192,219983,1,8,0:0:0:0:
256,192,220079,1,8,0:0:0:0:
256,192,220175,1,0,0:0:0:0:
256,192,220368,1,0,0:0:0:0:
256,192,220464,1,0,0:0:0:0:
256,192,220560,1,8,0:0:0:0:
256,192,220656,1,0,0:0:0:0:
256,192,220752,1,8,0:0:0:0:
256,192,220848,1,8,0:0:0:0:
256,192,220945,1,0,0:0:0:0:
256,192,221137,1,8,0:0:0:0:
256,192,221233,1,0,0:0:0:0:
256,192,221329,1,8,0:0:0:0:
256,192,221425,1,8,0:0:0:0:
256,192,221522,1,0,0:0:0:0:
256,192,221618,1,0,0:0:0:0:
256,192,221714,1,8,0:0:0:0:
256,192,221906,1,8,0:0:0:0:
256,192,222002,1,0,0:0:0:0:
256,192,222098,1,8,0:0:0:0:
256,192,222195,1,0,0:0:0:0:
256,192,222291,1,8,0:0:0:0:
256,192,222483,1,4,0:0:0:0:
256,192,222675,1,8,0:0:0:0:
256,192,222772,1,8,0:0:0:0:
256,192,222868,1,8,0:0:0:0:
256,192,223060,1,8,0:0:0:0:
256,192,223252,1,4,0:0:0:0:
256,192,223445,1,0,0:0:0:0:
256,192,223541,1,0,0:0:0:0:
256,192,223637,1,8,0:0:0:0:
256,192,223829,1,8,0:0:0:0:
256,192,224022,1,4,0:0:0:0:
256,192,224214,1,0,0:0:0:0:
256,192,224406,1,12,0:0:0:0:
256,192,224598,1,0,0:0:0:0:
256,192,224791,1,12,0:0:0:0:
256,192,225175,1,12,0:0:0:0:
256,192,225560,1,4,0:0:0:0:
256,192,225752,1,0,0:0:0:0:
256,192,225848,1,0,0:0:0:0:
256,192,225945,1,8,0:0:0:0:
256,192,226041,1,0,0:0:0:0:
256,192,226137,1,8,0:0:0:0:
256,192,226233,1,8,0:0:0:0:
256,192,226329,1,0,0:0:0:0:
256,192,226425,1,8,0:0:0:0:
256,192,226522,1,0,0:0:0:0:
256,192,226618,1,0,0:0:0:0:
256,192,226714,1,8,0:0:0:0:
256,192,226810,1,0,0:0:0:0:
256,192,226906,1,8,0:0:0:0:
256,192,227002,1,8,0:0:0:0:
256,192,227098,1,0,0:0:0:0:
256,192,227291,1,0,0:0:0:0:
256,192,227387,1,0,0:0:0:0:
256,192,227483,1,8,0:0:0:0:
256,192,227579,1,0,0:0:0:0:
256,192,227675,1,0,0:0:0:0:
256,192,227772,1,0,0:0:0:0:
256,192,227868,1,8,0:0:0:0:
256,192,228060,1,0,0:0:0:0:
256,192,228156,1,8,0:0:0:0:
256,192,228252,1,8,0:0:0:0:
256,192,228348,1,0,0:0:0:0:
256,192,228445,1,8,0:0:0:0:
256,192,228637,1,12,0:0:0:0:
256,192,228829,1,0,0:0:0:0:
256,192,229022,1,8,0:0:0:0:
256,192,229214,1,8,0:0:0:0:
256,192,229310,1,0,0:0:0:0:
256,192,229406,1,0,0:0:0:0:
256,192,229598,1,0,0:0:0:0:
256,192,229695,1,0,0:0:0:0:
256,192,229791,1,8,0:0:0:0:
256,192,229887,1,8,0:0:0:0:
256,192,229983,1,8,0:0:0:0:
256,192,230079,1,0,0:0:0:0:
256,192,230175,1,8,0:0:0:0:
256,192,230368,1,0,0:0:0:0:
256,192,230560,1,8,0:0:0:0:
256,192,230752,1,8,0:0:0:0:
256,192,230848,1,8,0:0:0:0:
256,192,230945,1,0,0:0:0:0:
256,192,231137,1,0,0:0:0:0:
256,192,231233,1,0,0:0:0:0:
256,192,231329,1,8,0:0:0:0:
256,192,231425,1,8,0:0:0:0:
256,192,231522,1,8,0:0:0:0:
256,192,231714,1,12,0:0:0:0:
256,192,232098,1,8,0:0:0:0:
256,192,232291,1,0,0:0:0:0:
256,192,232387,1,0,0:0:0:0:
256,192,232483,1,8,0:0:0:0:
256,192,232675,1,0,0:0:0:0:
256,192,232868,1,8,0:0:0:0:
256,192,233060,1,0,0:0:0:0:
256,192,233252,1,8,0:0:0:0:
256,192,233445,1,8,0:0:0:0:
256,192,233541,1,8,0:0:0:0:
256,192,233637,1,8,0:0:0:0:
256,192,233829,1,0,0:0:0:0:
256,192,233925,1,0,0:0:0:0:
256,192,234022,1,0,0:0:0:0:
256,192,234214,1,0,0:0:0:0:
256,192,234310,1,0,0:0:0:0:
256,192,234406,1,8,0:0:0:0:
256,192,234502,1,0,0:0:0:0:
256,192,234598,1,8,0:0:0:0:
256,192,234791,1,12,0:0:0:0:
256,192,234983,1,0,0:0:0:0:
256,192,235175,1,8,0:0:0:0:
256,192,235368,1,8,0:0:0:0:
256,192,235464,1,8,0:0:0:0:
256,192,235560,1,0,0:0:0:0:
256,192,235752,1,0,0:0:0:0:
256,192,235848,1,0,0:0:0:0:
256,192,235945,1,8,0:0:0:0:
256,192,236041,1,8,0:0:0:0:
256,192,236137,1,0,0:0:0:0:
256,192,236233,1,8,0:0:0:0:
256,192,236329,1,0,0:0:0:0:
256,192,236522,1,0,0:0:0:0:
256,192,236714,1,8,0:0:0:0:
256,192,236906,1,8,0:0:0:0:
256,192,237002,1,8,0:0:0:0:
256,192,237098,1,8,0:0:0:0:
256,192,237291,1,0,0:0:0:0:
256,192,237387,1,0,0:0:0:0:
256,192,237483,1,8,0:0:0:0:
256,192,237579,1,8,0:0:0:0:
256,192,237675,1,8,0:0:0:0:
256,192,237868,1,12,0:0:0:0:
256,192,238252,1,8,0:0:0:0:
256,192,238445,1,0,0:0:0:0:
256,192,238637,1,12,0:0:0:0:
256,192,238829,1,0,0:0:0:0:
256,192,238925,1,0,0:0:0:0:
256,192,239022,1,8,0:0:0:0:
256,192,239214,1,0,0:0:0:0:
256,192,239406,1,12,0:0:0:0:
256,192,239598,1,0,0:0:0:0:
256,192,239695,1,8,0:0:0:0:
256,192,239791,1,8,0:0:0:0:
256,192,239983,1,0,0:0:0:0:
256,192,240175,1,12,0:0:0:0:
256,192,240368,1,4,0:0:0:0:
256,192,240560,1,12,0:0:0:0:
256,192,240752,1,12,0:0:0:0:
256,160,240945,5,4,0:0:0:0:
256,160,241137,1,8,0:0:0:0:
256,160,241329,1,0,0:0:0:0:
256,160,241522,1,8,0:0:0:0:
256,160,241714,1,8,0:0:0:0:
256,160,242098,1,0,0:0:0:0:
256,160,242291,1,8,0:0:0:0:
256,160,242483,1,0,0:0:0:0:
256,160,242675,1,8,0:0:0:0:
256,160,242868,1,8,0:0:0:0:
256,160,243252,1,8,0:0:0:0:
256,160,243445,1,8,0:0:0:0:
256,160,243637,1,0,0:0:0:0:
256,160,243829,1,0,0:0:0:0:
256,160,244022,1,8,0:0:0:0:
256,160,244118,1,8,0:0:0:0:
256,160,244310,1,8,0:0:0:0:
256,160,244502,1,8,0:0:0:0:
256,160,244598,1,0,0:0:0:0:
256,160,244791,1,8,0:0:0:0:
256,160,244887,1,8,0:0:0:0:
256,160,245079,1,8,0:0:0:0:
256,160,245272,1,8,0:0:0:0:
256,160,245368,1,0,0:0:0:0:
256,160,245560,1,0,0:0:0:0:
256,160,245752,1,8,0:0:0:0:
256,160,245848,1,8,0:0:0:0:
256,160,245945,1,0,0:0:0:0:
256,160,246137,1,8,0:0:0:0:
256,160,246329,1,0,0:0:0:0:
256,160,246522,1,8,0:0:0:0:
256,160,246618,1,8,0:0:0:0:
256,160,246714,1,0,0:0:0:0:
256,160,246810,1,8,0:0:0:0:
256,160,246906,1,8,0:0:0:0:
256,160,247002,1,8,0:0:0:0:
256,160,247098,1,0,0:0:0:0:
256,160,247291,1,8,0:0:0:0:
256,160,247483,1,0,0:0:0:0:
256,160,247675,1,8,0:0:0:0:
256,160,247868,1,8,0:0:0:0:
256,160,248252,1,0,0:0:0:0:
256,160,248445,1,8,0:0:0:0:
256,160,248637,1,0,0:0:0:0:
256,160,248829,1,8,0:0:0:0:
256,160,249022,1,8,0:0:0:0:
256,160,249406,1,8,0:0:0:0:
256,160,249598,1,8,0:0:0:0:
256,160,249791,1,0,0:0:0:0:
256,160,249983,1,0,0:0:0:0:
256,160,250175,1,8,0:0:0:0:
256,160,250272,1,8,0:0:0:0:
256,160,250464,1,8,0:0:0:0:
256,160,250560,1,0,0:0:0:0:
256,160,250656,1,8,0:0:0:0:
256,160,250752,1,0,0:0:0:0:
256,160,250945,1,8,0:0:0:0:
256,160,251041,1,8,0:0:0:0:
256,160,251233,1,8,0:0:0:0:
256,192,251329,1,0,0:0:0:0:
256,160,251425,1,0,0:0:0:0:
256,160,251522,1,8,0:0:0:0:
256,160,251714,1,0,0:0:0:0:
288,160,251810,1,0,0:0:0:0:
256,160,251906,1,0,0:0:0:0:
256,160,252002,1,0,0:0:0:0:
256,160,252098,1,0,0:0:0:0:
256,160,252291,1,8,0:0:0:0:
256,160,252483,1,0,0:0:0:0:
256,160,252579,1,0,0:0:0:0:
256,160,252675,1,0,0:0:0:0:
256,160,252772,1,0,0:0:0:0:
256,160,252868,1,8,0:0:0:0:
256,160,252964,1,8,0:0:0:0:
256,160,253060,1,8,0:0:0:0:
256,160,253156,1,8,0:0:0:0:
256,160,253252,1,0,0:0:0:0:
256,160,253637,1,8,0:0:0:0:
256,160,253829,1,8,0:0:0:0:
256,160,253925,1,8,0:0:0:0:
256,160,254022,1,0,0:0:0:0:
256,160,254214,1,0,0:0:0:0:
256,160,254406,1,8,0:0:0:0:
256,160,254791,1,0,0:0:0:0:
256,160,254983,1,0,0:0:0:0:
256,160,255079,1,0,0:0:0:0:
256,160,255175,1,8,0:0:0:0:
256,160,255368,1,8,0:0:0:0:
256,160,255752,1,0,0:0:0:0:
256,160,255945,1,8,0:0:0:0:
256,160,256137,1,0,0:0:0:0:
256,160,256329,1,8,0:0:0:0:
256,160,256714,1,8,0:0:0:0:
256,160,256906,1,8,0:0:0:0:
256,160,257002,1,8,0:0:0:0:
256,160,257098,1,0,0:0:0:0:
256,160,257291,1,8,0:0:0:0:
256,160,257483,1,0,0:0:0:0:
256,160,257868,1,0,0:0:0:0:
256,160,258060,1,8,0:0:0:0:
256,160,258156,1,8,0:0:0:0:
256,160,258252,1,8,0:0:0:0:
256,160,258445,1,8,0:0:0:0:
256,160,258637,1,8,0:0:0:0:
256,160,258733,1,0,0:0:0:0:
256,160,258829,1,0,0:0:0:0:
256,160,258925,1,0,0:0:0:0:
256,160,259022,1,8,0:0:0:0:
256,160,259214,1,8,0:0:0:0:
256,160,259406,1,4,0:0:0:0:
256,160,259791,1,8,0:0:0:0:
256,160,259983,1,8,0:0:0:0:
256,160,260079,1,8,0:0:0:0:
256,160,260175,1,0,0:0:0:0:
256,160,260368,1,0,0:0:0:0:
256,160,260560,1,8,0:0:0:0:
256,160,260945,1,0,0:0:0:0:
256,160,261137,1,0,0:0:0:0:
256,160,261233,1,0,0:0:0:0:
256,160,261329,1,8,0:0:0:0:
256,160,261522,1,8,0:0:0:0:
256,160,261906,1,0,0:0:0:0:
256,160,262098,1,8,0:0:0:0:
256,160,262291,1,0,0:0:0:0:
256,160,262483,1,12,0:0:0:0:
256,160,262675,1,0,0:0:0:0:
256,160,262868,1,8,0:0:0:0:
256,160,262964,1,0,0:0:0:0:
256,160,263060,1,8,0:0:0:0:
256,160,263252,1,4,0:0:0:0:
256,160,263445,1,0,0:0:0:0:
256,160,263637,1,8,0:0:0:0:
256,160,264022,1,4,0:0:0:0:
256,160,264214,1,8,0:0:0:0:
256,160,264310,1,8,0:0:0:0:
256,160,264406,1,8,0:0:0:0:
256,160,264598,1,8,0:0:0:0:
256,160,264791,1,8,0:0:0:0:
256,160,264887,1,8,0:0:0:0:
256,160,264983,1,0,0:0:0:0:
256,160,265079,1,0,0:0:0:0:
256,160,265175,1,8,0:0:0:0:
256,160,265368,1,8,0:0:0:0:
256,160,265464,1,0,0:0:0:0:
256,160,265560,1,8,0:0:0:0:
256,160,265848,1,0,0:0:0:0:
256,160,265945,1,8,0:0:0:0:
256,160,266137,1,0,0:0:0:0:
256,160,266329,1,8,0:0:0:0:
256,160,266618,1,8,0:0:0:0:
256,160,266714,1,0,0:0:0:0:
256,160,266906,1,8,0:0:0:0:
256,160,267002,1,0,0:0:0:0:
256,160,267098,1,8,0:0:0:0:
256,160,267387,1,0,0:0:0:0:
256,160,267483,1,8,0:0:0:0:
256,160,267675,1,0,0:0:0:0:
256,160,267868,1,8,0:0:0:0:
256,160,268156,1,8,0:0:0:0:
256,160,268252,1,8,0:0:0:0:
256,160,268445,1,8,0:0:0:0:
256,160,268541,1,0,0:0:0:0:
256,160,268637,1,8,0:0:0:0:
256,160,268925,1,0,0:0:0:0:
256,160,269022,1,8,0:0:0:0:
256,160,269118,1,8,0:0:0:0:
256,160,269214,1,0,0:0:0:0:
256,160,269406,1,8,0:0:0:0:
256,160,269598,1,0,0:0:0:0:
256,160,269695,1,8,0:0:0:0:
256,160,269887,1,8,0:0:0:0:
256,160,269983,1,8,0:0:0:0:
256,160,270175,1,8,0:0:0:0:
256,160,270368,1,0,0:0:0:0:
256,160,270464,1,8,0:0:0:0:
256,160,270656,1,8,0:0:0:0:
256,160,270752,1,0,0:0:0:0:
256,160,270945,1,8,0:0:0:0:
256,160,271137,1,0,0:0:0:0:
256,160,271233,1,8,0:0:0:0:
256,160,271329,1,0,0:0:0:0:
256,160,271522,1,8,0:0:0:0:
256,160,271618,1,0,0:0:0:0:
256,160,271714,1,8,0:0:0:0:
256,160,272002,1,0,0:0:0:0:
256,160,272098,1,8,0:0:0:0:
256,160,272291,1,0,0:0:0:0:
256,160,272483,1,8,0:0:0:0:
256,160,272579,1,0,0:0:0:0:
256,160,272675,1,0,0:0:0:0:
256,160,272772,1,8,0:0:0:0:
256,160,273060,1,8,0:0:0:0:
256,160,273156,1,0,0:0:0:0:
256,160,273252,1,8,0:0:0:0:
256,160,273541,1,0,0:0:0:0:
256,160,273637,1,8,0:0:0:0:
256,160,273829,1,0,0:0:0:0:
256,160,274022,1,8,0:0:0:0:
256,160,274118,1,8,0:0:0:0:
256,160,274214,1,0,0:0:0:0:
256,160,274310,1,8,0:0:0:0:
256,160,274598,1,8,0:0:0:0:
256,160,274695,1,0,0:0:0:0:
256,160,274791,1,8,0:0:0:0:
256,160,274983,1,0,0:0:0:0:
256,160,275079,1,8,0:0:0:0:
256,160,275272,1,8,0:0:0:0:
256,160,275368,1,0,0:0:0:0:
256,160,275560,1,8,0:0:0:0:
256,160,275752,1,8,0:0:0:0:
256,160,275848,1,0,0:0:0:0:
256,160,276041,1,0,0:0:0:0:
256,160,276137,1,8,0:0:0:0:
256,160,276329,1,8,0:0:0:0:
256,160,276425,1,0,0:0:0:0:
256,160,276522,1,0,0:0:0:0:
256,160,276618,1,8,0:0:0:0:
256,160,276810,1,0,0:0:0:0:
256,160,276906,1,8,0:0:0:0:
256,160,277002,1,8,0:0:0:0:
256,160,277098,1,0,0:0:0:0:
256,160,277291,1,0,0:0:0:0:
256,160,277387,1,0,0:0:0:0:
256,160,277483,5,8,0:0:0:0:
256,160,277547,1,0,0:0:0:0:
256,160,277611,1,0,0:0:0:0:
256,160,277675,1,8,0:0:0:0:
256,160,277772,1,8,0:0:0:0:
256,160,277868,5,0,0:0:0:0:
256,192,278252,1,8,0:0:0:0:
256,192,278637,1,8,0:0:0:0:
256,192,278829,1,0,0:0:0:0:
256,192,279022,1,8,0:0:0:0:
256,192,279214,1,8,0:0:0:0:
256,192,279406,1,0,0:0:0:0:
256,192,279598,5,0,0:0:0:0:
256,192,279791,1,8,0:0:0:0:
256,192,279983,1,0,0:0:0:0:
256,192,280079,1,0,0:0:0:0:
256,192,280175,1,8,0:0:0:0:
256,192,280368,1,0,0:0:0:0:
256,192,280560,1,8,0:0:0:0:
256,192,280752,1,8,0:0:0:0:
256,192,280945,1,8,0:0:0:0:
256,192,281137,1,0,0:0:0:0:
256,192,281329,1,8,0:0:0:0:
256,192,281522,1,0,0:0:0:0:
256,192,281618,1,0,0:0:0:0:
256,192,281714,1,8,0:0:0:0:
256,192,281906,1,0,0:0:0:0:
256,192,282098,1,8,0:0:0:0:
256,192,282291,1,8,0:0:0:0:
256,192,282483,1,0,0:0:0:0:
256,192,282675,1,0,0:0:0:0:
256,192,282772,1,8,0:0:0:0:
256,192,282868,1,8,0:0:0:0:
256,192,283060,1,8,0:0:0:0:
256,192,283252,1,0,0:0:0:0:
256,192,283445,1,0,0:0:0:0:
256,192,283637,1,8,0:0:0:0:
256,192,283829,1,8,0:0:0:0:
256,192,284022,1,0,0:0:0:0:
256,192,284406,1,8,0:0:0:0:
256,192,284791,1,8,0:0:0:0:
256,192,284983,1,0,0:0:0:0:
256,192,285175,1,8,0:0:0:0:
256,192,285368,1,8,0:0:0:0:
256,192,285560,1,0,0:0:0:0:
256,192,285752,5,0,0:0:0:0:
256,192,285945,1,8,0:0:0:0:
256,192,286137,1,0,0:0:0:0:
256,192,286233,1,0,0:0:0:0:
256,192,286329,1,8,0:0:0:0:
256,192,286522,1,8,0:0:0:0:
256,192,286714,1,8,0:0:0:0:
256,192,286906,1,0,0:0:0:0:
256,192,287098,1,8,0:0:0:0:
256,192,287291,1,0,0:0:0:0:
256,192,287483,1,8,0:0:0:0:
256,192,287675,1,0,0:0:0:0:
256,192,287772,1,0,0:0:0:0:
256,192,287868,1,8,0:0:0:0:
256,192,288060,1,0,0:0:0:0:
256,192,288252,1,8,0:0:0:0:
256,192,288445,1,8,0:0:0:0:
256,192,288637,1,0,0:0:0:0:
256,192,288829,1,8,0:0:0:0:
256,192,288925,1,0,0:0:0:0:
256,192,289022,1,8,0:0:0:0:
256,192,289214,1,0,0:0:0:0:
256,192,289406,1,8,0:0:0:0:
256,192,289502,1,0,0:0:0:0:
256,192,289598,1,0,0:0:0:0:
256,192,289791,1,8,0:0:0:0:
256,192,289983,1,0,0:0:0:0:
256,192,290175,1,12,0:0:0:0:
256,192,290560,1,8,0:0:0:0:
256,192,290945,1,0,0:0:0:0:
256,192,291137,1,0,0:0:0:0:
256,192,291233,1,0,0:0:0:0:
256,192,291329,1,8,0:0:0:0:
256,192,291522,1,8,0:0:0:0:
256,192,291714,1,0,0:0:0:0:
256,192,292098,1,8,0:0:0:0:
256,192,292291,1,8,0:0:0:0:
256,192,292387,1,8,0:0:0:0:
256,192,292483,1,0,0:0:0:0:
256,192,292675,1,0,0:0:0:0:
256,192,292868,1,8,0:0:0:0:
256,192,293252,1,0,0:0:0:0:
256,192,293637,1,8,0:0:0:0:
256,192,293829,1,8,0:0:0:0:
256,192,293925,1,0,0:0:0:0:
256,192,294022,1,0,0:0:0:0:
256,192,294214,1,0,0:0:0:0:
256,192,294406,5,8,0:0:0:0:
256,192,294791,1,0,0:0:0:0:
256,192,294983,1,0,0:0:0:0:
256,192,295079,1,8,0:0:0:0:
256,192,295175,1,8,0:0:0:0:
256,192,295368,1,8,0:0:0:0:
256,192,295560,1,0,0:0:0:0:
256,192,295752,1,0,0:0:0:0:
256,192,295945,1,8,0:0:0:0:
256,192,296137,1,8,0:0:0:0:
256,192,296329,1,4,0:0:0:0:
256,192,296714,1,8,0:0:0:0:
256,192,296906,1,0,0:0:0:0:
256,192,297098,1,0,0:0:0:0:
256,192,297291,1,0,0:0:0:0:
256,192,297483,1,8,0:0:0:0:
256,192,297675,1,8,0:0:0:0:
256,192,297868,1,0,0:0:0:0:
256,192,298252,1,8,0:0:0:0:
256,192,298445,1,8,0:0:0:0:
256,192,298637,1,0,0:0:0:0:
256,192,298829,1,0,0:0:0:0:
256,192,299022,1,8,0:0:0:0:
256,192,299214,1,0,0:0:0:0:
256,192,299406,1,0,0:0:0:0:
256,192,299791,1,8,0:0:0:0:
256,192,299983,1,0,0:0:0:0:
256,192,300175,1,0,0:0:0:0:
256,192,300368,1,0,0:0:0:0:
256,192,300560,1,8,0:0:0:0:
256,192,300945,1,0,0:0:0:0:
256,192,301137,1,8,0:0:0:0:
256,192,301329,1,8,0:0:0:0:
256,192,301522,1,0,0:0:0:0:
256,192,301618,1,8,0:0:0:0:
256,192,301810,1,8,0:0:0:0:
256,192,301906,1,0,0:0:0:0:
256,192,302098,1,12,0:0:0:0:
256,192,302291,1,8,0:0:0:0:
256,192,302483,1,4,0:0:0:0:
256,192,302868,1,8,0:0:0:0:
256,192,303060,1,0,0:0:0:0:
256,192,303252,1,8,0:0:0:0:
256,192,303445,1,0,0:0:0:0:
256,192,303637,1,8,0:0:0:0:
256,192,303829,1,8,0:0:0:0:
256,192,304022,1,0,0:0:0:0:
256,192,304214,1,0,0:0:0:0:
256,192,304310,1,0,0:0:0:0:
256,192,304406,1,8,0:0:0:0:
256,192,304598,1,0,0:0:0:0:
256,192,304791,1,8,0:0:0:0:
256,192,304983,1,0,0:0:0:0:
256,192,305175,1,8,0:0:0:0:
256,192,305368,1,0,0:0:0:0:
256,192,305560,1,0,0:0:0:0:
256,192,305752,1,0,0:0:0:0:
256,192,305848,1,0,0:0:0:0:
256,192,305945,1,8,0:0:0:0:
256,192,306137,1,0,0:0:0:0:
256,192,306233,1,0,0:0:0:0:
256,192,306329,1,8,0:0:0:0:
256,192,306425,1,0,0:0:0:0:
256,192,306522,1,0,0:0:0:0:
256,192,306714,1,8,0:0:0:0:
256,192,306906,1,0,0:0:0:0:
256,192,307098,1,0,0:0:0:0:
256,192,307291,1,8,0:0:0:0:
256,192,307483,1,8,0:0:0:0:
256,192,307675,1,0,0:0:0:0:
256,192,308060,1,0,0:0:0:0:
256,192,308252,1,8,0:0:0:0:
256,192,308445,1,8,0:0:0:0:
256,192,308637,1,4,0:0:0:0:
256,192,309022,1,8,0:0:0:0:
256,192,309214,1,0,0:0:0:0:
256,192,309406,1,0,0:0:0:0:
256,192,309502,1,0,0:0:0:0:
256,192,309598,1,0,0:0:0:0:
256,192,309791,1,8,0:0:0:0:
256,192,309983,1,8,0:0:0:0:
256,192,310175,1,0,0:0:0:0:
256,192,310368,1,0,0:0:0:0:
256,192,310464,1,0,0:0:0:0:
256,192,310560,1,8,0:0:0:0:
256,192,310656,1,0,0:0:0:0:
256,192,310752,1,8,0:0:0:0:
256,192,310945,1,0,0:0:0:0:
256,192,311137,1,0,0:0:0:0:
256,192,311329,1,8,0:0:0:0:
256,192,311522,1,0,0:0:0:0:
256,192,311714,1,0,0:0:0:0:
256,192,312098,1,8,0:0:0:0:
256,192,312291,1,0,0:0:0:0:
256,192,312483,1,0,0:0:0:0:
256,192,312675,1,0,0:0:0:0:
256,192,312868,1,8,0:0:0:0:
256,192,313060,1,8,0:0:0:0:
256,192,313156,1,8,0:0:0:0:
256,192,313252,1,0,0:0:0:0:
256,192,313445,1,0,0:0:0:0:
256,192,313637,1,8,0:0:0:0:
256,192,313829,1,8,0:0:0:0:
256,192,313925,5,0,0:0:0:0:
256,192,314022,1,0,0:0:0:0:
256,192,314214,1,0,0:0:0:0:
256,192,314406,1,8,0:0:0:0:
256,192,314598,1,8,0:0:0:0:
256,192,314791,1,4,0:0:0:0:
256,192,315175,1,8,0:0:0:0:
256,192,315368,1,0,0:0:0:0:
256,192,315560,1,8,0:0:0:0:
256,192,315752,1,0,0:0:0:0:
256,192,315945,1,8,0:0:0:0:
256,192,316041,1,8,0:0:0:0:
256,192,316137,1,8,0:0:0:0:
256,192,316329,1,0,0:0:0:0:
256,192,316522,1,0,0:0:0:0:
256,192,316618,1,0,0:0:0:0:
256,192,316714,1,8,0:0:0:0:
256,192,316906,1,0,0:0:0:0:
256,192,317098,1,8,0:0:0:0:
256,192,317291,1,0,0:0:0:0:
256,192,317483,1,8,0:0:0:0:
256,192,317675,1,0,0:0:0:0:
256,192,317868,1,0,0:0:0:0:
256,192,318060,1,0,0:0:0:0:
256,192,318156,1,0,0:0:0:0:
256,192,318252,1,8,0:0:0:0:
256,192,318445,1,0,0:0:0:0:
256,192,318541,1,0,0:0:0:0:
256,192,318637,1,8,0:0:0:0:
256,192,318733,1,8,0:0:0:0:
256,192,318829,1,0,0:0:0:0:
256,192,319022,1,8,0:0:0:0:
256,192,319214,1,0,0:0:0:0:
256,192,319406,1,0,0:0:0:0:
256,192,319598,1,0,0:0:0:0:
256,192,319791,1,8,0:0:0:0:
256,192,319983,1,0,0:0:0:0:
256,192,320368,1,0,0:0:0:0:
256,192,320560,1,8,0:0:0:0:
256,192,320752,1,8,0:0:0:0:
256,192,320945,1,4,0:0:0:0:
256,192,321329,1,8,0:0:0:0:
256,192,321522,1,0,0:0:0:0:
256,192,321714,1,8,0:0:0:0:
256,192,321810,1,0,0:0:0:0:
256,192,321906,1,8,0:0:0:0:
256,192,322098,1,8,0:0:0:0:
256,192,322291,1,0,0:0:0:0:
256,192,322483,1,0,0:0:0:0:
256,192,322579,1,8,0:0:0:0:
256,192,322675,1,0,0:0:0:0:
256,192,322868,1,8,0:0:0:0:
256,192,323060,1,8,0:0:0:0:
256,192,323156,1,0,0:0:0:0:
256,192,323252,1,8,0:0:0:0:
256,192,323445,1,0,0:0:0:0:
256,192,323637,1,8,0:0:0:0:
256,192,324022,1,0,0:0:0:0:
256,192,324214,1,8,0:0:0:0:
256,192,324406,1,8,0:0:0:0:
256,192,324598,1,0,0:0:0:0:
256,192,324791,1,0,0:0:0:0:
256,192,324887,1,0,0:0:0:0:
256,192,324983,1,0,0:0:0:0:
256,192,325175,1,8,0:0:0:0:
256,192,325368,1,8,0:0:0:0:
256,192,325560,1,0,0:0:0:0:
256,192,325752,1,0,0:0:0:0:
256,192,325945,1,8,0:0:0:0:
256,192,326137,1,0,0:0:0:0:
256,192,326233,1,0,0:0:0:0:
256,192,326522,1,0,0:0:0:0:
256,192,326714,1,0,0:0:0:0:
256,192,326906,1,8,0:0:0:0:
256,160,327098,5,4,0:0:0:0:
256,160,327291,1,8,0:0:0:0:
256,160,327483,1,8,0:0:0:0:
256,160,327675,1,0,0:0:0:0:
256,160,327772,1,8,0:0:0:0:
256,160,327868,1,0,0:0:0:0:
256,160,328060,1,8,0:0:0:0:
256,160,328252,1,0,0:0:0:0:
256,160,328445,1,8,0:0:0:0:
256,160,328541,1,8,0:0:0:0:
256,160,328637,1,0,0:0:0:0:
256,160,328829,1,8,0:0:0:0:
256,160,329022,1,8,0:0:0:0:
256,160,329214,1,0,0:0:0:0:
256,160,329310,1,8,0:0:0:0:
256,160,329406,1,0,0:0:0:0:
256,160,329598,1,0,0:0:0:0:
256,160,329791,1,12,0:0:0:0:
256,160,330175,1,0,0:0:0:0:
256,160,330368,1,8,0:0:0:0:
256,160,330560,1,8,0:0:0:0:
256,160,330752,1,0,0:0:0:0:
256,160,330848,1,8,0:0:0:0:
256,160,330945,1,0,0:0:0:0:
256,160,331137,1,8,0:0:0:0:
256,160,331329,1,0,0:0:0:0:
256,160,331522,1,8,0:0:0:0:
256,160,331618,1,8,0:0:0:0:
256,160,331714,1,0,0:0:0:0:
256,160,331906,1,0,0:0:0:0:
256,160,332098,1,8,0:0:0:0:
256,160,332291,1,0,0:0:0:0:
256,160,332387,1,8,0:0:0:0:
256,160,332579,1,8,0:0:0:0:
256,160,332675,1,0,0:0:0:0:
256,160,332868,1,0,0:0:0:0:
256,160,333060,1,8,0:0:0:0:
256,160,333156,1,8,0:0:0:0:
256,160,333252,1,0,0:0:0:0:
256,160,333445,1,8,0:0:0:0:
256,160,333637,1,8,0:0:0:0:
256,160,333829,1,0,0:0:0:0:
256,160,333925,1,8,0:0:0:0:
256,160,334022,1,0,0:0:0:0:
256,160,334118,1,0,0:0:0:0:
256,160,334214,1,8,0:0:0:0:
256,160,334406,1,8,0:0:0:0:
256,160,334598,1,8,0:0:0:0:
256,160,334695,1,0,0:0:0:0:
256,160,334791,1,8,0:0:0:0:
256,160,334983,1,0,0:0:0:0:
256,160,335175,1,8,0:0:0:0:
256,160,335368,1,8,0:0:0:0:
256,160,335464,1,0,0:0:0:0:
256,160,335560,1,8,0:0:0:0:
224,160,335656,1,8,0:0:0:0:
256,160,335752,1,0,0:0:0:0:
256,160,335945,1,8,0:0:0:0:
256,160,336329,1,8,0:0:0:0:
256,160,336522,1,0,0:0:0:0:
256,160,336618,1,0,0:0:0:0:
256,160,336714,1,8,0:0:0:0:
256,160,336906,1,0,0:0:0:0:
256,160,337002,1,8,0:0:0:0:
256,160,337195,1,8,0:0:0:0:
256,160,337291,1,0,0:0:0:0:
256,160,337483,1,8,0:0:0:0:
256,160,337675,1,8,0:0:0:0:
256,160,337772,1,8,0:0:0:0:
288,160,337868,1,0,0:0:0:0:
256,160,338060,1,0,0:0:0:0:
256,160,338252,1,8,0:0:0:0:
256,160,338445,1,0,0:0:0:0:
256,160,338541,1,8,0:0:0:0:
256,160,338637,1,0,0:0:0:0:
256,160,338733,1,0,0:0:0:0:
288,160,338829,1,8,0:0:0:0:
288,160,339022,1,0,0:0:0:0:
288,160,339214,1,8,0:0:0:0:
288,160,339310,1,8,0:0:0:0:
288,160,339406,1,0,0:0:0:0:
256,160,339598,1,8,0:0:0:0:
256,160,339791,1,8,0:0:0:0:
256,160,339983,1,0,0:0:0:0:
256,160,340079,1,8,0:0:0:0:
256,160,340175,1,0,0:0:0:0:
192,192,340368,1,8,0:0:0:0:
192,192,340560,1,0,0:0:0:0:
192,192,340752,1,8,0:0:0:0:
224,160,340848,1,0,0:0:0:0:
192,192,340945,1,8,0:0:0:0:
224,160,341137,1,0,0:0:0:0:
224,160,341329,1,8,0:0:0:0:
224,160,341522,1,0,0:0:0:0:
224,160,341618,1,8,0:0:0:0:
224,160,341810,1,8,0:0:0:0:
224,160,341906,1,0,0:0:0:0:
224,160,342098,1,0,0:0:0:0:
224,160,342483,1,0,0:0:0:0:
224,160,342675,1,0,0:0:0:0:
224,160,342772,1,0,0:0:0:0:
224,160,342868,1,8,0:0:0:0:
192,192,343060,1,8,0:0:0:0:
192,192,343252,1,8,0:0:0:0:
192,192,343445,1,8,0:0:0:0:
192,192,343637,1,0,0:0:0:0:
192,192,343829,1,8,0:0:0:0:
192,160,343925,1,8,0:0:0:0:
192,160,344022,1,0,0:0:0:0:
192,192,344214,1,0,0:0:0:0:
192,192,344406,1,8,0:0:0:0:
192,192,344598,1,0,0:0:0:0:
192,192,344695,1,8,0:0:0:0:
192,192,344791,1,0,0:0:0:0:
192,192,344983,1,8,0:0:0:0:
192,192,345175,1,0,0:0:0:0:
192,192,345368,1,8,0:0:0:0:
192,192,345464,1,8,0:0:0:0:
192,192,345560,1,0,0:0:0:0:
192,192,345752,1,8,0:0:0:0:
192,192,345945,1,8,0:0:0:0:
192,192,346233,1,8,0:0:0:0:
160,192,346329,1,0,0:0:0:0:
192,192,346522,1,8,0:0:0:0:
192,192,346714,1,0,0:0:0:0:
192,192,346906,1,8,0:0:0:0:
192,192,347098,1,8,0:0:0:0:
192,192,347291,1,0,0:0:0:0:
192,192,347387,1,0,0:0:0:0:
192,192,347483,1,8,0:0:0:0:
192,192,347675,1,8,0:0:0:0:
192,192,347772,1,8,0:0:0:0:
224,192,347868,1,0,0:0:0:0:
192,192,347964,1,8,0:0:0:0:
192,192,348060,1,0,0:0:0:0:
192,192,348156,1,8,0:0:0:0:
192,192,348252,1,0,0:0:0:0:
192,192,348445,1,8,0:0:0:0:
192,192,348637,1,8,0:0:0:0:
224,192,348829,1,0,0:0:0:0:
224,192,349022,1,8,0:0:0:0:
192,192,349406,1,8,0:0:0:0:
192,192,349598,1,0,0:0:0:0:
192,192,349695,1,8,0:0:0:0:
192,160,349887,1,0,0:0:0:0:
192,192,349983,1,8,0:0:0:0:
192,160,350079,1,8,0:0:0:0:
192,192,350175,1,0,0:0:0:0:
192,192,350368,1,0,0:0:0:0:
192,192,350560,1,8,0:0:0:0:
192,192,350752,1,8,0:0:0:0:
192,192,350848,1,8,0:0:0:0:
192,192,350945,1,0,0:0:0:0:
192,192,351137,1,8,0:0:0:0:
192,192,351233,1,0,0:0:0:0:
192,192,351425,1,0,0:0:0:0:
192,192,351522,1,8,0:0:0:0:
192,192,351618,1,8,0:0:0:0:
192,192,351714,1,8,0:0:0:0:
192,192,351906,1,0,0:0:0:0:
192,192,352098,1,8,0:0:0:0:
192,192,352291,1,0,0:0:0:0:
192,192,352387,1,8,0:0:0:0:
192,192,352483,1,0,0:0:0:0:
224,192,352675,1,8,0:0:0:0:
224,192,352868,1,0,0:0:0:0:
224,192,353060,1,8,0:0:0:0:
224,192,353156,1,8,0:0:0:0:
224,192,353252,1,0,0:0:0:0:
224,192,353445,1,8,0:0:0:0:
192,192,353637,1,0,0:0:0:0:
224,192,353829,1,8,0:0:0:0:
224,192,353925,1,8,0:0:0:0:
224,192,354022,1,0,0:0:0:0:
224,192,354214,1,0,0:0:0:0:
224,192,354310,1,0,0:0:0:0:
224,192,354406,1,0,0:0:0:0:
224,192,354598,1,8,0:0:0:0:
224,192,354791,1,8,0:0:0:0:
224,192,354983,1,0,0:0:0:0:
224,192,355175,1,8,0:0:0:0:
224,192,355272,1,0,0:0:0:0:
224,192,355368,1,0,0:0:0:0:
224,192,355464,1,0,0:0:0:0:
224,192,355560,1,8,0:0:0:0:
192,192,355752,1,8,0:0:0:0:
256,192,355848,1,8,0:0:0:0:
224,224,355945,1,0,0:0:0:0:
224,192,356041,1,8,0:0:0:0:
224,192,356137,1,0,0:0:0:0:
224,192,356233,1,0,0:0:0:0:
224,192,356329,1,8,0:0:0:0:
224,192,356522,1,0,0:0:0:0:
224,192,356618,1,0,0:0:0:0:
224,192,356714,1,8,0:0:0:0:
224,192,356906,1,8,0:0:0:0:
224,192,357002,1,8,0:0:0:0:
224,192,357098,1,0,0:0:0:0:
256,192,357291,1,0,0:0:0:0:
224,192,357483,1,8,0:0:0:0:
224,192,357579,1,8,0:0:0:0:
224,192,357675,1,0,0:0:0:0:
224,192,357772,1,0,0:0:0:0:
224,192,357868,1,8,0:0:0:0:
256,192,358060,1,0,0:0:0:0:
256,192,358252,1,8,0:0:0:0:
256,192,358445,1,0,0:0:0:0:
256,192,358541,1,8,0:0:0:0:
224,192,358637,1,0,0:0:0:0:
224,192,358829,1,8,0:0:0:0:
224,192,358925,1,0,0:0:0:0:
224,192,359022,1,8,0:0:0:0:
256,192,359118,1,8,0:0:0:0:
224,192,359214,1,0,0:0:0:0:
256,192,359310,1,0,0:0:0:0:
224,192,359406,1,8,0:0:0:0:
256,192,359598,1,8,0:0:0:0:
256,192,359695,1,8,0:0:0:0:
256,192,359791,1,0,0:0:0:0:
256,192,359983,1,8,0:0:0:0:
224,192,360175,1,8,0:0:0:0:
256,192,360272,1,0,0:0:0:0:
224,192,360368,1,0,0:0:0:0:
256,192,360464,1,8,0:0:0:0:
256,192,360560,1,0,0:0:0:0:
224,192,360752,1,8,0:0:0:0:
256,192,360848,1,0,0:0:0:0:
224,192,360945,1,8,0:0:0:0:
224,192,361137,1,0,0:0:0:0:
224,192,361329,1,8,0:0:0:0:
224,192,361522,1,8,0:0:0:0:
224,192,361618,1,8,0:0:0:0:
224,192,361714,1,0,0:0:0:0:
224,192,361906,1,8,0:0:0:0:
224,192,362002,1,0,0:0:0:0:
224,192,362195,1,0,0:0:0:0:
224,192,362291,1,8,0:0:0:0:
224,192,362483,1,8,0:0:0:0:
224,192,362675,1,0,0:0:0:0:
224,192,362868,1,8,0:0:0:0:
224,192,363060,1,8,0:0:0:0:
224,192,363156,1,8,0:0:0:0:
224,192,363252,1,0,0:0:0:0:
224,192,363445,1,8,0:0:0:0:
224,192,363637,1,0,0:0:0:0:
224,192,363829,1,8,0:0:0:0:
224,192,364022,1,4,0:0:0:0:
256,160,364214,1,8,0:0:0:0:
256,160,364406,1,8,0:0:0:0:
256,160,364598,1,0,0:0:0:0:
256,160,364695,1,8,0:0:0:0:
256,160,364791,1,0,0:0:0:0:
256,160,364983,1,8,0:0:0:0:
256,160,365175,1,0,0:0:0:0:
256,160,365368,1,8,0:0:0:0:
256,160,365464,1,8,0:0:0:0:
256,160,365560,1,0,0:0:0:0:
256,160,365752,1,8,0:0:0:0:
256,160,365945,1,8,0:0:0:0:
256,160,366137,1,0,0:0:0:0:
256,160,366233,1,8,0:0:0:0:
256,160,366329,1,0,0:0:0:0:
256,160,366522,1,0,0:0:0:0:
256,160,366714,1,8,0:0:0:0:
256,160,366906,1,0,0:0:0:0:
224,160,367291,1,8,0:0:0:0:
224,160,367483,1,8,0:0:0:0:
224,160,367772,1,0,0:0:0:0:
224,160,368060,1,8,0:0:0:0:
224,160,368252,1,0,0:0:0:0:
224,160,368829,1,0,0:0:0:0:
224,160,369022,1,8,0:0:0:0:
224,160,369310,1,0,0:0:0:0:
224,160,369598,1,8,0:0:0:0:
224,160,369791,2,0,L|96:128,1,105
256,192,370275,8,0,371178,0:0:0:0:
192,160,371379,5,0,0:0:0:0:
256,192,371571,1,0,0:0:0:0:
256,192,371667,1,0,0:0:0:0:
256,192,371763,1,8,0:0:0:0:
256,192,372147,1,8,0:0:0:0:
256,192,372339,1,8,0:0:0:0:
256,192,372436,1,8,0:0:0:0:
256,192,372532,1,0,0:0:0:0:
256,192,372916,1,8,0:0:0:0:
256,192,373109,1,8,0:0:0:0:
256,192,373205,1,8,0:0:0:0:
256,192,373301,1,8,0:0:0:0:
256,192,373493,1,0,0:0:0:0:
256,192,373686,1,8,0:0:0:0:
256,192,373878,1,0,0:0:0:0:
256,192,373974,1,8,0:0:0:0:
256,192,374070,1,8,0:0:0:0:
256,192,374359,1,0,0:0:0:0:
256,192,374455,1,8,0:0:0:0:
256,192,374647,1,8,0:0:0:0:
256,192,374743,1,0,0:0:0:0:
256,192,374839,1,8,0:0:0:0:
256,192,374936,1,0,0:0:0:0:
256,192,375128,1,0,0:0:0:0:
256,192,375224,1,8,0:0:0:0:
256,192,375416,1,8,0:0:0:0:
256,192,375513,1,8,0:0:0:0:
256,192,375609,1,0,0:0:0:0:
256,192,375705,1,0,0:0:0:0:
256,192,375897,1,0,0:0:0:0:
256,192,375993,1,8,0:0:0:0:
256,192,376186,1,0,0:0:0:0:
256,192,376282,1,8,0:0:0:0:
256,192,376378,1,0,0:0:0:0:
256,192,376474,1,8,0:0:0:0:
256,192,376570,1,0,0:0:0:0:
256,192,376666,1,0,0:0:0:0:
256,192,376763,1,8,0:0:0:0:
256,192,376955,1,8,0:0:0:0:
256,192,377051,1,0,0:0:0:0:
256,192,377147,1,8,0:0:0:0:
256,192,377339,1,0,0:0:0:0:
256,192,377436,1,0,0:0:0:0:
256,192,377532,1,8,0:0:0:0:
256,192,377724,1,8,0:0:0:0:
256,192,377820,1,0,0:0:0:0:
256,192,377916,1,8,0:0:0:0:
256,192,378013,1,8,0:0:0:0:
256,192,378109,1,0,0:0:0:0:
256,192,378205,1,0,0:0:0:0:
256,192,378301,1,8,0:0:0:0:
256,192,378397,1,8,0:0:0:0:
256,192,378493,1,0,0:0:0:0:
256,192,378589,1,0,0:0:0:0:
256,192,378686,1,8,0:0:0:0:
256,192,378782,1,8,0:0:0:0:
256,192,378878,1,0,0:0:0:0:
256,192,378974,1,0,0:0:0:0:
256,192,379070,1,8,0:0:0:0:
256,192,379166,1,8,0:0:0:0:
256,192,379263,1,0,0:0:0:0:
256,192,379455,1,12,0:0:0:0:
256,192,379839,1,12,0:0:0:0:
256,192,380224,1,12,0:0:0:0:
256,192,380865,1,0,0:0:0:0:
256,192,380929,1,0,0:0:0:0:
256,192,380993,1,8,0:0:0:0:
256,192,381089,1,8,0:0:0:0:
256,192,381186,1,0,0:0:0:0:
256,192,381282,1,0,0:0:0:0:
256,192,381378,1,8,0:0:0:0:
256,192,381474,1,8,0:0:0:0:
256,192,381570,1,0,0:0:0:0:
256,192,381666,1,0,0:0:0:0:
256,192,381763,1,8,0:0:0:0:
256,192,381859,1,8,0:0:0:0:
256,192,381955,1,8,0:0:0:0:
256,192,382051,1,0,0:0:0:0:
256,192,382147,1,8,0:0:0:0:
256,192,382243,1,8,0:0:0:0:
256,192,382339,1,0,0:0:0:0:
256,192,382436,1,0,0:0:0:0:
256,192,382532,1,8,0:0:0:0:
256,192,382628,1,0,0:0:0:0:
256,192,382724,1,0,0:0:0:0:
256,192,382820,1,0,0:0:0:0:
256,192,382916,1,8,0:0:0:0:
256,192,383013,1,0,0:0:0:0:
256,192,383109,1,0,0:0:0:0:
256,192,383205,1,0,0:0:0:0:
256,192,383301,1,8,0:0:0:0:
256,192,383493,1,8,0:0:0:0:
256,192,383589,1,8,0:0:0:0:
256,192,383686,1,8,0:0:0:0:
256,192,383878,1,8,0:0:0:0:
256,192,383974,1,0,0:0:0:0:
256,192,384070,1,8,0:0:0:0:
256,192,384166,1,8,0:0:0:0:
256,192,384263,1,0,0:0:0:0:
256,192,384359,1,8,0:0:0:0:
256,192,384455,1,8,0:0:0:0:
256,192,384647,1,0,0:0:0:0:
256,192,384743,1,8,0:0:0:0:
256,192,384839,1,8,0:0:0:0:
256,192,385032,1,0,0:0:0:0:
256,192,385128,1,8,0:0:0:0:
256,192,385224,1,8,0:0:0:0:
256,192,385416,1,8,0:0:0:0:
256,192,385513,1,0,0:0:0:0:
256,192,385609,1,8,0:0:0:0:
256,192,385705,1,8,0:0:0:0:
256,192,385801,1,0,0:0:0:0:
256,192,385897,1,0,0:0:0:0:
256,192,385993,1,8,0:0:0:0:
256,192,386186,1,0,0:0:0:0:
256,192,386282,1,0,0:0:0:0:
256,192,386378,1,8,0:0:0:0:
256,192,386474,1,8,0:0:0:0:
256,192,386570,1,8,0:0:0:0:
256,192,386666,1,0,0:0:0:0:
256,192,386763,1,8,0:0:0:0:
256,192,386955,1,0,0:0:0:0:
256,192,387051,1,8,0:0:0:0:
256,192,387147,1,0,0:0:0:0:
256,192,387339,1,0,0:0:0:0:
256,192,387436,1,0,0:0:0:0:
256,192,387532,1,8,0:0:0:0:
256,192,387724,1,8,0:0:0:0:
256,192,387820,1,8,0:0:0:0:
256,192,387916,1,0,0:0:0:0:
256,192,388109,1,8,0:0:0:0:
256,192,388205,1,0,0:0:0:0:
256,192,388301,1,8,0:0:0:0:
256,192,388493,1,0,0:0:0:0:
256,192,388589,1,8,0:0:0:0:
256,192,388686,1,0,0:0:0:0:
256,192,388782,1,8,0:0:0:0:
256,192,388878,1,0,0:0:0:0:
256,192,388974,1,0,0:0:0:0:
256,192,389070,1,8,0:0:0:0:
256,192,389166,1,0,0:0:0:0:
256,192,389263,1,8,0:0:0:0:
256,192,389359,1,8,0:0:0:0:
256,192,389455,1,0,0:0:0:0:
256,192,389647,1,0,0:0:0:0:
256,192,389743,1,0,0:0:0:0:
256,192,389839,1,8,0:0:0:0:
256,192,390032,1,0,0:0:0:0:
256,192,390224,1,12,0:0:0:0:
256,192,390609,1,4,0:0:0:0:
256,192,390993,1,12,0:0:0:0:
256,192,391378,1,4,0:0:0:0:
256,192,391763,1,12,0:0:0:0:
256,192,391955,1,0,0:0:0:0:
256,192,392051,1,0,0:0:0:0:
256,192,392147,1,8,0:0:0:0:
256,192,392339,1,8,0:0:0:0:
256,192,392436,1,0,0:0:0:0:
256,192,392532,1,8,0:0:0:0:
256,192,392724,1,8,0:0:0:0:
256,192,392820,1,8,0:0:0:0:
256,192,392916,1,8,0:0:0:0:
256,192,393109,1,8,0:0:0:0:
256,192,393205,1,8,0:0:0:0:
256,192,393301,1,0,0:0:0:0:
256,192,393493,1,0,0:0:0:0:
256,192,393589,1,8,0:0:0:0:
256,192,393686,1,8,0:0:0:0:
256,192,393878,1,8,0:0:0:0:
256,192,393974,1,0,0:0:0:0:
256,192,394070,1,8,0:0:0:0:
256,192,394166,1,8,0:0:0:0:
256,192,394263,1,0,0:0:0:0:
256,192,394359,1,0,0:0:0:0:
256,192,394455,1,8,0:0:0:0:
256,192,394551,1,8,0:0:0:0:
256,192,394647,1,0,0:0:0:0:
256,192,394743,1,8,0:0:0:0:
256,192,394839,1,0,0:0:0:0:
256,192,395032,1,0,0:0:0:0:
256,192,395224,1,8,0:0:0:0:
256,192,395416,1,8,0:0:0:0:
256,192,395513,1,8,0:0:0:0:
256,192,395609,1,8,0:0:0:0:
256,192,395801,1,0,0:0:0:0:
256,192,395993,1,8,0:0:0:0:
256,192,396089,1,0,0:0:0:0:
256,192,396186,1,0,0:0:0:0:
256,192,396282,1,8,0:0:0:0:
256,192,396378,1,8,0:0:0:0:
256,192,396570,1,8,0:0:0:0:
256,192,396763,1,0,0:0:0:0:
256,192,396891,1,0,0:0:0:0:
256,192,397019,1,0,0:0:0:0:
256,192,397147,1,8,0:0:0:0:
256,192,397339,1,0,0:0:0:0:
256,192,397531,1,8,0:0:0:0:
256,192,397723,1,0,0:0:0:0:
256,192,397916,1,8,0:0:0:0:
256,192,398012,1,8,0:0:0:0:
256,192,398108,1,0,0:0:0:0:
256,192,398300,1,12,0:0:0:0:
256,192,398493,1,0,0:0:0:0:
256,192,398685,1,12,0:0:0:0:
256,192,398877,1,0,0:0:0:0:
256,192,399070,1,12,0:0:0:0:
256,192,399262,1,0,0:0:0:0:
256,192,399454,1,12,0:0:0:0:
256,192,399647,1,0,0:0:0:0:
256,192,399743,1,0,0:0:0:0:
256,192,399839,1,8,0:0:0:0:
256,192,399935,1,8,0:0:0:0:
256,192,400031,1,0,0:0:0:0:
256,192,400223,1,12,0:0:0:0:
256,192,400416,1,0,0:0:0:0:
256,192,400512,1,0,0:0:0:0:
256,192,400608,1,0,0:0:0:0:
256,192,400800,1,0,0:0:0:0:
256,192,400993,1,8,0:0:0:0:
256,192,401089,1,8,0:0:0:0:
256,192,401185,1,0,0:0:0:0:
256,192,401281,1,0,0:0:0:0:
256,192,401377,1,8,0:0:0:0:
256,192,401570,1,0,0:0:0:0:
256,192,401762,1,8,0:0:0:0:
256,192,402050,1,0,0:0:0:0:
256,192,402147,1,8,0:0:0:0:
256,192,402339,1,0,0:0:0:0:
256,192,402531,1,8,0:0:0:0:
256,192,402723,1,8,0:0:0:0:
256,192,402820,1,8,0:0:0:0:
256,192,402916,1,8,0:0:0:0:
256,192,403108,1,0,0:0:0:0:
256,192,403300,1,8,0:0:0:0:
256,192,403493,1,0,0:0:0:0:
256,192,403589,1,0,0:0:0:0:
256,192,403685,1,8,0:0:0:0:
256,192,403877,1,0,0:0:0:0:
256,192,404070,1,0,0:0:0:0:
256,192,404262,1,8,0:0:0:0:
256,192,404454,1,8,0:0:0:0:
256,192,404647,1,0,0:0:0:0:
256,192,404839,1,8,0:0:0:0:
256,192,405031,1,0,0:0:0:0:
256,192,405127,1,8,0:0:0:0:
256,192,405223,1,8,0:0:0:0:
256,192,405416,1,0,0:0:0:0:
256,192,405608,1,8,0:0:0:0:
256,192,405800,1,0,0:0:0:0:
256,192,405993,1,8,0:0:0:0:
256,192,406185,1,0,0:0:0:0:
256,192,406281,1,0,0:0:0:0:
256,192,406377,1,0,0:0:0:0:
256,192,406570,1,0,0:0:0:0:
256,192,406762,1,8,0:0:0:0:
256,192,406954,1,8,0:0:0:0:
256,192,407147,1,0,0:0:0:0:
256,192,407339,1,0,0:0:0:0:
256,192,407435,1,0,0:0:0:0:
256,192,407531,1,8,0:0:0:0:
256,192,407627,1,8,0:0:0:0:
256,192,407723,1,0,0:0:0:0:
256,192,407916,1,12,0:0:0:0:
256,192,408108,1,0,0:0:0:0:
256,192,408300,1,12,0:0:0:0:
256,192,408685,1,12,0:0:0:0:
256,192,409070,1,8,0:0:0:0:
256,192,409166,1,8,0:0:0:0:
256,192,409262,1,8,0:0:0:0:
256,192,409454,1,0,0:0:0:0:
256,192,409647,1,0,0:0:0:0:
256,192,409743,1,0,0:0:0:0:
256,192,409839,1,8,0:0:0:0:
256,192,410031,1,0,0:0:0:0:
256,192,410223,1,0,0:0:0:0:
256,192,410416,1,8,0:0:0:0:
256,192,410608,1,8,0:0:0:0:
256,192,410800,1,0,0:0:0:0:
256,192,410993,1,0,0:0:0:0:
256,192,411185,1,0,0:0:0:0:
256,192,411281,1,8,0:0:0:0:
256,192,411377,1,8,0:0:0:0:
256,192,411570,1,0,0:0:0:0:
256,192,411762,1,8,0:0:0:0:
256,192,411954,1,0,0:0:0:0:
256,192,412147,1,8,0:0:0:0:
256,192,412339,1,8,0:0:0:0:
256,192,412531,1,12,0:0:0:0:
256,192,412820,1,0,0:0:0:0:
256,192,412916,1,8,0:0:0:0:
256,192,413108,1,8,0:0:0:0:
256,192,413300,1,0,0:0:0:0:
256,192,413493,1,8,0:0:0:0:
256,192,413589,1,0,0:0:0:0:
256,192,413685,1,8,0:0:0:0:
256,192,413877,1,8,0:0:0:0:
256,192,414070,1,4,0:0:0:0:
256,192,414454,1,12,0:0:0:0:
256,192,414839,1,12,0:0:0:0:
256,192,415031,1,0,0:0:0:0:
256,192,415223,1,12,0:0:0:0:
256,192,415608,1,4,0:0:0:0:
256,192,415800,1,8,0:0:0:0:
256,192,415897,1,0,0:0:0:0:
256,192,415993,1,8,0:0:0:0:
256,192,416185,1,8,0:0:0:0:
256,192,416377,1,0,0:0:0:0:
256,192,416570,1,0,0:0:0:0:
256,192,416666,1,0,0:0:0:0:
256,192,416762,1,8,0:0:0:0:
256,192,416858,1,0,0:0:0:0:
256,192,416954,1,8,0:0:0:0:
256,192,417050,1,8,0:0:0:0:
256,192,417147,1,0,0:0:0:0:
256,192,417916,1,8,0:0:0:0:
256,192,418108,1,8,0:0:0:0:
256,192,418300,1,8,0:0:0:0:
256,192,418397,1,8,0:0:0:0:
256,192,418493,1,8,0:0:0:0:
256,192,418589,1,8,0:0:0:0:
256,192,418685,1,8,0:0:0:0:
256,192,418877,1,0,0:0:0:0:
256,192,419070,1,8,0:0:0:0:
256,192,419262,1,8,0:0:0:0:
256,192,419358,1,0,0:0:0:0:
256,192,419454,1,0,0:0:0:0:
256,192,419647,1,8,0:0:0:0:
256,192,419743,1,0,0:0:0:0:
256,192,419839,1,8,0:0:0:0:
256,192,420031,1,8,0:0:0:0:
256,192,420223,1,4,0:0:0:0:
256,192,420608,1,12,0:0:0:0:
256,192,420993,1,12,0:0:0:0:
256,192,421185,1,0,0:0:0:0:
256,192,421281,1,0,0:0:0:0:
256,192,421377,1,8,0:0:0:0:
256,192,421570,1,0,0:0:0:0:
256,192,421762,1,12,0:0:0:0:
256,192,421954,1,8,0:0:0:0:
256,192,422050,1,8,0:0:0:0:
256,192,422147,1,8,0:0:0:0:
256,192,422339,1,8,0:0:0:0:
256,192,422531,1,8,0:0:0:0:
256,192,422723,1,0,0:0:0:0:
256,192,422820,1,0,0:0:0:0:
256,192,422916,1,8,0:0:0:0:
256,192,423108,1,0,0:0:0:0:
256,192,423204,1,0,0:0:0:0:
256,192,423300,1,0,0:0:0:0:
256,192,423493,1,0,0:0:0:0:
256,192,423589,1,0,0:0:0:0:
256,192,423685,1,8,0:0:0:0:
256,192,423781,1,0,0:0:0:0:
256,192,423877,1,8,0:0:0:0:
256,192,424070,1,8,0:0:0:0:
256,192,424262,1,0,0:0:0:0:
256,192,424358,1,8,0:0:0:0:
256,192,424454,1,8,0:0:0:0:
256,192,424647,1,0,0:0:0:0:
256,192,424839,1,12,0:0:0:0:
256,192,425031,1,0,0:0:0:0:
256,192,425223,1,12,0:0:0:0:
256,192,425416,1,0,0:0:0:0:
256,192,425608,1,12,0:0:0:0:
256,192,425800,1,0,0:0:0:0:
256,192,425897,1,0,0:0:0:0:
256,192,425993,1,8,0:0:0:0:
256,192,426185,1,0,0:0:0:0:
256,192,426377,1,12,0:0:0:0:
256,192,426570,1,0,0:0:0:0:
256,192,426762,1,12,0:0:0:0:
256,192,426954,1,0,0:0:0:0:
256,192,427147,1,12,0:0:0:0:
256,192,427339,1,0,0:0:0:0:
256,192,427531,1,12,0:0:0:0:
192,160,427916,5,8,0:0:0:0:
192,160,428012,1,8,0:0:0:0:
192,160,428300,1,0,0:0:0:0:
192,160,428493,1,0,0:0:0:0:
192,160,428781,1,8,0:0:0:0:
192,160,428877,1,8,0:0:0:0:
192,160,428973,1,8,0:0:0:0:
192,160,429262,1,0,0:0:0:0:
192,160,429454,1,8,0:0:0:0:
192,160,429647,1,0,0:0:0:0:
192,160,429839,1,8,0:0:0:0:
192,160,430031,1,0,0:0:0:0:
192,160,430127,1,8,0:0:0:0:
192,160,430320,1,8,0:0:0:0:
192,160,430416,1,8,0:0:0:0:
192,160,430512,1,0,0:0:0:0:
192,160,430608,1,0,0:0:0:0:
192,160,430800,1,0,0:0:0:0:
192,160,430897,1,0,0:0:0:0:
192,160,430993,1,0,0:0:0:0:
128,64,431185,1,0,0:0:0:0:
192,160,431281,1,0,0:0:0:0:
192,160,431377,1,0,0:0:0:0:
192,160,431570,1,0,0:0:0:0:
192,160,431666,1,0,0:0:0:0:
192,160,431858,1,0,0:0:0:0:
192,160,431954,1,0,0:0:0:0:
192,160,432050,1,0,0:0:0:0:
192,160,432147,1,8,0:0:0:0:
192,160,432339,1,0,0:0:0:0:
192,160,432435,1,8,0:0:0:0:
192,160,432531,1,0,0:0:0:0:
192,160,432723,1,0,0:0:0:0:
192,160,432820,1,0,0:0:0:0:
192,160,432916,1,8,0:0:0:0:
192,160,433108,1,0,0:0:0:0:
192,160,433204,1,8,0:0:0:0:
192,160,433397,1,8,0:0:0:0:
192,160,433493,1,0,0:0:0:0:
192,160,433589,1,0,0:0:0:0:
192,160,433685,1,8,0:0:0:0:
192,160,433877,1,8,0:0:0:0:
192,160,434070,1,4,0:0:0:0:
256,160,434358,1,0,0:0:0:0:
256,160,434454,1,8,0:0:0:0:
256,160,434647,1,0,0:0:0:0:
256,160,434743,1,8,0:0:0:0:
256,160,434935,1,8,0:0:0:0:
256,160,435031,1,0,0:0:0:0:
256,160,435127,1,0,0:0:0:0:
256,160,435223,1,8,0:0:0:0:
256,160,435416,1,8,0:0:0:0:
256,160,435512,1,8,0:0:0:0:
256,160,435608,1,0,0:0:0:0:
256,160,435800,1,0,0:0:0:0:
256,160,435897,1,0,0:0:0:0:
256,160,435993,1,8,0:0:0:0:
256,160,436185,1,0,0:0:0:0:
256,160,436281,1,8,0:0:0:0:
256,160,436473,1,0,0:0:0:0:
256,160,436570,1,8,0:0:0:0:
256,160,436666,1,8,0:0:0:0:
256,160,436762,1,0,0:0:0:0:
256,160,436954,1,0,0:0:0:0:
256,160,437050,1,0,0:0:0:0:
256,160,437147,1,8,0:0:0:0:
256,160,437339,1,8,0:0:0:0:
256,160,437435,1,8,0:0:0:0:
256,160,437531,1,0,0:0:0:0:
256,160,437723,1,12,0:0:0:0:
256,160,438108,1,12,0:0:0:0:
256,160,438493,1,0,0:0:0:0:
256,160,438589,1,0,0:0:0:0:
256,160,438685,1,8,0:0:0:0:
256,160,438877,1,8,0:0:0:0:
256,160,438973,1,8,0:0:0:0:
256,160,439070,1,0,0:0:0:0:
256,160,439262,1,12,0:0:0:0:
256,160,439647,1,12,0:0:0:0:
256,160,440031,1,8,0:0:0:0:
256,160,440127,1,0,0:0:0:0:
256,160,440223,1,8,0:0:0:0:
256,160,440416,1,0,0:0:0:0:
256,160,440512,1,8,0:0:0:0:
256,160,440608,1,0,0:0:0:0:
256,160,440800,1,12,0:0:0:0:
256,160,441185,1,4,0:0:0:0:
256,160,441570,1,8,0:0:0:0:
256,160,441666,1,0,0:0:0:0:
256,160,441762,1,8,0:0:0:0:
224,160,441954,1,0,0:0:0:0:
256,160,442050,1,8,0:0:0:0:
224,160,442147,1,0,0:0:0:0:
256,160,442339,1,12,0:0:0:0:
256,160,442723,1,4,0:0:0:0:
288,224,443108,1,0,0:0:0:0:
288,192,443300,1,12,0:0:0:0:
288,192,443493,1,0,0:0:0:0:
288,192,443589,1,8,0:0:0:0:
288,192,443685,1,0,0:0:0:0:
288,192,443877,1,8,0:0:0:0:
288,192,443973,1,8,0:0:0:0:
288,192,444070,1,0,0:0:0:0:
288,192,444166,1,0,0:0:0:0:
288,192,444262,1,8,0:0:0:0:
288,192,444358,1,0,0:0:0:0:
288,192,444454,1,8,0:0:0:0:
288,192,444647,1,0,0:0:0:0:
288,192,444839,1,8,0:0:0:0:
288,192,445031,1,0,0:0:0:0:
288,192,445127,1,8,0:0:0:0:
288,192,445223,1,0,0:0:0:0:
288,192,445416,1,8,0:0:0:0:
288,192,445512,1,0,0:0:0:0:
288,192,445704,1,0,0:0:0:0:
288,192,445800,1,8,0:0:0:0:
288,192,445897,1,0,0:0:0:0:
288,192,445993,1,8,0:0:0:0:
288,192,446185,1,8,0:0:0:0:
192,160,446281,1,8,0:0:0:0:
192,160,446377,1,0,0:0:0:0:
160,96,446570,1,0,0:0:0:0:
160,96,446666,1,0,0:0:0:0:
160,96,446762,1,8,0:0:0:0:
160,96,446954,1,0,0:0:0:0:
160,96,447050,1,8,0:0:0:0:
160,96,447243,1,0,0:0:0:0:
160,96,447339,1,8,0:0:0:0:
160,96,447435,1,8,0:0:0:0:
160,96,447531,1,8,0:0:0:0:
160,96,447723,1,0,0:0:0:0:
160,96,447820,1,0,0:0:0:0:
160,96,447916,1,8,0:0:0:0:
160,96,448108,1,0,0:0:0:0:
160,96,448204,1,0,0:0:0:0:
160,96,448300,1,8,0:0:0:0:
160,96,448493,1,0,0:0:0:0:
160,96,448589,1,8,0:0:0:0:
160,96,448781,1,0,0:0:0:0:
160,96,448877,1,8,0:0:0:0:
160,96,448973,1,8,0:0:0:0:
160,96,449070,1,8,0:0:0:0:
160,96,449262,1,0,0:0:0:0:
160,96,449358,1,0,0:0:0:0:
160,96,449454,1,8,0:0:0:0:
160,96,449647,1,8,0:0:0:0:
160,96,449743,1,8,0:0:0:0:
160,96,449839,1,0,0:0:0:0:
160,96,450031,1,8,0:0:0:0:
160,96,450127,1,0,0:0:0:0:
160,96,450320,1,8,0:0:0:0:
160,96,450416,1,0,0:0:0:0:
160,96,450512,1,8,0:0:0:0:
160,96,450608,1,0,0:0:0:0:
160,96,450800,1,0,0:0:0:0:
160,96,450897,1,0,0:0:0:0:
160,96,450993,1,8,0:0:0:0:
160,96,451185,1,0,0:0:0:0:
160,96,451281,1,8,0:0:0:0:
160,96,451377,1,0,0:0:0:0:
160,96,451570,1,8,0:0:0:0:
160,96,451666,1,0,0:0:0:0:
160,96,451858,1,8,0:0:0:0:
160,96,451954,1,8,0:0:0:0:
160,96,452050,1,0,0:0:0:0:
160,96,452243,1,0,0:0:0:0:
160,96,452339,1,8,0:0:0:0:
160,96,452531,1,0,0:0:0:0:
160,64,452723,1,8,0:0:0:0:
160,64,452820,1,8,0:0:0:0:
160,64,452916,1,0,0:0:0:0:
160,64,453108,1,8,0:0:0:0:
160,64,453204,1,0,0:0:0:0:
160,64,453397,1,8,0:0:0:0:
160,64,453493,1,8,0:0:0:0:
160,0,453589,1,8,0:0:0:0:
160,64,453685,1,0,0:0:0:0:
160,64,453877,1,8,0:0:0:0:
160,64,453973,1,8,0:0:0:0:
160,64,454070,1,0,0:0:0:0:
160,64,454262,1,8,0:0:0:0:
160,64,454358,1,8,0:0:0:0:
160,64,454454,1,0,0:0:0:0:
160,64,454647,1,8,0:0:0:0:
192,160,454743,1,8,0:0:0:0:
160,160,454839,1,0,0:0:0:0:
160,160,454935,1,8,0:0:0:0:
160,160,455031,1,8,0:0:0:0:
160,160,455127,1,8,0:0:0:0:
160,160,455223,1,0,0:0:0:0:
160,160,455320,1,0,0:0:0:0:
160,160,455416,1,0,0:0:0:0:
128,160,455512,1,0,0:0:0:0:
256,192,455608,5,8,0:0:0:0:
256,192,455993,1,8,0:0:0:0:
256,192,456185,1,8,0:0:0:0:
256,192,456762,1,8,0:0:0:0:
256,192,457531,1,8,0:0:0:0:
256,192,457723,1,8,0:0:0:0:
256,192,458300,1,8,0:0:0:0:
256,192,459070,1,8,0:0:0:0:
256,192,459262,1,8,0:0:0:0:
256,192,459839,1,8,0:0:0:0:
256,192,460416,1,0,0:0:0:0:
256,192,460608,1,8,0:0:0:0:
256,192,460800,1,8,0:0:0:0:
256,192,460993,1,0,0:0:0:0:
256,192,461185,1,0,0:0:0:0:
256,192,461377,1,8,0:0:0:0:
256,192,461570,1,8,0:0:0:0:
256,192,461762,1,4,0:0:0:0:
256,192,462147,1,8,0:0:0:0:
256,192,462339,1,8,0:0:0:0:
256,192,462531,1,0,0:0:0:0:
256,192,462723,1,0,0:0:0:0:
256,192,462916,1,8,0:0:0:0:
256,192,463300,1,0,0:0:0:0:
256,192,463685,1,8,0:0:0:0:
256,192,463877,1,8,0:0:0:0:
256,192,464070,1,0,0:0:0:0:
256,192,464262,1,8,0:0:0:0:
256,192,464358,1,8,0:0:0:0:
256,192,464454,1,8,0:0:0:0:
256,192,464647,1,0,0:0:0:0:
256,192,464839,1,8,0:0:0:0:
256,192,465031,1,0,0:0:0:0:
256,192,465127,1,0,0:0:0:0:
256,192,465223,1,8,0:0:0:0:
256,192,465416,1,8,0:0:0:0:
256,192,465512,1,0,0:0:0:0:
256,192,465608,1,8,0:0:0:0:
256,192,465704,1,0,0:0:0:0:
256,192,465800,1,0,0:0:0:0:
256,192,465897,1,0,0:0:0:0:
256,192,465993,1,8,0:0:0:0:
256,192,466185,1,8,0:0:0:0:
256,192,466281,1,0,0:0:0:0:
256,192,466377,1,8,0:0:0:0:
256,192,466570,1,0,0:0:0:0:
256,192,466666,1,0,0:0:0:0:
256,192,466762,1,8,0:0:0:0:
256,192,466954,1,8,0:0:0:0:
256,192,467050,1,0,0:0:0:0:
256,192,467147,1,8,0:0:0:0:
256,192,467339,1,0,0:0:0:0:
256,192,467531,1,8,0:0:0:0:
256,192,467723,1,8,0:0:0:0:
256,192,467916,1,0,0:0:0:0:
256,192,468108,1,8,0:0:0:0:
256,192,468204,1,0,0:0:0:0:
256,192,468300,1,8,0:0:0:0:
256,192,468397,1,0,0:0:0:0:
256,192,468493,1,8,0:0:0:0:
256,192,468589,1,8,0:0:0:0:
256,192,468685,1,0,0:0:0:0:
256,192,468877,1,8,0:0:0:0:
256,192,469070,1,8,0:0:0:0:
256,192,469262,1,0,0:0:0:0:
256,192,469454,1,12,0:0:0:0:
256,192,469839,1,8,0:0:0:0:
256,192,470031,1,8,0:0:0:0:
256,192,470223,1,0,0:0:0:0:
256,192,470416,1,0,0:0:0:0:
256,192,470608,1,8,0:0:0:0:
256,192,470800,1,0,0:0:0:0:
256,192,470993,1,8,0:0:0:0:
256,192,471089,1,8,0:0:0:0:
256,192,471185,1,0,0:0:0:0:
256,192,471281,1,0,0:0:0:0:
256,192,471377,1,8,0:0:0:0:
256,192,471570,1,8,0:0:0:0:
256,192,471762,1,0,0:0:0:0:
256,192,471954,1,8,0:0:0:0:
256,192,472147,1,8,0:0:0:0:
256,192,472339,1,0,0:0:0:0:
256,192,472531,1,0,0:0:0:0:
256,192,472627,1,0,0:0:0:0:
256,192,472723,1,0,0:0:0:0:
256,192,472820,1,0,0:0:0:0:
256,192,472916,1,8,0:0:0:0:
256,192,473108,1,8,0:0:0:0:
256,192,473300,1,0,0:0:0:0:
256,192,473493,1,0,0:0:0:0:
256,192,473685,1,8,0:0:0:0:
256,192,474070,1,4,0:0:0:0:
256,192,474262,1,8,0:0:0:0:
256,192,474454,1,8,0:0:0:0:
256,192,474647,1,8,0:0:0:0:
256,192,474839,1,0,0:0:0:0:
256,192,475031,1,0,0:0:0:0:
256,192,475127,1,0,0:0:0:0:
256,192,475223,1,8,0:0:0:0:
256,192,475608,1,8,0:0:0:0:
256,192,475800,1,0,0:0:0:0:
256,192,475897,1,0,0:0:0:0:
256,192,475993,1,8,0:0:0:0:
256,192,476185,1,8,0:0:0:0:
256,192,476377,1,0,0:0:0:0:
256,192,476570,1,0,0:0:0:0:
256,192,476666,1,8,0:0:0:0:
256,192,476762,1,8,0:0:0:0:
256,192,477147,1,8,0:0:0:0:
256,192,477531,1,8,0:0:0:0:
256,192,477723,1,8,0:0:0:0:
256,192,477916,1,0,0:0:0:0:
256,192,478108,1,0,0:0:0:0:
256,192,478300,1,8,0:0:0:0:
256,192,478685,1,0,0:0:0:0:
256,192,479070,1,8,0:0:0:0:
256,192,479262,1,8,0:0:0:0:
256,192,479454,1,0,0:0:0:0:
256,192,479839,1,8,0:0:0:0:
256,192,480223,1,0,0:0:0:0:
256,192,480416,1,0,0:0:0:0:
256,192,480608,1,8,0:0:0:0:
256,192,480800,1,8,0:0:0:0:
256,192,480993,1,0,0:0:0:0:
256,192,481185,1,8,0:0:0:0:
256,192,481281,1,0,0:0:0:0:
256,192,481377,1,8,0:0:0:0:
256,192,481762,1,8,0:0:0:0:
256,192,481954,1,0,0:0:0:0:
256,192,482050,1,8,0:0:0:0:
256,192,482147,1,0,0:0:0:0:
256,192,482339,1,8,0:0:0:0:
256,192,482531,1,0,0:0:0:0:
256,192,482723,1,0,0:0:0:0:
256,192,482820,1,0,0:0:0:0:
256,192,482916,1,8,0:0:0:0:
256,192,483300,1,8,0:0:0:0:
256,192,483397,1,0,0:0:0:0:
256,192,483493,1,0,0:0:0:0:
256,192,483589,1,0,0:0:0:0:
256,192,483685,1,8,0:0:0:0:
256,192,483877,1,8,0:0:0:0:
256,192,484070,1,0,0:0:0:0:
256,192,484262,1,8,0:0:0:0:
256,192,484358,1,0,0:0:0:0:
256,192,484454,1,8,0:0:0:0:
256,192,484550,1,0,0:0:0:0:
256,192,484647,1,8,0:0:0:0:
256,192,484743,1,8,0:0:0:0:
256,192,484839,1,0,0:0:0:0:
256,192,485031,1,0,0:0:0:0:
256,192,485127,1,0,0:0:0:0:
256,192,485223,1,8,0:0:0:0:
256,192,485416,1,8,0:0:0:0:
256,192,485512,1,8,0:0:0:0:
256,192,485608,1,0,0:0:0:0:
256,192,485704,1,8,0:0:0:0:
256,192,485800,1,0,0:0:0:0:
224,160,485993,5,8,0:0:0:0:
256,192,486089,1,8,0:0:0:0:
224,160,486185,1,0,0:0:0:0:
224,160,486249,1,0,0:0:0:0:
224,160,486313,1,0,0:0:0:0:
224,160,486377,1,8,0:0:0:0:
224,160,486570,1,0,0:0:0:0:
192,160,486666,1,0,0:0:0:0:
192,160,486762,1,0,0:0:0:0:
192,160,486858,1,8,0:0:0:0:
192,160,486954,1,8,0:0:0:0:
192,160,487050,1,0,0:0:0:0:
192,160,487147,1,8,0:0:0:0:
192,160,487339,1,8,0:0:0:0:
192,160,487435,1,8,0:0:0:0:
192,160,487531,1,0,0:0:0:0:
192,160,487723,1,0,0:0:0:0:
192,160,487916,1,8,0:0:0:0:
192,160,488108,1,8,0:0:0:0:
192,160,488204,1,8,0:0:0:0:
192,160,488300,1,0,0:0:0:0:
192,160,488493,1,0,0:0:0:0:
192,160,488589,1,0,0:0:0:0:
192,160,488685,1,8,0:0:0:0:
160,160,488781,1,8,0:0:0:0:
192,160,488877,1,0,0:0:0:0:
192,160,488973,1,0,0:0:0:0:
192,160,489070,1,8,0:0:0:0:
192,160,489166,1,8,0:0:0:0:
192,160,489262,1,8,0:0:0:0:
192,160,489358,1,8,0:0:0:0:
192,160,489454,1,0,0:0:0:0:
192,160,489647,1,0,0:0:0:0:
160,160,489743,1,0,0:0:0:0:
192,160,489839,1,8,0:0:0:0:
192,160,490031,1,8,0:0:0:0:
192,160,490223,1,0,0:0:0:0:
192,160,490416,1,0,0:0:0:0:
192,160,490512,1,0,0:0:0:0:
192,160,490608,1,8,0:0:0:0:
192,160,490800,1,0,0:0:0:0:
192,160,490993,1,8,0:0:0:0:
192,160,491089,1,8,0:0:0:0:
192,160,491185,1,8,0:0:0:0:
192,160,491281,1,0,0:0:0:0:
192,160,491377,1,8,0:0:0:0:
192,160,491473,1,8,0:0:0:0:
192,160,491570,1,8,0:0:0:0:
192,160,491666,1,0,0:0:0:0:
192,160,491762,1,8,0:0:0:0:
192,160,491954,1,0,0:0:0:0:
192,160,492147,1,8,0:0:0:0:
192,160,492243,1,8,0:0:0:0:
192,160,492339,1,0,0:0:0:0:
192,160,492435,1,0,0:0:0:0:
192,160,492531,1,8,0:0:0:0:
224,160,492723,1,0,0:0:0:0:
192,160,492820,1,0,0:0:0:0:
192,160,492916,1,0,0:0:0:0:
192,160,493012,1,8,0:0:0:0:
192,160,493108,1,8,0:0:0:0:
192,160,493204,1,0,0:0:0:0:
192,160,493300,1,8,0:0:0:0:
192,160,493493,1,8,0:0:0:0:
192,160,493589,1,8,0:0:0:0:
192,160,493685,1,0,0:0:0:0:
192,160,493877,1,0,0:0:0:0:
192,160,494070,1,8,0:0:0:0:
192,160,494262,1,8,0:0:0:0:
192,160,494358,1,8,0:0:0:0:
192,160,494454,1,0,0:0:0:0:
192,160,494550,1,0,0:0:0:0:
192,160,494647,1,0,0:0:0:0:
160,160,494839,1,8,0:0:0:0:
192,160,495031,1,8,0:0:0:0:
192,160,495127,1,0,0:0:0:0:
192,160,495223,1,8,0:0:0:0:
192,160,495416,1,0,0:0:0:0:
192,160,495512,1,8,0:0:0:0:
192,160,495608,1,0,0:0:0:0:
192,160,495800,1,0,0:0:0:0:
160,160,495897,1,0,0:0:0:0:
192,160,495993,1,8,0:0:0:0:
192,160,496185,1,8,0:0:0:0:
192,160,496377,1,0,0:0:0:0:
192,160,496570,1,0,0:0:0:0:
192,160,496666,1,0,0:0:0:0:
192,160,496762,1,8,0:0:0:0:
192,160,496954,1,0,0:0:0:0:
256,160,497147,1,8,0:0:0:0:
224,160,497243,1,0,0:0:0:0:
256,160,497339,1,8,0:0:0:0:
256,160,497435,1,8,0:0:0:0:
256,160,497531,1,0,0:0:0:0:
256,160,497627,1,8,0:0:0:0:
256,160,497723,1,0,0:0:0:0:
224,160,497820,1,0,0:0:0:0:
256,160,497916,1,8,0:0:0:0:
256,160,498108,1,0,0:0:0:0:
256,160,498300,1,8,0:0:0:0:
256,160,498397,1,8,0:0:0:0:
256,160,498493,1,0,0:0:0:0:
256,160,498589,1,0,0:0:0:0:
256,160,498685,1,8,0:0:0:0:
224,160,498877,1,0,0:0:0:0:
192,160,498973,1,0,0:0:0:0:
192,160,499070,1,0,0:0:0:0:
192,160,499166,1,8,0:0:0:0:
192,160,499262,1,8,0:0:0:0:
192,160,499358,1,0,0:0:0:0:
192,160,499454,1,8,0:0:0:0:
192,160,499647,1,8,0:0:0:0:
192,160,499743,1,8,0:0:0:0:
192,160,499839,1,0,0:0:0:0:
192,160,499935,1,0,0:0:0:0:
192,160,500031,1,0,0:0:0:0:
192,160,500223,1,8,0:0:0:0:
192,160,500416,1,8,0:0:0:0:
192,160,500512,1,8,0:0:0:0:
192,160,500608,1,0,0:0:0:0:
192,160,500800,1,0,0:0:0:0:
192,160,500897,1,0,0:0:0:0:
192,160,500993,1,8,0:0:0:0:
160,160,501089,1,8,0:0:0:0:
192,160,501185,1,0,0:0:0:0:
192,160,501281,1,0,0:0:0:0:
192,160,501377,1,8,0:0:0:0:
192,160,501570,1,8,0:0:0:0:
192,160,501666,1,8,0:0:0:0:
192,160,501762,1,0,0:0:0:0:
192,160,501954,1,0,0:0:0:0:
160,160,502050,1,0,0:0:0:0:
192,160,502147,1,8,0:0:0:0:
192,160,502339,1,8,0:0:0:0:
192,160,502531,1,0,0:0:0:0:
192,160,502723,1,8,0:0:0:0:
192,160,502820,1,0,0:0:0:0:
192,160,502916,1,8,0:0:0:0:
192,160,503108,1,8,0:0:0:0:
192,160,503300,1,8,0:0:0:0:
192,160,503397,1,8,0:0:0:0:
192,160,503493,1,8,0:0:0:0:
192,160,503589,1,0,0:0:0:0:
192,160,503685,1,8,0:0:0:0:
192,160,503781,1,8,0:0:0:0:
192,160,503877,1,8,0:0:0:0:
192,160,503973,1,0,0:0:0:0:
192,160,504070,1,8,0:0:0:0:
192,160,504262,1,0,0:0:0:0:
192,160,504454,1,8,0:0:0:0:
192,160,504550,1,8,0:0:0:0:
192,160,504647,1,0,0:0:0:0:
192,160,504743,1,0,0:0:0:0:
192,160,504839,1,8,0:0:0:0:
224,160,505031,1,0,0:0:0:0:
192,160,505127,1,0,0:0:0:0:
192,160,505223,1,0,0:0:0:0:
192,160,505320,1,8,0:0:0:0:
192,160,505416,1,8,0:0:0:0:
192,160,505512,1,0,0:0:0:0:
192,160,505608,1,8,0:0:0:0:
192,160,505800,1,8,0:0:0:0:
192,160,505897,1,8,0:0:0:0:
192,160,505993,1,0,0:0:0:0:
192,160,506089,1,8,0:0:0:0:
192,160,506185,1,0,0:0:0:0:
192,160,506377,1,8,0:0:0:0:
192,160,506570,1,8,0:0:0:0:
192,160,506666,1,8,0:0:0:0:
192,160,506762,1,0,0:0:0:0:
192,160,506858,1,8,0:0:0:0:
192,160,506954,1,0,0:0:0:0:
192,160,507050,1,0,0:0:0:0:
160,160,507147,1,8,0:0:0:0:
192,160,507339,1,8,0:0:0:0:
192,160,507435,1,0,0:0:0:0:
192,160,507531,1,8,0:0:0:0:
192,160,507723,1,0,0:0:0:0:
192,160,507916,1,8,0:0:0:0:
192,160,508108,1,0,0:0:0:0:
160,160,508204,1,0,0:0:0:0:
192,160,508300,1,8,0:0:0:0:
192,160,508493,1,8,0:0:0:0:
256,160,508589,1,0,0:0:0:0:
192,160,508685,1,8,0:0:0:0:
192,128,508781,1,8,0:0:0:0:
192,160,508877,1,0,0:0:0:0:
192,160,508973,1,8,0:0:0:0:
192,160,509070,1,8,0:0:0:0:
224,160,509166,1,0,0:0:0:0:
192,160,509262,1,8,0:0:0:0:
256,160,509454,1,8,0:0:0:0:
224,160,509550,1,0,0:0:0:0:
256,160,509647,1,0,0:0:0:0:
256,160,509743,1,8,0:0:0:0:
256,160,509839,1,0,0:0:0:0:
256,160,509935,1,0,0:0:0:0:
256,160,510031,1,8,0:0:0:0:
224,160,510127,1,0,0:0:0:0:
256,160,510223,1,8,0:0:0:0:
256,128,510320,1,8,0:0:0:0:
256,160,510416,1,0,0:0:0:0:
256,160,510512,1,8,0:0:0:0:
256,160,510608,1,8,0:0:0:0:
256,160,510800,1,0,0:0:0:0:
256,160,510864,1,0,0:0:0:0:
256,160,510929,1,0,0:0:0:0:
256,160,510993,1,8,0:0:0:0:
256,160,511185,1,0,0:0:0:0:
256,160,511281,1,0,0:0:0:0:
256,160,511377,1,8,0:0:0:0:
256,160,511570,1,8,0:0:0:0:
256,160,511666,1,8,0:0:0:0:
256,160,511858,1,8,0:0:0:0:
256,160,511954,1,0,0:0:0:0:
256,160,512050,1,0,0:0:0:0:
256,160,512147,1,8,0:0:0:0:
256,160,512339,1,8,0:0:0:0:
256,160,512531,1,8,0:0:0:0:
256,160,512627,1,0,0:0:0:0:
256,160,512723,1,8,0:0:0:0:
256,160,512820,1,8,0:0:0:0:
256,160,512916,1,0,0:0:0:0:
256,160,513108,1,8,0:0:0:0:
256,160,513204,1,0,0:0:0:0:
256,160,513397,1,0,0:0:0:0:
256,160,513493,1,8,0:0:0:0:
256,160,513589,1,8,0:0:0:0:
256,160,513685,1,0,0:0:0:0:
256,160,513877,1,0,0:0:0:0:
256,160,514070,1,8,0:0:0:0:
256,160,514166,1,0,0:0:0:0:
256,160,514262,1,0,0:0:0:0:
256,160,514358,1,8,0:0:0:0:
256,160,514454,1,0,0:0:0:0:
256,160,514550,1,0,0:0:0:0:
256,160,514647,1,8,0:0:0:0:
256,160,514743,1,0,0:0:0:0:
256,160,514839,1,8,0:0:0:0:
256,160,515031,1,8,0:0:0:0:
256,160,515127,1,0,0:0:0:0:
256,160,515223,1,8,0:0:0:0:
256,160,515320,1,8,0:0:0:0:
256,160,515416,1,0,0:0:0:0:
256,160,515480,1,0,0:0:0:0:
256,160,515544,1,0,0:0:0:0:
256,160,515608,1,8,0:0:0:0:
256,160,515704,1,8,0:0:0:0:
256,160,515800,1,0,0:0:0:0:
256,160,515897,1,8,0:0:0:0:
256,160,515993,1,0,0:0:0:0:
256,160,516089,1,0,0:0:0:0:
256,160,516185,1,8,0:0:0:0:
256,160,516281,1,0,0:0:0:0:
256,160,516377,1,8,0:0:0:0:
224,160,516473,1,8,0:0:0:0:
256,160,516570,1,8,0:0:0:0:
256,160,516666,1,8,0:0:0:0:
256,160,516762,1,0,0:0:0:0:
256,160,516954,1,8,0:0:0:0:
256,160,517147,1,0,0:0:0:0:
256,160,517243,1,0,0:0:0:0:
256,160,517339,1,8,0:0:0:0:
256,160,517531,1,8,0:0:0:0:
256,160,517723,1,8,0:0:0:0:
256,160,517820,1,8,0:0:0:0:
256,160,517916,1,0,0:0:0:0:
256,160,518012,1,8,0:0:0:0:
256,160,518108,1,0,0:0:0:0:
256,160,518204,1,0,0:0:0:0:
256,160,518300,1,8,0:0:0:0:
64,64,518493,1,0,0:0:0:0:
256,160,518685,1,8,0:0:0:0:
256,160,518749,1,0,0:0:0:0:
256,160,518813,1,0,0:0:0:0:
256,160,518877,1,8,0:0:0:0:
256,160,518941,1,0,0:0:0:0:
256,160,519005,1,0,0:0:0:0:
256,160,519070,1,8,0:0:0:0:
256,160,519166,1,8,0:0:0:0:
256,160,519262,1,0,0:0:0:0:
256,160,519358,1,8,0:0:0:0:
256,160,519454,1,0,0:0:0:0:
256,160,519647,1,8,0:0:0:0:
256,160,519743,1,8,0:0:0:0:
256,160,519839,1,0,0:0:0:0:
256,160,519935,1,0,0:0:0:0:
256,160,520031,1,8,0:0:0:0:
256,160,520223,1,8,0:0:0:0:
256,160,520320,1,8,0:0:0:0:
256,160,520416,1,0,0:0:0:0:
256,160,520512,1,8,0:0:0:0:
256,160,520608,1,8,0:0:0:0:
256,160,520704,1,0,0:0:0:0:
256,160,520800,1,8,0:0:0:0:
256,160,520897,1,0,0:0:0:0:
256,160,520993,1,8,0:0:0:0:
288,160,521057,1,8,0:0:0:0:
288,160,521121,1,8,0:0:0:0:
256,160,521185,1,0,0:0:0:0:
256,160,521281,1,0,0:0:0:0:
256,160,521377,1,8,0:0:0:0:
256,160,521473,1,8,0:0:0:0:
256,160,521570,1,0,0:0:0:0:
256,160,521762,1,8,0:0:0:0:
256,160,521858,1,0,0:0:0:0:
256,160,521954,1,0,0:0:0:0:
256,160,522050,1,8,0:0:0:0:
256,160,522147,1,0,0:0:0:0:
256,160,522243,1,0,0:0:0:0:
256,160,522339,1,8,0:0:0:0:
256,160,522435,1,0,0:0:0:0:
256,160,522531,1,8,0:0:0:0:
256,160,522627,1,8,0:0:0:0:
256,160,522723,1,8,0:0:0:0:
256,160,522820,1,0,0:0:0:0:
256,160,522916,1,8,0:0:0:0:
256,160,523012,1,8,0:0:0:0:
256,160,523108,1,0,0:0:0:0:
256,160,523300,1,8,0:0:0:0:
256,160,523364,1,0,0:0:0:0:
256,160,523429,1,0,0:0:0:0:
256,160,523493,1,8,0:0:0:0:
256,160,523557,1,0,0:0:0:0:
256,160,523621,1,0,0:0:0:0:
256,128,523685,1,8,0:0:0:0:
256,128,523781,1,8,0:0:0:0:
256,128,523877,1,0,0:0:0:0:
256,128,523973,1,8,0:0:0:0:
256,128,524070,1,0,0:0:0:0:
256,128,524262,1,0,0:0:0:0:
256,128,524358,1,0,0:0:0:0:
256,128,524454,1,8,0:0:0:0:
256,128,524550,1,8,0:0:0:0:
256,128,524647,1,0,0:0:0:0:
256,128,524839,1,0,0:0:0:0:
224,160,524903,1,0,0:0:0:0:
256,128,524967,1,0,0:0:0:0:
256,128,525031,1,8,0:0:0:0:
256,128,525127,1,8,0:0:0:0:
256,128,525223,1,0,0:0:0:0:
256,128,525416,1,8,0:0:0:0:
256,128,525512,1,8,0:0:0:0:
224,128,525608,1,0,0:0:0:0:
256,128,525672,1,0,0:0:0:0:
256,128,525736,1,0,0:0:0:0:
256,128,525800,1,8,0:0:0:0:
256,128,525897,1,0,0:0:0:0:
256,128,525993,1,8,0:0:0:0:
256,128,526089,1,8,0:0:0:0:
256,128,526185,1,0,0:0:0:0:
256,160,526377,1,8,0:0:0:0:
256,160,526441,1,0,0:0:0:0:
256,160,526505,1,0,0:0:0:0:
256,160,526570,1,8,0:0:0:0:
256,160,526634,1,0,0:0:0:0:
256,160,526698,1,0,0:0:0:0:
256,128,526762,1,8,0:0:0:0:
256,128,526858,1,8,0:0:0:0:
256,128,526954,1,0,0:0:0:0:
256,128,527147,1,0,0:0:0:0:
256,128,527243,1,8,0:0:0:0:
256,128,527339,1,0,0:0:0:0:
256,128,527435,1,0,0:0:0:0:
256,128,527531,1,8,0:0:0:0:
256,128,527627,1,8,0:0:0:0:
256,128,527723,1,0,0:0:0:0:
256,128,527916,1,8,0:0:0:0:
256,160,527980,1,8,0:0:0:0:
256,128,528044,1,0,0:0:0:0:
256,128,528108,1,8,0:0:0:0:
256,128,528204,1,8,0:0:0:0:
256,128,528300,1,0,0:0:0:0:
256,128,528397,1,8,0:0:0:0:
256,128,528493,1,8,0:0:0:0:
256,128,528589,1,0,0:0:0:0:
256,128,528685,1,8,0:0:0:0:
256,128,528749,1,0,0:0:0:0:
288,128,528813,1,0,0:0:0:0:
256,128,528877,1,8,0:0:0:0:
256,128,528973,1,0,0:0:0:0:
256,128,529070,1,8,0:0:0:0:
256,128,529166,1,8,0:0:0:0:
256,128,529262,1,0,0:0:0:0:
256,128,529454,1,8,0:0:0:0:
256,128,529550,1,8,0:0:0:0:
256,128,529647,1,0,0:0:0:0:
256,128,529743,1,0,0:0:0:0:
256,128,529839,1,8,0:0:0:0:
256,128,529935,1,0,0:0:0:0:
256,128,530031,1,8,0:0:0:0:
256,128,530127,1,8,0:0:0:0:
256,128,530223,1,0,0:0:0:0:
256,128,530320,1,0,0:0:0:0:
256,128,530416,1,8,0:0:0:0:
256,128,530512,1,0,0:0:0:0:
256,128,530608,1,8,0:0:0:0:
256,128,530672,1,8,0:0:0:0:
256,128,530736,1,8,0:0:0:0:
256,128,530800,1,0,0:0:0:0:
256,128,530993,1,8,0:0:0:0:
256,128,531089,1,8,0:0:0:0:
256,128,531185,1,0,0:0:0:0:
256,128,531281,1,0,0:0:0:0:
256,128,531377,1,8,0:0:0:0:
256,128,531473,1,0,0:0:0:0:
256,128,531570,1,8,0:0:0:0:
256,128,531666,1,8,0:0:0:0:
256,128,531762,1,0,0:0:0:0:
256,128,531858,1,8,0:0:0:0:
256,128,531954,1,8,0:0:0:0:
256,128,532050,1,0,0:0:0:0:
256,128,532147,1,8,0:0:0:0:
256,128,532211,1,8,0:0:0:0:
288,128,532275,1,8,0:0:0:0:
256,128,532339,1,0,0:0:0:0:
256,128,532531,1,8,0:0:0:0:
256,128,532627,1,0,0:0:0:0:
256,128,532723,1,0,0:0:0:0:
256,128,532820,1,8,0:0:0:0:
256,128,532916,1,0,0:0:0:0:
256,128,533012,1,0,0:0:0:0:
256,128,533108,1,8,0:0:0:0:
256,128,533204,1,0,0:0:0:0:
256,128,533300,1,8,0:0:0:0:
256,128,533397,1,8,0:0:0:0:
256,128,533493,1,0,0:0:0:0:
256,128,533589,1,0,0:0:0:0:
256,128,533685,1,8,0:0:0:0:
256,128,533781,1,8,0:0:0:0:
256,128,533877,1,0,0:0:0:0:
256,160,534070,1,8,0:0:0:0:
256,160,534358,1,8,0:0:0:0:
256,160,534647,1,0,0:0:0:0:
256,160,534839,1,8,0:0:0:0:
256,160,535223,5,8,0:0:0:0:
256,160,535416,1,0,0:0:0:0:
256,192,535608,5,12,0:0:0:0:
256,192,535897,1,8,0:0:0:0:
256,192,535993,1,8,0:0:0:0:
256,192,536089,1,0,0:0:0:0:
256,192,536185,1,8,0:0:0:0:
256,192,536377,1,0,0:0:0:0:
256,192,536570,1,8,0:0:0:0:
256,192,536762,1,0,0:0:0:0:
256,192,536858,1,0,0:0:0:0:
256,192,536954,1,0,0:0:0:0:
256,192,537147,1,8,0:0:0:0:
256,192,537243,1,8,0:0:0:0:
256,192,537339,1,8,0:0:0:0:
256,192,537435,1,8,0:0:0:0:
256,192,537531,1,0,0:0:0:0:
256,192,537723,1,0,0:0:0:0:
256,192,537820,1,0,0:0:0:0:
256,192,537916,1,8,0:0:0:0:
256,192,538108,1,8,0:0:0:0:
256,192,538300,1,0,0:0:0:0:
256,192,538397,1,0,0:0:0:0:
256,192,538493,1,0,0:0:0:0:
256,192,538589,1,0,0:0:0:0:
256,192,538685,1,8,0:0:0:0:
256,192,538877,1,0,0:0:0:0:
256,192,539070,1,8,0:0:0:0:
256,192,539262,1,0,0:0:0:0:
256,192,539358,1,8,0:0:0:0:
256,192,539454,1,8,0:0:0:0:
256,192,539647,1,0,0:0:0:0:
256,192,539711,1,0,0:0:0:0:
256,192,539775,1,0,0:0:0:0:
256,192,539839,1,0,0:0:0:0:
256,192,540223,1,12,0:0:0:0:
256,192,540800,1,8,0:0:0:0:
256,192,540864,1,8,0:0:0:0:
256,192,540929,1,8,0:0:0:0:
256,192,540993,1,8,0:0:0:0:
256,192,541377,1,8,0:0:0:0:
256,192,541473,1,8,0:0:0:0:
256,192,541570,1,8,0:0:0:0:
256,192,541666,1,8,0:0:0:0:
256,192,541762,1,8,0:0:0:0:
256,192,541954,1,0,0:0:0:0:
256,192,542050,1,0,0:0:0:0:
256,192,542147,1,8,0:0:0:0:
256,192,542243,1,0,0:0:0:0:
256,192,542339,1,8,0:0:0:0:
256,192,542531,1,0,0:0:0:0:
256,192,542723,1,8,0:0:0:0:
256,192,542820,1,0,0:0:0:0:
256,192,542916,1,0,0:0:0:0:
256,192,543108,1,8,0:0:0:0:
256,192,543300,1,8,0:0:0:0:
256,192,543397,1,8,0:0:0:0:
256,192,543493,1,0,0:0:0:0:
256,192,543589,1,8,0:0:0:0:
256,192,543685,1,8,0:0:0:0:
256,192,543877,1,0,0:0:0:0:
256,192,543973,1,0,0:0:0:0:
256,192,544070,1,8,0:0:0:0:
256,192,544166,1,8,0:0:0:0:
256,192,544262,1,0,0:0:0:0:
256,192,544326,1,0,0:0:0:0:
256,192,544390,1,0,0:0:0:0:
256,192,544454,1,8,0:0:0:0:
256,192,544647,1,0,0:0:0:0:
256,192,544743,1,0,0:0:0:0:
256,192,544839,1,8,0:0:0:0:
256,192,544935,1,8,0:0:0:0:
256,192,545031,1,0,0:0:0:0:
256,192,545127,1,8,0:0:0:0:
256,192,545223,1,8,0:0:0:0:
256,192,545320,1,8,0:0:0:0:
256,192,545416,1,0,0:0:0:0:
256,192,545512,1,0,0:0:0:0:
256,192,545608,1,8,0:0:0:0:
256,192,545704,1,0,0:0:0:0:
256,192,545800,1,8,0:0:0:0:
256,192,545897,1,8,0:0:0:0:
256,192,545993,1,0,0:0:0:0:
256,192,546089,1,8,0:0:0:0:
256,192,546185,1,0,0:0:0:0:
256,192,546377,1,0,0:0:0:0:
256,192,546473,1,0,0:0:0:0:
256,192,546570,1,0,0:0:0:0:
256,192,546666,1,0,0:0:0:0:
256,192,546762,1,0,0:0:0:0:
256,192,546954,1,8,0:0:0:0:
256,192,547050,1,8,0:0:0:0:
256,192,547147,1,8,0:0:0:0:
256,192,547339,1,0,0:0:0:0:
256,192,547531,1,8,0:0:0:0:
256,192,547627,1,8,0:0:0:0:
256,192,547723,1,8,0:0:0:0:
256,192,547820,1,8,0:0:0:0:
256,192,547916,1,8,0:0:0:0:
256,192,548300,1,0,0:0:0:0:
256,192,548493,1,8,0:0:0:0:
256,192,548877,1,0,0:0:0:0:
256,192,549070,1,0,0:0:0:0:
256,192,549262,1,8,0:0:0:0:
256,192,549454,1,0,0:0:0:0:
256,192,549647,1,0,0:0:0:0:
256,192,549839,1,8,0:0:0:0:
256,192,550031,1,0,0:0:0:0:
256,192,550223,1,8,0:0:0:0:
256,192,550608,1,0,0:0:0:0:
256,192,550800,1,0,0:0:0:0:
256,192,550993,1,8,0:0:0:0:
256,192,551377,1,0,0:0:0:0:
256,192,551570,1,8,0:0:0:0:
256,192,551762,1,0,0:0:0:0:
256,192,551954,1,0,0:0:0:0:
256,192,552147,1,8,0:0:0:0:
256,192,552339,1,8,0:0:0:0:
256,192,552531,1,0,0:0:0:0:
256,192,553108,1,0,0:0:0:0:
256,192,553172,1,0,0:0:0:0:
256,192,553236,1,0,0:0:0:0:
256,192,553300,1,0,0:0:0:0:
256,192,553685,1,8,0:0:0:0:
256,192,553781,1,8,0:0:0:0:
256,192,553877,1,8,0:0:0:0:
256,192,553973,1,8,0:0:0:0:
256,192,554070,1,8,0:0:0:0:
256,192,554454,1,0,0:0:0:0:
256,192,554647,1,8,0:0:0:0:
256,192,555031,1,0,0:0:0:0:
256,192,555223,1,8,0:0:0:0:
256,192,555416,1,8,0:0:0:0:
256,192,555608,1,0,0:0:0:0:
256,192,555800,1,0,0:0:0:0:
256,192,555993,1,8,0:0:0:0:
256,192,556185,1,0,0:0:0:0:
256,192,556377,1,8,0:0:0:0:
256,192,556570,1,0,0:0:0:0:
256,192,556666,1,0,0:0:0:0:
256,192,556762,1,0,0:0:0:0:
256,192,556954,1,0,0:0:0:0:
256,192,557147,1,8,0:0:0:0:
256,192,557531,1,0,0:0:0:0:
256,192,557723,1,8,0:0:0:0:
256,192,557916,1,0,0:0:0:0:
256,192,558108,1,0,0:0:0:0:
256,192,558300,1,8,0:0:0:0:
256,192,558493,1,0,0:0:0:0:
256,192,558557,1,0,0:0:0:0:
256,192,558621,1,0,0:0:0:0:
256,192,558685,1,8,0:0:0:0:
256,192,558877,1,0,0:0:0:0:
256,192,559070,1,8,0:0:0:0:
256,192,559262,1,0,0:0:0:0:
256,192,559358,1,0,0:0:0:0:
256,192,559454,1,0,0:0:0:0:
256,192,559647,1,0,0:0:0:0:
256,192,559839,1,8,0:0:0:0:
256,192,560031,1,0,0:0:0:0:
256,192,560095,1,0,0:0:0:0:
256,192,560159,1,0,0:0:0:0:
256,192,560223,1,8,0:0:0:0:
256,192,560416,1,0,0:0:0:0:
256,192,560608,1,8,0:0:0:0:
256,192,560800,1,0,0:0:0:0:
256,192,560864,1,0,0:0:0:0:
256,192,560929,1,0,0:0:0:0:
256,192,560993,1,8,0:0:0:0:
256,192,561185,1,0,0:0:0:0:
256,192,561377,1,8,0:0:0:0:
256,192,561570,1,0,0:0:0:0:
256,192,561634,1,0,0:0:0:0:
256,192,561698,1,0,0:0:0:0:
256,192,561762,1,8,0:0:0:0:
256,192,561954,1,0,0:0:0:0:
256,192,562147,1,8,0:0:0:0:
256,192,562339,1,0,0:0:0:0:
256,192,562435,1,0,0:0:0:0:
256,192,562531,1,0,0:0:0:0:
256,192,562723,1,0,0:0:0:0:
256,192,562916,1,8,0:0:0:0:
256,192,563108,1,0,0:0:0:0:
256,192,563172,1,0,0:0:0:0:
256,192,563236,1,0,0:0:0:0:
256,192,563300,1,8,0:0:0:0:
256,192,563397,1,0,0:0:0:0:
256,192,563493,1,0,0:0:0:0:
256,192,563589,1,8,0:0:0:0:
256,192,563685,1,0,0:0:0:0:
256,192,563781,1,0,0:0:0:0:
256,192,563877,1,8,0:0:0:0:
256,192,563973,1,0,0:0:0:0:
256,192,564070,1,0,0:0:0:0:
256,192,564166,1,8,0:0:0:0:
256,192,564262,1,0,0:0:0:0:
256,192,564358,1,8,0:0:0:0:
256,192,564454,1,8,0:0:0:0:
256,192,564550,1,0,0:0:0:0:
256,192,564647,1,0,0:0:0:0:
256,192,564743,1,8,0:0:0:0:
256,192,565223,1,12,0:0:0:0:
256,192,565416,1,8,0:0:0:0:
256,192,565512,1,0,0:0:0:0:
256,192,565608,1,0,0:0:0:0:
256,192,565704,1,8,0:0:0:0:
256,192,565800,1,0,0:0:0:0:
256,192,565897,1,0,0:0:0:0:
256,192,565993,1,8,0:0:0:0:
256,192,566089,1,0,0:0:0:0:
256,192,566185,1,8,0:0:0:0:
256,192,566377,1,0,0:0:0:0:
256,192,566473,1,0,0:0:0:0:
256,192,566570,1,8,0:0:0:0:
256,192,566666,1,0,0:0:0:0:
256,192,566762,1,8,0:0:0:0:
256,192,566858,1,8,0:0:0:0:
256,192,566954,1,0,0:0:0:0:
256,192,567050,1,8,0:0:0:0:
256,192,567147,1,0,0:0:0:0:
256,192,567339,1,0,0:0:0:0:
256,192,567531,1,8,0:0:0:0:
256,192,567723,1,0,0:0:0:0:
256,192,567820,1,8,0:0:0:0:
256,192,567916,1,0,0:0:0:0:
256,192,568108,1,0,0:0:0:0:
256,192,568204,1,0,0:0:0:0:
256,192,568300,1,8,0:0:0:0:
256,192,568397,1,0,0:0:0:0:
256,192,568493,1,0,0:0:0:0:
256,192,568589,1,0,0:0:0:0:
256,192,568685,1,8,0:0:0:0:
256,192,568781,1,8,0:0:0:0:
256,192,568877,1,0,0:0:0:0:
256,192,568973,1,0,0:0:0:0:
256,192,569070,1,8,0:0:0:0:
256,192,569262,1,0,0:0:0:0:
256,192,569358,1,0,0:0:0:0:
256,192,569454,1,0,0:0:0:0:
256,192,569550,1,8,0:0:0:0:
256,192,569647,1,0,0:0:0:0:
256,192,569743,1,0,0:0:0:0:
256,192,569839,1,8,0:0:0:0:
256,192,569935,1,0,0:0:0:0:
256,192,570031,1,8,0:0:0:0:
256,192,570127,1,8,0:0:0:0:
256,192,570223,1,0,0:0:0:0:
256,192,570416,1,0,0:0:0:0:
256,192,570512,1,0,0:0:0:0:
256,192,570608,1,8,0:0:0:0:
256,192,570800,1,0,0:0:0:0:
256,192,570993,1,12,0:0:0:0:
256,192,571185,1,8,0:0:0:0:
256,192,571281,1,0,0:0:0:0:
256,192,571377,1,0,0:0:0:0:
256,192,571473,1,8,0:0:0:0:
256,192,571570,1,0,0:0:0:0:
256,192,571666,1,0,0:0:0:0:
256,192,571762,1,8,0:0:0:0:
256,192,571858,1,8,0:0:0:0:
256,192,571954,1,0,0:0:0:0:
256,192,572050,1,0,0:0:0:0:
256,192,572147,1,8,0:0:0:0:
256,192,572339,1,8,0:0:0:0:
256,192,572435,1,0,0:0:0:0:
256,192,572531,1,8,0:0:0:0:
256,192,572627,1,8,0:0:0:0:
256,192,572723,1,0,0:0:0:0:
256,192,572820,1,0,0:0:0:0:
256,192,572916,1,8,0:0:0:0:
256,192,573012,1,0,0:0:0:0:
256,192,573108,1,8,0:0:0:0:
256,192,573300,1,8,0:0:0:0:
256,192,573493,1,0,0:0:0:0:
256,192,573589,1,0,0:0:0:0:
256,192,573685,1,8,0:0:0:0:
256,192,573877,1,0,0:0:0:0:
256,192,573973,1,0,0:0:0:0:
256,192,574070,1,8,0:0:0:0:
256,192,574166,1,0,0:0:0:0:
256,192,574262,1,8,0:0:0:0:
256,192,574358,1,8,0:0:0:0:
256,192,574454,1,0,0:0:0:0:
256,192,574550,1,8,0:0:0:0:
256,192,574647,1,0,0:0:0:0:
256,192,574743,1,0,0:0:0:0:
256,192,574839,1,8,0:0:0:0:
256,192,574935,1,0,0:0:0:0:
256,192,575031,1,8,0:0:0:0:
256,192,575127,1,8,0:0:0:0:
256,192,575223,1,0,0:0:0:0:
256,192,575320,1,8,0:0:0:0:
256,192,575416,1,0,0:0:0:0:
256,192,575608,1,8,0:0:0:0:
256,192,575704,1,0,0:0:0:0:
256,192,575800,1,8,0:0:0:0:
256,192,575897,1,8,0:0:0:0:
256,192,575993,1,0,0:0:0:0:
256,192,576185,1,0,0:0:0:0:
256,192,576281,1,0,0:0:0:0:
256,192,576377,1,8,0:0:0:0:
256,192,576570,1,0,0:0:0:0:
256,192,576666,1,0,0:0:0:0:
256,192,576762,1,8,0:0:0:0:
256,192,576858,1,8,0:0:0:0:
256,192,576954,1,0,0:0:0:0:
256,192,577147,1,12,0:0:0:0:
256,192,577339,1,0,0:0:0:0:
256,192,577435,1,0,0:0:0:0:
256,192,577531,1,8,0:0:0:0:
256,192,577627,1,8,0:0:0:0:
256,192,577723,1,0,0:0:0:0:
256,192,577820,1,0,0:0:0:0:
256,192,577916,1,8,0:0:0:0:
256,192,578012,1,8,0:0:0:0:
256,192,578108,1,0,0:0:0:0:
256,192,578300,1,8,0:0:0:0:
256,192,578397,1,8,0:0:0:0:
256,192,578493,1,0,0:0:0:0:
256,192,578589,1,0,0:0:0:0:
256,192,578685,1,8,0:0:0:0:
256,192,578781,1,8,0:0:0:0:
256,192,578877,1,0,0:0:0:0:
256,192,578973,1,0,0:0:0:0:
256,192,579070,1,8,0:0:0:0:
256,192,579262,1,0,0:0:0:0:
256,192,579454,1,8,0:0:0:0:
256,192,579647,1,8,0:0:0:0:
256,192,579743,1,0,0:0:0:0:
256,192,579839,1,8,0:0:0:0:
256,192,580031,1,0,0:0:0:0:
256,192,580127,1,0,0:0:0:0:
256,192,580223,1,8,0:0:0:0:
256,192,580320,1,8,0:0:0:0:
256,192,580416,1,0,0:0:0:0:
256,192,580512,1,0,0:0:0:0:
256,192,580608,1,8,0:0:0:0:
256,192,580704,1,0,0:0:0:0:
256,192,580800,1,0,0:0:0:0:
256,192,580897,1,0,0:0:0:0:
256,192,580993,1,8,0:0:0:0:
256,192,581185,1,0,0:0:0:0:
256,192,581281,1,0,0:0:0:0:
256,192,581377,1,8,0:0:0:0:
256,192,581570,1,0,0:0:0:0:
256,192,581762,1,8,0:0:0:0:
256,192,581858,1,0,0:0:0:0:
256,192,581954,1,8,0:0:0:0:
256,192,582050,1,0,0:0:0:0:
256,192,582147,1,8,0:0:0:0:
256,192,582339,1,8,0:0:0:0:
256,192,582435,1,8,0:0:0:0:
256,192,582531,1,8,0:0:0:0:
256,192,582723,1,8,0:0:0:0:
256,192,582916,1,8,0:0:0:0:
256,192,583012,1,8,0:0:0:0:
256,192,583108,1,8,0:0:0:0:
256,192,583204,1,8,0:0:0:0:
256,192,583300,1,8,0:0:0:0:
256,192,583493,1,0,0:0:0:0:
256,192,583589,1,0,0:0:0:0:
256,192,583685,1,8,0:0:0:0:
256,192,583877,1,0,0:0:0:0:
256,192,583973,1,0,0:0:0:0:
256,192,584070,1,8,0:0:0:0:
256,192,584166,1,8,0:0:0:0:
256,192,584262,1,8,0:0:0:0:
256,192,584358,1,0,0:0:0:0:
256,192,584454,1,8,0:0:0:0:
256,192,584550,1,8,0:0:0:0:
256,192,584647,1,0,0:0:0:0:
256,192,584743,1,0,0:0:0:0:
256,192,584839,1,8,0:0:0:0:
256,192,585031,1,0,0:0:0:0:
256,192,585223,1,8,0:0:0:0:
256,192,585416,1,8,0:0:0:0:
256,192,585512,1,0,0:0:0:0:
256,192,585608,1,8,0:0:0:0:
256,192,585800,1,0,0:0:0:0:
256,192,585897,1,8,0:0:0:0:
256,192,585993,1,0,0:0:0:0:
256,192,586089,1,8,0:0:0:0:
256,192,586185,1,0,0:0:0:0:
256,192,586377,1,12,0:0:0:0:
256,192,586570,1,0,0:0:0:0:
256,192,586666,1,0,0:0:0:0:
256,192,586762,1,8,0:0:0:0:
256,192,586954,1,0,0:0:0:0:
256,192,587050,1,0,0:0:0:0:
256,192,587147,1,8,0:0:0:0:
256,192,587243,1,8,0:0:0:0:
256,192,587339,1,0,0:0:0:0:
256,192,587435,1,0,0:0:0:0:
256,192,587531,1,8,0:0:0:0:
256,192,587627,1,0,0:0:0:0:
256,192,587723,1,8,0:0:0:0:
256,192,587820,1,8,0:0:0:0:
256,192,587916,1,0,0:0:0:0:
256,192,588012,1,8,0:0:0:0:
256,192,588108,1,0,0:0:0:0:
256,192,588204,1,0,0:0:0:0:
256,192,588300,1,8,0:0:0:0:
256,192,588493,1,0,0:0:0:0:
256,192,588589,1,0,0:0:0:0:
256,192,588685,1,8,0:0:0:0:
256,192,588781,1,8,0:0:0:0:
256,192,588877,1,0,0:0:0:0:
256,192,588973,1,0,0:0:0:0:
256,192,589070,1,8,0:0:0:0:
256,192,589166,1,0,0:0:0:0:
256,192,589262,1,8,0:0:0:0:
256,192,589454,1,12,0:0:0:0:
256,192,589647,1,0,0:0:0:0:
256,192,589743,1,0,0:0:0:0:
256,192,589839,1,8,0:0:0:0:
256,192,590031,1,0,0:0:0:0:
256,192,590127,1,0,0:0:0:0:
256,192,590223,1,8,0:0:0:0:
256,192,590320,1,8,0:0:0:0:
256,192,590416,1,0,0:0:0:0:
256,192,590608,1,8,0:0:0:0:
256,192,590800,1,8,0:0:0:0:
256,192,590897,1,0,0:0:0:0:
256,192,590993,1,8,0:0:0:0:
256,192,591089,1,0,0:0:0:0:
256,192,591185,1,8,0:0:0:0:
256,192,591281,1,8,0:0:0:0:
256,192,591377,1,0,0:0:0:0:
256,192,591473,1,8,0:0:0:0:
256,192,591570,1,0,0:0:0:0:
256,192,591666,1,0,0:0:0:0:
256,192,591762,1,8,0:0:0:0:
256,192,591954,1,0,0:0:0:0:
256,192,592147,1,8,0:0:0:0:
256,192,592339,1,8,0:0:0:0:
256,192,592403,1,0,0:0:0:0:
256,192,592467,1,0,0:0:0:0:
256,192,592531,1,8,0:0:0:0:
256,192,592723,1,0,0:0:0:0:
256,192,592916,1,8,0:0:0:0:
256,192,593108,1,8,0:0:0:0:
256,192,593172,1,8,0:0:0:0:
256,192,593236,1,8,0:0:0:0:
256,192,593300,1,8,0:0:0:0:
256,192,593493,5,0,0:0:0:0:
256,192,593685,1,8,0:0:0:0:
256,192,593781,1,8,0:0:0:0:
256,192,593877,1,8,0:0:0:0:
256,192,593973,1,8,0:0:0:0:
256,192,594454,1,4,0:0:0:0:
256,192,594647,12,0,598877,0:0:0:0:
256,192,603735,5,0,0:0:0:0:
256,192,603819,1,0,0:0:0:0:
256,192,603903,1,0,0:0:0:0:
256,192,603988,1,0,0:0:0:0:
256,192,604072,1,8,0:0:0:0:
256,192,604409,1,8,0:0:0:0:
256,192,604747,1,8,0:0:0:0:
256,192,605085,1,8,0:0:0:0:
256,192,605423,1,8,0:0:0:0:
256,192,605761,1,8,0:0:0:0:
256,192,606099,1,12,0:0:0:0:
256,192,606436,1,8,0:0:0:0:
256,192,606605,1,8,0:0:0:0:
256,192,606774,1,0,0:0:0:0:
256,192,607112,1,8,0:0:0:0:
256,192,607450,1,8,0:0:0:0:
256,192,607788,1,8,0:0:0:0:
256,192,608126,1,4,0:0:0:0:
256,192,608463,1,8,0:0:0:0:
256,192,608801,1,8,0:0:0:0:
256,192,609139,1,8,0:0:0:0:
256,192,609224,1,0,0:0:0:0:
256,192,609308,1,0,0:0:0:0:
256,192,609392,1,8,0:0:0:0:
256,192,609477,1,8,0:0:0:0:
256,192,609815,1,8,0:0:0:0:
256,192,610153,1,8,0:0:0:0:
256,192,610490,1,8,0:0:0:0:
256,192,610828,1,8,0:0:0:0:
256,192,611166,1,8,0:0:0:0:
256,192,611504,1,12,0:0:0:0:
256,192,611842,1,8,0:0:0:0:
256,192,612011,1,8,0:0:0:0:
256,192,612180,1,0,0:0:0:0:
256,192,612517,1,8,0:0:0:0:
256,192,612855,1,8,0:0:0:0:
256,192,613193,1,8,0:0:0:0:
256,192,613531,1,4,0:0:0:0:
256,192,613869,1,8,0:0:0:0:
256,192,614207,1,8,0:0:0:0:
256,192,614544,1,8,0:0:0:0:
256,192,614629,1,0,0:0:0:0:
256,192,614713,1,8,0:0:0:0:
256,192,614798,1,0,0:0:0:0:
256,192,614882,1,8,0:0:0:0:
256,192,615051,1,0,0:0:0:0:
256,192,615220,1,0,0:0:0:0:
256,192,615389,1,8,0:0:0:0:
256,192,615558,1,0,0:0:0:0:
256,192,615727,1,8,0:0:0:0:
256,192,615811,1,8,0:0:0:0:
256,192,615896,1,8,0:0:0:0:
256,192,616065,1,0,0:0:0:0:
256,192,616234,1,0,0:0:0:0:
256,192,616403,1,0,0:0:0:0:
256,192,616572,1,8,0:0:0:0:
256,192,616656,1,8,0:0:0:0:
256,192,616740,1,8,0:0:0:0:
256,192,616909,1,12,0:0:0:0:
256,192,617078,1,8,0:0:0:0:
256,192,617247,1,8,0:0:0:0:
256,192,617416,1,0,0:0:0:0:
256,192,617501,1,0,0:0:0:0:
256,192,617585,1,0,0:0:0:0:
256,192,617754,1,0,0:0:0:0:
256,192,617923,1,0,0:0:0:0:
256,192,618092,1,8,0:0:0:0:
256,192,618261,1,0,0:0:0:0:
256,192,618430,1,8,0:0:0:0:
256,192,618514,1,8,0:0:0:0:
256,192,618599,1,8,0:0:0:0:
256,192,618767,1,0,0:0:0:0:
256,192,618936,1,4,0:0:0:0:
256,192,619105,1,0,0:0:0:0:
256,192,619274,1,8,0:0:0:0:
256,192,619359,1,8,0:0:0:0:
256,192,619443,1,8,0:0:0:0:
256,192,619612,1,8,0:0:0:0:
256,192,619781,1,8,0:0:0:0:
256,192,619950,1,8,0:0:0:0:
256,192,620034,1,0,0:0:0:0:
256,192,620119,1,0,0:0:0:0:
256,192,620203,1,0,0:0:0:0:
256,192,620288,1,8,0:0:0:0:
256,192,620457,1,0,0:0:0:0:
256,192,620626,1,0,0:0:0:0:
256,192,620794,1,8,0:0:0:0:
256,192,620963,1,0,0:0:0:0:
256,192,621132,1,8,0:0:0:0:
256,192,621217,1,8,0:0:0:0:
256,192,621301,1,8,0:0:0:0:
256,192,621470,1,0,0:0:0:0:
256,192,621639,1,0,0:0:0:0:
256,192,621724,1,0,0:0:0:0:
256,192,621808,1,0,0:0:0:0:
256,192,621977,1,8,0:0:0:0:
256,192,622061,1,8,0:0:0:0:
256,192,622146,1,8,0:0:0:0:
256,192,622315,1,12,0:0:0:0:
256,192,622484,1,8,0:0:0:0:
256,192,622653,1,8,0:0:0:0:
256,192,622822,1,0,0:0:0:0:
256,192,622990,1,8,0:0:0:0:
256,192,623103,1,0,0:0:0:0:
256,192,623216,1,8,0:0:0:0:
256,192,623328,1,8,0:0:0:0:
256,192,623441,1,0,0:0:0:0:
256,192,623553,1,0,0:0:0:0:
256,192,623666,1,8,0:0:0:0:
256,192,623779,1,0,0:0:0:0:
256,192,623891,1,0,0:0:0:0:
256,192,624004,1,8,0:0:0:0:
256,192,624117,1,0,0:0:0:0:
256,192,624229,1,0,0:0:0:0:
256,192,624342,1,12,0:0:0:0:
256,192,625355,1,4,0:0:0:0:
256,192,625693,1,12,0:0:0:0:
256,192,625862,1,0,0:0:0:0:
256,192,626031,1,8,0:0:0:0:
256,192,626200,1,8,0:0:0:0:
256,192,626284,1,0,0:0:0:0:
256,192,626369,1,8,0:0:0:0:
256,192,626453,1,8,0:0:0:0:
256,192,626538,1,0,0:0:0:0:
256,192,626622,1,0,0:0:0:0:
256,192,626707,1,8,0:0:0:0:
256,192,626876,1,8,0:0:0:0:
256,192,626960,1,8,0:0:0:0:
256,192,627044,1,0,0:0:0:0:
256,192,627213,1,0,0:0:0:0:
256,192,627298,1,0,0:0:0:0:
256,192,627382,1,8,0:0:0:0:
256,192,627551,1,0,0:0:0:0:
256,192,627636,1,8,0:0:0:0:
256,192,627805,1,8,0:0:0:0:
256,192,627889,1,0,0:0:0:0:
256,192,628058,1,8,0:0:0:0:
256,192,628227,1,0,0:0:0:0:
256,192,628311,1,8,0:0:0:0:
256,192,628396,1,0,0:0:0:0:
256,192,628480,1,8,0:0:0:0:
256,192,628565,1,0,0:0:0:0:
256,192,628649,1,0,0:0:0:0:
256,192,628734,1,8,0:0:0:0:
256,192,628903,1,8,0:0:0:0:
256,192,628987,1,8,0:0:0:0:
256,192,629072,1,0,0:0:0:0:
256,192,629156,1,0,0:0:0:0:
256,192,629240,1,0,0:0:0:0:
256,192,629325,1,0,0:0:0:0:
256,192,629409,1,8,0:0:0:0:
256,192,629578,1,0,0:0:0:0:
256,192,629663,1,0,0:0:0:0:
256,192,629747,1,0,0:0:0:0:
256,192,629916,1,0,0:0:0:0:
256,192,630085,1,8,0:0:0:0:
256,192,630254,1,0,0:0:0:0:
256,192,630338,1,8,0:0:0:0:
256,192,630507,1,8,0:0:0:0:
256,192,630592,1,0,0:0:0:0:
256,192,630676,1,0,0:0:0:0:
256,192,630761,1,8,0:0:0:0:
256,192,630930,1,0,0:0:0:0:
256,192,631099,1,12,0:0:0:0:
256,192,631267,1,0,0:0:0:0:
256,192,631436,1,8,0:0:0:0:
256,192,631605,1,8,0:0:0:0:
256,192,631690,1,0,0:0:0:0:
256,192,631774,1,0,0:0:0:0:
256,192,631859,1,8,0:0:0:0:
256,192,631943,1,0,0:0:0:0:
256,192,632028,1,0,0:0:0:0:
256,192,632112,1,8,0:0:0:0:
256,192,632281,1,8,0:0:0:0:
256,192,632365,1,8,0:0:0:0:
256,192,632450,1,0,0:0:0:0:
256,192,632534,1,8,0:0:0:0:
256,192,632619,1,0,0:0:0:0:
256,192,632703,1,0,0:0:0:0:
256,192,632788,1,8,0:0:0:0:
256,192,632957,1,8,0:0:0:0:
256,192,633041,1,8,0:0:0:0:
256,192,633126,1,0,0:0:0:0:
256,192,633210,1,8,0:0:0:0:
256,192,633294,1,0,0:0:0:0:
256,192,633463,1,8,0:0:0:0:
256,192,633632,1,8,0:0:0:0:
256,192,633717,1,8,0:0:0:0:
256,192,633801,1,0,0:0:0:0:
256,192,633886,1,0,0:0:0:0:
256,192,633970,1,0,0:0:0:0:
256,192,634139,1,8,0:0:0:0:
256,192,634308,1,8,0:0:0:0:
256,192,634392,1,8,0:0:0:0:
256,192,634477,1,0,0:0:0:0:
256,192,634561,1,8,0:0:0:0:
256,192,634646,1,0,0:0:0:0:
256,192,634815,1,8,0:0:0:0:
256,192,634984,1,8,0:0:0:0:
256,192,635068,1,8,0:0:0:0:
256,192,635153,1,0,0:0:0:0:
256,192,635237,1,8,0:0:0:0:
256,192,635322,1,0,0:0:0:0:
256,192,635406,1,0,0:0:0:0:
256,192,635490,1,8,0:0:0:0:
256,192,635575,1,8,0:0:0:0:
256,192,635659,1,0,0:0:0:0:
256,192,635744,1,8,0:0:0:0:
256,192,635828,1,8,0:0:0:0:
256,192,635913,1,8,0:0:0:0:
256,192,635997,1,0,0:0:0:0:
256,192,636082,1,0,0:0:0:0:
256,192,636166,1,8,0:0:0:0:
256,192,636251,1,0,0:0:0:0:
256,192,636335,1,8,0:0:0:0:
256,192,636419,1,8,0:0:0:0:
256,192,636504,1,8,0:0:0:0:
256,192,636588,1,0,0:0:0:0:
256,192,636673,1,0,0:0:0:0:
256,192,636842,1,8,0:0:0:0:
256,192,637011,1,8,0:0:0:0:
256,192,637095,1,0,0:0:0:0:
256,192,637180,1,0,0:0:0:0:
256,192,637264,1,8,0:0:0:0:
256,192,637349,1,0,0:0:0:0:
256,192,637433,1,0,0:0:0:0:
256,192,637517,1,8,0:0:0:0:
256,192,637602,1,8,0:0:0:0:
256,192,637686,1,0,0:0:0:0:
256,192,637855,1,8,0:0:0:0:
256,192,637940,1,0,0:0:0:0:
256,192,638024,1,0,0:0:0:0:
256,192,638193,1,8,0:0:0:0:
256,192,638362,1,8,0:0:0:0:
256,192,638447,1,0,0:0:0:0:
256,192,638531,1,0,0:0:0:0:
256,192,638615,1,8,0:0:0:0:
256,192,638700,1,0,0:0:0:0:
256,192,638784,1,0,0:0:0:0:
256,192,638869,1,8,0:0:0:0:
256,192,638953,1,8,0:0:0:0:
256,192,639038,1,0,0:0:0:0:
256,192,639207,1,0,0:0:0:0:
256,192,639291,1,8,0:0:0:0:
256,192,639376,1,8,0:0:0:0:
256,192,639544,1,8,0:0:0:0:
256,192,639713,1,8,0:0:0:0:
256,192,639798,1,8,0:0:0:0:
256,192,639882,1,8,0:0:0:0:
256,192,639967,1,0,0:0:0:0:
256,192,640051,1,8,0:0:0:0:
256,192,640220,1,8,0:0:0:0:
256,192,640305,1,0,0:0:0:0:
256,192,640389,1,8,0:0:0:0:
256,192,640558,1,0,0:0:0:0:
256,192,640642,1,8,0:0:0:0:
256,192,640727,1,0,0:0:0:0:
256,192,640896,1,8,0:0:0:0:
256,192,640980,1,8,0:0:0:0:
256,192,641065,1,8,0:0:0:0:
256,192,641234,1,8,0:0:0:0:
256,192,641318,1,8,0:0:0:0:
256,192,641403,1,0,0:0:0:0:
256,192,641572,1,8,0:0:0:0:
256,192,641656,1,0,0:0:0:0:
256,192,641740,1,0,0:0:0:0:
256,192,641909,1,12,0:0:0:0:
256,192,642078,1,0,0:0:0:0:
256,192,642247,1,8,0:0:0:0:
256,192,642416,1,0,0:0:0:0:
256,192,642501,1,0,0:0:0:0:
256,192,642585,1,8,0:0:0:0:
256,192,642698,1,0,0:0:0:0:
256,192,642810,1,0,0:0:0:0:
256,192,642923,1,8,0:0:0:0:
256,192,643035,1,0,0:0:0:0:
256,192,643148,1,0,0:0:0:0:
256,192,643261,1,8,0:0:0:0:
256,192,643373,1,0,0:0:0:0:
256,192,643486,1,8,0:0:0:0:
256,192,643599,1,8,0:0:0:0:
256,192,643711,1,0,0:0:0:0:
256,192,643824,1,8,0:0:0:0:
256,192,643936,1,8,0:0:0:0:
256,192,644049,1,0,0:0:0:0:
256,192,644162,1,0,0:0:0:0:
256,192,644274,1,8,0:0:0:0:
256,192,644387,1,0,0:0:0:0:
256,192,644499,1,0,0:0:0:0:
256,192,644612,1,8,0:0:0:0:
256,192,644781,1,8,0:0:0:0:
256,192,644865,1,0,0:0:0:0:
256,192,644950,1,8,0:0:0:0:
256,192,645034,1,8,0:0:0:0:
256,192,645119,1,0,0:0:0:0:
256,192,645203,1,8,0:0:0:0:
256,192,645288,1,8,0:0:0:0:
256,192,645372,1,8,0:0:0:0:
256,192,645457,1,0,0:0:0:0:
256,192,645541,1,0,0:0:0:0:
256,192,645626,1,8,0:0:0:0:
256,192,645794,1,8,0:0:0:0:
256,192,645879,1,0,0:0:0:0:
256,192,645963,1,8,0:0:0:0:
256,192,646132,1,0,0:0:0:0:
256,192,646217,1,0,0:0:0:0:
256,192,646301,1,8,0:0:0:0:
256,192,646470,1,0,0:0:0:0:
256,192,646555,1,8,0:0:0:0:
256,192,646639,1,8,0:0:0:0:
256,192,646724,1,0,0:0:0:0:
256,192,646892,1,0,0:0:0:0:
256,192,646977,1,8,0:0:0:0:
256,192,647146,1,8,0:0:0:0:
256,192,647315,1,4,0:0:0:0:
256,192,647484,1,0,0:0:0:0:
256,192,647653,1,8,0:0:0:0:
256,192,647822,1,0,0:0:0:0:
256,192,647906,1,0,0:0:0:0:
256,192,647990,1,8,0:0:0:0:
256,192,648075,1,0,0:0:0:0:
256,192,648244,1,0,0:0:0:0:
256,192,648328,1,8,0:0:0:0:
256,192,648497,1,0,0:0:0:0:
256,192,648582,1,8,0:0:0:0:
256,192,648666,1,0,0:0:0:0:
256,192,648835,1,0,0:0:0:0:
256,192,649004,1,8,0:0:0:0:
256,192,649257,1,8,0:0:0:0:
256,192,649342,1,0,0:0:0:0:
256,192,649511,1,0,0:0:0:0:
256,192,649595,1,0,0:0:0:0:
256,192,649680,1,8,0:0:0:0:
256,192,650017,1,0,0:0:0:0:
256,192,650186,1,8,0:0:0:0:
256,192,650355,1,8,0:0:0:0:
256,192,650524,1,0,0:0:0:0:
256,192,650609,1,0,0:0:0:0:
256,192,650693,1,8,0:0:0:0:
256,192,650778,1,0,0:0:0:0:
256,192,650947,1,0,0:0:0:0:
256,192,651031,1,8,0:0:0:0:
256,192,651200,1,0,0:0:0:0:
256,192,651284,1,8,0:0:0:0:
256,192,651369,1,0,0:0:0:0:
256,192,651538,1,0,0:0:0:0:
256,192,651707,1,8,0:0:0:0:
256,192,651960,1,8,0:0:0:0:
256,192,652044,1,0,0:0:0:0:
256,192,652213,1,0,0:0:0:0:
256,192,652298,1,0,0:0:0:0:
256,192,652382,1,8,0:0:0:0:
256,192,652720,1,0,0:0:0:0:
256,192,652889,1,0,0:0:0:0:
256,192,653058,1,8,0:0:0:0:
256,192,653227,1,0,0:0:0:0:
256,192,653311,1,0,0:0:0:0:
256,192,653396,1,8,0:0:0:0:
256,192,653480,1,8,0:0:0:0:
256,192,653649,1,0,0:0:0:0:
256,192,653734,1,8,0:0:0:0:
256,192,653903,1,0,0:0:0:0:
256,192,653987,1,8,0:0:0:0:
256,192,654072,1,0,0:0:0:0:
256,192,654240,1,8,0:0:0:0:
256,192,654409,1,8,0:0:0:0:
256,192,654663,1,8,0:0:0:0:
256,192,654747,1,0,0:0:0:0:
256,192,654916,1,0,0:0:0:0:
256,192,655001,1,0,0:0:0:0:
256,192,655085,1,8,0:0:0:0:
256,192,655423,1,12,0:0:0:0:
256,192,655592,1,0,0:0:0:0:
256,192,655761,1,8,0:0:0:0:
256,192,655930,1,0,0:0:0:0:
256,192,656014,1,0,0:0:0:0:
256,192,656099,1,0,0:0:0:0:
256,192,656267,1,0,0:0:0:0:
256,192,656436,1,8,0:0:0:0:
256,192,656774,1,12,0:0:0:0:
256,192,656943,1,0,0:0:0:0:
256,192,657112,1,8,0:0:0:0:
256,192,657281,1,0,0:0:0:0:
256,192,657365,1,0,0:0:0:0:
256,192,657450,1,0,0:0:0:0:
256,192,657619,1,0,0:0:0:0:
256,192,657788,1,8,0:0:0:0:
256,192,658126,1,4,0:0:0:0:
256,192,658294,1,0,0:0:0:0:
256,192,658463,1,8,0:0:0:0:
256,192,658632,1,0,0:0:0:0:
256,192,658717,1,0,0:0:0:0:
256,192,658801,1,8,0:0:0:0:
256,192,658886,1,0,0:0:0:0:
256,192,659055,1,0,0:0:0:0:
256,192,659139,1,8,0:0:0:0:
256,192,659308,1,0,0:0:0:0:
256,192,659392,1,8,0:0:0:0:
256,192,659477,1,0,0:0:0:0:
256,192,659646,1,8,0:0:0:0:
256,192,659730,1,0,0:0:0:0:
256,192,659815,1,8,0:0:0:0:
256,192,660068,1,8,0:0:0:0:
256,192,660153,1,0,0:0:0:0:
256,192,660322,1,0,0:0:0:0:
256,192,660406,1,0,0:0:0:0:
256,192,660490,1,8,0:0:0:0:
256,192,660828,1,0,0:0:0:0:
256,192,660997,1,0,0:0:0:0:
256,192,661082,1,0,0:0:0:0:
256,192,661166,1,8,0:0:0:0:
256,192,661335,1,0,0:0:0:0:
256,192,661419,1,0,0:0:0:0:
256,192,661504,1,8,0:0:0:0:
256,192,661588,1,0,0:0:0:0:
256,192,661757,1,8,0:0:0:0:
256,192,661842,1,8,0:0:0:0:
256,192,662011,1,8,0:0:0:0:
256,192,662095,1,8,0:0:0:0:
256,192,662180,1,0,0:0:0:0:
256,192,662349,1,0,0:0:0:0:
256,192,662517,1,8,0:0:0:0:
256,192,662771,1,8,0:0:0:0:
256,192,662855,1,0,0:0:0:0:
256,192,663024,1,0,0:0:0:0:
256,192,663109,1,0,0:0:0:0:
256,192,663193,1,8,0:0:0:0:
256,192,663531,1,8,0:0:0:0:
256,192,663700,1,0,0:0:0:0:
256,192,663869,1,8,0:0:0:0:
256,192,664038,1,0,0:0:0:0:
256,192,664122,1,0,0:0:0:0:
256,192,664207,1,8,0:0:0:0:
256,192,664291,1,8,0:0:0:0:
256,192,664460,1,0,0:0:0:0:
256,192,664544,1,8,0:0:0:0:
256,192,664713,1,8,0:0:0:0:
256,192,664882,1,0,0:0:0:0:
256,192,664967,1,0,0:0:0:0:
256,192,665051,1,0,0:0:0:0:
256,192,665136,1,0,0:0:0:0:
256,192,665220,1,8,0:0:0:0:
256,192,665474,1,8,0:0:0:0:
256,192,665558,1,0,0:0:0:0:
256,192,665727,1,8,0:0:0:0:
256,192,665811,1,0,0:0:0:0:
256,192,665896,1,8,0:0:0:0:
256,192,666234,1,12,0:0:0:0:
256,192,666403,1,0,0:0:0:0:
256,192,666572,1,8,0:0:0:0:
256,192,666740,1,0,0:0:0:0:
256,192,666825,1,0,0:0:0:0:
256,192,666909,1,0,0:0:0:0:
256,192,667078,1,0,0:0:0:0:
256,192,667247,1,8,0:0:0:0:
256,192,667416,1,0,0:0:0:0:
256,192,667501,1,0,0:0:0:0:
256,192,667585,1,0,0:0:0:0:
256,192,667754,1,0,0:0:0:0:
256,192,667923,1,8,0:0:0:0:
256,192,668092,1,0,0:0:0:0:
256,192,668176,1,8,0:0:0:0:
256,192,668261,1,0,0:0:0:0:
256,192,668430,1,0,0:0:0:0:
256,192,668599,1,8,0:0:0:0:
256,192,668767,1,8,0:0:0:0:
256,192,668936,1,4,0:0:0:0:
256,192,669105,12,0,671639,0:0:0:0:
