osu file format v14

[General]
AudioFilename: smekdon homow.mp3
AudioLeadIn: 3000
PreviewTime: 250081
Countdown: 0
SampleSet: Normal
StackLeniency: 0.7
Mode: 1
LetterboxInBreaks: 0
WidescreenStoryboard: 1

[Editor]
Bookmarks: 300,42946,53612,80279,112279,133612,149612,166946,176635,224659,275613,311613,407512,460862,517529
DistanceSpacing: 1
BeatDivisor: 6
GridSize: 16
TimelineZoom: 2.699999

[Metadata]
Title:International Wrestling Festival 2015 -WORLD OF ANIKI-
TitleUnicode:International Wrestling Festival 2015 -WORLD OF ANIKI-
Artist:Various Artists
ArtistUnicode:Various Artists
Creator:Surono
Version:TAIKONIKI
Source:
Tags:Marathon Youtube Collaboration Gachimuchi World Aniki Gay Year's Eve Alexander Vishnevsky Duncan Mills Danny Lee Billy Herrington Van Darkholme Mark Wolff Christian Engel Steve Rambo Chi Chi Larue ULTRA-PRISM Hisako Kanemoto Shinryaku no Susume Blarsa Garden Party Virt Love You Souleye Pushing Onwards Dead or Alive You Spin Me Right Round Ryu* Ryu Cream puff Mermaid Girl DPRK Potato Pride Zedd SHAVE IT Flying Steps We Gonna Rock It (Jetset Remix) Jun Ishikawa Hirokazu Ando Boss Battle Theme Sawawa Saigetsu ~Pettan Fire* Pettan Fire t+pazolite Luv the lUNatic?? (Straight Mix) 호랑풍류가 Narae Horang Pungryuga Jonathan Coulton Ellen McLain Still Alive Men's International Affairs anonymide MowtenDoo rawrderder RazQ Jeanny Doe mk si Menorah On Fire DQ1987 KinkyOats DrunkyDarwin Ungman Mesenghe Malttongry Freedom IMT #1 DE-CADE DECADE
BeatmapID:956374
BeatmapSetID:436910

[Difficulty]
HPDrainRate:3
CircleSize:2
OverallDifficulty:6
ApproachRate:10
SliderMultiplier:1.4
SliderTickRate:1

[Events]
//Background and Video events
0,0,"bg.jpg",0,69
//Break Periods
2,356678,364076
2,511392,516351
//Storyboard Layer 0 (Background)
//Storyboard Layer 1 (Fail)
//Storyboard Layer 2 (Pass)
//Storyboard Layer 3 (Foreground)
//Storyboard Sound Samples

[TimingPoints]
303,333.333333333333,4,1,0,100,1,0
8302,-90.9090909090909,4,1,0,100,0,0
9302,-100,4,1,0,100,0,0
19802,-105.263157894737,4,1,0,100,0,0
19969,-111.111111111111,4,1,0,100,0,0
21636,-100,4,1,0,100,0,0
30969,-111.111111111111,4,1,0,100,0,0
32302,-100,4,1,0,100,0,1
42969,-100,4,1,0,100,0,0
53636,-111.111111111111,4,1,0,100,0,0
63636,-105.263157894737,4,1,0,100,0,0
64302,-100,4,1,0,100,0,1
80302,-100,4,1,0,100,0,0
81636,-142.857142857143,4,1,0,35,0,0
82969,-142.857142857143,4,1,0,50,0,0
88636,-138.888888888889,4,1,0,69,0,0
88802,-135.135135135135,4,1,0,69,0,0
88969,-131.578947368421,4,1,0,69,0,0
89136,-128.205128205128,4,1,0,69,0,0
89302,-125,4,1,0,69,0,0
89469,-121.951219512195,4,1,0,69,0,0
89636,-119.047619047619,4,1,0,80,0,0
89802,-116.279069767442,4,1,0,90,0,0
89886,-114.942528735632,4,1,0,90,0,0
89969,-113.636363636364,4,1,0,90,0,0
90136,-111.111111111111,4,1,0,90,0,0
90219,-109.89010989011,4,1,0,90,0,0
90302,-108.695652173913,4,1,0,90,0,0
90386,-107.52688172043,4,1,0,90,0,0
90469,-106.382978723404,4,1,0,90,0,0
90552,-105.263157894737,4,1,0,90,0,0
90636,-104.166666666667,4,1,0,90,0,0
90719,-103.092783505155,4,1,0,90,0,0
90802,-102.040816326531,4,1,0,90,0,0
90886,-101.010101010101,4,1,0,90,0,0
90969,-100,4,1,0,100,0,0
110969,-86.9565217391304,4,1,0,100,0,0
111969,-76.9230769230769,4,1,0,100,0,0
112302,-100,4,1,0,100,0,1
132136,-105.263157894737,4,1,0,100,0,1
132302,-111.111111111111,4,1,0,100,0,1
133636,-100,4,1,0,100,0,0
148136,-95.2380952380952,4,1,0,100,0,0
148302,-90.9090909090908,4,1,0,100,0,0
148636,-83.3333333333333,4,1,0,100,0,0
148969,-76.9230769230769,4,1,0,100,0,0
149136,-100,4,1,0,100,0,0
149636,-100,4,1,0,100,0,1
166969,363.636363636364,4,1,0,100,1,0
166969,-90.9090909090909,4,1,0,100,0,0
167150,-92.5925925925926,4,1,0,100,0,0
167241,-93.4579439252336,4,1,0,100,0,0
167332,-94.3396226415094,4,1,0,100,0,0
167423,-95.2380952380952,4,1,0,100,0,0
167514,-96.1538461538461,4,1,0,100,0,0
168423,375,4,1,0,100,1,0
168423,-93.4579439252336,4,1,0,100,0,0
168610,-95.2380952380952,4,1,0,100,0,0
168704,-96.1538461538461,4,1,0,100,0,0
168798,-97.0873786407767,4,1,0,100,0,0
168891,-98.0392156862745,4,1,0,100,0,0
168985,-99.009900990099,4,1,0,100,0,0
169923,387.096774193548,4,1,0,100,1,0
169923,-96.1538461538461,4,1,0,100,0,0
170116,-98.0392156862745,4,1,0,100,0,0
170213,-99.009900990099,4,1,0,100,0,0
170310,-100,4,1,0,100,0,0
170406,-101.010101010101,4,1,0,100,0,0
170503,-102.040816326531,4,1,0,100,0,0
170600,-103.092783505155,4,1,0,100,0,0
170697,400,4,1,0,100,1,0
170897,-102.040816326531,4,1,0,100,0,0
170997,-103.092783505155,4,1,0,100,0,0
171097,413.793103448276,4,1,0,100,1,8
171200,-101.010101010101,4,1,0,100,0,0
171303,-102.040816326531,4,1,0,100,0,0
171407,-103.092783505155,4,1,0,100,0,0
171510,387.096774193548,4,1,0,100,1,0
171510,-109.89010989011,4,1,0,100,0,0
171703,-111.111111111111,4,1,0,100,0,0
171897,428.571428571429,4,1,0,100,1,8
172004,-101.010101010101,4,1,0,100,0,0
172111,-102.040816326531,4,1,0,100,0,0
172218,-103.092783505155,4,1,0,100,0,0
172325,428.571428571429,4,1,0,100,1,0
172325,-104.166666666667,4,1,0,100,0,0
173986,662.617338487024,4,1,0,100,1,0
176636,375,4,1,0,69,1,0
176636,-133.333333333333,4,1,0,69,0,0
182636,-100,4,1,0,90,0,0
194636,-100,4,1,0,100,0,1
217886,-100,4,1,0,100,0,0
221636,-99.009900990099,4,1,0,100,0,0
221729,-98.0392156862744,4,1,0,100,0,0
221823,-97.0873786407764,4,1,0,100,0,0
221917,-96.1538461538461,4,1,0,100,0,0
222011,-95.238095238095,4,1,0,100,0,0
222104,-94.3396226415095,4,1,0,100,0,0
222198,-93.4579439252336,4,1,0,100,0,0
222292,-92.5925925925929,4,1,0,100,0,0
222386,-91.7431192660552,4,1,0,100,0,0
222479,-90.9090909090908,4,1,0,100,0,0
222573,-89.2857142857143,4,1,0,100,0,0
222667,-87.7192982456139,4,1,0,100,0,0
222761,-86.2068965517244,4,1,0,100,0,0
222854,-84.7457627118647,4,1,0,100,0,0
222948,-83.3333333333333,4,1,0,100,0,0
223136,-71.4285714285714,4,1,0,100,0,0
223925,375,4,1,0,100,1,8
224487,-91.743119266055,5,1,0,85,0,0
224550,-94.3396226415094,5,1,0,85,0,0
224612,-97.0873786407767,5,1,0,85,0,0
224675,375,4,1,0,100,1,0
235737,-105.263157894737,4,1,0,100,0,0
235925,-111.111111111111,4,1,0,100,0,0
236112,-117.647058823529,4,1,0,100,0,0
236393,-125,4,1,0,100,0,0
236675,-133.333333333333,4,1,0,100,0,0
239018,-90.9090909090909,4,1,0,100,0,0
239675,-100,4,1,0,100,0,0
251675,-95.2380952380952,4,1,0,100,0,1
263675,-90.9090909090909,4,1,0,100,0,1
275300,-92.5925925925926,4,1,0,100,0,1
275393,-94.3396226415094,4,1,0,100,0,1
275487,-96.1538461538461,4,1,0,100,0,1
275675,-100,4,1,0,100,0,0
286925,-94.3396226415094,4,1,0,100,0,0
287018,-98.0392156862745,4,1,0,100,0,0
287112,-102.040816326531,4,1,0,100,0,0
287206,-106.382978723404,4,1,0,100,0,0
287300,-111.111111111111,4,1,0,100,0,0
287675,-100,4,1,0,100,0,0
299300,-95.2380952380952,4,1,0,100,0,0
299675,-90.9090909090909,4,1,0,100,0,1
311675,-95.2380952380952,4,1,0,100,0,0
312050,-125,4,1,0,69,0,0
317581,-111.111111111111,4,1,0,85,0,0
323112,-108.695652173913,4,1,0,85,0,0
323206,-106.382978723404,4,1,0,85,0,0
323300,-104.166666666667,4,1,0,85,0,0
323393,-102.040816326531,4,1,0,85,0,0
323487,-100,4,1,0,100,0,0
323675,-90.9090909090909,4,1,0,100,0,0
324987,-95.2380952380952,4,1,0,100,0,0
325175,-100,4,1,0,100,0,0
332675,-90.9090909090909,4,1,0,100,0,0
332956,-83.3333333333333,4,1,0,100,0,0
333987,-86.9565217391304,4,1,0,100,0,0
334081,-90.9090909090909,4,1,0,100,0,0
334175,-95.2380952380952,4,1,0,100,0,0
334456,-100,4,1,0,100,0,0
335675,-100,4,1,0,100,0,1
341300,-90.9090909090909,4,1,0,100,0,1
341675,-100,4,1,0,100,0,1
347393,-90.9090909090909,4,1,0,100,0,1
353675,-83.3333333333333,4,1,0,100,0,0
364526,333.333333333333,4,1,0,100,1,8
364859,333.333333333333,4,1,0,100,1,0
365192,-125,4,1,0,100,0,0
369859,-117.647058823529,4,1,0,100,0,0
370025,-111.111111111111,4,1,0,100,0,0
374359,-105.263157894737,4,1,0,100,0,0
374692,-100,4,1,0,100,0,0
396858,-100,4,1,0,100,0,1
407525,-100,4,1,0,100,0,0
428858,-100,4,1,0,100,0,1
450192,-100,4,1,0,100,0,0
450525,-125,4,1,0,69,0,0
455525,-111.111111111111,4,1,0,85,0,0
459525,-105.263157894737,4,1,0,85,0,0
460858,-100,4,1,0,100,0,0
470025,-90.9090909090909,4,1,0,100,0,0
470192,-83.3333333333333,4,1,0,100,0,0
471025,-100,4,1,0,100,0,0
480858,-90.9090909090909,4,1,0,100,0,0
481192,-83.3333333333333,4,1,0,100,0,0
481525,-76.9230769230769,4,1,0,100,0,0
481692,-100,4,1,0,100,0,0
483525,-90.9090909090909,4,1,0,100,0,0
483858,-83.3333333333333,4,1,0,100,0,0
484192,-76.9230769230769,4,1,0,100,0,0
484358,-100,4,1,0,100,0,0
486025,-90.9090909090909,4,1,0,100,0,0
486192,-83.3333333333333,4,1,0,100,0,0
488192,-66.6666666666667,4,1,0,100,0,0
488858,-100,4,1,0,100,0,0
490192,-100,4,1,0,100,0,1
499358,-90.9090909090909,4,1,0,100,0,1
499525,-83.3333333333333,4,1,0,100,0,1
500442,-100,4,1,0,100,0,1
500858,-95.2380952380952,4,1,0,100,0,1
510025,-90.9090909090909,4,1,0,100,0,1
510192,-83.3333333333333,4,1,0,100,0,1
510525,-76.9230769230769,4,1,0,100,0,1
510858,-71.4285714285714,4,1,0,100,0,0
511108,-83.3333333333333,4,1,0,100,0,0
514551,375,4,1,0,75,1,8
514551,-125,4,1,0,75,0,0
529551,-117.647058823529,4,1,0,80,0,0
556551,-111.111111111111,4,1,0,85,0,0
568551,-105.263157894737,4,1,0,90,0,0
579051,-100,4,1,0,100,0,1
594051,-90.9090909090909,4,1,0,100,0,1
595551,-83.3333333333333,4,1,0,50,0,0

[HitObjects]
256,192,303,12,0,2969,0:0:0:0:
256,192,3136,5,8,0:0:0:0:
256,192,3219,1,8,0:0:0:0:
256,192,3636,1,8,0:0:0:0:
256,192,3719,1,8,0:0:0:0:
256,192,4302,1,4,0:0:0:0:
256,192,4636,1,12,0:0:0:0:
256,192,4969,1,4,0:0:0:0:
256,192,5302,1,12,0:0:0:0:
256,192,5636,1,4,0:0:0:0:
256,192,5969,1,12,0:0:0:0:
256,192,6302,1,4,0:0:0:0:
256,192,6636,1,12,0:0:0:0:
256,192,6969,1,4,0:0:0:0:
256,192,7302,1,12,0:0:0:0:
256,192,7636,1,4,0:0:0:0:
256,192,7969,1,12,0:0:0:0:
256,192,8302,1,4,0:0:0:0:
256,192,8469,1,4,0:0:0:0:
256,192,8636,1,4,0:0:0:0:
256,192,8802,1,4,0:0:0:0:
256,192,8969,1,12,0:0:0:0:
256,192,9302,1,8,0:0:0:0:
256,192,9386,1,8,0:0:0:0:
256,192,9469,1,8,0:0:0:0:
256,192,9636,1,4,0:0:0:0:
256,192,9886,1,0,0:0:0:0:
256,192,9969,1,8,0:0:0:0:
256,192,10136,1,0,0:0:0:0:
256,192,10302,1,8,0:0:0:0:
256,192,10386,1,8,0:0:0:0:
256,192,10469,1,0,0:0:0:0:
256,192,10636,1,8,0:0:0:0:
256,192,10802,1,8,0:0:0:0:
256,192,10969,1,0,0:0:0:0:
256,192,11052,1,8,0:0:0:0:
256,192,11136,1,0,0:0:0:0:
256,192,11219,1,0,0:0:0:0:
256,192,11302,1,8,0:0:0:0:
256,192,11469,1,0,0:0:0:0:
256,192,11552,1,0,0:0:0:0:
256,192,11636,1,8,0:0:0:0:
256,192,11802,1,0,0:0:0:0:
256,192,11969,1,8,0:0:0:0:
256,192,12136,1,0,0:0:0:0:
256,192,12219,1,0,0:0:0:0:
256,192,12302,1,0,0:0:0:0:
256,192,12552,1,0,0:0:0:0:
256,192,12636,1,8,0:0:0:0:
256,192,12802,1,0,0:0:0:0:
256,192,12969,1,8,0:0:0:0:
256,192,13052,1,8,0:0:0:0:
256,192,13136,1,0,0:0:0:0:
256,192,13302,1,8,0:0:0:0:
256,192,13469,1,8,0:0:0:0:
256,192,13636,1,0,0:0:0:0:
256,192,13719,1,0,0:0:0:0:
256,192,13802,1,0,0:0:0:0:
256,192,13886,1,0,0:0:0:0:
256,192,13969,1,8,0:0:0:0:
256,192,14136,1,8,0:0:0:0:
256,192,14219,1,0,0:0:0:0:
256,192,14302,1,0,0:0:0:0:
256,192,14469,1,0,0:0:0:0:
256,192,14552,1,0,0:0:0:0:
256,192,14636,1,8,0:0:0:0:
256,192,14719,1,0,0:0:0:0:
256,192,14802,1,0,0:0:0:0:
256,192,14886,1,0,0:0:0:0:
256,192,14969,1,8,0:0:0:0:
256,192,15302,1,8,0:0:0:0:
256,192,15469,1,0,0:0:0:0:
256,192,15552,1,0,0:0:0:0:
256,192,15636,1,0,0:0:0:0:
256,192,15802,1,0,0:0:0:0:
256,192,15969,1,8,0:0:0:0:
256,192,16136,1,0,0:0:0:0:
256,192,16219,1,0,0:0:0:0:
256,192,16302,1,8,0:0:0:0:
256,192,16469,1,0,0:0:0:0:
256,192,16636,1,8,0:0:0:0:
256,192,16802,1,8,0:0:0:0:
256,192,16886,1,0,0:0:0:0:
256,192,16969,1,0,0:0:0:0:
256,192,17136,1,0,0:0:0:0:
256,192,17302,1,8,0:0:0:0:
256,192,17469,1,0,0:0:0:0:
256,192,17636,1,8,0:0:0:0:
256,192,17719,1,8,0:0:0:0:
256,192,17802,1,0,0:0:0:0:
256,192,17969,1,8,0:0:0:0:
256,192,18052,1,0,0:0:0:0:
256,192,18136,1,0,0:0:0:0:
256,192,18219,1,0,0:0:0:0:
256,192,18302,1,8,0:0:0:0:
256,192,18469,1,0,0:0:0:0:
256,192,18552,1,0,0:0:0:0:
256,192,18636,1,8,0:0:0:0:
256,192,18802,1,0,0:0:0:0:
256,192,18886,1,0,0:0:0:0:
256,192,18969,1,8,0:0:0:0:
256,192,19052,1,8,0:0:0:0:
256,192,19136,1,0,0:0:0:0:
256,192,19219,1,0,0:0:0:0:
256,192,19302,1,8,0:0:0:0:
256,192,19386,1,0,0:0:0:0:
256,192,19469,1,0,0:0:0:0:
256,192,19552,1,8,0:0:0:0:
256,192,19636,1,0,0:0:0:0:
256,192,19802,1,0,0:0:0:0:
256,192,19969,1,8,0:0:0:0:
256,192,20302,1,0,0:0:0:0:
256,192,20469,1,0,0:0:0:0:
256,192,20636,1,0,0:0:0:0:
256,192,20969,1,8,0:0:0:0:
256,192,21136,1,8,0:0:0:0:
256,192,21302,1,8,0:0:0:0:
256,192,21636,1,12,0:0:0:0:
256,192,21802,1,0,0:0:0:0:
256,192,21886,1,0,0:0:0:0:
256,192,21969,1,0,0:0:0:0:
256,192,22136,1,0,0:0:0:0:
256,192,22302,1,8,0:0:0:0:
256,192,22469,1,0,0:0:0:0:
256,192,22552,1,0,0:0:0:0:
256,192,22636,1,8,0:0:0:0:
256,192,22719,1,0,0:0:0:0:
256,192,22802,1,0,0:0:0:0:
256,192,22969,1,8,0:0:0:0:
256,192,23136,1,8,0:0:0:0:
256,192,23219,1,0,0:0:0:0:
256,192,23302,1,0,0:0:0:0:
256,192,23469,1,0,0:0:0:0:
256,192,23636,1,8,0:0:0:0:
256,192,23802,1,0,0:0:0:0:
256,192,23886,1,0,0:0:0:0:
256,192,23969,1,8,0:0:0:0:
256,192,24052,1,8,0:0:0:0:
256,192,24136,1,0,0:0:0:0:
256,192,24302,1,8,0:0:0:0:
256,192,24469,1,8,0:0:0:0:
256,192,24636,1,8,0:0:0:0:
256,192,24802,1,0,0:0:0:0:
256,192,24969,1,8,0:0:0:0:
256,192,25052,1,8,0:0:0:0:
256,192,25136,1,8,0:0:0:0:
256,192,25219,1,0,0:0:0:0:
256,192,25302,1,8,0:0:0:0:
256,192,25386,1,0,0:0:0:0:
256,192,25469,1,8,0:0:0:0:
256,192,25525,1,0,0:0:0:0:
256,192,25580,1,0,0:0:0:0:
256,192,25636,1,8,0:0:0:0:
256,192,25802,1,0,0:0:0:0:
256,192,26136,1,0,0:0:0:0:
256,128,26302,1,8,0:0:0:0:
320,128,26636,1,4,0:0:0:0:
256,192,26969,1,12,0:0:0:0:
256,192,27136,1,0,0:0:0:0:
256,192,27219,1,0,0:0:0:0:
256,192,27302,1,8,0:0:0:0:
256,192,27469,1,0,0:0:0:0:
256,192,27636,1,8,0:0:0:0:
256,192,27802,1,8,0:0:0:0:
256,192,27886,1,0,0:0:0:0:
256,192,27969,1,8,0:0:0:0:
256,192,28052,1,0,0:0:0:0:
256,192,28136,1,0,0:0:0:0:
256,192,28302,1,8,0:0:0:0:
256,192,28469,1,0,0:0:0:0:
256,192,28552,1,8,0:0:0:0:
256,192,28636,1,8,0:0:0:0:
256,192,28802,1,8,0:0:0:0:
256,192,28886,1,8,0:0:0:0:
256,192,28969,1,0,0:0:0:0:
256,192,29136,1,0,0:0:0:0:
256,192,29219,1,0,0:0:0:0:
256,192,29302,1,8,0:0:0:0:
256,192,29386,1,0,0:0:0:0:
256,192,29469,1,8,0:0:0:0:
256,192,29636,1,8,0:0:0:0:
256,192,29802,1,0,0:0:0:0:
256,192,29969,1,8,0:0:0:0:
256,192,30052,1,8,0:0:0:0:
256,192,30136,1,0,0:0:0:0:
256,192,30219,1,0,0:0:0:0:
256,192,30302,1,8,0:0:0:0:
256,192,30386,1,8,0:0:0:0:
256,192,30469,1,8,0:0:0:0:
256,192,30552,1,0,0:0:0:0:
256,192,30636,1,8,0:0:0:0:
256,192,30719,1,0,0:0:0:0:
256,192,30802,1,0,0:0:0:0:
256,192,30969,1,8,0:0:0:0:
256,192,31052,1,0,0:0:0:0:
256,192,31136,1,8,0:0:0:0:
256,192,31219,1,0,0:0:0:0:
256,192,31386,1,0,0:0:0:0:
256,192,31469,1,8,0:0:0:0:
256,192,31636,1,8,0:0:0:0:
256,192,31719,1,0,0:0:0:0:
256,192,31802,1,0,0:0:0:0:
256,192,31969,1,12,0:0:0:0:
256,192,32302,1,12,0:0:0:0:
256,192,32469,1,8,0:0:0:0:
256,192,32552,1,8,0:0:0:0:
256,192,32636,1,8,0:0:0:0:
256,192,32802,1,0,0:0:0:0:
256,192,32886,1,0,0:0:0:0:
256,192,32969,1,8,0:0:0:0:
256,192,33136,1,0,0:0:0:0:
256,192,33219,1,8,0:0:0:0:
256,192,33302,1,8,0:0:0:0:
256,192,33386,1,0,0:0:0:0:
256,192,33469,1,8,0:0:0:0:
256,192,33636,1,0,0:0:0:0:
256,192,33802,1,0,0:0:0:0:
256,192,33886,1,8,0:0:0:0:
256,192,33969,1,8,0:0:0:0:
256,192,34136,1,0,0:0:0:0:
256,192,34219,1,0,0:0:0:0:
256,192,34302,1,8,0:0:0:0:
256,192,34469,1,8,0:0:0:0:
256,192,34552,1,0,0:0:0:0:
256,192,34636,1,8,0:0:0:0:
256,192,34719,1,8,0:0:0:0:
256,192,34802,1,0,0:0:0:0:
256,192,34969,1,8,0:0:0:0:
256,192,35136,1,8,0:0:0:0:
256,192,35219,1,8,0:0:0:0:
256,192,35302,1,0,0:0:0:0:
256,192,35469,1,0,0:0:0:0:
256,192,35552,1,0,0:0:0:0:
256,192,35636,1,8,0:0:0:0:
256,192,35719,1,0,0:0:0:0:
256,192,35802,1,8,0:0:0:0:
256,192,35886,1,8,0:0:0:0:
256,192,35969,1,0,0:0:0:0:
256,192,36052,1,8,0:0:0:0:
256,192,36136,1,8,0:0:0:0:
256,192,36219,1,0,0:0:0:0:
416,160,36302,1,8,0:0:0:0:
416,160,36636,1,8,0:0:0:0:
416,160,36969,1,8,0:0:0:0:
256,192,37136,1,0,0:0:0:0:
256,192,37191,1,0,0:0:0:0:
256,192,37247,1,0,0:0:0:0:
256,192,37302,1,0,0:0:0:0:
256,192,37636,1,12,0:0:0:0:
256,192,37802,1,0,0:0:0:0:
256,192,37886,1,0,0:0:0:0:
256,192,37969,1,8,0:0:0:0:
256,192,38136,1,0,0:0:0:0:
256,192,38302,1,8,0:0:0:0:
256,192,38469,1,0,0:0:0:0:
256,192,38552,1,8,0:0:0:0:
256,192,38636,1,8,0:0:0:0:
256,192,38719,1,0,0:0:0:0:
256,192,38802,1,0,0:0:0:0:
256,192,38969,1,8,0:0:0:0:
256,192,39136,1,0,0:0:0:0:
256,192,39219,1,0,0:0:0:0:
256,192,39302,1,8,0:0:0:0:
256,192,39469,1,8,0:0:0:0:
256,192,39552,1,8,0:0:0:0:
256,192,39636,1,8,0:0:0:0:
256,192,39802,1,0,0:0:0:0:
256,192,39886,1,0,0:0:0:0:
256,192,39969,1,8,0:0:0:0:
256,192,40052,1,8,0:0:0:0:
256,192,40136,1,8,0:0:0:0:
256,192,40219,1,8,0:0:0:0:
256,192,40302,1,0,0:0:0:0:
256,192,40469,1,8,0:0:0:0:
256,192,40552,1,0,0:0:0:0:
256,192,40636,1,8,0:0:0:0:
256,192,40802,1,0,0:0:0:0:
256,192,40886,1,0,0:0:0:0:
256,192,40969,1,8,0:0:0:0:
256,192,41052,1,0,0:0:0:0:
256,192,41136,1,8,0:0:0:0:
256,192,41219,1,8,0:0:0:0:
256,192,41302,1,0,0:0:0:0:
256,192,41386,1,8,0:0:0:0:
256,192,41469,1,8,0:0:0:0:
256,192,41552,1,0,0:0:0:0:
256,192,41636,1,8,0:0:0:0:
256,192,41719,1,0,0:0:0:0:
256,192,41802,1,8,0:0:0:0:
256,192,41886,1,0,0:0:0:0:
256,192,41969,1,0,0:0:0:0:
256,192,42052,1,8,0:0:0:0:
256,192,42136,1,0,0:0:0:0:
256,192,42219,1,0,0:0:0:0:
256,192,42302,1,8,0:0:0:0:
416,160,42469,2,0,L|416:224,4,35
256,192,42969,5,4,0:0:0:0:
256,192,43136,1,0,0:0:0:0:
256,192,43302,1,8,0:0:0:0:
256,192,43469,1,8,0:0:0:0:
256,192,43552,1,8,0:0:0:0:
256,192,43636,1,0,0:0:0:0:
256,192,43802,1,0,0:0:0:0:
256,192,43886,1,0,0:0:0:0:
256,192,43969,1,8,0:0:0:0:
256,192,44136,1,8,0:0:0:0:
256,192,44302,1,0,0:0:0:0:
256,192,44469,1,0,0:0:0:0:
256,192,44636,1,8,0:0:0:0:
256,192,44802,1,8,0:0:0:0:
256,192,44886,1,8,0:0:0:0:
256,192,44969,1,0,0:0:0:0:
256,192,45136,1,0,0:0:0:0:
256,192,45302,1,8,0:0:0:0:
256,192,45469,1,0,0:0:0:0:
256,192,45552,1,0,0:0:0:0:
256,192,45636,1,8,0:0:0:0:
256,192,45719,1,0,0:0:0:0:
256,192,45886,1,0,0:0:0:0:
256,192,45969,1,8,0:0:0:0:
256,192,46136,1,0,0:0:0:0:
256,192,46302,1,8,0:0:0:0:
256,192,46386,1,0,0:0:0:0:
256,192,46552,1,0,0:0:0:0:
256,192,46636,1,8,0:0:0:0:
256,192,46802,1,0,0:0:0:0:
256,192,46969,1,8,0:0:0:0:
256,192,47302,1,8,0:0:0:0:
256,192,47469,1,8,0:0:0:0:
256,192,47552,1,8,0:0:0:0:
256,192,47636,1,8,0:0:0:0:
256,192,47802,1,0,0:0:0:0:
256,192,47969,1,8,0:0:0:0:
256,192,48136,1,0,0:0:0:0:
256,192,48219,1,0,0:0:0:0:
256,192,48302,1,0,0:0:0:0:
256,192,48469,1,0,0:0:0:0:
256,192,48636,1,8,0:0:0:0:
256,192,48802,1,8,0:0:0:0:
256,192,48886,1,8,0:0:0:0:
256,192,48969,1,0,0:0:0:0:
256,192,49136,1,0,0:0:0:0:
256,192,49219,1,0,0:0:0:0:
256,192,49302,1,8,0:0:0:0:
256,192,49469,1,8,0:0:0:0:
256,192,49636,1,0,0:0:0:0:
256,192,49802,1,0,0:0:0:0:
256,192,49969,1,8,0:0:0:0:
256,192,50136,1,8,0:0:0:0:
256,192,50219,1,8,0:0:0:0:
256,192,50302,1,0,0:0:0:0:
256,192,50469,1,0,0:0:0:0:
256,192,50636,1,8,0:0:0:0:
256,192,50802,1,0,0:0:0:0:
256,192,50969,1,8,0:0:0:0:
256,192,51052,1,0,0:0:0:0:
256,192,51219,1,0,0:0:0:0:
256,192,51302,1,8,0:0:0:0:
256,192,51469,1,0,0:0:0:0:
256,192,51636,1,8,0:0:0:0:
256,192,51719,1,8,0:0:0:0:
256,192,51886,1,0,0:0:0:0:
256,192,51969,1,8,0:0:0:0:
256,192,52136,1,8,0:0:0:0:
256,192,52302,1,0,0:0:0:0:
256,192,52636,1,8,0:0:0:0:
256,192,52802,1,0,0:0:0:0:
256,192,52886,1,0,0:0:0:0:
256,192,52969,1,8,0:0:0:0:
256,192,53080,1,0,0:0:0:0:
256,192,53191,1,0,0:0:0:0:
256,192,53302,1,8,0:0:0:0:
256,192,53636,1,12,0:0:0:0:
256,192,53802,1,0,0:0:0:0:
256,192,53969,1,8,0:0:0:0:
256,192,54136,1,0,0:0:0:0:
256,192,54219,1,0,0:0:0:0:
256,192,54302,1,0,0:0:0:0:
256,192,54469,1,0,0:0:0:0:
256,192,54636,1,8,0:0:0:0:
256,192,54802,1,8,0:0:0:0:
256,192,54969,1,0,0:0:0:0:
256,192,55136,1,0,0:0:0:0:
256,192,55219,1,8,0:0:0:0:
256,192,55302,1,8,0:0:0:0:
256,192,55469,1,0,0:0:0:0:
256,192,55552,1,8,0:0:0:0:
256,192,55636,1,0,0:0:0:0:
256,192,55802,1,0,0:0:0:0:
256,192,55969,1,8,0:0:0:0:
256,192,56219,1,0,0:0:0:0:
256,192,56302,1,8,0:0:0:0:
256,192,56469,1,8,0:0:0:0:
256,192,56552,1,8,0:0:0:0:
256,192,56636,1,8,0:0:0:0:
256,192,56802,1,0,0:0:0:0:
256,192,56969,1,8,0:0:0:0:
256,192,57136,1,0,0:0:0:0:
256,192,57219,1,0,0:0:0:0:
256,192,57302,1,8,0:0:0:0:
256,192,57469,1,8,0:0:0:0:
256,192,57636,1,0,0:0:0:0:
256,192,57802,1,8,0:0:0:0:
256,192,57886,1,0,0:0:0:0:
256,192,57969,1,8,0:0:0:0:
256,192,58136,1,0,0:0:0:0:
256,192,58302,1,8,0:0:0:0:
256,192,58469,1,8,0:0:0:0:
256,192,58636,1,0,0:0:0:0:
256,192,58802,1,0,0:0:0:0:
256,192,58969,1,8,0:0:0:0:
256,192,59136,1,0,0:0:0:0:
256,192,59219,1,0,0:0:0:0:
256,192,59302,1,8,0:0:0:0:
256,192,59469,1,8,0:0:0:0:
256,192,59552,1,8,0:0:0:0:
256,192,59636,1,0,0:0:0:0:
256,192,59802,1,0,0:0:0:0:
256,192,59969,1,8,0:0:0:0:
256,192,60136,1,8,0:0:0:0:
256,192,60302,1,0,0:0:0:0:
256,192,60469,1,0,0:0:0:0:
256,192,60552,1,0,0:0:0:0:
256,192,60636,1,8,0:0:0:0:
256,192,60802,1,8,0:0:0:0:
256,192,60886,1,8,0:0:0:0:
256,192,60969,1,0,0:0:0:0:
256,192,61136,1,0,0:0:0:0:
256,192,61302,1,8,0:0:0:0:
256,192,61636,1,0,0:0:0:0:
256,192,61802,1,8,0:0:0:0:
256,192,61886,1,8,0:0:0:0:
256,192,61969,1,8,0:0:0:0:
256,192,62136,1,8,0:0:0:0:
256,192,62302,1,0,0:0:0:0:
256,192,62469,1,0,0:0:0:0:
256,192,62636,1,8,0:0:0:0:
256,192,62802,1,8,0:0:0:0:
256,192,62969,1,0,0:0:0:0:
256,192,63302,1,0,0:0:0:0:
256,192,63636,1,8,0:0:0:0:
256,192,63802,1,0,0:0:0:0:
256,192,63969,1,0,0:0:0:0:
256,192,64302,1,12,0:0:0:0:
256,192,64469,1,0,0:0:0:0:
256,192,64636,1,8,0:0:0:0:
256,192,64719,1,8,0:0:0:0:
256,192,64802,1,0,0:0:0:0:
256,192,64969,1,8,0:0:0:0:
256,192,65052,1,8,0:0:0:0:
256,192,65136,1,0,0:0:0:0:
256,192,65219,1,0,0:0:0:0:
256,192,65302,1,8,0:0:0:0:
256,192,65469,1,8,0:0:0:0:
256,192,65636,1,0,0:0:0:0:
256,192,65802,1,0,0:0:0:0:
256,192,65886,1,0,0:0:0:0:
256,192,65969,1,8,0:0:0:0:
256,192,66136,1,0,0:0:0:0:
256,192,66302,1,8,0:0:0:0:
256,192,66386,1,0,0:0:0:0:
256,192,66469,1,0,0:0:0:0:
256,192,66552,1,0,0:0:0:0:
256,192,66636,1,8,0:0:0:0:
288,128,66969,1,8,0:0:0:0:
256,192,67136,1,0,0:0:0:0:
256,192,67219,1,0,0:0:0:0:
256,192,67302,1,8,0:0:0:0:
256,192,67469,1,0,0:0:0:0:
256,192,67636,1,8,0:0:0:0:
256,192,67802,1,8,0:0:0:0:
256,192,67886,1,0,0:0:0:0:
256,192,67969,1,8,0:0:0:0:
256,192,68136,1,0,0:0:0:0:
256,192,68302,1,8,0:0:0:0:
256,192,68386,1,0,0:0:0:0:
256,192,68469,1,0,0:0:0:0:
256,192,68636,1,8,0:0:0:0:
256,192,68802,1,0,0:0:0:0:
256,192,68969,1,8,0:0:0:0:
256,192,69052,1,8,0:0:0:0:
256,192,69136,1,0,0:0:0:0:
256,192,69219,1,0,0:0:0:0:
256,192,69302,1,8,0:0:0:0:
256,192,69469,1,0,0:0:0:0:
256,192,69552,1,0,0:0:0:0:
256,192,69636,1,8,0:0:0:0:
256,192,69969,1,8,0:0:0:0:
256,192,70136,1,8,0:0:0:0:
256,192,70302,1,0,0:0:0:0:
256,192,70386,1,8,0:0:0:0:
256,192,70469,1,0,0:0:0:0:
256,192,70552,1,0,0:0:0:0:
256,192,70636,1,8,0:0:0:0:
256,192,70969,1,0,0:0:0:0:
256,192,71136,1,0,0:0:0:0:
256,192,71302,1,8,0:0:0:0:
256,192,71386,1,0,0:0:0:0:
256,192,71469,1,8,0:0:0:0:
256,192,71552,1,8,0:0:0:0:
256,192,71636,1,0,0:0:0:0:
256,192,71802,1,0,0:0:0:0:
256,192,71886,1,0,0:0:0:0:
256,192,71969,1,8,0:0:0:0:
256,192,72136,1,0,0:0:0:0:
256,192,72219,1,0,0:0:0:0:
256,192,72469,1,0,0:0:0:0:
256,192,72636,1,8,0:0:0:0:
256,192,72802,1,0,0:0:0:0:
256,192,73136,1,0,0:0:0:0:
256,192,73302,1,8,0:0:0:0:
256,192,73469,1,8,0:0:0:0:
256,192,73802,1,0,0:0:0:0:
256,192,73969,1,8,0:0:0:0:
256,192,74136,1,0,0:0:0:0:
256,192,74219,1,0,0:0:0:0:
256,192,74302,1,8,0:0:0:0:
256,192,74386,1,0,0:0:0:0:
256,192,74469,1,0,0:0:0:0:
256,192,74552,1,8,0:0:0:0:
256,192,74636,1,0,0:0:0:0:
256,192,74719,1,0,0:0:0:0:
256,192,74802,1,8,0:0:0:0:
256,192,74969,1,12,0:0:0:0:
256,192,75302,1,0,0:0:0:0:
256,192,75469,1,8,0:0:0:0:
256,192,75636,1,8,0:0:0:0:
256,192,75802,1,0,0:0:0:0:
256,192,76136,1,0,0:0:0:0:
256,192,76302,1,8,0:0:0:0:
256,192,76469,1,0,0:0:0:0:
256,192,76802,1,8,0:0:0:0:
256,192,76969,1,8,0:0:0:0:
256,192,77136,1,0,0:0:0:0:
256,192,77302,1,0,0:0:0:0:
256,192,77469,1,0,0:0:0:0:
256,192,77636,1,8,0:0:0:0:
256,192,77969,1,0,0:0:0:0:
256,192,78136,1,8,0:0:0:0:
256,192,78302,1,8,0:0:0:0:
256,192,78469,1,0,0:0:0:0:
256,192,78802,1,0,0:0:0:0:
256,192,78969,1,8,0:0:0:0:
256,192,79136,1,0,0:0:0:0:
256,192,79469,1,0,0:0:0:0:
256,192,79636,1,8,0:0:0:0:
256,192,79802,1,0,0:0:0:0:
256,192,79886,1,8,0:0:0:0:
256,192,79969,1,8,0:0:0:0:
256,192,80136,1,8,0:0:0:0:
256,192,80219,1,8,0:0:0:0:
256,192,80302,1,8,0:0:0:0:
256,192,81802,1,8,0:0:0:0:
256,192,82136,1,8,0:0:0:0:
256,192,82636,1,0,0:0:0:0:
256,192,82802,1,0,0:0:0:0:
256,192,82969,1,8,0:0:0:0:
256,192,83469,1,0,0:0:0:0:
256,192,83802,1,0,0:0:0:0:
256,192,84302,5,8,0:0:0:0:
256,192,84802,1,8,0:0:0:0:
256,192,84969,1,0,0:0:0:0:
256,192,85136,1,8,0:0:0:0:
256,192,85302,1,8,0:0:0:0:
256,192,85469,1,8,0:0:0:0:
256,192,85552,1,8,0:0:0:0:
256,192,85636,1,8,0:0:0:0:
256,192,86136,1,0,0:0:0:0:
256,192,86302,1,8,0:0:0:0:
256,192,86469,1,0,0:0:0:0:
256,192,86802,1,0,0:0:0:0:
256,192,86969,1,0,0:0:0:0:
256,192,87469,1,0,0:0:0:0:
256,192,87636,1,8,0:0:0:0:
256,192,87969,1,8,0:0:0:0:
256,192,88136,1,0,0:0:0:0:
256,192,88302,1,0,0:0:0:0:
256,192,88636,1,8,0:0:0:0:
256,192,88802,1,0,0:0:0:0:
256,192,88969,1,0,0:0:0:0:
256,192,89136,1,8,0:0:0:0:
256,192,89302,1,8,0:0:0:0:
256,192,89469,1,0,0:0:0:0:
256,192,89636,1,8,0:0:0:0:
256,192,89802,1,0,0:0:0:0:
256,192,89886,1,0,0:0:0:0:
256,192,89969,1,8,0:0:0:0:
256,192,90136,1,8,0:0:0:0:
256,192,90219,1,8,0:0:0:0:
256,192,90302,1,0,0:0:0:0:
256,192,90386,1,0,0:0:0:0:
256,192,90469,1,8,0:0:0:0:
256,192,90552,1,0,0:0:0:0:
256,192,90636,1,8,0:0:0:0:
256,192,90719,1,8,0:0:0:0:
256,192,90802,1,8,0:0:0:0:
256,192,90886,1,8,0:0:0:0:
256,192,90969,1,0,0:0:0:0:
256,192,91136,1,0,0:0:0:0:
256,192,91302,1,8,0:0:0:0:
256,192,91469,1,0,0:0:0:0:
256,192,91552,1,0,0:0:0:0:
256,192,91636,1,8,0:0:0:0:
256,192,91802,1,0,0:0:0:0:
256,192,91969,1,8,0:0:0:0:
256,192,92136,1,0,0:0:0:0:
256,192,92219,1,0,0:0:0:0:
256,192,92302,1,0,0:0:0:0:
256,192,92469,1,0,0:0:0:0:
256,192,92636,1,8,0:0:0:0:
256,192,92802,1,8,0:0:0:0:
256,192,92886,1,0,0:0:0:0:
256,192,92969,1,0,0:0:0:0:
256,192,93136,1,0,0:0:0:0:
256,192,93219,1,0,0:0:0:0:
256,192,93302,1,8,0:0:0:0:
256,192,93386,1,0,0:0:0:0:
256,192,93469,1,0,0:0:0:0:
256,192,93636,1,8,0:0:0:0:
256,192,93969,1,8,0:0:0:0:
256,192,94136,1,8,0:0:0:0:
256,192,94219,1,8,0:0:0:0:
256,192,94302,1,0,0:0:0:0:
256,192,94469,1,0,0:0:0:0:
256,192,94636,1,8,0:0:0:0:
256,192,94719,1,0,0:0:0:0:
256,192,94802,1,0,0:0:0:0:
256,192,94886,1,8,0:0:0:0:
256,192,94969,1,0,0:0:0:0:
256,192,95136,1,0,0:0:0:0:
256,192,95302,1,8,0:0:0:0:
256,192,95469,1,0,0:0:0:0:
256,192,95552,1,0,0:0:0:0:
256,192,95636,1,8,0:0:0:0:
256,192,95802,1,0,0:0:0:0:
256,192,95886,1,0,0:0:0:0:
256,192,95969,1,8,0:0:0:0:
256,192,96052,1,8,0:0:0:0:
256,192,96136,1,0,0:0:0:0:
256,192,96219,1,8,0:0:0:0:
256,192,96302,1,0,0:0:0:0:
256,192,96469,1,8,0:0:0:0:
256,192,96636,1,8,0:0:0:0:
256,192,96802,1,0,0:0:0:0:
256,192,96886,1,0,0:0:0:0:
256,192,96969,1,8,0:0:0:0:
256,192,97136,1,0,0:0:0:0:
256,192,97302,1,8,0:0:0:0:
256,192,97469,1,0,0:0:0:0:
256,192,97552,1,0,0:0:0:0:
256,192,97636,1,0,0:0:0:0:
256,192,97802,1,0,0:0:0:0:
256,192,97969,1,8,0:0:0:0:
256,192,98136,1,8,0:0:0:0:
256,192,98219,1,0,0:0:0:0:
256,192,98302,1,0,0:0:0:0:
256,192,98469,1,0,0:0:0:0:
256,192,98552,1,0,0:0:0:0:
256,192,98636,1,8,0:0:0:0:
256,192,98719,1,0,0:0:0:0:
256,192,98802,1,0,0:0:0:0:
256,192,98969,1,0,0:0:0:0:
256,192,99302,1,8,0:0:0:0:
256,192,99469,1,8,0:0:0:0:
256,192,99552,1,8,0:0:0:0:
256,192,99636,1,0,0:0:0:0:
256,192,99802,1,0,0:0:0:0:
256,192,99969,1,8,0:0:0:0:
256,192,100052,1,0,0:0:0:0:
256,192,100136,1,0,0:0:0:0:
256,192,100219,1,8,0:0:0:0:
256,192,100302,1,0,0:0:0:0:
256,192,100469,1,0,0:0:0:0:
256,192,100636,1,8,0:0:0:0:
256,192,100802,1,8,0:0:0:0:
256,192,100969,1,0,0:0:0:0:
256,192,101052,1,0,0:0:0:0:
256,192,101219,1,0,0:0:0:0:
256,192,101302,1,8,0:0:0:0:
256,192,101469,1,8,0:0:0:0:
256,192,101636,1,0,0:0:0:0:
256,192,101719,1,0,0:0:0:0:
256,192,101802,1,8,0:0:0:0:
256,192,101886,1,0,0:0:0:0:
256,192,102052,1,0,0:0:0:0:
256,192,102136,1,8,0:0:0:0:
256,192,102302,1,0,0:0:0:0:
256,192,102469,1,8,0:0:0:0:
256,192,102636,1,0,0:0:0:0:
256,192,102719,1,0,0:0:0:0:
256,192,102802,1,0,0:0:0:0:
256,192,102969,1,0,0:0:0:0:
256,192,103052,1,0,0:0:0:0:
256,192,103136,1,8,0:0:0:0:
256,192,103219,1,0,0:0:0:0:
256,192,103302,1,8,0:0:0:0:
256,192,103386,1,0,0:0:0:0:
256,192,103469,1,0,0:0:0:0:
256,192,103552,1,8,0:0:0:0:
256,192,103636,1,0,0:0:0:0:
256,192,103719,1,0,0:0:0:0:
256,192,103802,1,8,0:0:0:0:
256,192,103886,1,0,0:0:0:0:
256,192,103969,1,8,0:0:0:0:
256,192,104052,1,0,0:0:0:0:
256,192,104136,1,0,0:0:0:0:
256,192,104219,1,8,0:0:0:0:
256,192,104302,1,0,0:0:0:0:
256,192,104386,1,0,0:0:0:0:
256,192,104469,1,8,0:0:0:0:
256,192,104552,1,0,0:0:0:0:
256,192,104636,1,8,0:0:0:0:
256,192,104719,1,0,0:0:0:0:
256,192,104802,1,0,0:0:0:0:
256,192,104886,1,8,0:0:0:0:
256,192,104969,1,0,0:0:0:0:
256,192,105052,1,0,0:0:0:0:
256,192,105136,1,8,0:0:0:0:
256,192,105219,1,0,0:0:0:0:
256,192,105302,1,8,0:0:0:0:
256,192,105386,1,0,0:0:0:0:
256,192,105469,1,0,0:0:0:0:
256,192,105552,1,8,0:0:0:0:
256,192,105636,1,0,0:0:0:0:
256,192,105719,1,0,0:0:0:0:
256,192,105802,1,8,0:0:0:0:
256,192,105886,1,0,0:0:0:0:
256,192,105969,1,0,0:0:0:0:
256,192,106052,1,8,0:0:0:0:
256,192,106136,1,0,0:0:0:0:
256,192,106219,1,0,0:0:0:0:
256,192,106302,1,8,0:0:0:0:
256,192,106386,1,0,0:0:0:0:
256,192,106469,1,8,0:0:0:0:
256,192,106552,1,0,0:0:0:0:
512,0,106636,1,8,0:0:0:0:
256,192,106802,1,8,0:0:0:0:
256,192,106969,1,0,0:0:0:0:
256,192,107136,1,0,0:0:0:0:
256,192,107219,1,0,0:0:0:0:
256,192,107302,1,8,0:0:0:0:
256,192,107469,1,0,0:0:0:0:
256,192,107636,1,8,0:0:0:0:
256,192,107719,1,8,0:0:0:0:
256,192,107802,1,0,0:0:0:0:
256,192,107969,1,8,0:0:0:0:
256,192,108052,5,8,0:0:0:0:
256,192,108136,1,8,0:0:0:0:
256,192,108219,1,0,0:0:0:0:
256,192,108302,1,8,0:0:0:0:
256,192,108469,1,0,0:0:0:0:
256,192,108636,1,8,0:0:0:0:
256,192,108719,1,0,0:0:0:0:
256,192,108802,1,8,0:0:0:0:
256,192,108886,1,8,0:0:0:0:
256,192,108969,1,0,0:0:0:0:
256,192,109052,1,8,0:0:0:0:
256,192,109136,1,0,0:0:0:0:
256,192,109219,1,0,0:0:0:0:
256,192,109302,1,8,0:0:0:0:
256,192,109386,1,0,0:0:0:0:
256,192,109469,1,0,0:0:0:0:
256,192,109552,1,0,0:0:0:0:
256,192,109636,1,8,0:0:0:0:
256,192,109719,1,8,0:0:0:0:
256,192,109802,1,0,0:0:0:0:
256,192,109886,1,0,0:0:0:0:
256,192,109969,1,8,0:0:0:0:
256,192,110052,1,0,0:0:0:0:
256,192,110136,1,8,0:0:0:0:
256,192,110219,1,8,0:0:0:0:
256,192,110302,1,0,0:0:0:0:
256,192,110386,1,0,0:0:0:0:
256,192,110469,1,8,0:0:0:0:
256,192,110552,1,0,0:0:0:0:
256,192,110636,1,8,0:0:0:0:
256,192,110719,1,8,0:0:0:0:
256,192,110802,1,8,0:0:0:0:
256,192,110969,1,4,0:0:0:0:
256,192,111219,1,4,0:0:0:0:
256,192,111469,1,4,0:0:0:0:
256,192,111719,1,4,0:0:0:0:
256,192,111969,1,4,0:0:0:0:
256,192,112302,1,12,0:0:0:0:
256,192,112469,1,0,0:0:0:0:
256,192,112636,1,8,0:0:0:0:
256,192,112802,1,8,0:0:0:0:
256,192,112886,1,8,0:0:0:0:
256,192,112969,1,0,0:0:0:0:
256,192,113052,1,0,0:0:0:0:
256,192,113136,1,0,0:0:0:0:
256,192,113219,1,0,0:0:0:0:
256,192,113302,1,8,0:0:0:0:
256,192,113469,1,0,0:0:0:0:
256,192,113636,1,8,0:0:0:0:
256,192,113802,1,0,0:0:0:0:
256,192,113886,1,0,0:0:0:0:
256,192,113969,1,8,0:0:0:0:
256,192,114052,1,0,0:0:0:0:
256,192,114136,1,8,0:0:0:0:
256,192,114219,1,8,0:0:0:0:
256,192,114302,1,0,0:0:0:0:
256,192,114469,1,8,0:0:0:0:
256,192,114552,1,8,0:0:0:0:
256,192,114636,1,8,0:0:0:0:
256,192,114802,1,8,0:0:0:0:
256,192,114969,1,0,0:0:0:0:
256,192,115136,1,0,0:0:0:0:
256,192,115219,1,0,0:0:0:0:
256,192,115302,1,8,0:0:0:0:
256,192,115469,1,8,0:0:0:0:
256,192,115552,1,8,0:0:0:0:
256,192,115636,1,0,0:0:0:0:
256,192,115719,1,8,0:0:0:0:
256,192,115802,1,0,0:0:0:0:
256,192,115886,1,0,0:0:0:0:
256,192,115969,1,8,0:0:0:0:
256,192,116136,1,0,0:0:0:0:
256,192,116219,1,0,0:0:0:0:
256,192,116302,1,8,0:0:0:0:
256,192,116469,1,0,0:0:0:0:
256,192,116552,1,0,0:0:0:0:
256,192,116636,1,8,0:0:0:0:
256,192,116719,1,8,0:0:0:0:
256,192,116802,1,0,0:0:0:0:
256,192,116886,1,0,0:0:0:0:
256,192,116969,1,8,0:0:0:0:
256,192,117052,1,0,0:0:0:0:
256,192,117136,1,0,0:0:0:0:
256,192,117302,1,8,0:0:0:0:
256,192,117636,1,0,0:0:0:0:
256,192,117802,1,0,0:0:0:0:
256,192,117886,1,0,0:0:0:0:
256,192,117969,1,8,0:0:0:0:
256,192,118136,1,8,0:0:0:0:
256,192,118219,1,8,0:0:0:0:
256,192,118302,1,0,0:0:0:0:
256,192,118386,1,0,0:0:0:0:
256,192,118469,1,0,0:0:0:0:
256,192,118552,1,0,0:0:0:0:
256,192,118636,1,8,0:0:0:0:
256,192,118802,1,0,0:0:0:0:
256,192,118969,1,8,0:0:0:0:
256,192,119136,1,0,0:0:0:0:
256,192,119219,1,0,0:0:0:0:
256,192,119302,1,8,0:0:0:0:
256,192,119386,1,0,0:0:0:0:
256,192,119469,1,8,0:0:0:0:
256,192,119552,1,8,0:0:0:0:
256,192,119636,1,0,0:0:0:0:
256,192,119802,1,0,0:0:0:0:
256,192,119886,1,8,0:0:0:0:
256,192,119969,1,8,0:0:0:0:
256,192,120136,1,0,0:0:0:0:
256,192,120302,1,8,0:0:0:0:
256,192,120469,1,0,0:0:0:0:
256,192,120552,1,0,0:0:0:0:
256,192,120636,1,8,0:0:0:0:
256,192,120802,1,8,0:0:0:0:
256,192,120886,1,8,0:0:0:0:
256,192,120969,1,0,0:0:0:0:
256,192,121052,1,8,0:0:0:0:
256,192,121136,1,0,0:0:0:0:
256,192,121219,1,0,0:0:0:0:
256,192,121302,1,8,0:0:0:0:
256,192,121469,1,0,0:0:0:0:
256,192,121552,1,0,0:0:0:0:
256,192,121636,1,8,0:0:0:0:
256,192,121802,1,0,0:0:0:0:
256,192,121886,1,0,0:0:0:0:
256,192,121969,1,8,0:0:0:0:
256,192,122052,1,8,0:0:0:0:
256,192,122136,1,0,0:0:0:0:
256,192,122219,1,0,0:0:0:0:
256,192,122302,1,8,0:0:0:0:
256,192,122469,1,0,0:0:0:0:
256,192,122636,1,8,0:0:0:0:
256,192,122969,1,4,0:0:0:0:
256,192,123136,1,0,0:0:0:0:
256,192,123302,1,8,0:0:0:0:
256,192,123386,1,0,0:0:0:0:
256,192,123469,1,0,0:0:0:0:
256,192,123552,1,0,0:0:0:0:
256,192,123636,1,8,0:0:0:0:
256,192,123802,1,0,0:0:0:0:
256,192,123969,1,8,0:0:0:0:
256,192,124052,1,0,0:0:0:0:
256,192,124136,1,0,0:0:0:0:
256,192,124219,1,8,0:0:0:0:
256,192,124302,1,8,0:0:0:0:
256,192,124469,1,0,0:0:0:0:
256,192,124552,1,0,0:0:0:0:
256,192,124636,1,8,0:0:0:0:
256,192,124719,1,0,0:0:0:0:
256,192,124802,1,0,0:0:0:0:
256,192,124886,1,0,0:0:0:0:
256,192,124969,1,8,0:0:0:0:
256,192,125136,1,0,0:0:0:0:
256,192,125219,1,0,0:0:0:0:
256,192,125302,1,8,0:0:0:0:
256,192,125636,1,8,0:0:0:0:
256,192,125719,1,8,0:0:0:0:
256,192,125802,1,0,0:0:0:0:
256,192,125886,1,0,0:0:0:0:
256,192,125969,1,8,0:0:0:0:
256,192,126136,1,8,0:0:0:0:
256,192,126219,1,8,0:0:0:0:
256,192,126302,1,0,0:0:0:0:
256,192,126386,1,8,0:0:0:0:
256,192,126469,1,0,0:0:0:0:
256,192,126552,1,0,0:0:0:0:
256,192,126636,1,8,0:0:0:0:
256,192,126802,1,0,0:0:0:0:
256,192,126886,1,0,0:0:0:0:
256,192,126969,1,8,0:0:0:0:
256,192,127052,1,8,0:0:0:0:
256,192,127136,1,0,0:0:0:0:
256,192,127219,1,0,0:0:0:0:
256,192,127302,1,8,0:0:0:0:
256,192,127386,1,0,0:0:0:0:
256,192,127469,1,8,0:0:0:0:
256,192,127525,1,0,0:0:0:0:
256,192,127580,1,0,0:0:0:0:
256,192,127636,1,8,0:0:0:0:
256,192,127802,1,0,0:0:0:0:
256,192,127969,1,8,0:0:0:0:
256,192,128302,1,4,0:0:0:0:
256,192,128469,1,0,0:0:0:0:
256,192,128636,1,8,0:0:0:0:
256,192,128802,1,0,0:0:0:0:
256,192,128886,1,0,0:0:0:0:
256,192,128969,1,8,0:0:0:0:
256,192,129052,1,0,0:0:0:0:
256,192,129136,1,0,0:0:0:0:
256,192,129302,1,8,0:0:0:0:
256,192,129386,1,0,0:0:0:0:
256,192,129469,1,0,0:0:0:0:
256,192,129552,1,0,0:0:0:0:
256,192,129636,1,8,0:0:0:0:
256,192,129802,1,0,0:0:0:0:
256,192,129886,1,0,0:0:0:0:
256,192,129969,1,8,0:0:0:0:
256,192,130052,1,0,0:0:0:0:
256,192,130136,1,0,0:0:0:0:
256,192,130219,1,0,0:0:0:0:
256,192,130302,1,8,0:0:0:0:
256,192,130469,1,8,0:0:0:0:
256,192,130552,1,0,0:0:0:0:
256,192,130636,1,8,0:0:0:0:
256,192,130969,1,8,0:0:0:0:
256,192,131136,1,8,0:0:0:0:
256,192,131219,1,0,0:0:0:0:
256,192,131302,1,8,0:0:0:0:
240,192,131386,1,8,0:0:0:0:
256,192,131469,1,0,0:0:0:0:
256,192,131552,1,8,0:0:0:0:
256,192,131636,1,8,0:0:0:0:
256,192,131802,1,0,0:0:0:0:
256,192,131886,1,0,0:0:0:0:
256,192,131969,1,8,0:0:0:0:
256,192,132136,1,8,0:0:0:0:
256,192,132302,1,0,0:0:0:0:
256,192,132636,1,0,0:0:0:0:
256,192,132969,1,0,0:0:0:0:
256,192,133302,1,8,0:0:0:0:
256,192,133636,1,12,0:0:0:0:
256,192,133802,1,0,0:0:0:0:
256,192,133969,1,8,0:0:0:0:
256,192,134136,1,0,0:0:0:0:
256,192,134219,1,0,0:0:0:0:
256,192,134302,1,8,0:0:0:0:
256,192,134386,1,8,0:0:0:0:
256,192,134552,1,8,0:0:0:0:
256,192,134636,1,8,0:0:0:0:
256,192,134719,1,0,0:0:0:0:
256,192,134802,1,8,0:0:0:0:
256,192,134969,1,8,0:0:0:0:
256,192,135136,1,0,0:0:0:0:
256,192,135302,1,8,0:0:0:0:
256,192,135469,1,0,0:0:0:0:
256,192,135552,1,0,0:0:0:0:
256,192,135636,1,8,0:0:0:0:
256,192,135719,1,0,0:0:0:0:
256,192,135886,1,8,0:0:0:0:
256,192,135969,1,8,0:0:0:0:
256,192,136052,1,0,0:0:0:0:
256,192,136136,1,0,0:0:0:0:
257,198,136302,1,0,0:0:0:0:
256,192,136386,1,0,0:0:0:0:
256,192,136469,1,0,0:0:0:0:
256,192,136636,1,8,0:0:0:0:
256,192,136719,1,8,0:0:0:0:
256,192,136802,1,8,0:0:0:0:
256,192,136969,1,0,0:0:0:0:
256,192,137052,1,0,0:0:0:0:
256,192,137219,1,8,0:0:0:0:
256,192,137302,1,8,0:0:0:0:
256,192,137469,1,8,0:0:0:0:
256,192,137636,1,0,0:0:0:0:
256,192,137719,1,0,0:0:0:0:
256,192,137802,1,0,0:0:0:0:
256,192,137886,1,0,0:0:0:0:
256,192,137969,1,8,0:0:0:0:
256,192,138052,1,8,0:0:0:0:
256,192,138136,1,8,0:0:0:0:
256,192,138219,1,8,0:0:0:0:
256,192,138302,1,0,0:0:0:0:
256,192,138386,1,0,0:0:0:0:
256,192,138469,1,8,0:0:0:0:
256,192,138552,1,8,0:0:0:0:
256,192,138636,1,0,0:0:0:0:
256,192,138719,1,8,0:0:0:0:
256,192,138802,1,8,0:0:0:0:
256,192,138886,1,8,0:0:0:0:
256,192,138969,1,0,0:0:0:0:
256,192,139136,1,0,0:0:0:0:
256,192,139219,1,0,0:0:0:0:
256,192,139302,1,8,0:0:0:0:
256,192,139469,1,8,0:0:0:0:
256,192,139636,1,0,0:0:0:0:
256,192,139802,1,0,0:0:0:0:
256,192,139969,1,8,0:0:0:0:
256,192,140052,1,8,0:0:0:0:
256,192,140136,1,0,0:0:0:0:
256,192,140302,1,0,0:0:0:0:
256,192,140469,1,8,0:0:0:0:
256,192,140636,1,8,0:0:0:0:
256,192,140719,1,0,0:0:0:0:
256,192,140802,1,8,0:0:0:0:
256,192,140886,1,8,0:0:0:0:
256,192,140969,1,0,0:0:0:0:
256,192,141136,1,0,0:0:0:0:
256,192,141302,1,8,0:0:0:0:
256,192,141469,1,0,0:0:0:0:
256,192,141552,1,0,0:0:0:0:
256,192,141636,1,8,0:0:0:0:
256,192,141802,1,0,0:0:0:0:
256,192,141969,1,8,0:0:0:0:
256,192,142136,1,0,0:0:0:0:
256,192,142302,1,8,0:0:0:0:
256,192,142386,1,0,0:0:0:0:
256,192,142469,1,0,0:0:0:0:
256,192,142636,1,8,0:0:0:0:
256,192,142802,1,8,0:0:0:0:
256,192,142886,1,0,0:0:0:0:
256,192,142969,1,8,0:0:0:0:
256,192,143052,1,0,0:0:0:0:
256,192,143136,1,0,0:0:0:0:
256,192,143219,1,0,0:0:0:0:
256,192,143302,1,8,0:0:0:0:
256,192,143386,1,0,0:0:0:0:
256,192,143469,1,0,0:0:0:0:
256,192,143552,1,0,0:0:0:0:
256,192,143636,1,8,0:0:0:0:
256,192,143719,1,8,0:0:0:0:
256,192,143802,1,0,0:0:0:0:
256,192,143886,1,0,0:0:0:0:
256,192,143969,1,8,0:0:0:0:
256,192,144052,1,8,0:0:0:0:
256,192,144136,1,0,0:0:0:0:
256,192,144219,1,8,0:0:0:0:
256,192,144302,1,8,0:0:0:0:
256,192,144469,1,0,0:0:0:0:
256,192,144636,1,8,0:0:0:0:
256,192,144802,1,8,0:0:0:0:
256,192,144969,1,0,0:0:0:0:
256,192,145136,1,0,0:0:0:0:
256,192,145219,1,0,0:0:0:0:
256,192,145302,1,8,0:0:0:0:
256,192,145469,1,8,0:0:0:0:
256,192,145636,1,0,0:0:0:0:
256,192,145802,1,0,0:0:0:0:
256,192,145969,1,8,0:0:0:0:
256,192,146052,1,8,0:0:0:0:
256,192,146136,1,8,0:0:0:0:
256,192,146219,1,8,0:0:0:0:
256,192,146302,1,0,0:0:0:0:
256,192,146469,1,8,0:0:0:0:
256,192,146636,1,8,0:0:0:0:
256,192,146802,1,0,0:0:0:0:
256,192,146886,1,0,0:0:0:0:
256,192,146969,1,8,0:0:0:0:
256,192,147136,1,0,0:0:0:0:
256,192,147302,1,8,0:0:0:0:
256,192,147469,1,0,0:0:0:0:
256,192,147636,1,8,0:0:0:0:
256,192,147719,1,8,0:0:0:0:
256,192,147802,1,0,0:0:0:0:
256,192,147969,1,8,0:0:0:0:
256,192,148136,1,0,0:0:0:0:
256,192,148302,1,4,0:0:0:0:
256,192,148636,1,4,0:0:0:0:
256,192,148969,1,4,0:0:0:0:
256,192,149302,1,8,0:0:0:0:
256,192,149469,1,0,0:0:0:0:
256,192,149636,1,12,0:0:0:0:
256,192,149802,1,0,0:0:0:0:
256,192,149886,1,8,0:0:0:0:
256,192,149969,1,8,0:0:0:0:
256,192,150052,1,0,0:0:0:0:
256,192,150136,1,8,0:0:0:0:
256,192,150302,1,0,0:0:0:0:
256,192,150386,1,0,0:0:0:0:
256,192,150469,1,8,0:0:0:0:
256,192,150636,1,8,0:0:0:0:
256,192,150719,1,8,0:0:0:0:
256,192,150802,1,0,0:0:0:0:
256,192,150886,5,0,0:0:0:0:
256,192,150969,1,8,0:0:0:0:
256,192,151136,1,0,0:0:0:0:
256,192,151219,1,0,0:0:0:0:
256,192,151302,1,8,0:0:0:0:
256,192,151386,1,0,0:0:0:0:
256,192,151469,1,0,0:0:0:0:
256,192,151552,1,8,0:0:0:0:
256,192,151636,1,0,0:0:0:0:
256,192,151802,1,0,0:0:0:0:
256,192,151886,1,0,0:0:0:0:
256,192,151969,1,8,0:0:0:0:
256,192,152052,1,0,0:0:0:0:
256,192,152136,1,0,0:0:0:0:
256,192,152302,1,8,0:0:0:0:
256,192,152386,1,0,0:0:0:0:
256,192,152469,1,8,0:0:0:0:
256,192,152552,1,8,0:0:0:0:
256,192,152636,1,0,0:0:0:0:
256,192,152719,1,8,0:0:0:0:
256,192,152802,1,8,0:0:0:0:
256,192,152886,1,0,0:0:0:0:
256,192,152969,1,8,0:0:0:0:
256,192,153136,1,0,0:0:0:0:
256,192,153219,1,0,0:0:0:0:
256,192,153302,1,8,0:0:0:0:
256,192,153386,1,0,0:0:0:0:
256,192,153469,1,8,0:0:0:0:
256,192,153552,1,8,0:0:0:0:
256,192,153636,1,0,0:0:0:0:
256,192,153802,1,0,0:0:0:0:
256,192,153969,1,8,0:0:0:0:
256,192,154052,1,8,0:0:0:0:
256,192,154136,1,8,0:0:0:0:
256,192,154219,1,8,0:0:0:0:
256,192,154302,1,0,0:0:0:0:
256,192,154386,1,0,0:0:0:0:
256,192,154469,1,0,0:0:0:0:
256,192,154552,1,0,0:0:0:0:
256,192,154636,1,8,0:0:0:0:
256,192,154802,1,8,0:0:0:0:
256,192,154969,1,0,0:0:0:0:
256,192,155136,1,0,0:0:0:0:
256,192,155219,1,8,0:0:0:0:
256,192,155302,1,8,0:0:0:0:
256,192,155386,1,0,0:0:0:0:
256,192,155469,1,8,0:0:0:0:
256,192,155636,1,0,0:0:0:0:
256,192,155719,1,0,0:0:0:0:
256,192,155802,1,8,0:0:0:0:
256,192,155969,1,8,0:0:0:0:
256,192,156052,1,8,0:0:0:0:
256,192,156136,1,0,0:0:0:0:
256,192,156219,1,0,0:0:0:0:
256,192,156302,1,8,0:0:0:0:
256,192,156469,1,0,0:0:0:0:
256,192,156552,1,0,0:0:0:0:
256,192,156636,1,8,0:0:0:0:
256,192,156719,1,0,0:0:0:0:
256,192,156802,1,0,0:0:0:0:
256,192,156886,1,8,0:0:0:0:
256,192,156969,1,0,0:0:0:0:
256,192,157136,1,0,0:0:0:0:
256,192,157219,1,0,0:0:0:0:
256,192,157302,1,8,0:0:0:0:
256,192,157386,1,0,0:0:0:0:
256,192,157469,1,0,0:0:0:0:
256,192,157636,1,8,0:0:0:0:
256,192,157719,1,0,0:0:0:0:
256,192,157802,1,8,0:0:0:0:
256,192,157886,1,8,0:0:0:0:
256,192,157969,1,0,0:0:0:0:
256,192,158052,1,8,0:0:0:0:
256,192,158136,1,8,0:0:0:0:
256,192,158219,1,0,0:0:0:0:
256,192,158302,1,8,0:0:0:0:
256,192,158469,1,0,0:0:0:0:
256,192,158552,1,0,0:0:0:0:
256,192,158636,1,8,0:0:0:0:
256,192,158719,1,0,0:0:0:0:
256,192,158802,1,8,0:0:0:0:
256,192,158886,1,8,0:0:0:0:
256,192,158969,1,0,0:0:0:0:
256,192,159136,1,0,0:0:0:0:
256,192,159219,1,0,0:0:0:0:
256,192,159302,1,8,0:0:0:0:
256,192,159386,1,0,0:0:0:0:
256,192,159469,1,0,0:0:0:0:
256,192,159552,1,0,0:0:0:0:
256,192,159636,1,8,0:0:0:0:
256,192,159802,1,0,0:0:0:0:
256,192,159886,1,0,0:0:0:0:
256,192,159969,1,8,0:0:0:0:
256,192,160052,1,0,0:0:0:0:
256,192,160136,1,8,0:0:0:0:
256,192,160302,1,4,0:0:0:0:
256,192,160469,1,8,0:0:0:0:
256,192,160552,1,0,0:0:0:0:
256,192,160636,1,8,0:0:0:0:
256,192,160802,1,0,0:0:0:0:
256,192,160969,1,8,0:0:0:0:
256,192,161136,1,0,0:0:0:0:
256,192,161219,1,0,0:0:0:0:
256,192,161302,1,8,0:0:0:0:
256,192,161469,1,0,0:0:0:0:
256,192,161636,1,8,0:0:0:0:
256,192,161802,1,8,0:0:0:0:
256,192,161969,1,8,0:0:0:0:
256,192,162052,1,0,0:0:0:0:
256,192,162136,1,0,0:0:0:0:
256,192,162302,1,8,0:0:0:0:
256,192,162469,1,8,0:0:0:0:
256,192,162636,1,8,0:0:0:0:
256,192,162802,1,8,0:0:0:0:
256,192,162886,5,8,0:0:0:0:
256,192,162969,1,8,0:0:0:0:
256,192,163136,1,8,0:0:0:0:
256,192,163219,1,0,0:0:0:0:
256,192,163302,1,8,0:0:0:0:
256,192,163386,1,0,0:0:0:0:
256,192,163469,1,0,0:0:0:0:
256,192,163636,1,8,0:0:0:0:
256,192,163802,1,0,0:0:0:0:
256,192,163886,1,0,0:0:0:0:
256,192,163969,1,8,0:0:0:0:
256,192,164136,1,8,0:0:0:0:
261,197,164219,1,8,0:0:0:0:
256,192,164302,1,0,0:0:0:0:
256,192,164386,1,0,0:0:0:0:
256,192,164469,1,0,0:0:0:0:
256,192,164552,1,0,0:0:0:0:
256,192,164636,1,8,0:0:0:0:
256,192,164802,1,8,0:0:0:0:
256,192,164969,1,8,0:0:0:0:
256,192,165136,1,0,0:0:0:0:
256,192,165302,1,8,0:0:0:0:
256,192,165386,1,0,0:0:0:0:
256,192,165469,1,8,0:0:0:0:
256,192,165552,1,0,0:0:0:0:
256,192,165636,1,8,0:0:0:0:
256,192,165802,1,0,0:0:0:0:
256,192,165886,1,0,0:0:0:0:
256,192,165969,1,8,0:0:0:0:
256,192,166052,1,0,0:0:0:0:
256,192,166136,1,0,0:0:0:0:
256,192,166302,1,8,0:0:0:0:
256,192,166386,1,0,0:0:0:0:
256,192,166469,1,0,0:0:0:0:
256,192,166552,1,0,0:0:0:0:
256,192,166636,1,8,0:0:0:0:
256,192,166969,1,8,0:0:0:0:
256,192,167150,1,0,0:0:0:0:
256,192,167241,1,0,0:0:0:0:
256,192,167332,1,8,0:0:0:0:
256,192,167423,1,0,0:0:0:0:
256,192,167514,1,0,0:0:0:0:
256,192,167696,1,8,0:0:0:0:
256,192,167878,1,8,0:0:0:0:
256,192,167969,1,8,0:0:0:0:
256,192,168059,1,8,0:0:0:0:
256,192,168241,1,0,0:0:0:0:
256,192,168423,1,8,0:0:0:0:
256,192,168610,1,0,0:0:0:0:
256,192,168704,1,0,0:0:0:0:
256,192,168798,1,8,0:0:0:0:
256,192,168891,1,0,0:0:0:0:
256,192,168985,1,0,0:0:0:0:
256,192,169173,1,8,0:0:0:0:
256,192,169360,1,0,0:0:0:0:
256,192,169454,1,0,0:0:0:0:
256,192,169548,1,8,0:0:0:0:
256,192,169923,1,0,0:0:0:0:
256,192,170116,1,0,0:0:0:0:
256,192,170213,1,0,0:0:0:0:
256,192,170310,1,8,0:0:0:0:
256,192,170406,1,0,0:0:0:0:
256,192,170503,1,8,0:0:0:0:
256,192,170600,1,8,0:0:0:0:
256,192,170697,1,0,0:0:0:0:
256,192,170897,1,0,0:0:0:0:
256,192,170997,1,0,0:0:0:0:
256,192,171097,1,8,0:0:0:0:
256,192,171200,1,0,0:0:0:0:
256,192,171303,1,0,0:0:0:0:
256,192,171407,1,8,0:0:0:0:
0,0,171510,1,0,0:0:0:0:
256,192,171703,1,0,0:0:0:0:
256,192,171800,1,0,0:0:0:0:
512,0,171897,1,8,0:0:0:0:
256,192,172004,1,8,0:0:0:0:
256,192,172111,1,0,0:0:0:0:
256,192,172218,1,8,0:0:0:0:
256,192,172325,1,0,0:0:0:0:
256,192,172539,1,0,0:0:0:0:
256,192,172753,1,8,0:0:0:0:
256,192,172967,1,8,0:0:0:0:
256,192,173075,1,8,0:0:0:0:
256,192,173986,12,0,175973,0:0:0:0:
256,192,176636,5,0,0:0:0:0:
256,192,177011,1,0,0:0:0:0:
256,192,177198,1,0,0:0:0:0:
256,192,177386,1,8,0:0:0:0:
256,192,177573,1,8,0:0:0:0:
256,192,177761,1,0,0:0:0:0:
256,192,178136,1,8,0:0:0:0:
256,192,178511,1,8,0:0:0:0:
256,192,178698,1,0,0:0:0:0:
256,192,178886,1,8,0:0:0:0:
256,192,179073,1,8,0:0:0:0:
256,192,179261,1,0,0:0:0:0:
256,192,179636,1,0,0:0:0:0:
256,192,179823,1,0,0:0:0:0:
256,192,180011,1,8,0:0:0:0:
256,192,180198,1,8,0:0:0:0:
256,192,180386,1,8,0:0:0:0:
256,192,180573,1,0,0:0:0:0:
256,192,180761,1,8,0:0:0:0:
256,192,180948,1,0,0:0:0:0:
256,192,181136,1,8,0:0:0:0:
256,192,181417,1,8,0:0:0:0:
256,192,181511,1,8,0:0:0:0:
256,192,181698,1,8,0:0:0:0:
256,192,182636,1,12,0:0:0:0:
256,192,183011,1,0,0:0:0:0:
256,192,183386,1,8,0:0:0:0:
256,192,183573,1,8,0:0:0:0:
256,192,183761,1,0,0:0:0:0:
256,192,183948,1,8,0:0:0:0:
256,192,184136,1,8,0:0:0:0:
256,192,184417,1,8,0:0:0:0:
256,192,184511,1,8,0:0:0:0:
256,192,184698,1,8,0:0:0:0:
256,192,184886,1,0,0:0:0:0:
256,192,185073,1,8,0:0:0:0:
256,192,185261,1,8,0:0:0:0:
256,192,185448,1,0,0:0:0:0:
256,192,185636,1,12,0:0:0:0:
256,192,186011,1,0,0:0:0:0:
256,192,186386,1,8,0:0:0:0:
256,192,186573,1,8,0:0:0:0:
256,192,186761,5,0,0:0:0:0:
256,192,186948,1,0,0:0:0:0:
256,192,187042,1,8,0:0:0:0:
256,192,187136,1,8,0:0:0:0:
256,192,187417,1,8,0:0:0:0:
256,192,187511,1,0,0:0:0:0:
256,192,187698,1,0,0:0:0:0:
256,192,187886,1,8,0:0:0:0:
256,192,188073,1,0,0:0:0:0:
256,192,188167,1,0,0:0:0:0:
256,192,188261,1,0,0:0:0:0:
256,192,188448,1,8,0:0:0:0:
256,192,188636,1,12,0:0:0:0:
256,192,188823,1,0,0:0:0:0:
256,192,188917,1,0,0:0:0:0:
256,192,189011,1,8,0:0:0:0:
256,192,189198,1,0,0:0:0:0:
256,192,189386,1,12,0:0:0:0:
256,192,189573,1,0,0:0:0:0:
256,192,189667,1,0,0:0:0:0:
256,192,189761,1,8,0:0:0:0:
256,192,189948,1,0,0:0:0:0:
256,192,190136,1,12,0:0:0:0:
256,192,190323,1,0,0:0:0:0:
256,192,190417,1,0,0:0:0:0:
256,192,190511,1,8,0:0:0:0:
256,192,190698,1,0,0:0:0:0:
256,192,190886,1,8,0:0:0:0:
256,192,191073,1,0,0:0:0:0:
256,192,191167,1,0,0:0:0:0:
256,192,191261,5,8,0:0:0:0:
256,192,191511,1,0,0:0:0:0:
256,192,191573,1,0,0:0:0:0:
256,192,191636,1,0,0:0:0:0:
256,192,191823,1,0,0:0:0:0:
256,192,191886,1,0,0:0:0:0:
256,192,191948,1,0,0:0:0:0:
256,192,192011,1,0,0:0:0:0:
256,192,192292,1,0,0:0:0:0:
256,192,192386,1,0,0:0:0:0:
256,192,192573,1,0,0:0:0:0:
256,192,192667,1,0,0:0:0:0:
256,192,192761,1,0,0:0:0:0:
256,192,193042,1,0,0:0:0:0:
256,192,193136,1,8,0:0:0:0:
256,192,193323,1,0,0:0:0:0:
256,192,193511,1,8,0:0:0:0:
256,192,193698,1,8,0:0:0:0:
256,192,194636,1,12,0:0:0:0:
256,192,195011,1,8,0:0:0:0:
256,192,195292,1,8,0:0:0:0:
256,192,195386,1,0,0:0:0:0:
256,192,195573,1,0,0:0:0:0:
256,192,195761,1,8,0:0:0:0:
256,192,196136,1,8,0:0:0:0:
256,192,196323,1,8,0:0:0:0:
256,192,196511,1,0,0:0:0:0:
256,192,196698,1,8,0:0:0:0:
256,192,196792,1,8,0:0:0:0:
256,192,196886,1,0,0:0:0:0:
256,192,197073,1,0,0:0:0:0:
256,192,197167,1,0,0:0:0:0:
256,192,197261,1,8,0:0:0:0:
256,192,197448,1,0,0:0:0:0:
256,192,197636,1,12,0:0:0:0:
256,192,197823,1,0,0:0:0:0:
256,192,198011,1,8,0:0:0:0:
256,192,198198,1,0,0:0:0:0:
256,192,198386,1,0,0:0:0:0:
256,192,198573,1,8,0:0:0:0:
256,192,198761,1,8,0:0:0:0:
256,192,198948,1,0,0:0:0:0:
256,192,199136,1,12,0:0:0:0:
256,192,199323,1,0,0:0:0:0:
256,192,199511,1,0,0:0:0:0:
256,192,199698,1,8,0:0:0:0:
256,192,199886,1,0,0:0:0:0:
256,192,200073,1,8,0:0:0:0:
256,192,200167,1,8,0:0:0:0:
256,192,200261,1,0,0:0:0:0:
256,192,200448,1,0,0:0:0:0:
256,192,200636,1,12,0:0:0:0:
256,192,201011,1,8,0:0:0:0:
256,192,201292,1,0,0:0:0:0:
256,192,201386,1,8,0:0:0:0:
256,192,201573,1,8,0:0:0:0:
256,192,201761,1,0,0:0:0:0:
256,192,202136,1,8,0:0:0:0:
256,192,202323,1,0,0:0:0:0:
256,192,202417,1,0,0:0:0:0:
256,192,202511,1,8,0:0:0:0:
256,192,202698,1,8,0:0:0:0:
256,192,202886,1,0,0:0:0:0:
256,192,203073,1,8,0:0:0:0:
256,192,203167,1,8,0:0:0:0:
256,192,203261,1,0,0:0:0:0:
256,192,203448,1,0,0:0:0:0:
256,192,203636,1,12,0:0:0:0:
256,192,203823,1,0,0:0:0:0:
256,192,204011,1,8,0:0:0:0:
256,192,204198,1,0,0:0:0:0:
256,192,204386,1,12,0:0:0:0:
256,192,204573,1,8,0:0:0:0:
256,192,204761,1,0,0:0:0:0:
256,192,204948,1,0,0:0:0:0:
256,192,205136,1,12,0:0:0:0:
256,192,205323,1,0,0:0:0:0:
256,192,205511,1,0,0:0:0:0:
256,192,205698,1,8,0:0:0:0:
256,192,205886,1,0,0:0:0:0:
256,192,206073,1,8,0:0:0:0:
256,192,206167,1,8,0:0:0:0:
256,192,206261,1,0,0:0:0:0:
256,192,206448,1,0,0:0:0:0:
256,192,206636,1,12,0:0:0:0:
256,192,206823,1,0,0:0:0:0:
256,192,207011,1,8,0:0:0:0:
256,192,207198,1,0,0:0:0:0:
256,192,207386,1,8,0:0:0:0:
256,192,207573,1,8,0:0:0:0:
256,192,207761,1,0,0:0:0:0:
256,192,207948,1,0,0:0:0:0:
256,192,208136,1,8,0:0:0:0:
256,192,208323,1,0,0:0:0:0:
256,192,208511,1,8,0:0:0:0:
256,192,208698,1,0,0:0:0:0:
256,192,208792,1,8,0:0:0:0:
256,192,208886,1,8,0:0:0:0:
256,192,209073,1,0,0:0:0:0:
256,192,209261,1,0,0:0:0:0:
256,192,209448,1,8,0:0:0:0:
256,192,209636,1,12,0:0:0:0:
256,192,209823,1,0,0:0:0:0:
256,192,210011,1,8,0:0:0:0:
256,192,210198,1,0,0:0:0:0:
256,192,210386,1,8,0:0:0:0:
256,192,210573,1,8,0:0:0:0:
256,192,210761,1,0,0:0:0:0:
256,192,210948,1,0,0:0:0:0:
256,192,211042,1,8,0:0:0:0:
256,192,211136,1,8,0:0:0:0:
256,192,211323,1,0,0:0:0:0:
256,192,211417,1,8,0:0:0:0:
256,192,211511,1,0,0:0:0:0:
256,192,211698,1,0,0:0:0:0:
256,192,211886,1,8,0:0:0:0:
256,192,212073,1,0,0:0:0:0:
256,192,212167,1,0,0:0:0:0:
256,192,212261,1,0,0:0:0:0:
256,192,212448,1,8,0:0:0:0:
256,192,212636,1,12,0:0:0:0:
256,192,212823,1,8,0:0:0:0:
256,192,212917,1,0,0:0:0:0:
256,192,213011,1,8,0:0:0:0:
256,192,213198,1,0,0:0:0:0:
256,192,213386,1,12,0:0:0:0:
256,192,213573,1,0,0:0:0:0:
256,192,213667,1,0,0:0:0:0:
256,192,213761,1,8,0:0:0:0:
256,192,213948,1,0,0:0:0:0:
256,192,214136,1,12,0:0:0:0:
256,192,214323,1,0,0:0:0:0:
256,192,214417,1,0,0:0:0:0:
256,192,214511,1,8,0:0:0:0:
256,192,214698,1,0,0:0:0:0:
256,192,214886,1,12,0:0:0:0:
256,192,215073,1,12,0:0:0:0:
256,192,215261,5,12,0:0:0:0:
256,192,215511,1,0,0:0:0:0:
256,192,215573,1,0,0:0:0:0:
256,192,215636,1,0,0:0:0:0:
256,192,215823,1,0,0:0:0:0:
256,192,215886,1,0,0:0:0:0:
256,192,215948,1,0,0:0:0:0:
256,192,216011,1,8,0:0:0:0:
256,192,216292,1,0,0:0:0:0:
256,192,216386,1,8,0:0:0:0:
256,192,216573,1,0,0:0:0:0:
256,192,216667,1,0,0:0:0:0:
256,192,216761,1,8,0:0:0:0:
256,192,217042,1,0,0:0:0:0:
256,192,217136,1,8,0:0:0:0:
256,192,217323,1,0,0:0:0:0:
256,192,217511,1,8,0:0:0:0:
256,192,217604,1,0,0:0:0:0:
256,192,217698,1,8,0:0:0:0:
256,192,217792,1,8,0:0:0:0:
256,192,217886,1,0,0:0:0:0:
256,192,217979,1,0,0:0:0:0:
256,192,218073,1,0,0:0:0:0:
256,192,218167,1,0,0:0:0:0:
256,192,218261,1,8,0:0:0:0:
256,192,218354,1,0,0:0:0:0:
256,192,218448,1,0,0:0:0:0:
256,192,218542,1,0,0:0:0:0:
256,192,218636,1,8,0:0:0:0:
256,192,218729,1,8,0:0:0:0:
256,192,218823,1,0,0:0:0:0:
256,192,218917,1,0,0:0:0:0:
256,192,219011,1,8,0:0:0:0:
256,192,219104,1,0,0:0:0:0:
256,192,219198,1,8,0:0:0:0:
256,192,219292,1,8,0:0:0:0:
256,192,219386,1,0,0:0:0:0:
256,192,219479,1,8,0:0:0:0:
256,192,219573,1,0,0:0:0:0:
256,192,219667,1,0,0:0:0:0:
256,192,219761,1,8,0:0:0:0:
256,192,219854,1,8,0:0:0:0:
256,192,219948,1,0,0:0:0:0:
256,192,220042,1,0,0:0:0:0:
256,192,220136,1,8,0:0:0:0:
256,192,220229,1,8,0:0:0:0:
256,192,220323,1,8,0:0:0:0:
256,192,220417,1,0,0:0:0:0:
256,192,220511,1,8,0:0:0:0:
256,192,220604,1,8,0:0:0:0:
256,192,220698,1,0,0:0:0:0:
256,192,220792,1,0,0:0:0:0:
256,192,220886,1,8,0:0:0:0:
256,192,220979,1,8,0:0:0:0:
256,192,221073,1,0,0:0:0:0:
256,192,221167,1,0,0:0:0:0:
256,192,221261,1,8,0:0:0:0:
256,192,221354,1,8,0:0:0:0:
256,192,221448,1,0,0:0:0:0:
256,192,221542,1,0,0:0:0:0:
256,192,221636,1,8,0:0:0:0:
256,192,221729,1,0,0:0:0:0:
256,192,221823,1,8,0:0:0:0:
256,192,221917,1,0,0:0:0:0:
256,192,222011,1,8,0:0:0:0:
256,192,222104,1,0,0:0:0:0:
256,192,222198,1,8,0:0:0:0:
256,192,222292,1,0,0:0:0:0:
256,192,222386,1,8,0:0:0:0:
256,192,222479,1,0,0:0:0:0:
256,192,222573,1,8,0:0:0:0:
256,192,222667,1,8,0:0:0:0:
256,192,222761,1,0,0:0:0:0:
256,192,222854,1,8,0:0:0:0:
256,192,222948,1,0,0:0:0:0:
256,192,223136,5,12,0:0:0:0:
256,192,223323,1,0,0:0:0:0:
256,192,223386,1,0,0:0:0:0:
256,192,223448,1,0,0:0:0:0:
256,192,223511,1,0,0:0:0:0:
256,192,223698,1,0,0:0:0:0:
256,192,223761,1,0,0:0:0:0:
256,192,223823,1,0,0:0:0:0:
256,192,223886,1,8,0:0:0:0:
256,192,224487,1,8,0:0:0:0:
256,192,224550,1,8,0:0:0:0:
256,192,224612,1,8,0:0:0:0:
256,192,224675,1,8,0:0:0:0:
256,192,225050,1,8,0:0:0:0:
256,192,225425,1,8,0:0:0:0:
256,192,225706,1,8,0:0:0:0:
256,192,225987,1,8,0:0:0:0:
256,192,226175,1,8,0:0:0:0:
256,192,226268,1,0,0:0:0:0:
256,192,226456,1,0,0:0:0:0:
256,192,226550,1,8,0:0:0:0:
256,192,226737,1,0,0:0:0:0:
256,192,226925,1,8,0:0:0:0:
256,192,227112,1,0,0:0:0:0:
256,192,227206,1,8,0:0:0:0:
256,192,227487,1,8,0:0:0:0:
256,192,227675,1,8,0:0:0:0:
256,192,227862,1,0,0:0:0:0:
256,192,228050,1,8,0:0:0:0:
256,192,228143,1,0,0:0:0:0:
256,192,228237,1,0,0:0:0:0:
256,192,228331,1,0,0:0:0:0:
256,192,228425,1,8,0:0:0:0:
256,192,228612,1,0,0:0:0:0:
256,192,228706,1,8,0:0:0:0:
256,192,228893,1,0,0:0:0:0:
256,192,228987,1,8,0:0:0:0:
256,192,229175,1,8,0:0:0:0:
256,192,229362,1,8,0:0:0:0:
256,192,229456,1,8,0:0:0:0:
256,192,229550,1,8,0:0:0:0:
256,192,229737,1,0,0:0:0:0:
256,192,229925,1,8,0:0:0:0:
256,192,230112,1,0,0:0:0:0:
256,192,230206,1,8,0:0:0:0:
256,192,230393,1,0,0:0:0:0:
256,192,230487,1,8,0:0:0:0:
256,192,230675,1,8,0:0:0:0:
256,192,230862,1,0,0:0:0:0:
256,192,231050,1,8,0:0:0:0:
256,192,231425,1,8,0:0:0:0:
256,192,231612,1,0,0:0:0:0:
256,192,231706,1,8,0:0:0:0:
256,192,231893,1,0,0:0:0:0:
256,192,231987,1,8,0:0:0:0:
256,192,232175,1,8,0:0:0:0:
256,192,232362,1,0,0:0:0:0:
256,192,232456,1,0,0:0:0:0:
256,192,232550,1,8,0:0:0:0:
256,192,232737,1,0,0:0:0:0:
256,192,232925,1,8,0:0:0:0:
256,192,233112,1,0,0:0:0:0:
256,192,233206,1,8,0:0:0:0:
256,192,233393,1,0,0:0:0:0:
256,192,233487,1,8,0:0:0:0:
256,192,233675,1,8,0:0:0:0:
256,192,233862,1,0,0:0:0:0:
256,192,233956,1,8,0:0:0:0:
256,192,234050,1,8,0:0:0:0:
256,192,234237,1,0,0:0:0:0:
256,192,234425,1,8,0:0:0:0:
256,192,234612,1,0,0:0:0:0:
256,192,234706,1,8,0:0:0:0:
256,192,234893,1,0,0:0:0:0:
256,192,234987,1,8,0:0:0:0:
256,192,235175,1,8,0:0:0:0:
256,192,235362,1,0,0:0:0:0:
256,192,235550,1,8,0:0:0:0:
256,192,235737,1,0,0:0:0:0:
256,192,235925,1,8,0:0:0:0:
256,192,236112,1,0,0:0:0:0:
256,192,236206,1,8,0:0:0:0:
256,192,236393,1,0,0:0:0:0:
256,192,236487,1,8,0:0:0:0:
256,192,236675,1,0,0:0:0:0:
256,192,237425,1,0,0:0:0:0:
256,192,237612,1,0,0:0:0:0:
256,192,237800,1,0,0:0:0:0:
256,192,237893,1,0,0:0:0:0:
256,192,237987,1,0,0:0:0:0:
256,192,238362,1,8,0:0:0:0:
256,192,238550,1,8,0:0:0:0:
256,192,239018,1,0,0:0:0:0:
256,192,239112,1,0,0:0:0:0:
256,192,239206,1,0,0:0:0:0:
256,192,239300,1,8,0:0:0:0:
256,192,239675,1,4,0:0:0:0:
256,192,239862,1,8,0:0:0:0:
256,192,239956,1,0,0:0:0:0:
256,192,240050,1,8,0:0:0:0:
256,192,240237,1,8,0:0:0:0:
256,192,240425,1,0,0:0:0:0:
256,192,240612,1,0,0:0:0:0:
256,192,240706,1,0,0:0:0:0:
256,192,240800,1,8,0:0:0:0:
256,192,240987,1,8,0:0:0:0:
256,192,241175,1,0,0:0:0:0:
256,192,241268,1,8,0:0:0:0:
256,192,241362,1,0,0:0:0:0:
256,192,241550,1,8,0:0:0:0:
256,192,241643,1,8,0:0:0:0:
256,192,241737,1,0,0:0:0:0:
256,192,241925,1,8,0:0:0:0:
256,192,242112,1,8,0:0:0:0:
256,192,242206,1,0,0:0:0:0:
256,192,242300,1,8,0:0:0:0:
256,192,242487,1,0,0:0:0:0:
256,192,242581,1,0,0:0:0:0:
256,192,242675,1,0,0:0:0:0:
256,192,243050,1,8,0:0:0:0:
256,192,243237,1,8,0:0:0:0:
256,192,243300,1,8,0:0:0:0:
256,192,243362,1,8,0:0:0:0:
256,192,243425,1,0,0:0:0:0:
256,192,243518,1,8,0:0:0:0:
256,192,243612,1,0,0:0:0:0:
256,192,243706,1,8,0:0:0:0:
256,192,243800,1,8,0:0:0:0:
256,192,243893,1,0,0:0:0:0:
256,192,243987,1,0,0:0:0:0:
256,192,244175,1,8,0:0:0:0:
256,192,244362,1,0,0:0:0:0:
256,192,244550,1,8,0:0:0:0:
256,192,244925,1,8,0:0:0:0:
256,192,245018,1,0,0:0:0:0:
256,192,245206,1,8,0:0:0:0:
256,192,245300,1,8,0:0:0:0:
256,192,245487,1,0,0:0:0:0:
256,192,245581,1,0,0:0:0:0:
256,192,245675,1,8,0:0:0:0:
256,192,245862,1,0,0:0:0:0:
256,192,246050,1,8,0:0:0:0:
256,192,246237,1,8,0:0:0:0:
256,192,246331,1,0,0:0:0:0:
256,192,246425,1,8,0:0:0:0:
256,192,246518,1,0,0:0:0:0:
256,192,246706,1,0,0:0:0:0:
256,192,246800,1,8,0:0:0:0:
256,192,246987,1,8,0:0:0:0:
256,192,247175,1,0,0:0:0:0:
256,192,247268,1,0,0:0:0:0:
256,192,247362,1,8,0:0:0:0:
256,192,247456,1,0,0:0:0:0:
256,192,247550,1,8,0:0:0:0:
248,197,247612,1,8,0:0:0:0:
248,197,247675,1,8,0:0:0:0:
256,192,247737,1,0,0:0:0:0:
256,192,247831,1,8,0:0:0:0:
256,192,247925,1,0,0:0:0:0:
247,185,248112,1,0,0:0:0:0:
256,192,248206,1,0,0:0:0:0:
256,192,248300,1,8,0:0:0:0:
256,192,248393,1,0,0:0:0:0:
256,192,248487,1,8,0:0:0:0:
256,192,248675,1,0,0:0:0:0:
256,192,248768,1,8,0:0:0:0:
256,192,248862,1,0,0:0:0:0:
262,200,248956,1,0,0:0:0:0:
256,192,249050,1,8,0:0:0:0:
256,192,249237,1,8,0:0:0:0:
256,192,249331,1,0,0:0:0:0:
256,192,249425,1,8,0:0:0:0:
256,192,249518,1,8,0:0:0:0:
256,192,249706,1,0,0:0:0:0:
256,192,249800,1,8,0:0:0:0:
256,192,249893,1,8,0:0:0:0:
256,192,249987,1,8,0:0:0:0:
256,192,250175,12,0,251112,0:0:0:0:
256,192,251675,5,0,0:0:0:0:
256,192,252050,1,8,0:0:0:0:
256,192,252425,1,0,0:0:0:0:
256,192,252612,1,0,0:0:0:0:
256,192,252706,1,0,0:0:0:0:
256,192,252800,1,8,0:0:0:0:
256,192,252987,1,8,0:0:0:0:
256,192,253175,1,0,0:0:0:0:
256,192,253362,1,0,0:0:0:0:
256,192,253550,1,8,0:0:0:0:
256,192,253925,1,0,0:0:0:0:
256,192,254206,1,0,0:0:0:0:
256,192,254300,1,8,0:0:0:0:
256,192,254487,1,0,0:0:0:0:
256,192,254675,1,0,0:0:0:0:
256,192,255050,1,8,0:0:0:0:
256,192,255425,1,0,0:0:0:0:
256,192,255612,1,0,0:0:0:0:
256,192,255706,1,0,0:0:0:0:
256,192,255800,1,8,0:0:0:0:
256,192,255987,1,8,0:0:0:0:
256,192,256175,1,0,0:0:0:0:
256,192,256362,1,0,0:0:0:0:
256,192,256550,1,8,0:0:0:0:
256,192,256925,1,0,0:0:0:0:
256,192,257206,1,0,0:0:0:0:
256,192,257300,1,8,0:0:0:0:
256,192,257487,1,8,0:0:0:0:
256,192,257675,1,0,0:0:0:0:
256,192,258050,1,8,0:0:0:0:
256,192,258425,1,0,0:0:0:0:
256,192,258612,1,0,0:0:0:0:
256,192,258706,1,0,0:0:0:0:
256,192,258800,1,8,0:0:0:0:
256,192,258987,1,8,0:0:0:0:
256,192,259175,1,0,0:0:0:0:
256,192,259362,1,0,0:0:0:0:
256,192,259550,1,8,0:0:0:0:
256,192,259925,1,0,0:0:0:0:
256,192,260206,1,8,0:0:0:0:
256,192,260300,1,8,0:0:0:0:
256,192,260487,1,0,0:0:0:0:
256,192,260675,1,0,0:0:0:0:
256,192,261050,1,8,0:0:0:0:
256,192,261425,1,0,0:0:0:0:
256,192,261612,1,0,0:0:0:0:
256,192,261706,1,0,0:0:0:0:
256,192,261800,1,8,0:0:0:0:
256,192,261987,1,8,0:0:0:0:
256,192,262175,1,0,0:0:0:0:
256,192,262362,1,0,0:0:0:0:
256,192,262550,1,8,0:0:0:0:
256,192,262925,1,0,0:0:0:0:
256,192,263206,1,0,0:0:0:0:
256,192,263300,1,8,0:0:0:0:
256,192,263487,1,0,0:0:0:0:
256,192,263675,1,8,0:0:0:0:
256,192,264050,1,8,0:0:0:0:
256,192,264237,1,0,0:0:0:0:
256,192,264425,1,8,0:0:0:0:
256,192,264612,1,0,0:0:0:0:
256,192,264706,1,0,0:0:0:0:
256,192,264800,1,8,0:0:0:0:
256,192,264987,1,8,0:0:0:0:
256,192,265175,1,8,0:0:0:0:
256,192,265362,1,0,0:0:0:0:
256,192,265550,1,8,0:0:0:0:
256,192,265737,1,0,0:0:0:0:
256,192,265925,1,8,0:0:0:0:
256,192,266206,1,0,0:0:0:0:
256,192,266300,1,8,0:0:0:0:
256,192,266487,1,0,0:0:0:0:
256,192,266675,1,8,0:0:0:0:
256,192,266862,1,0,0:0:0:0:
256,192,267050,1,8,0:0:0:0:
256,192,267237,1,8,0:0:0:0:
256,192,267425,1,0,0:0:0:0:
256,192,267612,1,0,0:0:0:0:
256,192,267706,1,0,0:0:0:0:
256,192,267800,1,8,0:0:0:0:
256,192,267987,1,8,0:0:0:0:
256,192,268175,1,0,0:0:0:0:
256,192,268362,1,8,0:0:0:0:
256,192,268550,1,8,0:0:0:0:
256,192,268737,1,0,0:0:0:0:
256,192,268925,1,8,0:0:0:0:
256,192,269206,1,0,0:0:0:0:
256,192,269300,1,8,0:0:0:0:
256,192,269487,1,0,0:0:0:0:
256,192,269675,1,8,0:0:0:0:
256,192,270050,1,8,0:0:0:0:
256,192,270237,1,0,0:0:0:0:
256,192,270425,1,8,0:0:0:0:
256,192,270612,1,0,0:0:0:0:
256,192,270706,1,0,0:0:0:0:
256,192,270800,1,8,0:0:0:0:
256,192,270987,1,8,0:0:0:0:
256,192,271175,1,8,0:0:0:0:
256,192,271362,1,0,0:0:0:0:
256,192,271550,1,8,0:0:0:0:
256,192,271737,1,0,0:0:0:0:
256,192,271925,1,8,0:0:0:0:
256,192,272206,1,0,0:0:0:0:
256,192,272300,1,8,0:0:0:0:
256,192,272487,1,0,0:0:0:0:
256,192,272675,1,0,0:0:0:0:
256,192,272862,1,8,0:0:0:0:
256,192,273050,1,8,0:0:0:0:
256,192,273237,1,0,0:0:0:0:
256,192,273425,1,8,0:0:0:0:
256,192,273518,1,8,0:0:0:0:
256,192,273612,1,0,0:0:0:0:
256,192,273706,1,0,0:0:0:0:
256,192,273800,1,8,0:0:0:0:
256,192,273987,1,8,0:0:0:0:
256,192,274175,1,0,0:0:0:0:
256,192,274362,1,0,0:0:0:0:
256,192,274550,1,8,0:0:0:0:
256,192,274925,1,0,0:0:0:0:
256,192,275206,1,0,0:0:0:0:
256,192,275300,5,8,0:0:0:0:
256,192,275393,1,8,0:0:0:0:
256,192,275487,1,8,0:0:0:0:
256,192,275675,1,4,0:0:0:0:
256,192,275862,1,0,0:0:0:0:
256,192,275956,1,0,0:0:0:0:
256,192,276050,1,8,0:0:0:0:
256,192,276143,1,0,0:0:0:0:
256,192,276237,1,0,0:0:0:0:
256,192,276425,1,12,0:0:0:0:
256,192,276612,1,0,0:0:0:0:
256,192,276706,1,0,0:0:0:0:
256,192,276800,1,8,0:0:0:0:
256,192,276987,1,8,0:0:0:0:
256,192,277175,1,4,0:0:0:0:
256,192,277362,1,8,0:0:0:0:
256,192,277456,1,8,0:0:0:0:
256,192,277550,1,8,0:0:0:0:
256,192,277737,1,0,0:0:0:0:
256,192,277925,1,12,0:0:0:0:
256,192,278112,1,0,0:0:0:0:
256,192,278206,1,0,0:0:0:0:
256,192,278300,1,8,0:0:0:0:
256,192,278393,1,0,0:0:0:0:
256,192,278487,1,8,0:0:0:0:
256,192,278675,1,4,0:0:0:0:
256,192,278862,1,0,0:0:0:0:
256,192,278956,1,0,0:0:0:0:
256,192,279050,1,8,0:0:0:0:
256,192,279143,1,0,0:0:0:0:
256,192,279237,1,0,0:0:0:0:
256,192,279425,1,12,0:0:0:0:
256,192,279612,1,0,0:0:0:0:
256,192,279706,1,0,0:0:0:0:
256,192,279800,1,8,0:0:0:0:
256,192,279987,1,8,0:0:0:0:
256,192,280175,1,4,0:0:0:0:
256,192,280362,1,8,0:0:0:0:
256,192,280456,1,8,0:0:0:0:
256,192,280550,1,8,0:0:0:0:
256,192,280737,1,0,0:0:0:0:
256,192,280925,1,12,0:0:0:0:
256,192,281112,1,0,0:0:0:0:
256,192,281206,1,0,0:0:0:0:
256,192,281300,1,8,0:0:0:0:
256,192,281393,1,0,0:0:0:0:
256,192,281487,1,8,0:0:0:0:
256,192,281675,1,8,0:0:0:0:
256,192,281737,1,0,0:0:0:0:
256,192,281800,1,0,0:0:0:0:
256,192,281862,1,8,0:0:0:0:
256,192,281925,1,0,0:0:0:0:
256,192,281987,1,0,0:0:0:0:
256,192,282050,1,8,0:0:0:0:
256,192,282237,1,0,0:0:0:0:
256,192,282300,1,0,0:0:0:0:
256,192,282362,1,8,0:0:0:0:
256,192,282425,1,8,0:0:0:0:
256,192,282612,1,8,0:0:0:0:
256,192,282706,1,8,0:0:0:0:
256,192,282800,1,0,0:0:0:0:
256,192,282893,1,8,0:0:0:0:
256,192,282987,1,8,0:0:0:0:
256,192,283175,1,0,0:0:0:0:
256,192,283268,1,0,0:0:0:0:
256,192,283362,1,0,0:0:0:0:
256,192,283456,1,0,0:0:0:0:
256,192,283550,1,8,0:0:0:0:
256,192,283737,1,8,0:0:0:0:
256,192,283925,1,0,0:0:0:0:
256,192,284018,1,8,0:0:0:0:
256,192,284112,1,0,0:0:0:0:
256,192,284206,1,0,0:0:0:0:
256,192,284300,1,8,0:0:0:0:
256,192,284487,1,8,0:0:0:0:
256,192,284581,1,8,0:0:0:0:
256,192,284675,1,0,0:0:0:0:
256,192,284768,1,8,0:0:0:0:
256,192,284862,1,0,0:0:0:0:
256,192,284956,1,0,0:0:0:0:
256,192,285050,1,8,0:0:0:0:
256,192,285143,1,8,0:0:0:0:
256,192,285237,1,0,0:0:0:0:
256,192,285425,1,8,0:0:0:0:
256,192,285518,1,0,0:0:0:0:
256,192,285612,1,8,0:0:0:0:
256,192,285706,1,0,0:0:0:0:
256,192,285800,1,8,0:0:0:0:
256,192,285987,1,8,0:0:0:0:
256,192,286081,1,0,0:0:0:0:
256,192,286175,1,0,0:0:0:0:
256,192,286362,1,8,0:0:0:0:
256,192,286550,1,0,0:0:0:0:
256,192,286643,1,8,0:0:0:0:
256,192,286737,1,8,0:0:0:0:
256,192,286925,1,0,0:0:0:0:
256,192,287018,1,0,0:0:0:0:
256,192,287112,1,8,0:0:0:0:
256,192,287206,1,0,0:0:0:0:
0,32,287300,1,8,0:0:0:0:
256,192,287675,1,12,0:0:0:0:
256,192,287862,1,0,0:0:0:0:
256,192,287956,1,0,0:0:0:0:
256,192,288050,1,8,0:0:0:0:
256,192,288237,1,0,0:0:0:0:
256,192,288331,1,8,0:0:0:0:
256,192,288425,1,0,0:0:0:0:
256,192,288518,1,8,0:0:0:0:
256,192,288612,1,0,0:0:0:0:
256,192,288706,1,0,0:0:0:0:
256,192,288800,1,8,0:0:0:0:
256,192,288893,1,8,0:0:0:0:
256,192,288987,1,0,0:0:0:0:
256,192,289175,1,8,0:0:0:0:
256,192,289268,1,0,0:0:0:0:
256,192,289362,1,0,0:0:0:0:
256,192,289456,1,0,0:0:0:0:
256,192,289550,1,8,0:0:0:0:
256,192,289737,1,0,0:0:0:0:
256,192,289831,1,8,0:0:0:0:
256,192,289925,1,0,0:0:0:0:
256,192,290018,1,8,0:0:0:0:
256,192,290112,1,0,0:0:0:0:
256,192,290206,1,0,0:0:0:0:
256,192,290300,1,8,0:0:0:0:
256,192,290487,1,0,0:0:0:0:
256,192,290675,1,8,0:0:0:0:
256,192,290768,1,8,0:0:0:0:
256,192,290862,1,0,0:0:0:0:
256,192,290956,1,0,0:0:0:0:
256,192,291050,1,8,0:0:0:0:
256,192,291143,1,0,0:0:0:0:
256,192,291237,1,0,0:0:0:0:
256,192,291331,1,8,0:0:0:0:
256,192,291425,1,0,0:0:0:0:
256,192,291518,1,8,0:0:0:0:
256,192,291612,1,0,0:0:0:0:
256,192,291706,1,0,0:0:0:0:
256,192,291800,1,8,0:0:0:0:
256,192,291893,1,8,0:0:0:0:
256,192,291987,1,0,0:0:0:0:
256,192,292081,1,0,0:0:0:0:
256,192,292175,1,8,0:0:0:0:
256,192,292268,1,8,0:0:0:0:
256,192,292362,1,8,0:0:0:0:
256,192,292550,1,8,0:0:0:0:
256,192,292737,1,0,0:0:0:0:
256,192,292831,1,8,0:0:0:0:
256,192,292925,1,0,0:0:0:0:
256,192,293018,1,8,0:0:0:0:
256,192,293112,1,0,0:0:0:0:
256,192,293206,1,8,0:0:0:0:
256,192,293300,1,8,0:0:0:0:
256,192,293393,1,8,0:0:0:0:
256,192,293487,1,0,0:0:0:0:
256,192,293581,1,0,0:0:0:0:
256,192,293675,1,8,0:0:0:0:
256,192,293862,1,0,0:0:0:0:
256,192,293956,1,0,0:0:0:0:
256,192,294050,1,8,0:0:0:0:
256,192,294237,1,0,0:0:0:0:
256,192,294331,1,8,0:0:0:0:
256,192,294425,1,0,0:0:0:0:
256,192,294518,1,8,0:0:0:0:
256,192,294612,1,0,0:0:0:0:
256,192,294706,1,0,0:0:0:0:
256,192,294800,1,8,0:0:0:0:
256,192,294893,1,8,0:0:0:0:
256,192,294987,1,0,0:0:0:0:
256,192,295175,1,8,0:0:0:0:
256,192,295268,1,0,0:0:0:0:
256,192,295362,1,0,0:0:0:0:
256,192,295456,1,0,0:0:0:0:
256,192,295550,1,8,0:0:0:0:
256,192,295737,1,0,0:0:0:0:
256,192,295831,1,8,0:0:0:0:
256,192,295925,1,0,0:0:0:0:
256,192,296018,1,8,0:0:0:0:
256,192,296112,1,0,0:0:0:0:
256,192,296206,1,0,0:0:0:0:
256,192,296300,1,8,0:0:0:0:
256,192,296487,1,0,0:0:0:0:
256,192,296675,1,8,0:0:0:0:
256,192,296768,1,8,0:0:0:0:
256,192,296862,1,0,0:0:0:0:
256,192,296956,1,0,0:0:0:0:
256,192,297050,1,8,0:0:0:0:
256,192,297143,1,0,0:0:0:0:
256,192,297237,1,0,0:0:0:0:
256,192,297331,1,8,0:0:0:0:
256,192,297425,1,0,0:0:0:0:
256,192,297518,1,8,0:0:0:0:
256,192,297612,1,0,0:0:0:0:
256,192,297706,1,0,0:0:0:0:
256,192,297800,1,8,0:0:0:0:
256,192,297893,1,8,0:0:0:0:
256,192,297987,1,0,0:0:0:0:
256,192,298175,1,0,0:0:0:0:
256,192,298268,1,0,0:0:0:0:
256,192,298362,1,0,0:0:0:0:
256,192,298456,1,0,0:0:0:0:
256,192,298550,1,8,0:0:0:0:
256,192,298737,1,0,0:0:0:0:
256,192,298831,1,0,0:0:0:0:
256,192,298925,1,8,0:0:0:0:
256,192,299018,1,0,0:0:0:0:
256,192,299112,1,0,0:0:0:0:
256,192,299300,1,8,0:0:0:0:
256,192,299362,1,8,0:0:0:0:
256,192,299425,1,0,0:0:0:0:
256,192,299487,1,0,0:0:0:0:
0,0,299675,1,12,0:0:0:0:
256,192,299862,1,0,0:0:0:0:
256,192,299956,1,8,0:0:0:0:
256,192,300050,1,8,0:0:0:0:
256,192,300237,1,0,0:0:0:0:
256,192,300331,1,8,0:0:0:0:
256,192,300425,1,8,0:0:0:0:
256,192,300518,1,8,0:0:0:0:
256,192,300612,1,0,0:0:0:0:
256,192,300706,1,0,0:0:0:0:
256,192,300800,1,8,0:0:0:0:
256,192,300893,1,0,0:0:0:0:
256,192,300987,1,0,0:0:0:0:
256,192,301175,1,8,0:0:0:0:
256,192,301268,1,8,0:0:0:0:
256,192,301362,1,0,0:0:0:0:
256,192,301456,1,0,0:0:0:0:
256,192,301550,1,8,0:0:0:0:
256,192,301737,1,0,0:0:0:0:
256,192,301831,1,8,0:0:0:0:
256,192,301925,1,8,0:0:0:0:
256,192,302018,1,8,0:0:0:0:
256,192,302112,1,0,0:0:0:0:
256,192,302206,1,0,0:0:0:0:
256,192,302300,1,8,0:0:0:0:
256,192,302487,1,0,0:0:0:0:
256,192,302675,1,8,0:0:0:0:
256,192,302768,1,0,0:0:0:0:
256,192,302862,1,0,0:0:0:0:
256,192,302956,1,0,0:0:0:0:
256,192,303050,1,8,0:0:0:0:
256,192,303143,1,8,0:0:0:0:
256,192,303237,1,0,0:0:0:0:
256,192,303331,1,8,0:0:0:0:
256,192,303425,1,0,0:0:0:0:
256,192,303518,1,8,0:0:0:0:
256,192,303612,1,0,0:0:0:0:
256,192,303706,1,0,0:0:0:0:
256,192,303800,1,8,0:0:0:0:
256,192,303893,1,0,0:0:0:0:
256,192,303987,1,0,0:0:0:0:
256,192,304175,1,8,0:0:0:0:
256,192,304268,1,0,0:0:0:0:
256,192,304362,1,8,0:0:0:0:
256,192,304550,1,8,0:0:0:0:
256,192,304737,1,0,0:0:0:0:
256,192,304831,1,8,0:0:0:0:
256,192,305018,1,8,0:0:0:0:
256,192,305112,1,0,0:0:0:0:
256,192,305206,1,8,0:0:0:0:
256,192,305300,1,8,0:0:0:0:
256,192,305393,1,8,0:0:0:0:
256,192,305487,1,0,0:0:0:0:
256,192,305581,5,0,0:0:0:0:
256,192,305675,1,8,0:0:0:0:
256,192,305862,1,0,0:0:0:0:
256,192,305956,1,8,0:0:0:0:
256,192,306050,1,8,0:0:0:0:
256,192,306237,1,0,0:0:0:0:
256,192,306331,1,8,0:0:0:0:
256,192,306425,1,8,0:0:0:0:
256,192,306518,1,8,0:0:0:0:
256,192,306612,1,0,0:0:0:0:
256,192,306706,1,0,0:0:0:0:
256,192,306800,1,8,0:0:0:0:
256,192,306893,1,0,0:0:0:0:
256,192,306987,1,0,0:0:0:0:
256,192,307175,1,8,0:0:0:0:
256,192,307268,1,8,0:0:0:0:
256,192,307362,1,0,0:0:0:0:
256,192,307456,1,0,0:0:0:0:
256,192,307550,1,8,0:0:0:0:
256,192,307737,1,0,0:0:0:0:
256,192,307831,1,8,0:0:0:0:
256,192,307925,1,8,0:0:0:0:
256,192,308018,1,8,0:0:0:0:
256,192,308112,1,0,0:0:0:0:
256,192,308206,1,0,0:0:0:0:
256,192,308300,1,8,0:0:0:0:
256,192,308487,1,0,0:0:0:0:
256,192,308675,1,8,0:0:0:0:
256,192,308768,1,0,0:0:0:0:
256,192,308862,1,0,0:0:0:0:
256,192,308956,1,0,0:0:0:0:
256,192,309050,1,8,0:0:0:0:
256,192,309143,1,8,0:0:0:0:
256,192,309237,1,0,0:0:0:0:
256,192,309331,1,8,0:0:0:0:
256,192,309425,1,0,0:0:0:0:
256,192,309518,1,8,0:0:0:0:
256,192,309612,1,0,0:0:0:0:
256,192,309706,1,0,0:0:0:0:
256,192,309800,1,8,0:0:0:0:
256,192,309893,1,0,0:0:0:0:
256,192,309987,1,0,0:0:0:0:
256,192,310175,1,8,0:0:0:0:
256,192,310268,1,0,0:0:0:0:
256,192,310362,1,8,0:0:0:0:
256,192,310550,1,8,0:0:0:0:
256,192,310737,1,0,0:0:0:0:
256,192,310831,1,8,0:0:0:0:
256,192,311018,1,8,0:0:0:0:
256,192,311112,1,0,0:0:0:0:
256,192,311206,1,8,0:0:0:0:
256,192,311300,1,8,0:0:0:0:
256,192,311393,1,8,0:0:0:0:
256,192,311487,1,0,0:0:0:0:
256,192,311675,1,4,0:0:0:0:
256,192,312050,1,0,0:0:0:0:
256,192,312425,1,0,0:0:0:0:
256,192,312800,1,0,0:0:0:0:
256,192,313175,1,0,0:0:0:0:
256,192,313550,1,0,0:0:0:0:
256,192,313925,1,0,0:0:0:0:
256,192,314300,1,0,0:0:0:0:
256,192,314675,1,0,0:0:0:0:
256,192,315050,1,0,0:0:0:0:
256,192,315425,1,0,0:0:0:0:
256,192,315706,1,0,0:0:0:0:
256,192,315800,1,8,0:0:0:0:
256,192,316175,1,0,0:0:0:0:
256,192,316550,1,0,0:0:0:0:
256,192,316831,1,8,0:0:0:0:
256,192,316925,1,0,0:0:0:0:
256,192,317300,1,0,0:0:0:0:
256,192,317581,1,0,0:0:0:0:
256,192,317675,1,0,0:0:0:0:
256,192,317862,1,0,0:0:0:0:
256,192,317956,1,0,0:0:0:0:
256,192,318050,1,8,0:0:0:0:
256,192,318237,1,0,0:0:0:0:
256,192,318331,1,8,0:0:0:0:
256,192,318425,1,0,0:0:0:0:
256,192,318612,1,8,0:0:0:0:
256,192,318706,1,8,0:0:0:0:
256,192,318800,1,0,0:0:0:0:
256,192,318987,1,8,0:0:0:0:
256,192,319081,1,0,0:0:0:0:
256,192,319175,1,0,0:0:0:0:
256,192,319362,1,0,0:0:0:0:
256,192,319456,1,0,0:0:0:0:
256,192,319550,1,8,0:0:0:0:
256,192,319737,1,0,0:0:0:0:
256,192,319831,1,8,0:0:0:0:
256,192,319925,1,0,0:0:0:0:
256,192,320112,1,8,0:0:0:0:
256,192,320206,1,8,0:0:0:0:
256,192,320300,1,0,0:0:0:0:
256,192,320487,1,8,0:0:0:0:
256,192,320581,1,0,0:0:0:0:
256,192,320675,1,8,0:0:0:0:
256,192,320862,1,0,0:0:0:0:
256,192,320956,1,0,0:0:0:0:
256,192,321050,1,8,0:0:0:0:
256,192,321237,1,0,0:0:0:0:
256,192,321331,1,8,0:0:0:0:
256,192,321425,1,0,0:0:0:0:
256,192,321612,1,8,0:0:0:0:
256,192,321706,1,8,0:0:0:0:
256,192,321800,1,0,0:0:0:0:
256,192,321987,1,0,0:0:0:0:
256,192,322081,1,0,0:0:0:0:
256,192,322175,1,8,0:0:0:0:
256,192,322268,1,0,0:0:0:0:
256,192,322362,1,8,0:0:0:0:
256,192,322550,1,8,0:0:0:0:
256,192,322737,1,0,0:0:0:0:
256,192,322831,1,0,0:0:0:0:
256,192,322925,1,8,0:0:0:0:
256,192,323112,1,8,0:0:0:0:
256,192,323206,1,8,0:0:0:0:
256,192,323300,1,0,0:0:0:0:
256,192,323393,1,8,0:0:0:0:
256,192,323487,1,0,0:0:0:0:
256,192,323675,1,4,0:0:0:0:
256,192,323862,1,0,0:0:0:0:
256,192,323956,1,0,0:0:0:0:
256,192,324050,1,8,0:0:0:0:
256,192,324143,1,0,0:0:0:0:
256,192,324237,1,0,0:0:0:0:
256,192,324331,1,8,0:0:0:0:
256,192,324425,1,0,0:0:0:0:
256,192,324518,1,8,0:0:0:0:
256,192,324612,1,0,0:0:0:0:
256,192,324800,1,8,0:0:0:0:
256,192,324987,1,8,0:0:0:0:
256,192,325175,1,0,0:0:0:0:
256,192,325268,1,8,0:0:0:0:
256,192,325362,1,0,0:0:0:0:
256,192,325456,1,0,0:0:0:0:
256,192,325550,1,8,0:0:0:0:
256,192,325643,1,8,0:0:0:0:
256,192,325737,1,0,0:0:0:0:
256,192,325831,1,8,0:0:0:0:
256,192,325925,1,0,0:0:0:0:
256,192,326018,1,8,0:0:0:0:
256,192,326112,1,0,0:0:0:0:
256,192,326300,1,8,0:0:0:0:
256,192,326487,1,8,0:0:0:0:
256,192,326581,1,8,0:0:0:0:
256,192,326675,1,0,0:0:0:0:
256,192,326768,1,0,0:0:0:0:
256,192,326956,1,0,0:0:0:0:
256,192,327050,1,8,0:0:0:0:
256,192,327143,1,8,0:0:0:0:
256,192,327237,1,0,0:0:0:0:
256,192,327331,1,0,0:0:0:0:
256,192,327425,1,8,0:0:0:0:
256,192,327518,1,0,0:0:0:0:
256,192,327612,1,0,0:0:0:0:
256,192,327706,1,0,0:0:0:0:
256,192,327800,1,8,0:0:0:0:
256,192,327987,1,0,0:0:0:0:
256,192,328175,1,8,0:0:0:0:
256,192,328268,1,0,0:0:0:0:
256,192,328456,1,8,0:0:0:0:
256,192,328550,1,8,0:0:0:0:
256,192,328737,1,0,0:0:0:0:
256,192,328831,1,0,0:0:0:0:
256,192,328925,1,8,0:0:0:0:
256,192,329018,1,8,0:0:0:0:
256,192,329206,1,0,0:0:0:0:
256,192,329300,1,8,0:0:0:0:
256,192,329487,1,8,0:0:0:0:
256,192,329675,1,0,0:0:0:0:
256,192,329768,1,0,0:0:0:0:
256,192,329956,1,0,0:0:0:0:
256,192,330050,1,8,0:0:0:0:
256,192,330143,1,0,0:0:0:0:
256,192,330237,1,0,0:0:0:0:
256,192,330331,1,8,0:0:0:0:
256,192,330425,1,0,0:0:0:0:
256,192,330518,1,8,0:0:0:0:
256,192,330612,1,0,0:0:0:0:
256,192,330800,1,8,0:0:0:0:
256,192,330893,1,8,0:0:0:0:
256,192,330987,1,0,0:0:0:0:
256,192,331175,1,8,0:0:0:0:
256,192,331268,1,8,0:0:0:0:
256,192,331456,1,8,0:0:0:0:
256,192,331550,1,8,0:0:0:0:
256,192,331643,1,0,0:0:0:0:
256,192,331737,1,0,0:0:0:0:
256,192,331831,1,8,0:0:0:0:
256,192,331925,1,0,0:0:0:0:
256,192,332018,1,8,0:0:0:0:
256,192,332112,1,0,0:0:0:0:
256,192,332300,1,8,0:0:0:0:
256,192,332393,1,0,0:0:0:0:
256,192,332487,1,0,0:0:0:0:
256,192,332675,1,8,0:0:0:0:
256,192,332768,1,0,0:0:0:0:
256,192,332956,1,8,0:0:0:0:
256,192,333050,1,8,0:0:0:0:
256,192,333143,1,8,0:0:0:0:
256,192,333237,1,0,0:0:0:0:
256,192,333331,1,0,0:0:0:0:
256,192,333425,1,8,0:0:0:0:
256,192,333518,1,0,0:0:0:0:
256,192,333612,1,0,0:0:0:0:
256,192,333706,1,0,0:0:0:0:
256,192,333800,1,8,0:0:0:0:
256,192,333987,1,8,0:0:0:0:
256,192,334081,1,8,0:0:0:0:
256,192,334175,1,8,0:0:0:0:
256,192,334456,1,8,0:0:0:0:
256,192,334550,1,0,0:0:0:0:
256,192,334612,1,0,0:0:0:0:
256,192,334675,1,0,0:0:0:0:
256,192,334737,1,8,0:0:0:0:
256,192,334925,1,0,0:0:0:0:
256,192,335018,1,8,0:0:0:0:
256,192,335206,1,8,0:0:0:0:
256,192,335300,1,8,0:0:0:0:
128,192,335362,1,0,0:0:0:0:
256,192,335425,1,0,0:0:0:0:
256,192,335487,1,8,0:0:0:0:
128,192,335675,1,4,0:0:0:0:
256,192,335862,1,0,0:0:0:0:
256,192,336050,1,8,0:0:0:0:
256,192,336237,1,0,0:0:0:0:
256,192,336331,1,8,0:0:0:0:
256,192,336425,1,8,0:0:0:0:
256,192,336518,1,0,0:0:0:0:
256,192,336612,1,0,0:0:0:0:
256,192,336706,1,0,0:0:0:0:
256,192,336800,1,8,0:0:0:0:
256,192,336987,1,0,0:0:0:0:
256,192,337175,1,12,0:0:0:0:
256,192,337362,1,0,0:0:0:0:
256,192,337550,1,8,0:0:0:0:
256,192,337737,1,0,0:0:0:0:
256,192,337831,1,0,0:0:0:0:
256,192,337925,1,8,0:0:0:0:
256,192,338018,1,8,0:0:0:0:
256,192,338112,1,8,0:0:0:0:
256,192,338206,1,0,0:0:0:0:
256,192,338300,1,8,0:0:0:0:
256,192,338487,1,0,0:0:0:0:
256,192,338675,1,0,0:0:0:0:
256,192,338768,1,8,0:0:0:0:
256,192,338862,1,0,0:0:0:0:
256,192,338956,1,0,0:0:0:0:
256,192,339050,1,8,0:0:0:0:
256,192,339237,1,8,0:0:0:0:
256,192,339331,1,8,0:0:0:0:
256,192,339425,1,0,0:0:0:0:
256,192,339518,1,8,0:0:0:0:
256,192,339612,1,0,0:0:0:0:
256,192,339706,1,0,0:0:0:0:
256,192,339800,1,8,0:0:0:0:
256,192,339893,1,0,0:0:0:0:
256,192,339987,1,0,0:0:0:0:
256,192,340081,1,8,0:0:0:0:
256,192,340175,1,8,0:0:0:0:
240,192,340362,1,0,0:0:0:0:
256,192,340456,1,8,0:0:0:0:
256,192,340550,1,8,0:0:0:0:
256,192,340737,1,8,0:0:0:0:
256,192,340925,1,8,0:0:0:0:
256,192,341018,1,0,0:0:0:0:
256,192,341112,1,0,0:0:0:0:
256,192,341300,1,12,0:0:0:0:
256,192,341675,1,4,0:0:0:0:
256,192,341862,1,0,0:0:0:0:
256,192,341956,1,0,0:0:0:0:
256,192,342050,1,8,0:0:0:0:
256,192,342237,1,8,0:0:0:0:
256,192,342331,1,8,0:0:0:0:
256,192,342425,1,8,0:0:0:0:
256,192,342518,1,0,0:0:0:0:
256,192,342612,1,0,0:0:0:0:
256,192,342706,1,0,0:0:0:0:
256,192,342800,1,8,0:0:0:0:
256,192,342987,1,0,0:0:0:0:
256,192,343175,1,8,0:0:0:0:
256,192,343362,1,8,0:0:0:0:
256,192,343456,1,0,0:0:0:0:
256,192,343550,1,8,0:0:0:0:
256,192,343737,1,0,0:0:0:0:
256,192,343831,1,0,0:0:0:0:
256,192,343925,1,0,0:0:0:0:
256,192,344018,1,8,0:0:0:0:
256,192,344112,1,8,0:0:0:0:
256,192,344206,1,0,0:0:0:0:
256,192,344300,1,8,0:0:0:0:
256,192,344487,1,0,0:0:0:0:
256,192,344675,1,12,0:0:0:0:
256,192,344862,1,0,0:0:0:0:
256,192,344956,1,0,0:0:0:0:
256,192,345050,1,8,0:0:0:0:
256,192,345237,1,8,0:0:0:0:
256,192,345425,1,0,0:0:0:0:
256,192,345612,1,8,0:0:0:0:
256,192,345706,1,0,0:0:0:0:
256,192,345800,1,8,0:0:0:0:
256,192,346081,1,0,0:0:0:0:
256,192,346175,1,8,0:0:0:0:
256,192,346362,1,0,0:0:0:0:
256,192,346550,1,8,0:0:0:0:
256,192,346737,1,8,0:0:0:0:
256,192,346831,1,8,0:0:0:0:
256,192,346925,1,8,0:0:0:0:
256,192,347112,1,0,0:0:0:0:
256,192,347206,1,8,0:0:0:0:
256,192,347300,1,8,0:0:0:0:
256,192,347487,1,0,0:0:0:0:
256,192,347581,1,8,0:0:0:0:
256,192,347675,1,8,0:0:0:0:
256,192,347768,1,8,0:0:0:0:
256,192,347862,1,0,0:0:0:0:
256,192,347956,1,8,0:0:0:0:
256,192,348050,1,0,0:0:0:0:
256,192,348143,1,0,0:0:0:0:
256,192,348237,1,0,0:0:0:0:
256,192,348331,1,0,0:0:0:0:
256,192,348425,1,8,0:0:0:0:
256,192,348518,1,8,0:0:0:0:
256,192,348612,1,0,0:0:0:0:
256,192,348706,1,8,0:0:0:0:
256,192,348800,1,0,0:0:0:0:
256,192,348893,1,0,0:0:0:0:
256,192,348987,1,0,0:0:0:0:
256,192,349081,1,0,0:0:0:0:
256,192,349175,1,8,0:0:0:0:
256,192,349268,1,8,0:0:0:0:
256,192,349362,1,0,0:0:0:0:
256,192,349456,1,8,0:0:0:0:
256,192,349550,1,0,0:0:0:0:
256,192,349643,1,0,0:0:0:0:
256,192,349737,1,0,0:0:0:0:
256,192,349831,1,0,0:0:0:0:
256,192,349925,1,8,0:0:0:0:
256,192,350018,1,8,0:0:0:0:
256,192,350112,1,0,0:0:0:0:
256,192,350206,1,8,0:0:0:0:
256,192,350300,1,0,0:0:0:0:
256,192,350393,1,0,0:0:0:0:
256,192,350487,1,8,0:0:0:0:
256,192,350581,1,8,0:0:0:0:
256,192,350675,1,0,0:0:0:0:
256,192,350862,1,8,0:0:0:0:
256,192,350956,1,0,0:0:0:0:
256,192,351050,1,0,0:0:0:0:
256,192,351237,1,8,0:0:0:0:
256,192,351331,1,8,0:0:0:0:
256,192,351425,1,0,0:0:0:0:
256,192,351612,1,8,0:0:0:0:
256,192,351706,1,0,0:0:0:0:
256,192,351800,1,0,0:0:0:0:
256,192,351987,1,8,0:0:0:0:
256,192,352081,1,8,0:0:0:0:
256,192,352175,1,0,0:0:0:0:
256,192,352362,1,8,0:0:0:0:
256,192,352456,1,0,0:0:0:0:
256,192,352550,1,8,0:0:0:0:
256,192,352737,1,0,0:0:0:0:
256,192,352831,1,0,0:0:0:0:
256,192,352925,1,8,0:0:0:0:
256,192,353112,1,8,0:0:0:0:
256,192,353206,1,8,0:0:0:0:
256,192,353300,1,8,0:0:0:0:
256,192,353393,1,0,0:0:0:0:
256,192,353487,1,0,0:0:0:0:
0,192,353675,5,12,0:0:0:0:
256,192,364526,5,0,0:0:0:0:
256,192,364692,1,8,0:0:0:0:
256,192,364859,1,4,0:0:0:0:
256,192,365192,1,0,0:0:0:0:
256,192,365359,1,8,0:0:0:0:
256,192,365525,1,8,0:0:0:0:
256,192,365692,1,0,0:0:0:0:
256,192,365859,1,0,0:0:0:0:
256,192,366025,1,8,0:0:0:0:
256,192,366192,1,0,0:0:0:0:
256,192,366525,1,0,0:0:0:0:
256,192,366692,1,8,0:0:0:0:
256,192,366859,1,8,0:0:0:0:
256,192,367192,1,8,0:0:0:0:
256,192,367359,1,0,0:0:0:0:
256,192,367525,1,8,0:0:0:0:
256,192,367859,1,8,0:0:0:0:
256,192,368025,1,0,0:0:0:0:
256,192,368192,1,8,0:0:0:0:
256,192,368359,1,0,0:0:0:0:
256,192,368442,1,0,0:0:0:0:
256,192,368525,1,8,0:0:0:0:
256,192,368692,1,8,0:0:0:0:
256,192,368859,1,8,0:0:0:0:
256,192,369192,1,8,0:0:0:0:
256,192,369359,1,0,0:0:0:0:
256,192,369525,1,8,0:0:0:0:
256,192,369859,1,0,0:0:0:0:
256,192,370025,1,0,0:0:0:0:
256,192,370081,1,0,0:0:0:0:
256,192,370136,1,0,0:0:0:0:
256,192,370192,1,8,0:0:0:0:
256,192,370359,1,0,0:0:0:0:
256,192,370525,1,8,0:0:0:0:
256,192,370692,1,8,0:0:0:0:
256,192,370859,1,0,0:0:0:0:
256,192,371025,1,0,0:0:0:0:
256,192,371192,1,8,0:0:0:0:
256,192,371275,1,0,0:0:0:0:
256,192,371359,1,8,0:0:0:0:
256,192,371525,1,0,0:0:0:0:
256,192,371859,1,8,0:0:0:0:
256,192,372025,1,8,0:0:0:0:
256,192,372192,1,0,0:0:0:0:
256,192,372359,1,0,0:0:0:0:
256,192,372442,1,0,0:0:0:0:
256,192,372525,1,8,0:0:0:0:
256,192,372609,1,8,0:0:0:0:
256,192,372692,1,0,0:0:0:0:
256,192,372859,1,0,0:0:0:0:
256,192,373192,1,8,0:0:0:0:
256,192,373359,1,0,0:0:0:0:
256,192,373525,1,8,0:0:0:0:
256,192,373692,1,8,0:0:0:0:
256,192,373859,1,8,0:0:0:0:
256,192,373942,1,0,0:0:0:0:
256,192,374025,1,0,0:0:0:0:
256,192,374192,1,0,0:0:0:0:
256,192,374359,1,8,0:0:0:0:
256,192,374442,1,8,0:0:0:0:
256,192,374525,1,8,0:0:0:0:
256,192,374692,1,8,0:0:0:0:
256,192,374775,1,8,0:0:0:0:
256,192,374859,1,0,0:0:0:0:
256,192,374942,1,0,0:0:0:0:
256,192,375025,1,8,0:0:0:0:
256,192,375081,1,0,0:0:0:0:
256,192,375136,1,0,0:0:0:0:
256,192,375192,1,8,0:0:0:0:
256,192,375275,1,0,0:0:0:0:
256,192,375359,1,0,0:0:0:0:
256,192,375414,1,0,0:0:0:0:
256,192,375470,1,0,0:0:0:0:
256,192,375525,1,8,0:0:0:0:
256,192,375692,1,0,0:0:0:0:
256,192,375859,1,8,0:0:0:0:
256,192,376025,1,8,0:0:0:0:
256,192,376109,1,0,0:0:0:0:
256,192,376192,1,0,0:0:0:0:
256,192,376359,1,0,0:0:0:0:
256,192,376525,1,8,0:0:0:0:
256,192,376692,1,8,0:0:0:0:
256,192,376775,1,8,0:0:0:0:
256,192,376859,1,0,0:0:0:0:
256,192,377025,1,0,0:0:0:0:
256,192,377192,1,8,0:0:0:0:
256,192,377275,1,8,0:0:0:0:
256,192,377359,1,0,0:0:0:0:
256,192,377442,1,8,0:0:0:0:
256,192,377525,1,0,0:0:0:0:
256,192,377692,1,0,0:0:0:0:
256,192,377775,1,0,0:0:0:0:
256,192,377859,1,8,0:0:0:0:
256,192,378025,1,0,0:0:0:0:
256,192,378192,1,8,0:0:0:0:
256,192,378275,1,8,0:0:0:0:
256,192,378359,1,0,0:0:0:0:
256,192,378442,1,0,0:0:0:0:
256,192,378525,1,8,0:0:0:0:
256,192,378692,1,0,0:0:0:0:
256,192,378775,1,8,0:0:0:0:
256,192,378859,1,8,0:0:0:0:
256,192,379025,1,0,0:0:0:0:
256,192,379109,1,0,0:0:0:0:
256,192,379192,1,8,0:0:0:0:
256,192,379359,1,0,0:0:0:0:
256,192,379525,1,0,0:0:0:0:
256,192,379775,1,0,0:0:0:0:
256,192,379859,1,8,0:0:0:0:
256,192,380025,1,0,0:0:0:0:
256,192,380109,1,8,0:0:0:0:
256,192,380192,1,0,0:0:0:0:
256,192,380442,1,8,0:0:0:0:
256,192,380525,1,8,0:0:0:0:
256,192,380692,1,0,0:0:0:0:
256,192,380775,1,0,0:0:0:0:
256,192,380859,1,0,0:0:0:0:
256,192,381025,1,0,0:0:0:0:
256,192,381192,1,8,0:0:0:0:
256,192,381359,1,8,0:0:0:0:
256,192,381442,1,8,0:0:0:0:
256,192,381525,1,0,0:0:0:0:
256,192,381692,1,0,0:0:0:0:
256,192,381775,1,0,0:0:0:0:
256,192,381859,1,8,0:0:0:0:
256,192,382025,1,8,0:0:0:0:
256,192,382192,1,0,0:0:0:0:
256,192,382359,1,0,0:0:0:0:
256,192,382442,1,8,0:0:0:0:
256,192,382525,1,8,0:0:0:0:
256,192,382692,1,8,0:0:0:0:
256,192,382775,1,8,0:0:0:0:
256,192,382859,1,0,0:0:0:0:
256,192,382942,1,0,0:0:0:0:
256,192,383025,1,0,0:0:0:0:
256,192,383192,1,8,0:0:0:0:
256,192,383275,1,0,0:0:0:0:
256,192,383359,1,8,0:0:0:0:
256,192,383525,1,0,0:0:0:0:
256,192,383609,1,0,0:0:0:0:
256,192,383692,1,0,0:0:0:0:
256,192,383775,1,0,0:0:0:0:
256,192,383859,1,8,0:0:0:0:
256,192,384025,1,0,0:0:0:0:
256,192,384109,1,8,0:0:0:0:
256,192,384192,1,0,0:0:0:0:
256,192,384359,1,0,0:0:0:0:
256,192,384525,1,8,0:0:0:0:
256,192,384692,1,8,0:0:0:0:
256,192,384859,1,4,0:0:0:0:
256,192,385025,1,0,0:0:0:0:
256,192,385081,1,0,0:0:0:0:
256,192,385136,1,0,0:0:0:0:
256,192,385192,1,8,0:0:0:0:
256,192,385359,1,0,0:0:0:0:
256,192,385442,1,8,0:0:0:0:
256,192,385525,1,8,0:0:0:0:
256,192,385692,1,0,0:0:0:0:
256,192,385747,1,0,0:0:0:0:
256,192,385803,1,0,0:0:0:0:
256,192,385859,1,8,0:0:0:0:
256,192,385942,1,8,0:0:0:0:
256,192,386025,1,0,0:0:0:0:
256,192,386192,1,4,0:0:0:0:
256,192,386359,1,4,0:0:0:0:
256,192,386525,1,4,0:0:0:0:
256,192,386859,1,12,0:0:0:0:
256,192,387025,1,12,0:0:0:0:
256,192,387192,1,12,0:0:0:0:
256,192,387359,1,0,0:0:0:0:
256,192,387442,1,0,0:0:0:0:
256,192,387525,1,8,0:0:0:0:
256,192,387692,1,0,0:0:0:0:
256,192,387859,1,8,0:0:0:0:
256,192,388025,1,0,0:0:0:0:
256,192,388109,1,0,0:0:0:0:
256,192,388192,1,0,0:0:0:0:
256,192,388525,1,8,0:0:0:0:
256,192,388609,1,0,0:0:0:0:
256,192,388692,1,0,0:0:0:0:
256,192,388859,1,4,0:0:0:0:
256,192,389025,1,4,0:0:0:0:
256,192,389192,1,4,0:0:0:0:
256,192,389525,1,8,0:0:0:0:
256,192,389581,1,0,0:0:0:0:
256,192,389636,1,0,0:0:0:0:
256,192,389692,1,8,0:0:0:0:
256,192,389859,1,12,0:0:0:0:
256,192,390192,1,0,0:0:0:0:
256,192,390275,1,8,0:0:0:0:
256,192,390359,1,0,0:0:0:0:
256,192,390442,1,0,0:0:0:0:
256,192,390525,1,8,0:0:0:0:
256,192,390609,1,0,0:0:0:0:
256,192,390692,1,8,0:0:0:0:
256,192,390775,1,8,0:0:0:0:
256,192,390859,1,0,0:0:0:0:
256,192,391025,1,0,0:0:0:0:
256,192,391081,1,0,0:0:0:0:
256,192,391136,1,0,0:0:0:0:
256,192,391192,1,8,0:0:0:0:
256,192,391359,1,8,0:0:0:0:
256,192,391525,1,4,0:0:0:0:
256,192,391859,1,12,0:0:0:0:
256,192,392025,1,4,0:0:0:0:
256,192,392192,1,12,0:0:0:0:
256,192,392525,1,4,0:0:0:0:
256,192,392692,1,4,0:0:0:0:
256,192,392859,1,12,0:0:0:0:
256,192,393025,1,0,0:0:0:0:
256,192,393109,1,0,0:0:0:0:
256,192,393192,1,8,0:0:0:0:
256,192,393275,1,0,0:0:0:0:
256,192,393359,1,8,0:0:0:0:
256,192,393525,1,4,0:0:0:0:
256,192,393858,1,8,0:0:0:0:
256,192,393942,1,8,0:0:0:0:
256,192,394025,1,0,0:0:0:0:
256,192,394192,1,12,0:0:0:0:
256,192,394358,1,0,0:0:0:0:
256,192,394442,1,0,0:0:0:0:
256,192,394525,1,8,0:0:0:0:
256,192,394608,1,8,0:0:0:0:
256,192,394692,1,0,0:0:0:0:
256,192,394775,1,8,0:0:0:0:
256,192,394858,1,8,0:0:0:0:
256,192,395025,1,0,0:0:0:0:
256,192,395108,1,0,0:0:0:0:
256,192,395192,1,8,0:0:0:0:
256,192,395275,1,8,0:0:0:0:
256,192,395358,1,8,0:0:0:0:
256,192,395442,1,0,0:0:0:0:
256,192,395525,1,8,0:0:0:0:
256,192,395692,1,0,0:0:0:0:
256,192,395747,1,0,0:0:0:0:
256,192,395803,1,0,0:0:0:0:
256,192,395858,1,8,0:0:0:0:
256,192,396025,1,0,0:0:0:0:
256,192,396081,1,0,0:0:0:0:
256,192,396136,1,0,0:0:0:0:
256,192,396192,1,8,0:0:0:0:
256,192,396525,1,8,0:0:0:0:
256,192,396692,1,8,0:0:0:0:
256,192,396858,1,4,0:0:0:0:
256,192,397025,1,0,0:0:0:0:
256,192,397108,1,0,0:0:0:0:
256,192,397192,1,8,0:0:0:0:
256,192,397358,1,8,0:0:0:0:
256,192,397442,1,8,0:0:0:0:
256,192,397525,1,0,0:0:0:0:
256,192,397608,1,8,0:0:0:0:
256,192,397692,1,0,0:0:0:0:
256,192,397775,1,0,0:0:0:0:
256,192,397858,1,8,0:0:0:0:
256,192,398025,1,8,0:0:0:0:
256,192,398108,1,8,0:0:0:0:
256,192,398192,1,0,0:0:0:0:
256,192,398358,1,0,0:0:0:0:
256,192,398442,1,0,0:0:0:0:
256,192,398525,1,8,0:0:0:0:
256,192,398692,1,8,0:0:0:0:
256,192,398775,1,8,0:0:0:0:
256,192,398858,1,8,0:0:0:0:
256,192,399025,1,0,0:0:0:0:
256,192,399192,1,8,0:0:0:0:
256,192,399358,1,8,0:0:0:0:
256,192,399525,1,0,0:0:0:0:
256,192,399692,1,0,0:0:0:0:
256,192,399775,1,0,0:0:0:0:
256,192,399858,1,8,0:0:0:0:
256,192,400025,1,8,0:0:0:0:
256,192,400108,1,8,0:0:0:0:
256,192,400192,1,0,0:0:0:0:
256,192,400358,1,0,0:0:0:0:
256,192,400525,1,8,0:0:0:0:
256,192,400608,1,0,0:0:0:0:
256,192,400692,1,8,0:0:0:0:
256,192,400858,1,0,0:0:0:0:
256,192,401025,1,0,0:0:0:0:
256,192,401108,1,0,0:0:0:0:
256,192,401192,1,8,0:0:0:0:
256,192,401275,1,0,0:0:0:0:
256,192,401358,1,8,0:0:0:0:
256,192,401442,1,8,0:0:0:0:
256,192,401525,1,0,0:0:0:0:
256,192,401692,1,0,0:0:0:0:
256,192,401858,1,8,0:0:0:0:
256,192,402025,1,8,0:0:0:0:
256,192,402192,1,4,0:0:0:0:
256,192,402358,1,0,0:0:0:0:
256,192,402525,1,8,0:0:0:0:
256,192,402608,1,8,0:0:0:0:
256,192,402692,1,0,0:0:0:0:
256,192,402775,1,0,0:0:0:0:
256,192,402858,1,8,0:0:0:0:
256,192,403025,1,0,0:0:0:0:
256,192,403192,1,8,0:0:0:0:
256,192,403275,1,0,0:0:0:0:
256,192,403358,1,0,0:0:0:0:
256,192,403525,1,8,0:0:0:0:
256,192,403692,1,0,0:0:0:0:
256,192,403775,1,8,0:0:0:0:
256,192,403858,1,8,0:0:0:0:
256,192,403942,1,0,0:0:0:0:
256,192,404025,1,8,0:0:0:0:
256,192,404192,1,8,0:0:0:0:
256,192,404275,1,0,0:0:0:0:
256,192,404358,1,0,0:0:0:0:
256,192,404442,1,0,0:0:0:0:
256,192,404525,1,8,0:0:0:0:
256,192,404608,1,0,0:0:0:0:
256,192,404692,1,8,0:0:0:0:
256,192,404858,1,0,0:0:0:0:
256,192,405025,1,0,0:0:0:0:
256,192,405108,1,0,0:0:0:0:
256,192,405192,1,8,0:0:0:0:
256,192,405275,1,8,0:0:0:0:
256,192,405358,1,0,0:0:0:0:
256,192,405442,1,8,0:0:0:0:
256,192,405525,1,8,0:0:0:0:
256,192,405692,1,0,0:0:0:0:
256,192,405775,1,0,0:0:0:0:
256,192,405858,1,8,0:0:0:0:
256,192,405942,1,0,0:0:0:0:
256,192,406025,1,0,0:0:0:0:
256,192,406192,1,8,0:0:0:0:
256,192,406275,1,0,0:0:0:0:
256,192,406442,1,0,0:0:0:0:
256,192,406525,1,8,0:0:0:0:
256,192,406608,1,0,0:0:0:0:
256,192,406692,1,0,0:0:0:0:
256,192,406858,1,0,0:0:0:0:
256,192,406914,1,8,0:0:0:0:
256,192,406970,1,8,0:0:0:0:
256,192,407025,1,8,0:0:0:0:
256,192,407192,1,8,0:0:0:0:
256,192,407247,1,0,0:0:0:0:
256,192,407303,1,0,0:0:0:0:
256,192,407358,1,0,0:0:0:0:
256,192,407525,1,12,0:0:0:0:
256,192,407692,1,0,0:0:0:0:
256,192,407858,1,8,0:0:0:0:
256,192,408025,1,8,0:0:0:0:
256,192,408108,1,8,0:0:0:0:
256,192,408192,1,0,0:0:0:0:
256,192,408358,1,0,0:0:0:0:
256,192,408442,1,0,0:0:0:0:
256,192,408525,1,8,0:0:0:0:
256,192,408692,1,0,0:0:0:0:
256,192,408775,1,8,0:0:0:0:
256,192,408858,1,8,0:0:0:0:
256,192,409192,1,8,0:0:0:0:
256,192,409442,1,8,0:0:0:0:
256,192,409525,1,0,0:0:0:0:
256,192,409692,1,0,0:0:0:0:
256,192,409858,1,8,0:0:0:0:
256,192,410025,1,0,0:0:0:0:
256,192,410108,1,0,0:0:0:0:
256,192,410192,1,0,0:0:0:0:
256,192,410358,1,0,0:0:0:0:
256,192,410525,1,8,0:0:0:0:
256,192,410692,1,8,0:0:0:0:
256,192,410775,1,8,0:0:0:0:
256,192,410858,1,0,0:0:0:0:
256,192,411025,1,8,0:0:0:0:
256,192,411108,1,0,0:0:0:0:
256,192,411192,1,8,0:0:0:0:
256,192,411358,1,0,0:0:0:0:
256,192,411442,1,0,0:0:0:0:
256,192,411525,1,8,0:0:0:0:
256,192,411692,1,0,0:0:0:0:
256,192,411858,1,8,0:0:0:0:
256,192,412025,1,0,0:0:0:0:
256,192,412108,1,8,0:0:0:0:
256,192,412192,1,0,0:0:0:0:
256,192,412525,1,8,0:0:0:0:
256,192,412608,1,0,0:0:0:0:
256,192,412692,1,8,0:0:0:0:
256,192,412775,1,8,0:0:0:0:
256,192,412858,1,0,0:0:0:0:
256,192,413192,1,8,0:0:0:0:
256,192,413442,1,8,0:0:0:0:
256,192,413525,1,0,0:0:0:0:
256,192,413858,1,8,0:0:0:0:
256,192,414108,1,8,0:0:0:0:
256,192,414192,1,0,0:0:0:0:
256,192,414525,1,8,0:0:0:0:
256,192,414692,1,8,0:0:0:0:
256,192,414775,1,0,0:0:0:0:
256,192,414858,1,0,0:0:0:0:
256,192,415192,1,8,0:0:0:0:
256,192,415442,1,8,0:0:0:0:
256,192,415525,1,0,0:0:0:0:
256,192,415692,1,0,0:0:0:0:
256,192,415858,1,8,0:0:0:0:
256,192,416025,1,8,0:0:0:0:
256,192,416108,1,8,0:0:0:0:
256,192,416192,1,0,0:0:0:0:
256,192,416358,1,8,0:0:0:0:
256,192,416525,1,8,0:0:0:0:
256,192,416692,1,0,0:0:0:0:
256,192,416775,1,8,0:0:0:0:
256,192,416858,1,0,0:0:0:0:
256,192,417025,1,0,0:0:0:0:
256,192,417192,1,8,0:0:0:0:
256,192,417358,1,0,0:0:0:0:
256,192,417442,1,0,0:0:0:0:
256,192,417525,1,8,0:0:0:0:
256,192,417858,1,8,0:0:0:0:
256,192,418108,1,8,0:0:0:0:
256,192,418192,1,8,0:0:0:0:
256,192,418358,1,0,0:0:0:0:
256,192,418525,1,8,0:0:0:0:
256,192,418692,1,8,0:0:0:0:
256,192,418775,1,8,0:0:0:0:
256,192,418858,1,0,0:0:0:0:
256,192,419025,1,0,0:0:0:0:
256,192,419108,1,0,0:0:0:0:
256,192,419192,1,8,0:0:0:0:
256,192,419358,1,0,0:0:0:0:
256,192,419442,1,8,0:0:0:0:
256,192,419525,1,8,0:0:0:0:
256,192,419858,1,8,0:0:0:0:
256,192,420108,1,8,0:0:0:0:
256,192,420192,1,0,0:0:0:0:
256,192,420358,1,0,0:0:0:0:
256,192,420525,1,8,0:0:0:0:
256,192,420692,1,0,0:0:0:0:
256,192,420775,1,0,0:0:0:0:
256,192,420858,1,0,0:0:0:0:
256,192,421025,1,0,0:0:0:0:
256,192,421192,1,8,0:0:0:0:
256,192,421358,1,8,0:0:0:0:
256,192,421442,1,8,0:0:0:0:
256,192,421525,1,0,0:0:0:0:
256,192,421692,1,8,0:0:0:0:
256,192,421775,1,0,0:0:0:0:
256,192,421858,1,8,0:0:0:0:
256,192,422025,1,0,0:0:0:0:
256,192,422108,1,0,0:0:0:0:
256,192,422192,1,8,0:0:0:0:
256,192,422358,1,0,0:0:0:0:
256,192,422525,1,8,0:0:0:0:
256,192,422692,1,0,0:0:0:0:
256,192,422775,1,8,0:0:0:0:
256,192,422858,1,0,0:0:0:0:
256,192,423192,1,8,0:0:0:0:
256,192,423275,1,0,0:0:0:0:
256,192,423358,1,8,0:0:0:0:
256,192,423442,1,8,0:0:0:0:
256,192,423525,1,0,0:0:0:0:
256,192,423858,1,8,0:0:0:0:
256,192,424108,1,8,0:0:0:0:
256,192,424192,1,0,0:0:0:0:
256,192,424525,1,8,0:0:0:0:
256,192,424775,1,8,0:0:0:0:
256,192,424858,1,0,0:0:0:0:
256,192,425192,1,8,0:0:0:0:
256,192,425358,1,8,0:0:0:0:
256,192,425442,1,0,0:0:0:0:
256,192,425525,1,0,0:0:0:0:
256,192,425858,1,8,0:0:0:0:
256,192,426108,1,8,0:0:0:0:
256,192,426192,1,0,0:0:0:0:
256,192,426358,1,0,0:0:0:0:
256,192,426525,1,8,0:0:0:0:
256,192,426692,1,8,0:0:0:0:
256,192,426775,1,8,0:0:0:0:
256,192,426858,1,0,0:0:0:0:
256,192,427025,1,8,0:0:0:0:
256,192,427192,1,8,0:0:0:0:
256,192,427358,1,0,0:0:0:0:
256,192,427525,1,0,0:0:0:0:
256,192,427581,1,0,0:0:0:0:
256,192,427636,1,0,0:0:0:0:
256,192,427692,1,8,0:0:0:0:
256,192,427858,1,8,0:0:0:0:
256,192,427914,1,8,0:0:0:0:
256,192,427970,1,8,0:0:0:0:
256,192,428025,1,0,0:0:0:0:
256,192,428192,1,8,0:0:0:0:
256,192,428247,1,8,0:0:0:0:
256,192,428303,1,8,0:0:0:0:
256,192,428358,1,8,0:0:0:0:
256,192,428525,1,0,0:0:0:0:
256,192,428581,1,0,0:0:0:0:
256,192,428636,1,0,0:0:0:0:
256,192,428692,1,0,0:0:0:0:
256,192,428858,1,12,0:0:0:0:
256,192,429025,1,0,0:0:0:0:
256,192,429192,5,8,0:0:0:0:
256,192,429358,1,0,0:0:0:0:
256,192,429442,1,8,0:0:0:0:
256,192,429525,1,0,0:0:0:0:
256,192,429692,1,0,0:0:0:0:
256,192,429858,1,8,0:0:0:0:
256,192,430025,1,0,0:0:0:0:
256,192,430108,1,8,0:0:0:0:
256,192,430192,1,8,0:0:0:0:
256,192,430525,1,8,0:0:0:0:
256,192,430775,1,8,0:0:0:0:
256,192,430858,1,0,0:0:0:0:
256,192,431025,1,0,0:0:0:0:
256,192,431192,1,8,0:0:0:0:
256,192,431358,1,0,0:0:0:0:
256,192,431442,1,0,0:0:0:0:
256,192,431525,1,0,0:0:0:0:
256,192,431692,1,0,0:0:0:0:
256,192,431858,1,8,0:0:0:0:
256,192,432025,1,8,0:0:0:0:
256,192,432108,1,8,0:0:0:0:
256,192,432192,1,0,0:0:0:0:
256,192,432275,1,0,0:0:0:0:
256,192,432358,1,8,0:0:0:0:
256,192,432442,1,0,0:0:0:0:
256,192,432525,1,8,0:0:0:0:
256,192,432692,1,0,0:0:0:0:
256,192,432775,1,0,0:0:0:0:
256,192,432858,1,8,0:0:0:0:
256,192,433025,1,0,0:0:0:0:
256,192,433192,1,8,0:0:0:0:
256,192,433275,1,0,0:0:0:0:
256,192,433358,1,8,0:0:0:0:
256,192,433442,1,8,0:0:0:0:
256,192,433525,1,0,0:0:0:0:
256,192,433692,1,0,0:0:0:0:
256,192,433858,1,8,0:0:0:0:
256,192,433942,1,8,0:0:0:0:
256,192,434025,1,0,0:0:0:0:
256,192,434108,1,0,0:0:0:0:
256,192,434192,1,8,0:0:0:0:
256,192,434525,1,8,0:0:0:0:
256,192,434692,1,0,0:0:0:0:
256,192,434858,1,8,0:0:0:0:
256,192,434942,1,0,0:0:0:0:
256,192,435025,1,0,0:0:0:0:
256,192,435108,1,0,0:0:0:0:
256,192,435192,1,8,0:0:0:0:
256,192,435358,1,0,0:0:0:0:
256,192,435442,1,8,0:0:0:0:
256,192,435525,1,0,0:0:0:0:
256,192,435692,1,0,0:0:0:0:
256,192,435858,1,8,0:0:0:0:
256,192,436025,1,8,0:0:0:0:
256,192,436108,1,8,0:0:0:0:
256,192,436192,1,0,0:0:0:0:
256,192,436358,1,0,0:0:0:0:
256,192,436442,1,0,0:0:0:0:
256,192,436525,1,8,0:0:0:0:
256,192,436692,1,8,0:0:0:0:
256,192,436775,1,0,0:0:0:0:
256,192,436858,1,8,0:0:0:0:
256,192,437025,1,0,0:0:0:0:
256,192,437192,1,8,0:0:0:0:
256,192,437358,1,8,0:0:0:0:
256,192,437442,1,8,0:0:0:0:
256,192,437525,1,0,0:0:0:0:
256,192,437692,1,0,0:0:0:0:
256,192,437858,1,8,0:0:0:0:
256,192,438025,1,0,0:0:0:0:
256,192,438192,1,0,0:0:0:0:
256,192,438275,1,8,0:0:0:0:
256,192,438358,1,0,0:0:0:0:
256,192,438442,1,0,0:0:0:0:
256,192,438525,1,8,0:0:0:0:
256,192,438608,1,8,0:0:0:0:
256,192,438692,1,0,0:0:0:0:
256,192,438775,1,0,0:0:0:0:
256,192,438858,1,8,0:0:0:0:
256,192,438942,1,0,0:0:0:0:
256,192,439025,1,0,0:0:0:0:
256,192,439108,1,0,0:0:0:0:
256,192,439192,1,8,0:0:0:0:
256,192,439275,1,8,0:0:0:0:
256,192,439358,1,8,0:0:0:0:
256,192,439525,1,4,0:0:0:0:
256,192,439692,1,0,0:0:0:0:
256,192,439775,1,0,0:0:0:0:
256,192,439858,1,8,0:0:0:0:
256,192,440025,1,0,0:0:0:0:
256,192,440108,1,8,0:0:0:0:
256,192,440192,1,0,0:0:0:0:
256,192,440275,1,0,0:0:0:0:
256,192,440358,1,8,0:0:0:0:
256,192,440442,1,0,0:0:0:0:
256,192,440525,1,8,0:0:0:0:
256,192,440692,1,8,0:0:0:0:
256,192,440775,1,8,0:0:0:0:
256,192,440858,1,0,0:0:0:0:
256,192,441025,1,0,0:0:0:0:
256,192,441108,1,0,0:0:0:0:
256,192,441192,1,8,0:0:0:0:
256,192,441358,1,0,0:0:0:0:
256,192,441442,1,0,0:0:0:0:
256,192,441525,1,0,0:0:0:0:
256,192,441608,1,8,0:0:0:0:
256,192,441692,1,0,0:0:0:0:
256,192,441775,1,0,0:0:0:0:
256,192,441858,1,8,0:0:0:0:
256,192,442025,1,8,0:0:0:0:
256,192,442108,1,0,0:0:0:0:
256,192,442192,1,0,0:0:0:0:
256,192,442358,1,0,0:0:0:0:
256,192,442442,1,0,0:0:0:0:
256,192,442525,1,8,0:0:0:0:
256,192,442692,1,8,0:0:0:0:
256,192,442775,1,8,0:0:0:0:
256,192,442858,1,0,0:0:0:0:
256,192,442942,1,0,0:0:0:0:
256,192,443025,1,8,0:0:0:0:
256,192,443108,1,0,0:0:0:0:
256,192,443192,1,8,0:0:0:0:
256,192,443358,1,0,0:0:0:0:
256,192,443442,1,8,0:0:0:0:
256,192,443525,1,0,0:0:0:0:
256,192,443692,1,0,0:0:0:0:
256,192,443858,1,8,0:0:0:0:
256,192,444025,1,8,0:0:0:0:
256,192,444108,1,8,0:0:0:0:
256,192,444192,1,0,0:0:0:0:
256,192,444525,1,8,0:0:0:0:
256,192,444608,1,8,0:0:0:0:
256,192,444692,1,8,0:0:0:0:
256,192,444775,1,0,0:0:0:0:
256,192,444858,1,0,0:0:0:0:
256,192,445025,1,8,0:0:0:0:
256,192,445108,1,8,0:0:0:0:
256,192,445192,1,8,0:0:0:0:
256,192,445358,1,8,0:0:0:0:
256,192,445525,1,0,0:0:0:0:
256,192,445692,1,8,0:0:0:0:
256,192,445775,1,8,0:0:0:0:
256,192,445858,1,8,0:0:0:0:
256,192,446025,1,8,0:0:0:0:
256,192,446192,1,0,0:0:0:0:
256,192,446358,1,0,0:0:0:0:
256,192,446442,1,0,0:0:0:0:
256,192,446525,1,8,0:0:0:0:
256,192,446692,1,8,0:0:0:0:
256,192,446775,1,0,0:0:0:0:
256,192,446858,1,0,0:0:0:0:
256,192,447025,1,0,0:0:0:0:
256,192,447192,1,8,0:0:0:0:
256,192,447442,1,8,0:0:0:0:
256,192,447525,1,0,0:0:0:0:
256,192,447692,1,0,0:0:0:0:
256,192,447858,1,8,0:0:0:0:
256,192,448025,1,8,0:0:0:0:
256,192,448108,1,8,0:0:0:0:
256,192,448192,1,0,0:0:0:0:
256,192,448358,1,8,0:0:0:0:
256,192,448525,1,8,0:0:0:0:
256,192,448692,1,0,0:0:0:0:
256,192,448858,1,8,0:0:0:0:
256,192,448914,1,0,0:0:0:0:
256,192,448970,1,0,0:0:0:0:
256,192,449025,1,8,0:0:0:0:
256,192,449192,1,0,0:0:0:0:
256,192,449247,1,8,0:0:0:0:
256,192,449303,1,8,0:0:0:0:
256,192,449358,1,0,0:0:0:0:
256,192,449525,1,8,0:0:0:0:
256,192,449581,1,8,0:0:0:0:
256,192,449636,1,8,0:0:0:0:
256,192,449692,1,8,0:0:0:0:
256,192,449858,1,0,0:0:0:0:
256,192,449914,1,0,0:0:0:0:
256,192,449970,1,0,0:0:0:0:
256,192,450025,1,0,0:0:0:0:
256,192,450192,1,12,0:0:0:0:
256,192,450525,1,0,0:0:0:0:
256,192,450858,1,0,0:0:0:0:
256,192,451192,1,0,0:0:0:0:
256,192,451358,1,0,0:0:0:0:
256,192,451525,1,0,0:0:0:0:
256,192,451858,1,0,0:0:0:0:
256,192,452192,1,0,0:0:0:0:
256,192,452525,1,0,0:0:0:0:
256,192,452858,1,0,0:0:0:0:
256,192,453192,1,0,0:0:0:0:
256,192,453525,1,0,0:0:0:0:
256,192,453858,1,0,0:0:0:0:
256,192,454192,1,8,0:0:0:0:
256,192,454525,1,8,0:0:0:0:
256,192,454858,1,8,0:0:0:0:
256,192,455025,1,8,0:0:0:0:
256,192,455192,1,8,0:0:0:0:
256,192,455525,1,8,0:0:0:0:
256,192,455608,1,0,0:0:0:0:
256,192,455692,1,0,0:0:0:0:
256,192,455775,1,0,0:0:0:0:
256,192,455858,1,8,0:0:0:0:
256,192,455942,1,0,0:0:0:0:
256,192,456025,1,0,0:0:0:0:
256,192,456108,1,0,0:0:0:0:
256,192,456192,1,8,0:0:0:0:
256,192,456275,1,0,0:0:0:0:
256,192,456358,1,0,0:0:0:0:
256,192,456442,1,0,0:0:0:0:
256,192,456525,1,8,0:0:0:0:
256,192,456608,1,0,0:0:0:0:
256,192,456692,1,0,0:0:0:0:
256,192,456775,1,0,0:0:0:0:
256,192,456858,1,8,0:0:0:0:
256,192,456942,1,0,0:0:0:0:
256,192,457025,1,0,0:0:0:0:
256,192,457108,1,0,0:0:0:0:
256,192,457192,1,8,0:0:0:0:
256,192,457275,1,8,0:0:0:0:
256,192,457358,1,0,0:0:0:0:
256,192,457442,1,0,0:0:0:0:
256,192,457525,1,8,0:0:0:0:
256,192,457608,1,8,0:0:0:0:
256,192,457692,1,0,0:0:0:0:
256,192,457775,1,0,0:0:0:0:
256,192,457858,1,8,0:0:0:0:
256,192,457942,1,8,0:0:0:0:
256,192,458025,1,0,0:0:0:0:
256,192,458108,1,0,0:0:0:0:
256,192,458192,1,8,0:0:0:0:
256,192,458275,1,8,0:0:0:0:
256,192,458358,1,0,0:0:0:0:
256,192,458442,1,0,0:0:0:0:
256,192,458525,1,8,0:0:0:0:
256,192,458608,1,8,0:0:0:0:
256,192,458692,1,0,0:0:0:0:
256,192,458775,1,0,0:0:0:0:
256,192,458858,1,8,0:0:0:0:
256,192,458942,1,8,0:0:0:0:
256,192,459025,1,8,0:0:0:0:
256,192,459108,1,0,0:0:0:0:
256,192,459192,1,8,0:0:0:0:
256,192,459275,1,8,0:0:0:0:
256,192,459358,1,8,0:0:0:0:
256,192,459525,1,8,0:0:0:0:
256,192,459608,1,8,0:0:0:0:
256,192,459692,5,8,0:0:0:0:
256,192,459775,1,8,0:0:0:0:
256,192,459858,1,0,0:0:0:0:
256,192,459942,1,0,0:0:0:0:
256,192,460025,1,8,0:0:0:0:
256,192,460108,1,0,0:0:0:0:
256,192,460192,1,8,0:0:0:0:
256,192,460275,1,8,0:0:0:0:
256,192,460358,1,0,0:0:0:0:
256,192,460442,1,0,0:0:0:0:
256,192,460525,1,8,0:0:0:0:
256,192,460608,1,0,0:0:0:0:
256,192,460692,1,8,0:0:0:0:
256,192,460858,5,4,0:0:0:0:
256,192,461025,1,8,0:0:0:0:
256,192,461192,1,0,0:0:0:0:
256,192,461275,1,0,0:0:0:0:
256,192,461358,1,8,0:0:0:0:
256,192,461442,1,8,0:0:0:0:
256,192,461525,1,0,0:0:0:0:
256,192,461692,1,8,0:0:0:0:
256,192,461858,1,0,0:0:0:0:
256,192,461942,1,0,0:0:0:0:
256,192,462025,1,8,0:0:0:0:
256,192,462192,1,0,0:0:0:0:
256,192,462275,1,0,0:0:0:0:
256,192,462358,1,8,0:0:0:0:
256,192,462525,1,0,0:0:0:0:
256,192,462692,1,8,0:0:0:0:
256,192,462775,1,8,0:0:0:0:
256,192,462858,1,0,0:0:0:0:
256,192,463025,1,8,0:0:0:0:
256,192,463192,1,0,0:0:0:0:
256,192,463358,1,8,0:0:0:0:
256,192,463442,1,0,0:0:0:0:
256,192,463525,1,8,0:0:0:0:
256,192,463692,1,8,0:0:0:0:
256,192,463858,1,0,0:0:0:0:
256,192,464025,1,0,0:0:0:0:
256,192,464108,1,8,0:0:0:0:
256,192,464192,1,0,0:0:0:0:
256,192,464358,1,0,0:0:0:0:
256,192,464525,1,8,0:0:0:0:
256,192,464692,1,0,0:0:0:0:
256,192,464858,1,0,0:0:0:0:
256,192,464942,1,0,0:0:0:0:
256,192,465025,1,8,0:0:0:0:
256,192,465192,1,0,0:0:0:0:
256,192,465275,1,0,0:0:0:0:
256,192,465358,1,8,0:0:0:0:
256,192,465525,1,0,0:0:0:0:
256,192,465608,1,0,0:0:0:0:
256,192,465692,1,8,0:0:0:0:
256,192,465775,1,0,0:0:0:0:
256,192,465858,1,0,0:0:0:0:
256,192,466025,1,8,0:0:0:0:
256,192,466192,5,4,0:0:0:0:
256,192,466358,1,8,0:0:0:0:
256,192,466525,1,8,0:0:0:0:
256,192,466608,1,0,0:0:0:0:
256,192,466692,1,0,0:0:0:0:
256,192,466775,1,8,0:0:0:0:
256,192,466858,1,0,0:0:0:0:
256,192,467025,1,8,0:0:0:0:
256,192,467192,1,0,0:0:0:0:
256,192,467275,1,8,0:0:0:0:
256,192,467358,1,8,0:0:0:0:
256,192,467525,1,0,0:0:0:0:
256,192,467608,1,8,0:0:0:0:
256,192,467692,1,8,0:0:0:0:
256,192,467858,1,0,0:0:0:0:
256,192,468025,1,8,0:0:0:0:
256,192,468108,1,0,0:0:0:0:
256,192,468192,1,8,0:0:0:0:
256,192,468358,1,8,0:0:0:0:
256,192,468525,1,0,0:0:0:0:
256,192,468692,1,8,0:0:0:0:
256,192,468775,1,8,0:0:0:0:
256,192,468858,1,0,0:0:0:0:
256,192,469025,1,8,0:0:0:0:
256,192,469192,1,0,0:0:0:0:
256,192,469358,1,8,0:0:0:0:
256,192,469442,1,0,0:0:0:0:
256,192,469525,1,0,0:0:0:0:
256,192,469692,1,8,0:0:0:0:
256,192,469775,1,8,0:0:0:0:
256,192,469858,1,0,0:0:0:0:
256,192,470025,1,0,0:0:0:0:
256,192,470192,1,12,0:0:0:0:
256,192,470525,1,4,0:0:0:0:
256,192,470858,1,12,0:0:0:0:
256,192,471025,1,8,0:0:0:0:
256,192,471108,1,8,0:0:0:0:
256,192,471192,1,8,0:0:0:0:
256,192,471358,1,8,0:0:0:0:
256,192,471525,5,4,0:0:0:0:
256,192,471692,1,8,0:0:0:0:
256,192,471858,1,0,0:0:0:0:
256,192,471942,1,0,0:0:0:0:
256,192,472025,1,8,0:0:0:0:
256,192,472108,1,8,0:0:0:0:
256,192,472192,1,0,0:0:0:0:
256,192,472358,1,8,0:0:0:0:
256,192,472525,1,0,0:0:0:0:
256,192,472608,1,0,0:0:0:0:
256,192,472692,1,8,0:0:0:0:
256,192,472858,1,0,0:0:0:0:
256,192,472942,1,0,0:0:0:0:
256,192,473025,1,8,0:0:0:0:
256,192,473192,1,0,0:0:0:0:
256,192,473358,1,8,0:0:0:0:
256,192,473442,1,8,0:0:0:0:
256,192,473525,1,0,0:0:0:0:
256,192,473692,1,8,0:0:0:0:
256,192,473858,1,0,0:0:0:0:
256,192,474025,1,8,0:0:0:0:
256,192,474108,1,0,0:0:0:0:
256,192,474192,1,8,0:0:0:0:
256,192,474358,1,8,0:0:0:0:
256,192,474525,1,0,0:0:0:0:
256,192,474692,1,0,0:0:0:0:
256,192,474775,1,8,0:0:0:0:
256,192,474858,1,0,0:0:0:0:
256,192,475025,1,0,0:0:0:0:
256,192,475192,1,8,0:0:0:0:
256,192,475358,1,0,0:0:0:0:
256,192,475525,1,0,0:0:0:0:
256,192,475608,1,0,0:0:0:0:
256,192,475692,1,0,0:0:0:0:
256,192,475858,1,8,0:0:0:0:
256,192,475942,1,8,0:0:0:0:
256,192,476025,1,8,0:0:0:0:
256,192,476192,1,0,0:0:0:0:
256,192,476275,1,0,0:0:0:0:
256,192,476358,1,0,0:0:0:0:
256,192,476442,1,0,0:0:0:0:
256,192,476525,1,8,0:0:0:0:
256,192,476692,1,8,0:0:0:0:
256,192,476858,5,0,0:0:0:0:
256,192,477025,1,8,0:0:0:0:
256,192,477192,1,8,0:0:0:0:
256,192,477275,1,0,0:0:0:0:
256,192,477358,1,8,0:0:0:0:
256,192,477442,1,8,0:0:0:0:
256,192,477525,1,0,0:0:0:0:
256,192,477692,1,8,0:0:0:0:
256,192,477858,1,0,0:0:0:0:
256,192,477942,1,0,0:0:0:0:
256,192,478025,1,8,0:0:0:0:
256,192,478192,1,0,0:0:0:0:
256,192,478275,1,0,0:0:0:0:
256,192,478358,1,8,0:0:0:0:
256,192,478525,1,0,0:0:0:0:
256,192,478692,1,8,0:0:0:0:
256,192,478775,1,0,0:0:0:0:
256,192,478858,1,0,0:0:0:0:
256,192,479025,1,8,0:0:0:0:
256,192,479192,1,0,0:0:0:0:
256,192,479358,1,8,0:0:0:0:
256,192,479442,1,0,0:0:0:0:
256,192,479525,1,8,0:0:0:0:
256,192,479692,1,8,0:0:0:0:
256,192,479858,1,0,0:0:0:0:
256,192,480025,1,8,0:0:0:0:
256,192,480108,1,8,0:0:0:0:
256,192,480192,1,0,0:0:0:0:
256,192,480358,1,8,0:0:0:0:
256,192,480442,1,0,0:0:0:0:
256,192,480525,1,0,0:0:0:0:
256,192,480608,1,0,0:0:0:0:
256,192,480692,1,8,0:0:0:0:
256,192,480858,1,4,0:0:0:0:
256,192,481192,1,4,0:0:0:0:
256,192,481525,1,12,0:0:0:0:
256,192,481692,1,8,0:0:0:0:
256,192,481775,1,8,0:0:0:0:
256,192,481858,1,8,0:0:0:0:
256,192,482025,1,8,0:0:0:0:
256,192,482192,1,4,0:0:0:0:
256,192,482525,1,8,0:0:0:0:
256,192,482692,1,0,0:0:0:0:
256,192,482858,1,0,0:0:0:0:
256,192,482942,1,8,0:0:0:0:
256,192,483025,1,8,0:0:0:0:
256,192,483108,1,0,0:0:0:0:
256,192,483192,1,8,0:0:0:0:
256,192,483275,1,8,0:0:0:0:
256,192,483358,1,0,0:0:0:0:
256,192,483525,1,12,0:0:0:0:
256,192,483858,1,12,0:0:0:0:
256,192,484192,1,4,0:0:0:0:
256,192,484358,1,8,0:0:0:0:
256,192,484442,1,8,0:0:0:0:
256,192,484525,1,8,0:0:0:0:
256,192,484692,1,8,0:0:0:0:
256,192,484858,1,4,0:0:0:0:
256,192,485025,1,8,0:0:0:0:
256,192,485192,1,0,0:0:0:0:
256,192,485275,1,0,0:0:0:0:
256,192,485358,1,8,0:0:0:0:
256,192,485525,1,0,0:0:0:0:
256,192,485608,1,8,0:0:0:0:
256,192,485692,1,8,0:0:0:0:
256,192,485775,1,8,0:0:0:0:
256,192,485858,1,0,0:0:0:0:
256,192,486025,1,0,0:0:0:0:
256,192,486192,1,12,0:0:0:0:
256,192,486525,1,4,0:0:0:0:
256,192,486858,1,12,0:0:0:0:
256,192,487192,1,4,0:0:0:0:
256,192,487525,1,12,0:0:0:0:
256,192,488192,1,8,0:0:0:0:
256,192,488858,1,0,0:0:0:0:
256,192,488942,1,8,0:0:0:0:
256,192,489025,1,8,0:0:0:0:
256,192,489192,1,0,0:0:0:0:
256,192,489358,1,8,0:0:0:0:
256,192,489442,1,0,0:0:0:0:
256,192,489525,1,0,0:0:0:0:
256,192,489692,1,8,0:0:0:0:
256,192,489858,1,0,0:0:0:0:
256,192,489942,1,0,0:0:0:0:
256,192,490025,1,8,0:0:0:0:
256,192,490192,1,12,0:0:0:0:
256,192,490358,1,0,0:0:0:0:
256,192,490442,1,0,0:0:0:0:
256,192,490525,1,0,0:0:0:0:
256,192,490692,1,8,0:0:0:0:
256,192,490858,1,8,0:0:0:0:
256,192,490942,1,8,0:0:0:0:
256,192,491025,1,0,0:0:0:0:
256,192,491108,1,8,0:0:0:0:
256,192,491192,1,8,0:0:0:0:
256,192,491358,1,0,0:0:0:0:
256,192,491525,1,0,0:0:0:0:
256,192,491608,1,0,0:0:0:0:
256,192,491692,1,0,0:0:0:0:
256,192,491775,1,0,0:0:0:0:
256,192,491858,1,8,0:0:0:0:
256,192,492025,1,8,0:0:0:0:
256,192,492192,1,0,0:0:0:0:
256,192,492275,1,8,0:0:0:0:
256,192,492358,1,0,0:0:0:0:
256,192,492442,1,0,0:0:0:0:
256,192,492525,1,8,0:0:0:0:
256,192,492692,1,0,0:0:0:0:
256,192,492858,1,8,0:0:0:0:
256,192,492942,1,8,0:0:0:0:
256,192,493025,1,8,0:0:0:0:
256,192,493192,1,8,0:0:0:0:
256,192,493358,1,0,0:0:0:0:
256,192,493525,1,8,0:0:0:0:
256,192,493608,1,8,0:0:0:0:
256,192,493692,1,0,0:0:0:0:
256,192,493775,1,0,0:0:0:0:
256,192,493858,1,8,0:0:0:0:
256,192,494025,1,0,0:0:0:0:
256,192,494192,1,8,0:0:0:0:
256,192,494275,1,8,0:0:0:0:
256,192,494358,1,0,0:0:0:0:
256,192,494525,1,8,0:0:0:0:
256,192,494608,1,8,0:0:0:0:
256,192,494692,1,0,0:0:0:0:
256,192,494858,1,0,0:0:0:0:
256,192,495025,1,0,0:0:0:0:
256,192,495108,1,0,0:0:0:0:
256,192,495192,1,8,0:0:0:0:
256,192,495275,1,0,0:0:0:0:
256,192,495358,1,8,0:0:0:0:
256,192,495442,1,8,0:0:0:0:
256,192,495525,1,0,0:0:0:0:
256,192,495692,1,0,0:0:0:0:
256,192,495858,1,8,0:0:0:0:
256,192,496025,1,0,0:0:0:0:
256,192,496192,1,8,0:0:0:0:
256,192,496275,1,0,0:0:0:0:
256,192,496358,1,0,0:0:0:0:
256,192,496525,1,8,0:0:0:0:
256,192,496692,1,0,0:0:0:0:
256,192,496858,1,8,0:0:0:0:
256,192,496942,1,0,0:0:0:0:
256,192,497025,1,0,0:0:0:0:
256,192,497108,1,0,0:0:0:0:
256,192,497192,1,8,0:0:0:0:
256,192,497358,1,8,0:0:0:0:
256,192,497525,1,0,0:0:0:0:
256,192,497692,1,8,0:0:0:0:
256,192,497858,1,8,0:0:0:0:
256,192,497942,1,8,0:0:0:0:
256,192,498025,1,0,0:0:0:0:
256,192,498192,1,4,0:0:0:0:
256,192,498358,1,8,0:0:0:0:
256,192,498442,1,8,0:0:0:0:
256,192,498525,1,8,0:0:0:0:
256,192,498692,1,8,0:0:0:0:
256,192,498858,1,4,0:0:0:0:
256,192,499025,1,8,0:0:0:0:
256,192,499108,1,8,0:0:0:0:
256,192,499192,1,8,0:0:0:0:
256,192,499358,1,0,0:0:0:0:
256,192,499525,1,12,0:0:0:0:
256,192,499858,1,12,0:0:0:0:
256,192,500192,1,12,0:0:0:0:
256,192,500442,1,0,0:0:0:0:
256,192,500525,1,8,0:0:0:0:
256,192,500692,1,0,0:0:0:0:
256,192,500858,1,12,0:0:0:0:
256,192,501025,1,0,0:0:0:0:
256,192,501108,1,0,0:0:0:0:
256,192,501192,1,8,0:0:0:0:
256,192,501358,1,0,0:0:0:0:
256,192,501525,1,8,0:0:0:0:
256,192,501692,1,0,0:0:0:0:
256,192,501858,1,8,0:0:0:0:
256,192,501942,1,8,0:0:0:0:
256,192,502025,1,0,0:0:0:0:
256,192,502192,1,8,0:0:0:0:
256,192,502358,1,0,0:0:0:0:
256,192,502442,1,0,0:0:0:0:
256,192,502525,1,8,0:0:0:0:
256,192,502692,1,0,0:0:0:0:
256,192,502858,1,8,0:0:0:0:
256,192,503025,1,0,0:0:0:0:
256,192,503192,1,8,0:0:0:0:
256,192,503275,1,8,0:0:0:0:
256,192,503358,1,0,0:0:0:0:
256,192,503525,1,8,0:0:0:0:
256,192,503692,1,0,0:0:0:0:
256,192,503775,1,0,0:0:0:0:
256,192,503858,1,8,0:0:0:0:
256,192,504025,1,0,0:0:0:0:
256,192,504192,1,8,0:0:0:0:
256,192,504358,1,8,0:0:0:0:
256,192,504525,1,8,0:0:0:0:
256,192,504608,1,0,0:0:0:0:
256,192,504692,1,8,0:0:0:0:
256,192,504775,1,8,0:0:0:0:
256,192,504858,1,0,0:0:0:0:
256,192,505025,1,0,0:0:0:0:
256,192,505108,1,0,0:0:0:0:
256,192,505192,1,8,0:0:0:0:
256,192,505358,1,0,0:0:0:0:
256,192,505525,1,8,0:0:0:0:
256,192,505692,1,0,0:0:0:0:
256,192,505775,1,0,0:0:0:0:
256,192,505858,1,8,0:0:0:0:
256,192,505942,1,8,0:0:0:0:
256,192,506025,1,0,0:0:0:0:
256,192,506192,1,12,0:0:0:0:
256,192,506358,1,0,0:0:0:0:
256,192,506442,1,0,0:0:0:0:
256,192,506525,1,8,0:0:0:0:
256,192,506692,1,0,0:0:0:0:
256,192,506858,1,8,0:0:0:0:
256,192,507025,1,0,0:0:0:0:
256,192,507192,1,8,0:0:0:0:
256,192,507275,1,8,0:0:0:0:
256,192,507358,1,0,0:0:0:0:
256,192,507525,1,8,0:0:0:0:
256,192,507692,1,0,0:0:0:0:
256,192,507775,1,0,0:0:0:0:
256,192,507858,1,8,0:0:0:0:
256,192,508025,1,0,0:0:0:0:
256,192,508192,1,8,0:0:0:0:
256,192,508358,1,0,0:0:0:0:
256,192,508525,1,8,0:0:0:0:
256,192,508608,1,8,0:0:0:0:
256,192,508692,1,0,0:0:0:0:
256,192,508858,1,12,0:0:0:0:
256,192,509025,1,0,0:0:0:0:
256,192,509108,1,0,0:0:0:0:
256,192,509192,1,8,0:0:0:0:
256,192,509358,1,0,0:0:0:0:
256,192,509525,1,12,0:0:0:0:
256,192,509692,1,8,0:0:0:0:
256,192,509775,1,8,0:0:0:0:
256,192,509858,1,0,0:0:0:0:
256,192,510025,1,8,0:0:0:0:
256,192,510192,1,4,0:0:0:0:
256,192,510525,1,12,0:0:0:0:
256,192,510858,1,4,0:0:0:0:
256,192,511108,1,0,0:0:0:0:
256,192,511192,1,8,0:0:0:0:
256,192,516801,5,0,0:0:0:0:
256,192,516988,1,0,0:0:0:0:
256,192,517176,1,0,0:0:0:0:
256,192,517363,1,8,0:0:0:0:
256,192,517551,1,0,0:0:0:0:
256,192,517738,1,8,0:0:0:0:
256,192,517926,1,8,0:0:0:0:
256,192,518113,1,8,0:0:0:0:
256,192,518301,1,0,0:0:0:0:
256,192,518488,1,8,0:0:0:0:
256,192,518676,1,8,0:0:0:0:
256,192,518863,1,8,0:0:0:0:
256,192,519051,1,0,0:0:0:0:
256,192,519238,1,8,0:0:0:0:
256,192,519426,1,8,0:0:0:0:
256,192,519613,1,0,0:0:0:0:
256,192,519801,1,0,0:0:0:0:
256,192,519988,1,8,0:0:0:0:
256,192,520176,1,8,0:0:0:0:
256,192,520363,1,8,0:0:0:0:
256,192,520551,1,0,0:0:0:0:
256,192,520738,1,8,0:0:0:0:
256,192,520926,1,0,0:0:0:0:
256,192,521113,1,0,0:0:0:0:
256,192,521301,1,8,0:0:0:0:
256,192,521488,1,0,0:0:0:0:
256,192,521676,1,8,0:0:0:0:
256,192,521863,1,8,0:0:0:0:
256,192,522051,1,0,0:0:0:0:
256,192,522238,1,8,0:0:0:0:
256,192,522426,1,8,0:0:0:0:
256,192,522613,1,8,0:0:0:0:
256,192,522801,1,0,0:0:0:0:
256,192,522988,1,8,0:0:0:0:
256,192,523176,1,8,0:0:0:0:
256,192,523363,1,0,0:0:0:0:
256,192,523551,1,8,0:0:0:0:
256,192,523738,1,0,0:0:0:0:
256,192,523926,1,8,0:0:0:0:
256,192,524113,1,8,0:0:0:0:
256,192,524301,1,0,0:0:0:0:
256,192,524488,1,0,0:0:0:0:
256,192,524676,1,8,0:0:0:0:
256,192,524863,1,8,0:0:0:0:
256,192,525051,1,0,0:0:0:0:
256,192,525238,1,8,0:0:0:0:
256,192,525426,1,0,0:0:0:0:
256,192,525613,1,8,0:0:0:0:
256,192,525801,1,0,0:0:0:0:
256,192,525988,1,0,0:0:0:0:
256,192,526176,1,8,0:0:0:0:
256,192,526363,1,8,0:0:0:0:
256,192,526551,1,0,0:0:0:0:
256,192,526738,1,8,0:0:0:0:
256,192,526926,1,8,0:0:0:0:
256,192,527113,1,8,0:0:0:0:
256,192,527301,1,0,0:0:0:0:
256,192,527488,1,8,0:0:0:0:
256,192,527676,1,8,0:0:0:0:
256,192,527863,1,8,0:0:0:0:
256,192,528051,1,0,0:0:0:0:
256,192,528238,1,8,0:0:0:0:
256,192,528426,1,8,0:0:0:0:
256,192,528613,1,8,0:0:0:0:
256,192,528801,1,0,0:0:0:0:
256,192,528988,1,0,0:0:0:0:
256,192,529176,1,8,0:0:0:0:
256,192,529363,1,0,0:0:0:0:
256,192,529551,1,8,0:0:0:0:
256,192,529926,1,0,0:0:0:0:
256,192,530113,1,8,0:0:0:0:
256,192,530301,1,8,0:0:0:0:
256,192,530676,1,0,0:0:0:0:
256,192,531051,1,8,0:0:0:0:
256,192,531426,1,0,0:0:0:0:
256,192,531613,1,8,0:0:0:0:
256,192,531801,1,8,0:0:0:0:
256,192,531988,1,0,0:0:0:0:
256,192,532176,1,0,0:0:0:0:
256,192,532363,1,0,0:0:0:0:
256,192,532551,1,8,0:0:0:0:
256,192,532926,1,0,0:0:0:0:
256,192,533113,1,8,0:0:0:0:
256,192,533301,1,8,0:0:0:0:
256,192,533676,1,0,0:0:0:0:
256,192,533863,1,0,0:0:0:0:
256,192,534051,1,8,0:0:0:0:
256,192,534426,1,0,0:0:0:0:
256,192,534613,1,8,0:0:0:0:
256,192,534801,1,8,0:0:0:0:
256,192,535176,1,0,0:0:0:0:
256,192,535551,1,8,0:0:0:0:
256,192,535738,1,8,0:0:0:0:
256,192,535832,1,8,0:0:0:0:
256,192,535926,1,0,0:0:0:0:
256,192,536113,1,0,0:0:0:0:
256,192,536207,1,8,0:0:0:0:
256,192,536301,1,8,0:0:0:0:
256,192,536488,1,8,0:0:0:0:
256,192,536582,1,0,0:0:0:0:
256,192,536676,1,0,0:0:0:0:
256,192,536863,1,0,0:0:0:0:
256,192,536957,1,0,0:0:0:0:
256,192,537051,1,8,0:0:0:0:
256,192,537238,1,8,0:0:0:0:
256,192,537332,1,8,0:0:0:0:
256,192,537426,1,0,0:0:0:0:
256,192,537613,1,0,0:0:0:0:
256,192,537707,1,0,0:0:0:0:
256,192,537801,1,8,0:0:0:0:
256,192,537988,1,8,0:0:0:0:
256,192,538082,1,0,0:0:0:0:
256,192,538176,1,0,0:0:0:0:
256,192,538363,1,8,0:0:0:0:
256,192,538457,1,0,0:0:0:0:
256,192,538551,1,8,0:0:0:0:
256,192,538738,1,0,0:0:0:0:
256,192,538832,1,8,0:0:0:0:
256,192,538926,1,0,0:0:0:0:
256,192,539113,1,8,0:0:0:0:
240,192,539207,1,8,0:0:0:0:
256,192,539676,1,0,0:0:0:0:
256,192,539863,1,0,0:0:0:0:
256,192,540051,1,12,0:0:0:0:
256,192,540238,1,0,0:0:0:0:
256,192,540426,1,8,0:0:0:0:
256,192,540613,1,0,0:0:0:0:
256,192,540801,1,8,0:0:0:0:
256,192,540988,1,8,0:0:0:0:
256,192,541176,1,0,0:0:0:0:
256,192,541363,1,0,0:0:0:0:
256,192,541551,1,8,0:0:0:0:
256,192,541738,1,0,0:0:0:0:
256,192,541926,1,0,0:0:0:0:
256,192,542301,1,8,0:0:0:0:
256,192,542676,1,8,0:0:0:0:
256,192,542863,1,8,0:0:0:0:
256,192,543051,1,0,0:0:0:0:
256,192,543238,1,0,0:0:0:0:
256,192,543426,1,8,0:0:0:0:
256,192,543613,1,0,0:0:0:0:
256,192,543801,1,8,0:0:0:0:
256,192,543988,1,0,0:0:0:0:
256,192,544176,1,0,0:0:0:0:
256,192,544363,1,8,0:0:0:0:
256,192,544551,1,0,0:0:0:0:
256,192,544738,1,0,0:0:0:0:
256,192,544926,1,8,0:0:0:0:
256,192,545113,1,0,0:0:0:0:
256,192,545301,1,8,0:0:0:0:
256,192,545676,1,8,0:0:0:0:
256,192,545863,1,0,0:0:0:0:
256,192,546051,1,8,0:0:0:0:
256,192,546238,1,8,0:0:0:0:
256,192,546426,1,0,0:0:0:0:
256,192,546801,1,8,0:0:0:0:
256,160,547176,1,8,0:0:0:0:
256,192,547363,1,8,0:0:0:0:
256,192,547551,1,0,0:0:0:0:
256,160,547738,1,8,0:0:0:0:
256,192,547926,1,0,0:0:0:0:
256,192,548301,1,8,0:0:0:0:
256,192,548676,1,8,0:0:0:0:
256,192,548863,1,8,0:0:0:0:
256,192,549051,1,0,0:0:0:0:
256,192,549238,1,8,0:0:0:0:
256,192,549426,1,0,0:0:0:0:
256,192,549613,1,8,0:0:0:0:
256,192,549801,1,0,0:0:0:0:
256,192,549988,1,0,0:0:0:0:
256,192,550176,1,8,0:0:0:0:
256,192,550363,1,0,0:0:0:0:
256,192,550551,1,8,0:0:0:0:
256,192,550926,1,0,0:0:0:0:
256,192,551113,1,8,0:0:0:0:
256,192,551301,1,8,0:0:0:0:
256,192,551488,1,0,0:0:0:0:
256,192,551676,1,8,0:0:0:0:
256,192,551863,1,0,0:0:0:0:
256,192,552051,1,8,0:0:0:0:
256,192,552238,1,0,0:0:0:0:
256,192,552426,1,0,0:0:0:0:
256,192,552613,1,8,0:0:0:0:
256,192,552801,1,8,0:0:0:0:
256,192,552988,1,0,0:0:0:0:
256,192,553176,1,8,0:0:0:0:
256,192,553363,1,0,0:0:0:0:
256,192,553551,1,8,0:0:0:0:
256,192,553738,1,0,0:0:0:0:
256,192,553926,1,0,0:0:0:0:
256,192,554113,1,8,0:0:0:0:
256,192,554301,1,8,0:0:0:0:
256,192,554488,1,0,0:0:0:0:
256,192,554676,1,8,0:0:0:0:
256,192,554863,1,0,0:0:0:0:
256,192,555051,1,8,0:0:0:0:
256,192,555238,1,0,0:0:0:0:
256,192,555426,1,0,0:0:0:0:
256,192,555613,1,8,0:0:0:0:
256,192,555801,1,8,0:0:0:0:
256,192,555988,1,8,0:0:0:0:
256,192,556176,5,0,0:0:0:0:
256,192,556363,1,0,0:0:0:0:
256,192,556551,1,12,0:0:0:0:
256,192,556926,1,0,0:0:0:0:
256,192,557113,1,0,0:0:0:0:
256,192,557301,1,8,0:0:0:0:
256,192,557488,1,0,0:0:0:0:
256,192,557582,1,0,0:0:0:0:
256,192,557676,1,0,0:0:0:0:
256,192,557863,1,0,0:0:0:0:
256,192,558051,1,8,0:0:0:0:
256,192,558426,1,0,0:0:0:0:
256,192,558613,1,0,0:0:0:0:
256,192,558801,1,8,0:0:0:0:
256,192,558988,1,8,0:0:0:0:
256,192,559082,1,8,0:0:0:0:
256,192,559176,1,0,0:0:0:0:
256,192,559363,1,0,0:0:0:0:
256,192,559551,1,8,0:0:0:0:
256,192,559926,1,0,0:0:0:0:
256,192,560113,1,0,0:0:0:0:
256,192,560301,1,8,0:0:0:0:
256,192,560488,1,8,0:0:0:0:
256,192,560582,1,8,0:0:0:0:
256,192,560676,1,8,0:0:0:0:
256,192,560863,1,0,0:0:0:0:
256,192,561051,1,8,0:0:0:0:
256,192,561426,1,0,0:0:0:0:
256,192,561613,1,0,0:0:0:0:
256,192,561801,1,8,0:0:0:0:
256,192,561988,1,0,0:0:0:0:
256,192,562082,1,0,0:0:0:0:
256,192,562176,1,0,0:0:0:0:
256,192,562363,1,0,0:0:0:0:
256,192,562551,1,8,0:0:0:0:
256,192,562926,1,8,0:0:0:0:
256,192,563113,1,0,0:0:0:0:
256,192,563301,1,8,0:0:0:0:
256,192,563488,1,0,0:0:0:0:
256,192,563582,1,8,0:0:0:0:
256,192,563676,1,8,0:0:0:0:
256,192,563863,1,0,0:0:0:0:
256,192,564051,1,8,0:0:0:0:
256,192,564426,1,8,0:0:0:0:
256,192,564613,1,0,0:0:0:0:
256,192,564801,1,8,0:0:0:0:
256,192,564988,1,0,0:0:0:0:
256,192,565176,1,0,0:0:0:0:
256,192,565269,1,0,0:0:0:0:
256,192,565363,1,8,0:0:0:0:
256,192,565551,1,0,0:0:0:0:
256,192,565738,1,8,0:0:0:0:
256,192,565926,1,0,0:0:0:0:
256,192,566019,1,0,0:0:0:0:
256,192,566113,1,0,0:0:0:0:
256,192,566207,1,0,0:0:0:0:
256,192,566301,1,8,0:0:0:0:
256,192,566488,1,0,0:0:0:0:
256,192,566676,1,0,0:0:0:0:
256,192,566769,1,0,0:0:0:0:
256,192,566863,1,0,0:0:0:0:
256,192,567051,1,8,0:0:0:0:
256,192,567238,1,0,0:0:0:0:
256,192,567426,1,0,0:0:0:0:
256,192,567519,1,0,0:0:0:0:
256,192,567613,1,0,0:0:0:0:
256,192,567801,1,8,0:0:0:0:
256,192,567988,1,0,0:0:0:0:
256,192,568176,1,8,0:0:0:0:
256,192,568363,1,8,0:0:0:0:
256,192,568551,1,4,0:0:0:0:
256,192,568926,1,8,0:0:0:0:
256,192,569113,1,0,0:0:0:0:
256,192,569301,1,0,0:0:0:0:
256,192,569394,1,0,0:0:0:0:
256,192,569488,1,0,0:0:0:0:
256,192,569676,1,8,0:0:0:0:
256,192,569863,1,0,0:0:0:0:
256,192,570051,1,0,0:0:0:0:
256,192,570426,1,8,0:0:0:0:
256,192,570613,1,0,0:0:0:0:
256,192,570801,1,8,0:0:0:0:
256,192,570894,1,8,0:0:0:0:
256,192,570988,1,0,0:0:0:0:
256,192,571176,1,8,0:0:0:0:
256,192,571363,1,8,0:0:0:0:
256,192,571551,1,0,0:0:0:0:
256,192,571926,1,8,0:0:0:0:
256,192,572113,1,8,0:0:0:0:
256,192,572301,1,0,0:0:0:0:
256,192,572394,1,0,0:0:0:0:
256,192,572488,1,0,0:0:0:0:
256,192,572676,1,8,0:0:0:0:
256,192,572863,1,8,0:0:0:0:
256,192,573051,1,0,0:0:0:0:
256,192,573426,1,8,0:0:0:0:
256,192,573613,1,0,0:0:0:0:
256,192,573801,1,0,0:0:0:0:
256,192,573894,1,0,0:0:0:0:
256,192,573988,1,0,0:0:0:0:
256,192,574176,1,8,0:0:0:0:
256,192,574363,1,0,0:0:0:0:
256,192,574551,1,8,0:0:0:0:
256,192,574926,1,8,0:0:0:0:
256,192,575113,1,0,0:0:0:0:
256,192,575207,1,0,0:0:0:0:
256,192,575301,1,8,0:0:0:0:
256,192,575394,1,0,0:0:0:0:
256,192,575488,1,0,0:0:0:0:
256,192,575676,1,8,0:0:0:0:
256,192,575863,1,8,0:0:0:0:
256,192,576051,1,0,0:0:0:0:
256,192,576426,1,8,0:0:0:0:
256,192,576613,1,0,0:0:0:0:
256,192,576707,1,0,0:0:0:0:
256,192,576801,1,8,0:0:0:0:
256,192,576988,1,0,0:0:0:0:
256,192,577176,1,8,0:0:0:0:
256,192,577363,1,8,0:0:0:0:
256,192,577551,1,8,0:0:0:0:
256,192,577738,1,0,0:0:0:0:
256,192,577926,1,8,0:0:0:0:
256,192,578113,1,0,0:0:0:0:
256,192,578207,1,0,0:0:0:0:
256,192,578301,1,0,0:0:0:0:
256,192,578394,1,8,0:0:0:0:
256,192,578488,1,0,0:0:0:0:
256,192,578676,1,8,0:0:0:0:
256,192,578863,1,0,0:0:0:0:
256,192,579051,1,12,0:0:0:0:
256,192,579426,1,8,0:0:0:0:
256,192,579801,1,0,0:0:0:0:
256,192,579988,1,0,0:0:0:0:
256,192,580176,1,8,0:0:0:0:
256,192,580363,1,8,0:0:0:0:
256,192,580457,1,8,0:0:0:0:
256,192,580551,1,0,0:0:0:0:
256,192,580738,1,0,0:0:0:0:
256,192,580926,1,8,0:0:0:0:
256,192,581301,1,0,0:0:0:0:
256,192,581676,1,8,0:0:0:0:
256,192,581863,1,0,0:0:0:0:
256,192,581957,1,0,0:0:0:0:
256,192,582051,1,0,0:0:0:0:
256,192,582238,1,0,0:0:0:0:
256,192,582426,1,8,0:0:0:0:
256,192,582801,1,0,0:0:0:0:
256,192,582988,1,0,0:0:0:0:
256,192,583176,1,8,0:0:0:0:
256,192,583363,1,0,0:0:0:0:
256,192,583457,1,0,0:0:0:0:
256,192,583551,1,0,0:0:0:0:
256,192,583738,1,0,0:0:0:0:
256,192,583926,1,8,0:0:0:0:
256,192,584301,1,0,0:0:0:0:
256,192,584676,1,8,0:0:0:0:
256,192,584863,1,8,0:0:0:0:
256,192,585051,1,0,0:0:0:0:
256,192,585238,1,8,0:0:0:0:
256,192,585332,1,0,0:0:0:0:
256,192,585426,1,8,0:0:0:0:
256,192,585613,1,0,0:0:0:0:
256,192,585801,1,8,0:0:0:0:
256,192,586176,1,8,0:0:0:0:
256,192,586363,1,0,0:0:0:0:
256,192,586551,1,8,0:0:0:0:
256,192,586644,1,8,0:0:0:0:
256,192,586738,1,8,0:0:0:0:
256,192,586926,1,0,0:0:0:0:
256,192,587113,1,8,0:0:0:0:
256,192,587301,1,0,0:0:0:0:
256,192,587676,1,8,0:0:0:0:
256,192,587863,1,0,0:0:0:0:
256,192,588051,1,8,0:0:0:0:
256,192,588238,1,0,0:0:0:0:
256,192,588332,1,0,0:0:0:0:
256,192,588426,1,8,0:0:0:0:
256,192,588613,1,8,0:0:0:0:
256,192,588801,1,0,0:0:0:0:
256,192,588988,1,0,0:0:0:0:
256,192,589082,1,0,0:0:0:0:
256,192,589176,1,8,0:0:0:0:
256,192,589269,1,0,0:0:0:0:
256,192,589363,1,8,0:0:0:0:
256,192,589551,1,0,0:0:0:0:
256,192,589738,1,0,0:0:0:0:
256,192,589832,1,0,0:0:0:0:
256,192,589926,1,8,0:0:0:0:
256,192,590113,1,8,0:0:0:0:
256,192,590207,1,8,0:0:0:0:
256,192,590301,1,0,0:0:0:0:
256,192,590488,1,0,0:0:0:0:
256,192,590582,1,0,0:0:0:0:
256,192,590676,1,8,0:0:0:0:
256,192,590863,1,8,0:0:0:0:
256,192,591051,1,0,0:0:0:0:
256,192,591238,1,0,0:0:0:0:
256,192,591332,1,0,0:0:0:0:
256,192,591426,1,8,0:0:0:0:
256,192,591613,1,8,0:0:0:0:
256,192,591707,1,8,0:0:0:0:
256,192,591801,1,0,0:0:0:0:
256,192,591894,1,0,0:0:0:0:
256,192,591988,1,0,0:0:0:0:
256,192,592176,1,8,0:0:0:0:
256,192,592363,1,8,0:0:0:0:
256,192,592551,1,0,0:0:0:0:
256,192,592738,1,0,0:0:0:0:
256,192,592832,1,0,0:0:0:0:
256,192,592926,1,8,0:0:0:0:
256,192,593113,1,8,0:0:0:0:
256,192,593207,1,8,0:0:0:0:
256,192,593301,1,0,0:0:0:0:
256,192,593488,1,0,0:0:0:0:
256,192,593582,1,0,0:0:0:0:
256,192,593676,1,8,0:0:0:0:
256,192,593863,1,8,0:0:0:0:
256,192,594051,1,0,0:0:0:0:
256,192,594144,1,8,0:0:0:0:
256,192,594238,1,0,0:0:0:0:
256,192,594332,1,0,0:0:0:0:
256,192,594426,1,8,0:0:0:0:
256,192,594613,1,8,0:0:0:0:
256,192,594707,1,8,0:0:0:0:
256,192,594801,1,0,0:0:0:0:
256,192,594894,1,8,0:0:0:0:
256,192,594988,1,0,0:0:0:0:
256,192,595082,1,0,0:0:0:0:
256,192,595176,1,8,0:0:0:0:
256,192,595363,1,8,0:0:0:0:
256,192,595551,12,0,597988,0:0:0:0:
