osu file format v14

[General]
AudioFilename: audio.mp3
AudioLeadIn: 0
PreviewTime: 286081
Countdown: 1
SampleSet: None
StackLeniency: 0.8
Mode: 0
LetterboxInBreaks: 0
WidescreenStoryboard: 1

[Editor]
Bookmarks: 8969,21636,42969,53636,64302,74969,90969,112302,133636,149302,176636,194636,224675,236675,250925,275675,287675,311675,335675,347675,353675,364526,396858,407525,428858,450192,460858,487525,500525,511192,516801
DistanceSpacing: 3
BeatDivisor: 4
GridSize: 4
TimelineZoom: 2.699999

[Metadata]
Title:International Wrestling Festival 2015 -WORLD OF ANIKI-
TitleUnicode:International Wrestling Festival 2015 -WORLD OF ANIKI-
Artist:Various Artists
ArtistUnicode:Various Artists
Creator:Spartaan
Version:Marathon
Source:
Tags:Gachimuchi Billy Herrington Van Darkholme Dungeon Master Slave 国際パンツレスリング Aniki Jabroni Martin Wannamaker FUCK Ass we can Wrestling Art Deep dark Fantasy Mermaid Girl
BeatmapID:1430280
BeatmapSetID:478005

[Difficulty]
HPDrainRate:7
CircleSize:4
OverallDifficulty:8
ApproachRate:9.5
SliderMultiplier:1.4
SliderTickRate:1

[Events]
//Background and Video events
0,0,"hwoarang3.png",0,0
//Break Periods
2,75169,79777
2,172953,176111
2,311874,317150
2,353874,364334
2,365059,369500
2,450392,455000
2,511058,516276
//Storyboard Layer 0 (Background)
//Storyboard Layer 1 (Fail)
//Storyboard Layer 2 (Pass)
//Storyboard Layer 3 (Foreground)
//Storyboard Sound Samples

[TimingPoints]
303,333.333333333333,4,1,1,72,1,0
21802,-80,4,1,1,72,0,0
26302,-66.6666666666667,4,1,1,5,0,0
26635,-100,4,1,1,5,0,0
26802,-76.9230769230769,4,1,1,72,0,0
26885,-200,4,1,1,72,0,0
26969,-100,4,1,1,72,0,0
31969,-133.333333333333,4,1,1,72,0,0
32302,-100,4,1,1,72,0,1
37302,-76.9230769230769,4,1,1,72,0,1
37469,-100,4,1,1,72,0,1
42969,-66.6666666666667,4,1,1,72,0,0
64302,-100,4,1,1,72,0,1
72302,-66.6666666666667,4,1,1,72,0,1
72969,-57.1428571428571,4,1,1,72,0,1
73636,-50,4,1,1,72,0,1
80302,-111.111111111111,4,1,1,72,0,0
82969,-133.333333333333,4,1,1,72,0,0
88302,-100,4,1,1,72,0,0
110969,-76.9230769230769,4,1,1,5,0,0
111135,-200,4,1,1,5,0,0
111219,-76.9230769230769,4,1,1,5,0,0
111385,-200,4,1,1,5,0,0
111469,-76.9230769230769,4,1,1,5,0,0
111635,-200,4,1,1,5,0,0
111719,-76.9230769230769,4,1,1,5,0,0
111885,-200,4,1,1,5,0,0
111969,-100,4,1,1,72,0,0
112302,-100,4,1,1,72,0,1
112469,-80,4,1,1,72,0,1
125636,-66.6666666666667,4,1,1,72,0,1
126136,-80,4,1,1,72,0,1
129969,-66.6666666666667,4,1,1,72,0,1
130969,-80,4,1,1,72,0,1
132302,-200,4,1,1,72,0,1
132552,-200,4,1,1,72,0,1
133636,-100,4,1,1,72,0,0
147219,-66.6666666666667,4,1,1,72,0,0
147802,-50,4,1,1,72,0,0
148302,-76.9230769230769,4,1,1,72,0,0
148552,-200,4,1,1,72,0,0
148635,-76.9230769230769,4,1,1,72,0,0
148885,-200,4,1,1,72,0,0
148969,-100,4,1,1,72,0,0
149069,-80,4,1,1,72,0,0
149636,-80,4,1,1,72,0,1
158969,-133.333333333333,4,1,1,72,0,1
160136,-100,4,1,1,72,0,1
161636,-66.6666666666667,4,1,1,72,0,1
162969,-80,4,1,1,72,0,1
165302,-50,4,1,1,72,0,1
165636,-80,4,1,1,72,0,1
166969,363.636363636364,4,1,1,72,1,0
166969,-91.743119266055,4,1,1,72,0,0
168423,375,4,1,1,72,1,0
168423,-88.4955752212389,4,1,1,72,0,0
169923,387.096774193548,4,1,1,72,1,0
169923,-86.2068965517241,4,1,1,72,0,0
170697,400,4,1,1,72,1,0
170697,-83.3333333333333,4,1,1,72,0,0
171097,413.793103448276,4,1,1,72,1,0
171097,-80.6451612903226,4,1,1,72,0,0
171510,387.096774193548,4,1,1,72,1,0
171510,-86.2068965517241,4,1,1,72,0,0
171897,428.571428571429,4,1,1,72,1,0
171897,-83.3333333333333,4,1,1,72,0,0
172325,428.571428571429,4,1,1,72,1,0
173611,-66.6666666666667,4,1,1,72,0,0
173986,662.617338487024,4,1,1,72,1,0
176636,375,4,1,1,72,1,0
176636,-88.4955752212389,4,1,1,72,0,0
193886,-50,4,1,1,5,0,0
194073,-133.333333333333,4,1,1,5,0,0
194636,-88.4955752212389,4,1,1,72,0,1
217886,-88.4955752212389,4,1,1,72,0,0
220042,-66.6666666666667,4,1,1,72,0,0
221542,-50,4,1,1,72,0,0
223042,-100,4,1,1,72,0,0
223925,375,4,1,1,72,1,0
223925,-88.4955752212389,4,1,1,72,0,0
224675,375,4,1,1,72,1,0
224675,-88.4955752212389,4,1,1,72,0,0
236675,-100,4,1,1,72,0,0
238550,-88.4955752212389,4,1,1,72,0,0
251675,-88.4955752212389,4,1,1,72,0,1
275675,-88.4955752212389,4,1,1,72,0,0
299675,-66.6666666666667,4,1,1,72,0,1
311675,-88.4955752212389,4,1,1,72,0,0
335675,-88.4955752212389,4,1,1,72,0,1
353675,-88.4955752212389,4,1,1,72,0,0
364526,333.333333333333,4,1,1,72,1,0
364859,333.333333333333,4,1,1,72,1,0
396858,-100,4,1,1,72,0,1
407525,-100,4,1,1,72,0,0
423692,-66.6666666666667,4,1,1,72,0,0
426192,-50,4,1,1,72,0,0
428858,-66.6666666666667,4,1,1,72,0,1
444858,-76.9230769230769,4,1,1,72,0,1
450192,-111.111111111111,4,1,1,72,0,0
455275,-100,4,1,1,72,0,0
470192,-76.9230769230769,4,1,1,72,0,0
470442,-200,4,1,1,72,0,0
470525,-76.9230769230769,4,1,1,72,0,0
470775,-200,4,1,1,72,0,0
470858,-100,4,1,1,72,0,0
480858,-76.9230769230769,4,1,1,72,0,0
481108,-200,4,1,1,72,0,0
481192,-76.9230769230769,4,1,1,72,0,0
481442,-200,4,1,1,72,0,0
481525,-100,4,1,1,72,0,0
486192,-76.9230769230769,4,1,1,72,0,0
486442,-200,4,1,1,72,0,0
486525,-76.9230769230769,4,1,1,72,0,0
486775,-200,4,1,1,72,0,0
486858,-76.9230769230769,4,1,1,72,0,0
487108,-200,4,1,1,72,0,0
487192,-76.9230769230769,4,1,1,72,0,0
487442,-200,4,1,1,72,0,0
487525,-125,4,1,1,72,0,0
488192,-111.111111111111,4,1,1,72,0,0
488858,-100,4,1,1,72,0,0
490192,-100,4,1,1,72,0,1
499525,-76.9230769230769,4,1,1,72,0,1
499775,-200,4,1,1,72,0,1
499858,-76.9230769230769,4,1,1,72,0,1
500108,-200,4,1,1,72,0,1
500192,-76.9230769230769,4,1,1,72,0,1
500358,-200,4,1,1,72,0,1
500442,-100,4,1,1,72,0,1
510192,-76.9230769230769,4,1,1,72,0,1
510442,-200,4,1,1,72,0,1
510525,-76.9230769230769,4,1,1,72,0,1
510775,-200,4,1,1,72,0,1
510858,-76.9230769230769,4,1,1,72,0,0
511025,-200,4,1,1,72,0,0
511108,-100,4,1,1,72,0,0
514551,375,4,1,1,72,1,0
516051,-88.4955752212389,4,1,1,72,0,0
579051,-88.4955752212389,4,1,1,72,0,1
595551,-88.4955752212389,4,1,1,72,0,0

[HitObjects]
64,128,9636,6,0,P|128:64|128:64,1,70,0|2,0:0|0:0,0:0:0:0:
192,128,9969,2,0,P|192:192|208:192,1,70,0|2,0:0|0:0,0:0:0:0:
272,168,10302,1,0,0:0:0:0:
392,40,10469,1,2,0:0:0:0:
472,192,10636,1,0,0:0:0:0:
352,264,10802,2,2,P|320:296|288:296,1,70,2|0,0:0|0:0,0:0:0:0:
224,256,11136,1,2,0:0:0:0:
160,192,11302,1,0,0:0:0:0:
224,128,11469,1,2,0:0:0:0:
288,192,11636,2,0,L|384:192,2,70,0|2|0,0:0|0:0|0:0,0:0:0:0:
128,320,12302,6,2,P|96:288|96:256,1,70,2|0,0:0|0:0,0:0:0:0:
96,184,12636,1,2,0:0:0:0:
96,96,12802,2,0,L|160:96,2,35,0|2|0,0:0|0:0|0:0,0:0:0:0:
224,96,13136,1,2,0:0:0:0:
288,160,13302,1,0,0:0:0:0:
384,160,13469,2,0,B|416:192|416:192|416:224,1,70,2|0,0:0|0:0,0:0:0:0:
384,288,13802,1,2,0:0:0:0:
240,280,13969,1,0,0:0:0:0:
96,280,14136,2,8,B|48:296|48:296|80:264|80:264|48:232|48:232|176:136,1,280,8|2,0:0|0:0,0:0:0:0:
448,64,14969,6,0,L|384:64,4,35
312,64,15469,1,2,0:0:0:0:
256,136,15636,1,0,0:0:0:0:
256,224,15802,1,2,0:0:0:0:
256,320,15969,2,0,B|192:320|192:288|160:224|160:224,1,140,0|2,0:0|0:0,0:0:0:0:
160,128,16469,1,0,0:0:0:0:
64,96,16636,2,0,L|64:192,2,70,2|2|2,0:0|0:0|0:0,0:0:0:0:
64,256,17136,5,0,0:0:0:0:
128,320,17302,1,2,0:0:0:0:
224,320,17469,1,0,0:0:0:0:
320,320,17636,5,2,0:0:0:0:
343,294,17719,1,0,0:0:0:0:
331,261,17802,1,2,0:0:0:0:
362,244,17886,1,0,0:0:0:0:
340,216,17969,1,2,0:0:0:0:
366,193,18052,1,0,0:0:0:0:
341,167,18136,1,2,0:0:0:0:
367,143,18219,1,0,0:0:0:0:
344,116,18302,5,2,0:0:0:0:
332,82,18386,1,0,0:0:0:0:
304,102,18469,1,2,0:0:0:0:
283,74,18552,1,0,0:0:0:0:
261,101,18636,1,2,0:0:0:0:
236,75,18719,1,0,0:0:0:0:
215,103,18802,1,2,0:0:0:0:
189,78,18886,1,0,0:0:0:0:
164,102,18969,6,2,L|136:140,8,35
164,184,19719,6,2,L|183:214,8,35
214,255,20469,2,0,L|312:255,3,70,0|2|0|2,0:0|0:0|0:0|0:0,0:0:0:0:
352,256,21136,2,8,B|416:192|352:96|352:96|320:64,1,210
144,152,21802,6,0,P|128:200|136:240,1,87.5
224,328,22136,2,0,L|320:328,1,87.5
256,152,22469,5,0,0:0:0:0:
272,192,22552,1,0,0:0:0:0:
168,280,22719,1,0,0:0:0:0:
152,240,22802,1,0,0:0:0:0:
280,72,22969,1,0,0:0:0:0:
240,320,23136,1,0,0:0:0:0:
280,320,23219,2,0,P|376:272|376:152,1,218.75
112,232,23802,5,0,0:0:0:0:
112,232,23886,1,0,0:0:0:0:
224,104,24052,1,0,0:0:0:0:
224,104,24136,1,0,0:0:0:0:
176,344,24302,5,0,0:0:0:0:
264,344,24469,1,0,0:0:0:0:
352,344,24636,1,0,0:0:0:0:
440,248,24802,2,0,L|432:192,1,43.75
360,64,24969,1,0,0:0:0:0:
360,64,25052,1,0,0:0:0:0:
360,64,25136,2,0,P|304:56|264:64,1,87.5
232,72,25386,1,0,0:0:0:0:
232,72,25469,1,0,0:0:0:0:
64,320,25636,5,0,0:0:0:0:
448,320,25802,1,2,0:0:0:0:
256,64,26136,1,0,0:0:0:0:
256,96,26302,2,4,L|256:224,1,105
256,224,26636,2,0,L|256:322,1,70
424,72,26969,5,0,0:0:0:0:
424,176,27136,2,0,L|424:272,1,70
416,280,27386,1,0,0:0:0:0:
384,294,27469,1,0,0:0:0:0:
349,297,27552,1,0,0:0:0:0:
315,289,27635,1,0,0:0:0:0:
128,64,27802,5,2,0:0:0:0:
128,64,27886,1,8,0:0:0:0:
256,192,28052,1,2,0:0:0:0:
256,192,28136,1,8,0:0:0:0:
104,224,28302,1,2,0:0:0:0:
208,336,28469,1,0,0:0:0:0:
208,336,28552,1,0,0:0:0:0:
208,336,28636,2,0,P|280:328|360:336,1,140
424,96,29136,6,0,L|428:61,1,35
332,204,29386,2,0,L|324:248,1,35
260,92,29636,1,0,0:0:0:0:
144,110,29802,1,0,0:0:0:0:
28,132,29969,2,0,P|16:168|28:204,1,70
140,328,30302,2,0,P|180:320|216:328,1,70
244,336,30552,1,0,0:0:0:0:
277,345,30635,1,0,0:0:0:0:
310,336,30718,1,0,0:0:0:0:
335,312,30801,1,0,0:0:0:0:
440,80,30969,5,0,0:0:0:0:
405,74,31052,1,0,0:0:0:0:
370,73,31135,1,0,0:0:0:0:
335,78,31218,1,0,0:0:0:0:
302,88,31302,1,0,0:0:0:0:
271,104,31385,1,0,0:0:0:0:
242,124,31468,1,0,0:0:0:0:
217,148,31552,5,0,0:0:0:0:
240,176,31636,1,0,0:0:0:0:
256,206,31719,1,0,0:0:0:0:
259,241,31802,1,0,0:0:0:0:
247,273,31885,1,0,0:0:0:0:
222,298,31969,2,0,L|112:304,1,105.000004005432
176,76,32469,5,0,0:0:0:0:
304,76,32636,2,0,L|304:160,1,70
192,280,32969,1,0,0:0:0:0:
157,284,33052,1,0,0:0:0:0:
123,277,33135,1,0,0:0:0:0:
92,260,33219,1,0,0:0:0:0:
69,234,33302,1,0,0:0:0:0:
54,203,33385,1,0,0:0:0:0:
51,168,33469,1,0,0:0:0:0:
308,112,33636,5,0,0:0:0:0:
168,32,33802,1,0,0:0:0:0:
168,32,33886,2,0,P|152:104|188:208,1,175
384,344,34469,5,4,0:0:0:0:
384,312,34552,1,4,0:0:0:0:
384,280,34636,1,4,0:0:0:0:
384,248,34719,1,4,0:0:0:0:
384,216,34802,1,4,0:0:0:0:
384,76,34969,5,0,0:0:0:0:
244,224,35136,1,0,0:0:0:0:
244,224,35219,2,0,P|164:232|104:160,1,175
328,32,35802,1,4,0:0:0:0:
328,63,35886,1,4,0:0:0:0:
328,95,35969,1,4,0:0:0:0:
328,127,36052,1,4,0:0:0:0:
328,159,36136,1,4,0:0:0:0:
332,276,36302,5,8,0:0:0:0:
236,296,36636,5,8,0:0:0:0:
140,312,36969,5,8,0:0:0:0:
332,276,37302,6,0,L|228:296,1,90.9999958343508
384,64,37636,5,2,0:0:0:0:
448,160,37802,1,2,0:0:0:0:
384,256,37969,1,2,0:0:0:0:
200,256,38302,2,2,L|200:96,1,140
96,256,38802,1,0,0:0:0:0:
96,64,38969,5,2,0:0:0:0:
96,64,39052,1,0,0:0:0:0:
96,64,39136,1,0,0:0:0:0:
256,192,39302,5,8,0:0:0:0:
416,64,39469,5,2,0:0:0:0:
416,64,39552,1,0,0:0:0:0:
416,64,39636,1,0,0:0:0:0:
192,192,39802,2,2,L|288:192,1,70
256,320,40136,1,0,0:0:0:0:
440,192,40302,5,2,0:0:0:0:
72,192,40469,1,2,0:0:0:0:
328,104,40636,2,2,L|232:104,1,70
256,264,40969,1,2,0:0:0:0:
112,184,41136,1,0,0:0:0:0:
112,184,41220,1,0,0:0:0:0:
400,184,41386,1,0,0:0:0:0:
400,184,41470,1,0,0:0:0:0:
256,352,41636,5,2,0:0:0:0:
256,256,41802,1,2,0:0:0:0:
256,96,42136,1,2,0:0:0:0:
352,96,42302,5,2,0:0:0:0:
384,128,42386,1,0,0:0:0:0:
352,160,42469,1,2,0:0:0:0:
384,192,42553,1,0,0:0:0:0:
352,224,42636,1,2,0:0:0:0:
384,256,42719,1,0,0:0:0:0:
352,288,42802,1,2,0:0:0:0:
384,320,42886,1,0,0:0:0:0:
352,352,42969,1,0,0:0:0:0:
224,192,43136,5,2,0:0:0:0:
144,80,43302,1,0,0:0:0:0:
64,192,43469,2,0,L|128:192,2,52.5000020027161,2|0|2,0:0|0:0|0:0,0:0:0:0:
448,192,43802,2,0,B|448:256|448:256|384:256,1,105.000004005432
319,256,44136,1,2,0:0:0:0:
272,178,44302,1,2,0:0:0:0:
191,136,44469,1,2,0:0:0:0:
119,192,44636,1,0,0:0:0:0:
64,256,44802,2,2,L|64:320,2,52.5000020027161
256,320,45136,5,2,0:0:0:0:
424,192,45302,1,2,0:0:0:0:
256,64,45469,1,2,0:0:0:0:
256,64,45636,2,2,P|177:63|103:146,1,157.500006008148
328,200,46136,1,2,0:0:0:0:
328,200,46302,2,2,P|407:199|481:282,1,157.500006008148
208,320,46802,1,2,0:0:0:0:
208,320,46969,2,2,P|138:315|116:283,1,105.000004005432
398,81,47469,5,2,0:0:0:0:
340,81,47552,1,2,0:0:0:0:
281,81,47636,1,2,0:0:0:0:
128,64,48302,5,2,0:0:0:0:
48,136,48469,1,2,0:0:0:0:
128,208,48636,1,2,0:0:0:0:
48,280,48802,2,2,L|48:216,2,52.5000020027161
224,320,49136,1,2,0:0:0:0:
256,192,49302,1,2,0:0:0:0:
384,240,49469,1,2,0:0:0:0:
384,128,49636,6,2,P|320:96|256:128,1,105.000004005432
320,208,49969,1,2,0:0:0:0:
224,240,50136,1,2,0:0:0:0:
224,240,50219,1,2,0:0:0:0:
224,240,50302,1,2,0:0:0:0:
288,320,50469,1,2,0:0:0:0:
416,320,50636,1,2,0:0:0:0:
416,192,50802,1,2,0:0:0:0:
416,192,50969,2,0,P|384:96|320:64,1,157.500006008148
256,320,51469,5,2,0:0:0:0:
176,315,51636,2,2,P|119:267|96:189,1,157.500006008148
104,32,52136,1,8,0:0:0:0:
424,32,52302,1,8,0:0:0:0:
416,320,52802,5,2,0:0:0:0:
320,320,52969,1,2,0:0:0:0:
270,335,53052,1,2,0:0:0:0:
221,319,53135,1,2,0:0:0:0:
191,277,53219,1,2,0:0:0:0:
192,224,53302,2,0,L|192:112,1,105.000004005432,2|4,0:0|0:0,0:0:0:0:
64,320,53636,5,2,0:0:0:0:
160,320,53802,2,0,P|224:320|256:288,1,105.000004005432,2|2,0:0|0:0,0:0:0:0:
320,224,54136,1,2,0:0:0:0:
320,160,54219,1,0,0:0:0:0:
320,96,54302,1,2,0:0:0:0:
416,160,54469,1,2,0:0:0:0:
320,224,54636,2,0,L|192:224,1,105.000004005432,0|2,0:0|0:0,0:0:0:0:
130,227,54969,5,2,0:0:0:0:
112,178,55052,1,2,0:0:0:0:
128,129,55135,1,2,0:0:0:0:
166,94,55219,1,2,0:0:0:0:
216,79,55302,1,2,0:0:0:0:
268,83,55385,1,2,0:0:0:0:
316,105,55469,1,2,0:0:0:0:
356,144,55552,1,2,0:0:0:0:
362,201,55636,2,4,L|365:316,2,105.000004005432
64,320,56302,5,4,0:0:0:0:
160,320,56469,1,4,0:0:0:0:
160,320,56552,1,4,0:0:0:0:
160,320,56636,1,4,0:0:0:0:
256,320,56802,1,2,0:0:0:0:
352,320,56969,2,2,L|352:192,1,105.000004005432
288,64,57302,2,2,L|288:192,1,105.000004005432
209,182,57636,5,8,0:0:0:0:
35,222,57802,1,8,0:0:0:0:
148,117,57969,1,8,0:0:0:0:
96,288,58136,1,8,0:0:0:0:
61,137,58302,1,8,0:0:0:0:
182,267,58469,1,2,0:0:0:0:
182,267,58552,1,2,0:0:0:0:
182,267,58636,1,2,0:0:0:0:
416,64,58969,6,0,L|416:192,1,105.000004005432,2|4,0:0|0:0,0:0:0:0:
352,224,59302,1,2,0:0:0:0:
256,224,59469,1,0,0:0:0:0:
256,224,59552,1,2,0:0:0:0:
256,224,59636,1,4,0:0:0:0:
160,224,59802,1,2,0:0:0:0:
64,224,59969,2,0,L|64:96,1,105.000004005432,0|4,0:0|0:0,0:0:0:0:
152,312,60302,5,0,0:0:0:0:
352,240,60469,1,0,0:0:0:0:
200,88,60636,2,8,L|200:216,4,105.000004005432
384,320,61636,5,2,0:0:0:0:
384,184,61802,1,0,0:0:0:0:
408,128,61886,1,2,0:0:0:0:
392,72,61969,1,0,0:0:0:0:
288,64,62136,1,0,0:0:0:0:
264,120,62219,1,2,0:0:0:0:
288,176,62302,1,0,0:0:0:0:
224,288,62469,5,0,0:0:0:0:
128,288,62636,2,0,B|64:256|64:256|64:192,1,105.000004005432
80,96,62969,1,4,0:0:0:0:
440,96,63302,1,4,0:0:0:0:
184,56,63636,5,2,0:0:0:0:
368,152,63802,1,2,0:0:0:0:
168,216,63969,1,2,0:0:0:0:
360,296,64136,2,2,L|360:360,2,52.5000020027161,2|2|4,0:0|0:0|0:0,0:0:0:0:
64,96,64636,5,2,0:0:0:0:
192,96,64969,2,2,L|352:96,2,140
120,152,65802,1,2,0:0:0:0:
197,205,65969,1,2,0:0:0:0:
157,285,66136,1,2,0:0:0:0:
245,285,66302,1,2,0:0:0:0:
309,221,66469,1,2,0:0:0:0:
309,221,66552,1,0,0:0:0:0:
309,221,66636,1,6,0:0:0:0:
362,92,66969,5,2,0:0:0:0:
256,96,67136,2,0,P|201:105|185:135,1,70
128,160,67469,1,0,0:0:0:0:
160,192,67552,1,0,0:0:0:0:
128,224,67636,2,0,P|128:288|192:320,1,140
376,320,68302,1,0,0:0:0:0:
376,224,68469,1,0,0:0:0:0:
376,224,68552,1,0,0:0:0:0:
376,224,68636,1,0,0:0:0:0:
384,128,68802,2,0,L|480:128,2,70
320,128,69302,1,0,0:0:0:0:
256,128,69469,5,0,0:0:0:0:
224,128,69552,1,0,0:0:0:0:
192,128,69636,2,4,P|128:128|64:192,1,140
128,256,70302,1,0,0:0:0:0:
384,256,70636,1,0,0:0:0:0:
292,305,70969,1,0,0:0:0:0:
159,262,71136,1,0,0:0:0:0:
159,121,71302,1,0,0:0:0:0:
292,78,71469,1,0,0:0:0:0:
375,192,71636,1,0,0:0:0:0:
247,199,71803,1,0,0:0:0:0:
247,199,71886,1,0,0:0:0:0:
247,199,71969,1,0,0:0:0:0:
352,96,72302,5,0,0:0:0:0:
352,288,72469,1,0,0:0:0:0:
288,96,72636,2,0,L|288:208,1,105.000004005432
192,288,72969,5,0,0:0:0:0:
192,96,73136,1,0,0:0:0:0:
128,288,73302,2,0,L|128:152,1,122.500001168251
64,96,73636,5,0,0:0:0:0:
64,288,73802,1,0,0:0:0:0:
128,96,73969,2,0,L|128:240,1,140
256,176,74302,1,0,0:0:0:0:
294,133,74385,1,0,0:0:0:0:
353,130,74468,1,0,0:0:0:0:
396,168,74551,1,0,0:0:0:0:
400,224,74635,1,0,0:0:0:0:
365,269,74718,1,0,0:0:0:0:
307,277,74801,1,0,0:0:0:0:
264,232,74886,1,0,0:0:0:0:
256,176,74969,1,0,0:0:0:0:
256,192,80302,12,0,82636,0:0:0:0:
300,112,82969,6,0,P|216:100|132:136,1,157.500006008148
92,212,83636,2,0,L|100:336,1,105.000004005432
212,112,84302,6,0,P|296:100|380:136,1,157.500006008148
420,212,84969,2,0,L|416:284,1,52.5000020027161
312,248,85302,1,0,0:0:0:0:
336,136,85469,1,0,0:0:0:0:
336,136,85552,1,0,0:0:0:0:
336,136,85636,2,0,P|248:164|176:132,1,157.500006008148
132,232,86302,2,0,L|128:304,2,52.5000020027161
140,128,86802,1,0,0:0:0:0:
140,128,86969,2,0,P|220:144|296:124,1,157.500006008148
388,84,87636,2,0,L|384:136,1,52.5000020027161
376,240,87969,1,0,0:0:0:0:
272,252,88136,1,0,0:0:0:0:
272,252,88219,1,0,0:0:0:0:
272,252,88302,2,0,L|192:256,1,70
96,160,88636,2,0,L|176:164,1,70
284,88,88969,2,0,L|280:168,1,70
204,276,89302,2,0,L|208:196,1,70
212,64,89636,2,0,L|136:64,2,70
96,160,90136,5,2,0:0:0:0:
128,160,90219,1,2,0:0:0:0:
160,160,90302,1,2,0:0:0:0:
192,160,90386,1,2,0:0:0:0:
224,160,90469,1,2,0:0:0:0:
256,160,90553,1,2,0:0:0:0:
288,160,90636,1,2,0:0:0:0:
320,160,90719,1,2,0:0:0:0:
352,160,90803,1,2,0:0:0:0:
384,160,90886,1,0,0:0:0:0:
416,160,90969,5,0,0:0:0:0:
256,256,91136,1,0,0:0:0:0:
416,336,91302,1,2,0:0:0:0:
192,336,91469,2,0,B|144:304|128:336|96:304|80:256,1,140,0|2,0:0|0:0,0:0:0:0:
216,216,91969,6,0,P|280:184|280:120,1,140,0|2,0:0|0:0,0:0:0:0:
64,80,92469,1,2,0:0:0:0:
90,103,92552,1,2,0:0:0:0:
116,126,92635,1,2,0:0:0:0:
143,149,92718,1,2,0:0:0:0:
169,172,92802,1,10,0:0:0:0:
400,96,92969,5,2,0:0:0:0:
304,240,93136,1,0,0:0:0:0:
96,256,93302,1,2,0:0:0:0:
96,256,93386,1,2,0:0:0:0:
96,256,93469,1,2,0:0:0:0:
96,256,93552,1,2,0:0:0:0:
96,256,93636,1,10,0:0:0:0:
96,64,93802,5,0,0:0:0:0:
208,96,93969,2,2,L|208:176,2,70
208,272,94469,1,0,0:0:0:0:
320,144,94636,1,2,0:0:0:0:
112,144,94802,1,0,0:0:0:0:
112,192,94886,1,2,0:0:0:0:
112,240,94969,2,10,L|112:320,1,70,10|10,3:0|3:0,3:0:0:0:
304,176,95302,2,10,L|224:176,1,70,10|10,3:0|3:0,3:0:0:0:
392,272,95636,2,10,L|480:272,1,70,10|10,3:0|3:0,3:0:0:0:
320,304,95969,5,0,0:0:0:0:
280,267,96052,1,0,0:0:0:0:
239,231,96136,1,0,0:0:0:0:
199,194,96219,1,0,0:0:0:0:
176,144,96302,2,2,B|208:160|272:64|304:160,1,140
96,320,96802,1,0,0:0:0:0:
96,320,96969,2,2,P|176:320|192:272,1,140
256,48,97469,5,2,0:0:0:0:
256,144,97636,2,2,B|288:192|240:208|272:256|272:256|256:304|256:304,1,140
184,200,98136,1,0,0:0:0:0:
72,160,98302,1,0,0:0:0:0:
32,272,98469,1,0,0:0:0:0:
144,320,98636,1,0,0:0:0:0:
176,224,98802,5,0,0:0:0:0:
213,204,98886,1,0,0:0:0:0:
252,189,98969,1,0,0:0:0:0:
292,178,99052,1,0,0:0:0:0:
333,172,99136,1,0,0:0:0:0:
374,165,99219,1,0,0:0:0:0:
414,156,99302,1,0,0:0:0:0:
449,132,99386,1,0,0:0:0:0:
432,112,99469,6,0,L|371:113,5,35,0|2|0|2|0|2,0:0|0:0|0:0|0:0|0:0|0:0,0:0:0:0:
365,111,99969,2,0,L|320:110,3,35,0|2|0|2,0:0|0:0|0:0|0:0,0:0:0:0:
304,112,100302,2,2,L|256:112,3,35,2|0|2|0,0:0|0:0|0:0|0:0,0:0:0:0:
240,112,100636,2,2,L|192:112,3,35,2|0|2|0,0:0|0:0|0:0|0:0,0:0:0:0:
160,112,100969,2,2,L|112:112,4,35,2|0|2|0|2,0:0|0:0|0:0|0:0|0:0,0:0:0:0:
80,224,101636,6,0,P|96:176|256:96,1,210
320,96,102302,1,4,0:0:0:0:
320,96,102386,1,0,0:0:0:0:
320,96,102469,1,0,0:0:0:0:
384,160,102636,2,0,P|400:208|384:256,1,70
320,272,102969,1,4,0:0:0:0:
320,272,103052,1,0,0:0:0:0:
320,272,103136,1,0,0:0:0:0:
224,272,103302,2,0,L|160:272,2,35,0|0|4,0:0|0:0|0:0,0:0:0:0:
112,224,103636,5,4,0:0:0:0:
112,224,103719,1,0,0:0:0:0:
112,224,103802,1,0,0:0:0:0:
192,176,103969,2,0,L|256:176,2,35,0|0|4,0:0|0:0|0:0,0:0:0:0:
304,240,104302,1,4,0:0:0:0:
304,240,104386,1,0,0:0:0:0:
304,240,104469,1,0,0:0:0:0:
432,232,104636,2,0,P|440:184|416:160,1,70
432,296,104969,5,4,0:0:0:0:
432,296,105052,1,0,0:0:0:0:
432,296,105136,1,0,0:0:0:0:
304,304,105302,2,0,P|248:272|248:240,1,70
128,320,105636,1,4,0:0:0:0:
117,286,105719,1,0,0:0:0:0:
112,252,105802,1,0,0:0:0:0:
110,217,105885,1,0,0:0:0:0:
110,182,105969,1,4,0:0:0:0:
113,147,106052,1,0,0:0:0:0:
119,112,106135,1,0,0:0:0:0:
132,81,106219,1,0,0:0:0:0:
149,108,106302,1,4,0:0:0:0:
170,135,106385,1,0,0:0:0:0:
202,149,106469,1,0,0:0:0:0:
237,153,106552,1,0,0:0:0:0:
272,152,106635,1,4,0:0:0:0:
304,272,106969,5,0,0:0:0:0:
176,208,107136,1,0,0:0:0:0:
304,272,107302,1,0,0:0:0:0:
240,96,107469,1,0,0:0:0:0:
400,144,107636,1,0,0:0:0:0:
400,144,107719,1,0,0:0:0:0:
400,144,107802,1,0,0:0:0:0:
384,240,107969,2,0,L|320:240,2,35
240,256,108302,5,4,0:0:0:0:
208,32,108469,1,4,0:0:0:0:
302,180,108636,1,4,0:0:0:0:
106,81,108802,1,4,0:0:0:0:
106,81,108969,2,4,P|64:128|64:208,1,140
128,256,109386,5,2,0:0:0:0:
136,214,109469,1,0,0:0:0:0:
166,186,109552,1,2,0:0:0:0:
208,181,109636,1,0,0:0:0:0:
245,201,109719,1,2,0:0:0:0:
262,239,109802,1,0,0:0:0:0:
272,272,109886,5,2,0:0:0:0:
308,299,109969,1,0,0:0:0:0:
354,299,110053,1,2,0:0:0:0:
391,272,110136,1,0,0:0:0:0:
405,229,110219,1,2,0:0:0:0:
391,186,110303,1,0,0:0:0:0:
354,159,110386,1,2,0:0:0:0:
308,159,110469,5,0,0:0:0:0:
263,169,110552,1,2,0:0:0:0:
217,167,110636,1,0,0:0:0:0:
174,150,110719,1,2,0:0:0:0:
140,119,110802,1,0,0:0:0:0:
113,81,110886,1,2,0:0:0:0:
64,64,110969,6,0,L|64:160,1,90.9999958343508
200,168,111219,2,0,L|200:268,1,90.9999958343508
320,328,111469,2,0,L|432:327,1,90.9999958343508
408,192,111719,2,0,L|406:81,1,90.9999958343508
304,112,111969,2,4,B|304:32|304:32|240:32,1,140
124,104,112469,6,0,P|96:152|112:204,1,87.5
140,268,112802,1,0,0:0:0:0:
244,264,112969,1,0,0:0:0:0:
287,268,113052,1,0,0:0:0:0:
328,255,113135,1,0,0:0:0:0:
361,227,113218,1,0,0:0:0:0:
381,188,113302,1,0,0:0:0:0:
364,60,113469,1,0,0:0:0:0:
232,60,113636,6,0,L|132:60,1,87.5
204,176,113969,2,0,L|304:176,1,87.5
424,176,114302,1,0,0:0:0:0:
340,276,114469,1,0,0:0:0:0:
212,300,114636,2,0,P|116:304|56:228,1,175
108,84,115136,5,0,0:0:0:0:
108,84,115219,1,0,0:0:0:0:
108,84,115302,2,0,L|112:176,1,87.5
240,120,115636,1,0,0:0:0:0:
240,120,115719,1,0,0:0:0:0:
240,120,115802,1,0,0:0:0:0:
240,120,115886,1,0,0:0:0:0:
240,120,115969,2,0,L|244:220,1,87.5
368,332,116302,5,0,0:0:0:0:
491,208,116469,1,0,0:0:0:0:
368,84,116636,1,0,0:0:0:0:
244,208,116802,1,0,0:0:0:0:
364,260,116969,1,0,0:0:0:0:
364,260,117052,1,0,0:0:0:0:
364,260,117136,1,0,0:0:0:0:
240,304,117302,1,0,0:0:0:0:
240,304,117386,1,0,0:0:0:0:
240,304,117469,2,0,L|144:304,1,87.5
60,212,117802,5,0,0:0:0:0:
132,100,117969,1,0,0:0:0:0:
166,74,118052,1,0,0:0:0:0:
209,64,118135,1,0,0:0:0:0:
251,71,118218,1,0,0:0:0:0:
288,95,118302,6,0,L|400:92,1,87.5
468,188,118636,2,0,L|356:191,1,87.5
300,292,118969,2,0,L|296:196,1,87.5
376,103,119302,2,0,L|380:199,1,87.5
388,324,119636,2,0,P|324:328|280:308,2,87.5
456,212,120136,1,0,0:0:0:0:
384,104,120302,1,0,0:0:0:0:
284,192,120469,5,0,0:0:0:0:
284,192,120552,1,0,0:0:0:0:
284,192,120636,2,0,L|288:280,1,87.5
172,148,120969,1,0,0:0:0:0:
172,148,121052,1,0,0:0:0:0:
172,148,121136,1,0,0:0:0:0:
172,148,121219,1,0,0:0:0:0:
172,148,121302,2,0,L|176:248,1,87.5
72,380,121636,5,0,0:0:0:0:
236,316,121802,1,0,0:0:0:0:
60,328,121969,1,0,0:0:0:0:
232,368,122136,1,0,0:0:0:0:
144,220,122302,1,0,0:0:0:0:
128,180,122385,1,0,0:0:0:0:
143,140,122468,1,0,0:0:0:0:
264,84,122636,1,0,0:0:0:0:
289,118,122719,1,0,0:0:0:0:
300,161,122802,1,0,0:0:0:0:
293,203,122885,1,0,0:0:0:0:
270,240,122969,6,0,P|216:256|168:240,1,87.5
80,112,123302,2,0,L|84:208,1,87.5
88,332,123552,1,0,0:0:0:0:
88,332,123636,2,0,P|148:336|184:324,1,87.5
260,176,123969,1,0,0:0:0:0:
260,176,124052,1,0,0:0:0:0:
260,176,124136,1,0,0:0:0:0:
260,176,124219,1,0,0:0:0:0:
260,176,124302,6,0,L|256:268,1,87.5
384,228,124636,2,0,L|387:140,1,87.5
288,56,124969,1,0,0:0:0:0:
288,56,125052,1,0,0:0:0:0:
288,56,125136,1,0,0:0:0:0:
156,60,125302,2,0,L|56:64,1,87.5
132,208,125636,2,0,P|236:180|336:208,1,210.000008010865
232,348,126136,5,0,0:0:0:0:
108,304,126302,2,0,L|32:252,1,87.5
168,236,126636,2,0,L|244:184,1,87.5
108,168,126969,2,0,L|32:116,1,87.5
168,100,127303,2,0,L|244:48,1,87.5
416,52,127636,1,0,0:0:0:0:
432,91,127719,1,0,0:0:0:0:
424,134,127802,1,0,0:0:0:0:
296,108,127969,1,0,0:0:0:0:
281,148,128052,1,0,0:0:0:0:
283,192,128135,1,0,0:0:0:0:
301,231,128218,1,0,0:0:0:0:
332,261,128302,6,0,L|432:264,1,87.5
308,332,128636,2,0,L|220:336,1,87.5
132,240,128970,2,0,L|228:244,1,87.5
320,168,129303,2,0,L|316:264,1,87.5
224,348,129636,2,0,L|228:260,1,87.5
232,52,129969,2,0,L|116:52,1,105.000004005432
304,168,130302,1,0,0:0:0:0:
304,168,130469,1,0,0:0:0:0:
304,168,130636,2,0,P|240:180|176:160,1,105.000004005432
48,144,130969,6,0,P|36:192|48:244,1,87.5
144,312,131302,2,0,P|156:264|144:212,1,87.5
136,184,131552,1,0,0:0:0:0:
160,148,131636,2,0,P|216:140|264:152,1,87.5
344,236,131969,2,0,P|352:292|340:340,1,87.5
212,340,132302,6,0,P|176:348|128:340,3,70
128,168,133636,6,2,P|112:248|112:264,1,70
32,128,133969,1,0,0:0:0:0:
224,128,134136,1,2,0:0:0:0:
256,128,134219,1,2,0:0:0:0:
288,128,134302,1,2,0:0:0:0:
320,128,134386,1,2,0:0:0:0:
168,272,134552,1,4,0:0:0:0:
264,272,134719,2,2,L|328:272,1,52.5000020027161
160,320,134969,6,2,P|96:272|96:272,1,70
176,224,135302,1,0,0:0:0:0:
264,144,135469,1,2,0:0:0:0:
212,140,135552,1,2,0:0:0:0:
112,168,135719,1,2,0:0:0:0:
120,217,135802,1,0,0:0:0:0:
151,253,135886,1,0,0:0:0:0:
271,224,136052,2,0,L|272:288,1,35
343,131,136302,2,0,B|336:192|384:208|384:208|400:256|400:256,1,140
305,335,136802,1,0,0:0:0:0:
194,274,136969,2,0,L|192:208,1,35
240,224,137219,1,0,0:0:0:0:
272,176,137386,2,0,L|272:128,1,35
361,52,137636,5,0,0:0:0:0:
328,30,137719,1,0,0:0:0:0:
293,15,137802,1,0,0:0:0:0:
254,8,137886,1,0,0:0:0:0:
216,10,137969,1,0,0:0:0:0:
178,20,138052,1,0,0:0:0:0:
144,37,138136,1,0,0:0:0:0:
113,62,138219,1,0,0:0:0:0:
179,107,138302,5,0,0:0:0:0:
215,123,138385,1,0,0:0:0:0:
246,146,138468,1,0,0:0:0:0:
272,176,138552,1,0,0:0:0:0:
290,209,138635,1,0,0:0:0:0:
301,247,138718,1,0,0:0:0:0:
304,285,138802,1,0,0:0:0:0:
299,324,138885,1,0,0:0:0:0:
272,352,138969,1,0,0:0:0:0:
240,144,139136,6,0,L|320:144,1,70
368,176,139469,1,0,0:0:0:0:
368,256,139636,2,0,P|384:304|416:336,1,70
477,290,139969,2,0,L|476:144,1,140
140,68,140469,6,0,L|92:103,1,35
177,186,140636,2,0,L|227:152,1,35
173,120,140802,2,0,L|48:208,1,140
389,119,141469,6,0,L|397:157,1,35
380,196,141636,2,0,L|240:96,1,140
96,176,142302,2,0,L|224:288,1,140
222,155,142968,5,0,0:0:0:0:
222,155,143051,1,0,0:0:0:0:
222,155,143135,1,0,0:0:0:0:
222,155,143218,1,0,0:0:0:0:
222,155,143301,1,0,0:0:0:0:
222,155,143385,1,0,0:0:0:0:
222,155,143468,1,0,0:0:0:0:
222,155,143551,1,0,0:0:0:0:
222,155,143635,1,0,0:0:0:0:
222,155,143718,1,0,0:0:0:0:
224,160,143802,1,0,0:0:0:0:
222,155,143886,1,0,0:0:0:0:
222,155,143969,2,0,L|224:200,1,35
368,159,144136,2,0,L|368:210,2,35
176,288,144469,6,0,P|123:280|89:256,1,70
192,159,144802,1,0,0:0:0:0:
272,272,144969,1,0,0:0:0:0:
422,265,145136,1,0,0:0:0:0:
416,144,145302,2,0,P|416:96|400:80,1,70
264,120,145636,1,0,0:0:0:0:
128,104,145802,2,0,P|128:152|144:168,1,70
224,280,146136,2,0,P|272:280|288:264,1,70
64,80,146802,5,2,0:0:0:0:
112,224,146969,2,0,L|112:144,1,70,0|2,0:0|0:0,0:0:0:0:
208,80,147302,1,2,0:0:0:0:
272,240,147469,2,0,L|272:128,1,105.000004005432,0|2,0:0|0:0,0:0:0:0:
352,80,147802,1,2,0:0:0:0:
416,240,147969,2,0,L|416:96,1,140,0|2,0:0|0:0,0:0:0:0:
272,304,148302,6,2,P|208:288|160:224,1,136.499993751526,2|0,0:0|0:0,0:0:0:0:
208,176,148636,2,2,P|240:240|304:240,1,136.499993751526,2|0,0:0|0:0,0:0:0:0:
336,192,148969,6,2,P|272:192|256:128,1,140,2|8,0:0|0:0,0:0:0:0:
416,56,149469,1,0,0:0:0:0:
452,184,149636,2,0,P|464:236|444:280,1,87.5
416,292,149886,1,0,0:0:0:0:
416,292,149969,2,0,P|348:296|308:288,1,87.5
268,128,150302,2,0,L|356:128,2,87.5
136,128,150802,1,0,0:0:0:0:
56,232,150969,6,0,P|40:284|72:336,1,87.5
172,364,151302,2,0,P|188:312|156:260,1,87.5
228,160,151636,2,0,L|324:160,2,87.5
96,160,152136,1,0,0:0:0:0:
184,64,152302,6,0,L|276:64,1,87.5
316,64,152552,1,0,0:0:0:0:
360,64,152636,2,0,L|456:64,1,87.5
372,172,152969,2,0,L|276:172,3,87.5
108,180,153636,5,0,0:0:0:0:
260,100,153802,1,0,0:0:0:0:
300,84,153885,1,0,0:0:0:0:
343,84,153968,1,0,0:0:0:0:
383,101,154052,1,0,0:0:0:0:
414,132,154135,1,0,0:0:0:0:
430,173,154218,1,0,0:0:0:0:
430,216,154302,2,0,L|436:308,1,87.5
260,316,154636,6,0,L|136:320,1,87.5
72,152,154969,2,0,L|76:240,1,87.5
148,80,155219,1,0,0:0:0:0:
148,80,155302,2,0,L|152:180,1,87.5
272,296,155636,1,0,0:0:0:0:
315,301,155719,1,0,0:0:0:0:
357,290,155802,1,0,0:0:0:0:
391,263,155886,1,0,0:0:0:0:
412,225,155969,2,0,L|420:132,1,87.5
208,56,156302,6,0,P|144:48|104:60,1,87.5
176,172,156636,2,0,P|240:180|280:168,1,87.5
400,68,156969,1,0,0:0:0:0:
432,96,157052,1,0,0:0:0:0:
447,137,157135,1,0,0:0:0:0:
441,179,157219,1,0,0:0:0:0:
414,214,157302,2,0,L|320:216,1,87.5
212,80,157636,6,0,P|160:72|112:88,1,87.5
72,148,157886,1,0,0:0:0:0:
72,148,157969,2,0,L|76:252,1,87.5
224,328,158302,2,0,L|320:328,2,87.5
48,328,158802,1,0,0:0:0:0:
200,168,158969,6,0,P|232:180|304:172,3,105.000004005432
256,80,160136,5,0,0:0:0:0:
116,80,160302,1,0,0:0:0:0:
116,184,160469,1,0,0:0:0:0:
116,288,160636,1,0,0:0:0:0:
220,288,160802,1,0,0:0:0:0:
324,288,160969,2,0,L|400:288,1,70
396,184,161302,2,0,L|320:184,1,70
192,96,161636,6,0,L|188:208,2,105.000004005432
288,52,162136,1,0,0:0:0:0:
352,136,162302,2,0,L|344:248,2,105.000004005432
252,260,162802,5,0,0:0:0:0:
236,84,162969,1,0,0:0:0:0:
108,112,163136,1,0,0:0:0:0:
108,112,163219,1,0,0:0:0:0:
108,112,163302,2,0,L|112:204,1,87.5
200,300,163636,2,0,L|296:300,2,87.5
288,200,164136,1,0,0:0:0:0:
180,112,164302,6,0,L|88:112,1,87.5
36,228,164552,1,0,0:0:0:0:
36,228,164636,2,0,L|128:228,1,87.5
280,304,164969,1,0,0:0:0:0:
333,267,165052,1,0,0:0:0:0:
359,207,165135,1,0,0:0:0:0:
350,143,165219,1,0,0:0:0:0:
309,93,165302,2,0,L|165:93,1,140
92,236,165636,6,0,P|76:292|92:332,1,87.5
208,344,165886,1,0,0:0:0:0:
208,344,165969,2,0,L|304:344,1,87.5
368,248,166302,2,0,L|264:248,2,87.5
192,104,166802,1,0,0:0:0:0:
192,104,166886,1,0,0:0:0:0:
192,104,166969,6,0,P|240:96|280:104,1,76.3000008149719
332,192,167332,2,0,P|284:200|244:192,1,76.3000008149719
104,160,167696,2,0,L|96:248,1,76.3000008149719
92,276,167969,1,0,0:0:0:0:
92,276,168059,1,0,0:0:0:0:
188,336,168241,1,0,0:0:0:0:
340,336,168423,6,0,L|348:288,2,39.550000120697
268,192,168798,2,0,L|260:240,2,39.550000120697
136,280,169173,2,0,P|84:208|104:128,1,158.200000482788
200,84,169735,5,0,0:0:0:0:
224,240,169923,1,0,0:0:0:0:
348,132,170116,1,0,0:0:0:0:
348,132,170213,1,0,0:0:0:0:
348,132,170310,2,0,L|352:220,1,81.2000024780274
156,284,170697,5,0,0:0:0:0:
280,176,170890,1,0,0:0:0:0:
280,176,170987,1,0,0:0:0:0:
280,176,171084,2,0,L|284:264,1,81.2000024780274
88,332,171510,5,0,0:0:0:0:
212,224,171703,1,0,0:0:0:0:
212,224,171800,1,0,0:0:0:0:
212,224,171897,2,0,L|216:312,1,81.2000024780274
420,228,172325,5,0,0:0:0:0:
256,96,172539,1,0,0:0:0:0:
92,228,172753,1,0,0:0:0:0:
80,128,176636,37,0,0:0:0:0:
272,128,177011,1,0,0:0:0:0:
336,192,177198,2,0,P|368:240|368:272,1,79.100000241394
288,304,177573,6,0,B|256:240|208:240|208:240|160:304|96:288|96:288|80:272,1,237.300000724182
96,96,178511,1,0,0:0:0:0:
160,160,178698,1,0,0:0:0:0:
256,160,178886,1,0,0:0:0:0:
352,160,179073,2,0,B|400:176|416:208|416:208|352:240|368:320|368:320|320:320|320:320,1,237.300000724182
256,320,179823,1,0,0:0:0:0:
176,256,180011,1,0,0:0:0:0:
112,176,180198,6,0,P|112:128|144:112,1,79.100000241394
208,176,180573,1,0,0:0:0:0:
304,176,180761,1,0,0:0:0:0:
399,208,180948,2,0,P|400:256|368:272,1,79.100000241394
240,272,181417,1,0,0:0:0:0:
240,272,181511,1,0,0:0:0:0:
128,224,181698,2,0,B|128:64|128:64|208:64,1,237.300000724182
80,176,182636,6,0,L|80:224,3,39.550000120697
144,176,183011,2,0,L|144:240,3,39.550000120697
208,176,183386,2,0,L|208:224,3,39.550000120697
256,208,183761,1,0,0:0:0:0:
304,208,183854,1,0,0:0:0:0:
352,192,183948,1,0,0:0:0:0:
384,160,184042,1,0,0:0:0:0:
384,112,184136,6,0,P|336:96|304:112,1,79.100000241394
224,112,184511,2,0,L|224:64,3,39.550000120697
160,112,184886,2,0,L|160:160,3,39.550000120697
112,128,185261,1,0,0:0:0:0:
80,160,185354,1,0,0:0:0:0:
64,208,185448,1,0,0:0:0:0:
80,256,185542,1,0,0:0:0:0:
112,288,185636,2,0,P|169:323|197:301,1,79.100000241394
272,320,186011,6,0,L|272:368,3,39.550000120697
336,320,186386,2,0,L|336:368,3,39.550000120697
400,320,186761,2,0,L|400:272,3,39.550000120697
464,320,187136,1,0,0:0:0:0:
464,272,187229,1,0,0:0:0:0:
464,224,187323,1,0,0:0:0:0:
464,176,187417,1,0,0:0:0:0:
464,128,187511,2,0,P|416:96|384:112,1,79.100000241394
304,96,187886,6,0,L|304:144,3,39.550000120697
256,112,188261,1,0,0:0:0:0:
208,112,188354,1,0,0:0:0:0:
160,128,188448,1,0,0:0:0:0:
128,160,188542,1,0,0:0:0:0:
96,192,188636,2,0,P|64:240|80:272,1,79.100000241394
176,304,189011,1,0,0:0:0:0:
360,88,189198,1,0,0:0:0:0:
416,192,189386,2,0,P|448:240|432:272,1,79.100000241394
328,312,189761,5,0,0:0:0:0:
144,112,189948,1,0,0:0:0:0:
96,192,190136,2,0,P|64:240|80:272,1,79.100000241394
336,336,190511,2,0,P|368:288|352:256,1,79.100000241394
256,256,190886,5,0,0:0:0:0:
160,144,191073,1,0,0:0:0:0:
256,32,191261,2,0,L|192:32,4,39.550000120697
400,192,192011,2,0,P|320:240|240:240,1,158.200000482788
176,192,192573,1,0,0:0:0:0:
112,112,192761,2,0,P|64:176|80:272,1,158.200000482788
160,304,193323,5,0,0:0:0:0:
336,304,193511,2,0,P|400:304|432:288,1,79.100000241394
96,160,193886,2,0,P|176:128|224:64,1,140
336,96,194237,2,0,L|336:192,1,78.7500030040742
256,272,194636,6,0,L|192:224,1,79.100000241394
80,64,195011,2,0,L|80:128,1,39.550000120697
80,224,195292,1,0,0:0:0:0:
80,224,195386,1,0,0:0:0:0:
144,304,195573,2,0,P|192:320|304:272,1,158.200000482788
368,64,196136,5,0,0:0:0:0:
272,112,196323,1,0,0:0:0:0:
240,208,196511,1,0,0:0:0:0:
208,304,196698,2,0,P|144:304|80:224,1,158.200000482788
248,168,197261,1,0,0:0:0:0:
384,48,197448,1,0,0:0:0:0:
384,72,197542,1,0,0:0:0:0:
384,96,197636,6,0,L|384:192,1,79.100000241394
384,288,198011,5,0,0:0:0:0:
272,320,198198,1,0,0:0:0:0:
160,288,198386,1,0,0:0:0:0:
80,208,198573,2,0,P|64:176|64:128,1,79.100000241394
176,160,198948,5,0,0:0:0:0:
288,80,199136,2,0,L|288:160,1,79.100000241394
400,160,199511,1,0,0:0:0:0:
400,256,199698,1,0,0:0:0:0:
368,304,199792,1,0,0:0:0:0:
328,336,199886,1,0,0:0:0:0:
80,304,200073,5,0,0:0:0:0:
176,288,200261,2,0,B|176:232|176:208|176:208|176:208,1,79.100000241394
77,56,200636,1,0,0:0:0:0:
159,140,200823,1,0,0:0:0:0:
275,166,201011,2,0,L|337:166,1,39.550000120697
409,65,201292,5,0,0:0:0:0:
409,65,201386,1,0,0:0:0:0:
349,167,201573,1,0,0:0:0:0:
286,65,201761,2,0,L|190:65,1,79.100000241394
97,194,202136,5,0,0:0:0:0:
191,265,202323,1,0,0:0:0:0:
309,274,202511,2,0,L|410:274,2,79.100000241394
339,159,203073,1,0,0:0:0:0:
339,159,203167,1,0,0:0:0:0:
339,159,203261,1,0,0:0:0:0:
220,165,203448,1,0,0:0:0:0:
220,165,203542,1,0,0:0:0:0:
220,165,203635,1,8,0:0:0:0:
223,299,203823,5,0,0:0:0:0:
357,299,204011,1,0,0:0:0:0:
223,299,204198,1,0,0:0:0:0:
143,189,204386,5,8,0:0:0:0:
280,184,204574,1,0,0:0:0:0:
143,189,204761,1,0,0:0:0:0:
72,75,204948,5,0,0:0:0:0:
208,64,205136,1,8,0:0:0:0:
72,75,205323,1,0,0:0:0:0:
72,75,205417,1,0,0:0:0:0:
72,75,205511,1,0,0:0:0:0:
72,209,205698,1,0,0:0:0:0:
72,209,205792,1,0,0:0:0:0:
72,209,205886,1,0,0:0:0:0:
164,305,206073,5,0,0:0:0:0:
164,305,206167,1,0,0:0:0:0:
164,305,206261,1,0,0:0:0:0:
298,308,206448,1,0,0:0:0:0:
298,308,206542,1,0,0:0:0:0:
298,308,206636,2,0,L|297:206,1,79.100000241394
208,73,207011,2,0,B|205:164|206:158,1,79.100000241394
75,73,207386,5,0,0:0:0:0:
212,317,207573,1,0,0:0:0:0:
209,68,207761,1,0,0:0:0:0:
82,313,207948,1,0,0:0:0:0:
212,317,208136,5,0,0:0:0:0:
212,317,208229,1,0,0:0:0:0:
212,317,208323,1,0,0:0:0:0:
347,317,208511,1,0,0:0:0:0:
347,317,208604,1,0,0:0:0:0:
347,317,208698,1,0,0:0:0:0:
431,212,208886,1,0,0:0:0:0:
431,212,208979,1,0,0:0:0:0:
431,212,209073,1,0,0:0:0:0:
425,77,209261,1,0,0:0:0:0:
425,77,209354,1,0,0:0:0:0:
425,77,209448,1,0,0:0:0:0:
290,68,209636,6,0,L|193:67,1,79.100000241394
212,290,210011,2,0,P|297:291|298:291,1,79.100000241394
356,192,210386,5,0,0:0:0:0:
168,64,210573,1,0,0:0:0:0:
248,272,210761,1,0,0:0:0:0:
64,176,210948,1,0,0:0:0:0:
173,316,211136,1,0,0:0:0:0:
173,316,211229,1,0,0:0:0:0:
173,316,211323,1,0,0:0:0:0:
307,321,211511,1,0,0:0:0:0:
307,321,211604,1,0,0:0:0:0:
307,321,211698,1,0,0:0:0:0:
415,240,211886,2,0,L|413:284,4,39.550000120697
74,61,212636,5,0,0:0:0:0:
168,184,212823,2,0,L|264:184,2,79.100000241394
438,323,213386,5,0,0:0:0:0:
304,232,213573,2,0,L|208:232,2,79.100000241394
272,96,214136,2,0,L|320:160,1,79.100000241394
240,288,214511,2,0,L|192:224,1,79.100000241394
208,128,214886,1,0,0:0:0:0:
231,159,214979,1,0,0:0:0:0:
255,191,215073,1,0,0:0:0:0:
279,222,215167,1,0,0:0:0:0:
302,254,215261,1,0,0:0:0:0:
96,256,215823,5,0,0:0:0:0:
96,256,215917,1,0,0:0:0:0:
96,256,216011,2,0,P|160:256|192:224,1,79.100000241394
256,208,216386,2,0,P|320:208|336:224,1,79.100000241394
416,272,216761,1,0,0:0:0:0:
416,144,216948,1,0,0:0:0:0:
416,144,217042,1,0,0:0:0:0:
416,144,217136,2,0,P|352:128|336:112,2,79.100000241394
176,128,217698,6,0,B|128:128|96:192|96:192|96:256|96:256,1,158.200000482788
176,224,218261,2,0,L|176:320,1,79.100000241394
256,224,218636,2,0,L|256:336,1,79.100000241394
336,224,219011,2,0,L|336:320,1,79.100000241394
400,176,219386,2,0,L|400:96,1,79.100000241394
320,160,219761,2,0,L|320:80,1,79.100000241394
256,160,220136,2,0,L|256:48,1,105.000004005432
192,160,220511,2,0,L|192:48,1,105.000004005432
128,160,220886,2,0,B|96:224|112:272|112:272,1,105.000004005432
128,320,221261,6,0,L|240:320,1,105.000004005432
304,272,221636,2,0,L|304:352,3,70
368,240,222011,2,0,L|403:311,3,70
384,192,222386,2,0,L|432:208,4,35
400,144,222620,2,0,L|448:160,4,35
384,96,222854,2,0,P|336:64|288:64,1,105
64,112,223136,6,0,L|64:192,1,70
64,272,223511,2,0,L|160:272,1,70
224,272,223886,2,0,P|320:256|360:272,1,140
184,64,224581,6,0,L|216:64,4,19.7750000603485
400,224,225050,2,0,L|360:224,2,39.550000120697
168,296,225425,1,0,0:0:0:0:
168,280,225518,1,0,0:0:0:0:
168,264,225612,1,0,0:0:0:0:
168,248,225706,1,0,0:0:0:0:
168,232,225800,2,0,L|168:136,1,79.100000241394
408,248,226175,5,0,0:0:0:0:
408,248,226268,1,0,0:0:0:0:
408,248,226362,1,0,0:0:0:0:
360,48,226550,1,0,0:0:0:0:
208,144,226737,1,0,0:0:0:0:
272,200,226925,2,4,L|368:200,1,79.100000241394
272,264,227206,2,4,L|376:264,1,79.100000241394
128,176,227487,1,0,0:0:0:0:
128,176,227581,1,0,0:0:0:0:
128,176,227675,1,0,0:0:0:0:
208,80,227862,5,0,0:0:0:0:
240,80,227956,1,0,0:0:0:0:
264,80,228050,1,0,0:0:0:0:
288,80,228143,1,0,0:0:0:0:
312,80,228237,2,0,L|352:80,5,39.550000120697
448,296,228987,6,0,L|448:336,2,39.550000120697
376,240,229362,1,0,0:0:0:0:
344,240,229456,1,0,0:0:0:0:
312,240,229550,1,0,0:0:0:0:
208,240,229737,1,0,0:0:0:0:
88,240,229925,6,0,B|88:192|88:144,1,79.100000241394
88,96,230206,2,0,L|136:96,2,39.550000120697
192,96,230487,1,0,0:0:0:0:
192,112,230581,1,0,0:0:0:0:
192,128,230675,1,0,0:0:0:0:
192,144,230768,1,0,0:0:0:0:
192,160,230862,1,0,0:0:0:0:
192,320,231050,1,0,0:0:0:0:
288,320,231237,5,0,0:0:0:0:
280,144,231425,1,0,0:0:0:0:
280,128,231518,1,0,0:0:0:0:
280,112,231612,1,0,0:0:0:0:
280,96,231706,1,0,0:0:0:0:
280,80,231800,1,0,0:0:0:0:
448,80,231987,2,0,L|360:80,1,79.100000241394
152,192,232362,5,0,0:0:0:0:
256,192,232550,1,0,0:0:0:0:
424,192,232737,2,0,L|312:192,1,79.100000241394
312,192,233018,1,0,0:0:0:0:
280,192,233112,1,0,0:0:0:0:
248,192,233206,1,0,0:0:0:0:
256,48,233487,5,0,0:0:0:0:
152,112,233675,1,0,0:0:0:0:
256,168,233862,2,0,L|296:168,2,39.550000120697
400,168,234237,1,0,0:0:0:0:
256,280,234425,1,0,0:0:0:0:
120,168,234612,1,0,0:0:0:0:
152,168,234706,2,0,L|232:168,1,79.100000241394
256,168,234987,1,0,0:0:0:0:
280,168,235081,5,0,0:0:0:0:
304,168,235175,1,0,0:0:0:0:
256,312,235362,1,0,0:0:0:0:
256,48,235550,1,0,0:0:0:0:
256,48,235643,1,0,0:0:0:0:
112,192,235831,1,0,0:0:0:0:
112,192,235925,1,0,0:0:0:0:
408,192,236112,1,0,0:0:0:0:
408,192,236206,1,0,0:0:0:0:
248,96,236393,1,0,0:0:0:0:
248,96,236487,1,0,0:0:0:0:
344,96,236675,2,0,P|424:64|376:176,1,280
304,192,237612,6,0,L|224:192,2,70
176,192,238362,2,0,L|112:192,1,35
105,174,238550,2,0,P|198:95|352:192,1,316.400000965576,0|4,0:0|0:0,0:0:0:0:
80,64,239675,1,0,0:0:0:0:
192,64,239862,1,0,0:0:0:0:
384,64,240050,2,0,L|304:64,1,79.100000241394
392,320,240425,1,0,0:0:0:0:
392,208,240612,1,0,0:0:0:0:
392,64,240800,2,0,L|392:160,1,79.100000241394
192,48,241175,5,0,0:0:0:0:
192,64,241268,1,0,0:0:0:0:
192,80,241362,1,0,0:0:0:0:
96,192,241550,1,0,0:0:0:0:
184,272,241737,2,0,P|232:320|248:320,1,79.100000241394
256,176,242112,5,0,0:0:0:0:
184,56,242300,2,0,P|152:64|120:96,1,79.100000241394
120,136,242581,1,0,0:0:0:0:
168,144,242675,2,0,L|168:256,1,79.100000241394
384,288,243050,5,0,0:0:0:0:
304,288,243237,1,0,0:0:0:0:
280,256,243331,1,0,0:0:0:0:
248,240,243425,1,0,0:0:0:0:
216,264,243519,1,0,0:0:0:0:
176,248,243612,1,0,0:0:0:0:
168,208,243706,1,0,0:0:0:0:
192,176,243800,1,0,0:0:0:0:
232,168,243893,1,0,0:0:0:0:
272,176,243987,1,0,0:0:0:0:
112,48,244175,5,0,0:0:0:0:
184,104,244362,1,0,0:0:0:0:
208,120,244456,1,0,0:0:0:0:
240,136,244550,1,0,0:0:0:0:
224,168,244643,1,0,0:0:0:0:
200,192,244737,1,0,0:0:0:0:
192,224,244831,1,0,0:0:0:0:
184,256,244925,2,0,P|207:316|240:250,1,158.200000482788
112,120,245581,5,0,0:0:0:0:
112,120,245675,1,0,0:0:0:0:
336,192,245862,2,0,L|392:192,2,39.550000120697
464,48,246237,1,0,0:0:0:0:
440,72,246331,1,0,0:0:0:0:
416,96,246425,1,0,0:0:0:0:
392,120,246518,1,0,0:0:0:0:
368,144,246612,1,0,0:0:0:0:
344,168,246706,1,0,0:0:0:0:
320,192,246800,1,0,0:0:0:0:
296,216,246893,1,0,0:0:0:0:
272,240,246987,1,0,0:0:0:0:
88,72,247175,6,0,L|160:72,3,39.550000120697
256,72,247550,1,0,0:0:0:0:
432,72,247737,1,0,0:0:0:0:
432,192,247925,2,0,L|352:192,1,79.100000241394
272,192,248206,1,0,0:0:0:0:
176,296,248393,2,0,L|128:272,1,39.550000120697
72,112,248675,5,0,0:0:0:0:
256,112,248862,1,0,0:0:0:0:
72,112,249050,1,0,0:0:0:0:
264,112,249237,1,0,0:0:0:0:
296,112,249331,1,0,0:0:0:0:
328,112,249425,1,0,0:0:0:0:
360,112,249518,1,0,0:0:0:0:
392,112,249612,1,0,0:0:0:0:
256,192,249800,2,0,P|216:232|232:240,1,79.100000241394
256,192,250175,12,0,251675,0:0:0:0:
80,64,252425,6,0,L|176:88,3,79.100000241394
272,88,253362,1,0,0:0:0:0:
384,88,253550,2,0,P|456:96|376:200,1,276.850000844879
352,208,254300,1,0,0:0:0:0:
184,104,254675,6,0,P|76:160|193:248,1,316.400000965576
272,248,255612,1,0,0:0:0:0:
360,248,255800,1,0,0:0:0:0:
448,248,255987,1,0,0:0:0:0:
448,104,256362,1,0,0:0:0:0:
448,176,256550,2,0,P|440:296|304:232,1,316.400000965576
48,48,257675,5,0,0:0:0:0:
384,192,258425,2,0,L|464:192,3,79.100000241394
224,192,259362,1,0,0:0:0:0:
288,192,259550,2,0,P|400:216|304:304,1,276.850000844879
304,312,260300,1,0,0:0:0:0:
464,48,260675,5,0,0:0:0:0:
128,192,261425,2,0,L|40:192,3,79.100000241394
256,192,262362,1,0,0:0:0:0:
416,192,262550,2,0,P|464:144|312:64,1,316.400000965576
184,64,263487,6,0,L|272:64,1,79.100000241394
184,64,264237,2,0,L|280:64,1,79.100000241394
192,248,264987,2,0,L|288:248,1,79.100000241394
336,248,265362,2,0,L|336:152,1,79.100000241394
120,248,265737,2,0,L|120:160,1,79.100000241394
176,64,266487,6,0,L|256:64,1,79.100000241394
320,64,266862,2,0,L|320:152,1,79.100000241394
320,208,267237,2,0,L|232:208,1,79.100000241394
176,208,267612,2,0,L|176:112,1,79.100000241394
240,128,267987,2,0,L|328:128,1,79.100000241394
240,216,268362,2,0,L|320:216,1,79.100000241394
384,128,268737,2,0,L|384:240,1,79.100000241394
312,272,269487,6,0,L|232:272,1,79.100000241394
224,56,270237,2,0,L|312:56,1,79.100000241394
224,56,270987,2,0,L|304:56,1,79.100000241394
368,64,271362,2,0,L|368:144,1,79.100000241394
368,208,271737,2,0,L|280:208,1,79.100000241394
176,120,272675,5,0,0:0:0:0:
256,120,272862,1,0,0:0:0:0:
336,120,273050,2,0,L|424:120,1,79.100000241394
416,184,273425,2,0,P|408:256|328:232,1,158.200000482788
256,192,274175,12,0,275487,0:0:0:0:
80,96,275675,5,0,0:0:0:0:
192,96,275862,2,0,P|240:96|256:128,1,79.100000241394
352,176,276237,1,0,0:0:0:0:
352,176,276331,1,0,0:0:0:0:
352,176,276425,2,0,L|352:224,2,39.550000120697
64,320,276800,2,0,L|64:224,1,79.100000241394
64,144,277175,1,0,0:0:0:0:
176,144,277362,1,0,0:0:0:0:
256,224,277550,1,0,0:0:0:0:
256,336,277737,1,0,0:0:0:0:
256,336,277831,1,0,0:0:0:0:
256,336,277925,2,0,L|320:336,1,39.550000120697
400,336,278206,2,0,L|400:272,1,39.550000120697
384,128,278487,5,0,0:0:0:0:
304,192,278675,1,0,0:0:0:0:
384,128,278862,1,0,0:0:0:0:
304,192,279050,1,0,0:0:0:0:
192,192,279237,1,0,0:0:0:0:
192,192,279331,1,0,0:0:0:0:
192,192,279425,2,0,L|128:192,2,39.550000120697
48,240,279800,2,0,L|48:320,1,79.100000241394
160,288,280175,5,0,0:0:0:0:
272,288,280362,1,0,0:0:0:0:
160,288,280550,1,0,0:0:0:0:
272,192,280737,1,0,0:0:0:0:
272,192,280831,1,0,0:0:0:0:
272,192,280925,2,0,L|336:192,2,39.550000120697
256,288,281300,2,0,L|160:288,1,79.100000241394
96,208,281675,5,0,0:0:0:0:
176,128,281862,1,0,0:0:0:0:
288,128,282050,1,0,0:0:0:0:
400,128,282237,1,0,0:0:0:0:
400,176,282331,1,0,0:0:0:0:
400,224,282425,1,0,0:0:0:0:
496,160,282612,1,0,0:0:0:0:
432,80,282800,1,0,0:0:0:0:
320,80,282987,2,0,L|240:80,1,79.100000241394
128,112,283362,1,0,0:0:0:0:
112,224,283550,1,0,0:0:0:0:
192,320,283737,1,0,0:0:0:0:
112,224,283925,1,0,0:0:0:0:
272,224,284112,1,0,0:0:0:0:
112,224,284300,1,0,0:0:0:0:
272,112,284487,1,0,0:0:0:0:
416,112,284675,5,0,0:0:0:0:
416,208,284862,1,0,0:0:0:0:
272,160,285050,2,0,L|352:160,2,79.100000241394
176,160,285612,1,0,0:0:0:0:
112,240,285800,1,0,0:0:0:0:
192,288,285987,1,0,0:0:0:0:
288,288,286175,1,0,0:0:0:0:
256,208,286362,1,0,0:0:0:0:
256,208,286455,1,0,0:0:0:0:
256,208,286549,2,0,P|213:186|177:185,1,79.100000241394
96,160,286925,6,0,L|96:240,2,79.100000241394
384,80,287675,5,0,0:0:0:0:
248,96,287862,1,0,0:0:0:0:
184,224,288050,1,0,0:0:0:0:
384,224,288237,1,0,0:0:0:0:
320,224,288331,1,0,0:0:0:0:
256,224,288425,1,0,0:0:0:0:
320,144,288612,5,0,0:0:0:0:
320,144,288706,1,0,0:0:0:0:
320,144,288800,2,0,L|320:208,2,39.550000120697
64,336,289175,5,0,0:0:0:0:
128,112,289362,1,0,0:0:0:0:
176,336,289550,1,0,0:0:0:0:
240,336,289643,1,0,0:0:0:0:
304,336,289737,1,0,0:0:0:0:
368,336,289831,2,0,P|368:288|336:272,1,79.100000241394
224,208,290206,1,0,0:0:0:0:
160,208,290300,1,0,0:0:0:0:
304,208,290487,2,0,L|400:208,1,79.100000241394
384,64,290862,5,0,0:0:0:0:
240,64,291050,1,0,0:0:0:0:
240,208,291237,1,0,0:0:0:0:
304,208,291331,1,0,0:0:0:0:
368,208,291425,1,0,0:0:0:0:
432,208,291518,1,0,0:0:0:0:
432,144,291612,2,0,L|432:104,2,39.550000120697
344,296,291987,1,0,0:0:0:0:
344,296,292081,1,0,0:0:0:0:
352,304,292175,1,0,0:0:0:0:
352,304,292269,1,0,0:0:0:0:
352,304,292363,1,0,0:0:0:0:
416,192,292550,6,0,P|432:144|432:128,1,39.550000120697
280,264,292831,1,0,0:0:0:0:
88,104,293018,1,0,0:0:0:0:
112,320,293206,1,0,0:0:0:0:
144,272,293300,1,0,0:0:0:0:
176,224,293393,1,0,0:0:0:0:
208,176,293487,1,0,0:0:0:0:
240,128,293581,1,0,0:0:0:0:
272,96,293675,2,0,P|277:187|276:188,1,79.100000241394
304,304,294050,5,0,0:0:0:0:
448,304,294237,1,0,0:0:0:0:
448,304,294331,1,0,0:0:0:0:
448,168,294518,1,0,0:0:0:0:
304,176,294706,1,0,0:0:0:0:
304,176,294800,1,0,0:0:0:0:
304,176,294893,2,0,L|240:176,1,39.550000120697
384,224,295175,5,0,0:0:0:0:
200,280,295362,1,0,0:0:0:0:
384,224,295550,1,0,0:0:0:0:
384,224,295643,1,0,0:0:0:0:
384,224,295737,2,0,L|384:160,1,39.550000120697
288,64,296018,5,0,0:0:0:0:
176,128,296206,2,0,L|176:176,1,39.550000120697
176,272,296487,1,0,0:0:0:0:
96,336,296675,2,0,B|48:336|48:320|48:320|48:288|48:288,1,79.100000241394
48,176,297050,5,0,0:0:0:0:
176,96,297237,1,0,0:0:0:0:
176,96,297331,1,0,0:0:0:0:
304,176,297518,1,0,0:0:0:0:
240,288,297706,1,0,0:0:0:0:
240,288,297800,1,0,0:0:0:0:
240,288,297893,2,0,L|240:224,1,39.550000120697
240,112,298175,6,0,P|288:112|304:144,1,79.100000241394
304,48,298550,1,0,0:0:0:0:
256,160,298737,1,0,0:0:0:0:
256,160,298831,1,0,0:0:0:0:
128,160,299018,1,0,0:0:0:0:
208,256,299206,1,0,0:0:0:0:
264,285,299300,1,0,0:0:0:0:
324,301,299393,1,0,0:0:0:0:
384,304,299487,1,0,0:0:0:0:
432,272,299581,1,0,0:0:0:0:
464,224,299675,1,0,0:0:0:0:
428,51,299862,6,0,P|358:60|312:56,1,105.000004005432
152,64,300237,1,0,0:0:0:0:
152,64,300331,1,0,0:0:0:0:
296,152,300518,1,0,0:0:0:0:
144,224,300706,1,0,0:0:0:0:
144,280,300800,1,0,0:0:0:0:
144,336,300893,2,0,P|216:336|216:336,1,52.5000020027161
288,288,301175,5,0,0:0:0:0:
288,152,301362,1,0,0:0:0:0:
192,248,301550,1,0,0:0:0:0:
384,288,301737,2,0,L|384:192,1,52.5000020027161
384,88,302018,1,0,0:0:0:0:
240,88,302206,1,0,0:0:0:0:
184,88,302300,1,0,0:0:0:0:
128,88,302393,2,0,L|128:152,1,52.5000020027161
200,264,302675,5,0,0:0:0:0:
280,192,302862,2,0,L|408:192,1,105.000004005432
328,104,303237,1,0,0:0:0:0:
272,104,303331,1,0,0:0:0:0:
208,192,303518,1,0,0:0:0:0:
280,272,303706,1,0,0:0:0:0:
336,272,303800,1,0,0:0:0:0:
392,272,303893,2,0,P|384:216|360:216,1,52.5000020027161
336,72,304175,5,0,0:0:0:0:
288,72,304268,1,0,0:0:0:0:
232,72,304362,1,0,0:0:0:0:
176,72,304456,1,0,0:0:0:0:
120,72,304550,2,0,L|120:136,1,52.5000020027161
264,176,304831,1,0,0:0:0:0:
144,328,305018,1,0,0:0:0:0:
280,320,305206,1,0,0:0:0:0:
329,302,305299,1,0,0:0:0:0:
371,271,305393,1,0,0:0:0:0:
402,229,305487,1,0,0:0:0:0:
419,179,305581,1,0,0:0:0:0:
424,136,305675,2,0,P|416:80|416:80,1,52.5000020027161
152,72,305956,6,0,L|96:72,1,52.5000020027161
96,176,306237,1,0,0:0:0:0:
96,176,306331,1,0,0:0:0:0:
160,256,306518,1,0,0:0:0:0:
264,256,306706,1,0,0:0:0:0:
264,200,306800,1,0,0:0:0:0:
264,144,306893,2,0,L|328:144,1,52.5000020027161
360,240,307175,5,0,0:0:0:0:
176,240,307362,1,0,0:0:0:0:
360,240,307550,1,0,0:0:0:0:
176,96,307737,2,0,L|96:96,1,52.5000020027161
352,48,308018,1,0,0:0:0:0:
352,48,308112,1,0,0:0:0:0:
352,48,308206,2,0,L|360:112,1,52.5000020027161
376,304,308487,5,0,0:0:0:0:
232,304,308675,2,0,L|96:304,1,105.000004005432
184,176,309050,1,0,0:0:0:0:
320,176,309237,1,0,0:0:0:0:
376,176,309331,1,0,0:0:0:0:
304,256,309518,1,0,0:0:0:0:
192,256,309706,2,0,L|120:256,1,52.5000020027161
80,88,309987,5,0,0:0:0:0:
368,240,310175,1,0,0:0:0:0:
160,184,310362,2,0,L|280:184,1,105.000004005432
240,304,310737,1,0,0:0:0:0:
240,304,310831,1,0,0:0:0:0:
128,264,311018,1,0,0:0:0:0:
128,152,311206,5,0,0:0:0:0:
184,152,311300,1,0,0:0:0:0:
240,152,311393,1,0,0:0:0:0:
296,152,311487,2,0,L|408:152,1,105.000004005432
392,96,317675,5,0,0:0:0:0:
256,88,317862,1,0,0:0:0:0:
256,88,317956,2,0,L|192:88,1,39.550000120697
216,288,318425,1,0,0:0:0:0:
336,288,318612,1,0,0:0:0:0:
331,228,318706,1,0,0:0:0:0:
304,174,318800,1,0,0:0:0:0:
256,139,318893,1,0,0:0:0:0:
200,120,318987,1,0,0:0:0:0:
136,112,319081,1,0,0:0:0:0:
72,128,319175,1,0,0:0:0:0:
256,120,319362,5,0,0:0:0:0:
256,120,319456,2,0,L|320:120,1,39.550000120697
346,281,319925,1,0,0:0:0:0:
227,279,320112,1,0,0:0:0:0:
204,223,320206,1,0,0:0:0:0:
185,166,320300,1,0,0:0:0:0:
191,107,320393,1,0,0:0:0:0:
220,55,320487,1,0,0:0:0:0:
279,49,320581,1,0,0:0:0:0:
327,83,320675,1,0,0:0:0:0:
333,201,320862,5,0,0:0:0:0:
333,201,320956,2,0,P|335:247|335:254,1,39.550000120697
151,88,321425,1,0,0:0:0:0:
67,171,321612,1,0,0:0:0:0:
68,230,321706,1,0,0:0:0:0:
100,279,321800,1,0,0:0:0:0:
138,323,321893,1,0,0:0:0:0:
192,344,321987,1,0,0:0:0:0:
256,344,322081,1,0,0:0:0:0:
320,344,322175,1,8,0:0:0:0:
320,218,322362,1,8,0:0:0:0:
320,218,322456,2,12,L|245:216,1,39.550000120697
161,215,322737,5,12,0:0:0:0:
158,96,322925,1,12,0:0:0:0:
276,89,323112,1,8,0:0:0:0:
329,115,323206,1,8,0:0:0:0:
374,152,323300,1,8,0:0:0:0:
409,199,323393,1,8,0:3:0:0:
382,252,323487,1,8,0:3:0:0:
304,304,323675,1,0,0:0:0:0:
256,304,323768,1,0,0:0:0:0:
208,296,323862,1,0,0:0:0:0:
168,280,323956,5,0,0:0:0:0:
128,264,324050,1,0,0:0:0:0:
104,240,324144,1,0,0:0:0:0:
88,208,324237,1,0,0:0:0:0:
96,176,324331,1,0,0:0:0:0:
136,160,324425,1,0,0:0:0:0:
184,160,324518,2,0,P|240:160|288:120,1,118.650000362091
448,48,325175,5,0,0:0:0:0:
344,104,325362,1,0,0:0:0:0:
296,96,325456,1,0,0:0:0:0:
264,136,325550,1,0,0:0:0:0:
208,136,325643,1,0,0:0:0:0:
184,176,325737,1,0,0:0:0:0:
128,152,325831,2,0,L|72:152,1,39.550000120697
88,216,326018,2,0,P|64:248|128:288,1,118.650000362091
256,328,326675,5,0,0:0:0:0:
256,328,326768,1,0,0:0:0:0:
416,204,326956,1,0,0:0:0:0:
402,160,327050,1,0,0:0:0:0:
377,121,327143,1,0,0:0:0:0:
341,92,327237,1,0,0:0:0:0:
299,74,327331,1,0,0:0:0:0:
253,66,327425,1,0,0:0:0:0:
207,69,327518,1,0,0:0:0:0:
162,81,327612,1,0,0:0:0:0:
120,99,327706,1,0,0:0:0:0:
144,288,328175,6,2,L|96:288,1,39.550000120697
256,216,328456,2,2,L|200:216,1,39.550000120697
368,304,328737,2,2,L|304:304,1,39.550000120697
368,240,328925,2,2,L|312:240,1,39.550000120697
200,120,329300,2,2,L|200:224,1,79.100000241394
120,280,329675,6,2,L|168:280,1,39.550000120697
272,240,329956,1,0,0:0:0:0:
280,189,330050,1,0,0:0:0:0:
330,181,330143,1,0,0:0:0:0:
354,226,330237,1,0,0:0:0:0:
317,263,330331,1,0,0:0:0:0:
432,264,330518,2,0,P|432:224|432:216,1,39.550000120697
432,104,330800,1,0,0:0:0:0:
432,104,330893,1,0,0:0:0:0:
432,104,330987,1,0,0:0:0:0:
312,104,331175,6,2,L|264:104,1,39.550000120697
160,144,331456,1,0,0:0:0:0:
152,195,331550,1,0,0:0:0:0:
102,203,331643,1,0,0:0:0:0:
78,158,331737,1,0,0:0:0:0:
115,121,331831,1,0,0:0:0:0:
232,112,332018,2,0,L|232:176,1,39.550000120697
232,272,332300,1,0,0:0:0:0:
232,272,332393,1,0,0:0:0:0:
232,272,332487,1,0,0:0:0:0:
352,280,332675,6,2,L|352:232,1,39.550000120697
336,144,332956,1,0,0:0:0:0:
318,95,333050,1,0,0:0:0:0:
267,97,333143,1,0,0:0:0:0:
252,145,333237,1,0,0:0:0:0:
272,192,333331,1,0,0:0:0:0:
248,240,333425,1,0,2:0:0:0:
206,271,333519,1,0,2:0:0:0:
223,319,333612,1,0,2:0:0:0:
273,320,333706,1,0,2:0:0:0:
312,288,333800,1,8,2:0:0:0:
344,248,333893,1,0,0:0:0:0:
400,240,333987,6,2,L|400:280,2,39.550000120697
400,128,334456,2,2,L|448:128,1,39.550000120697
208,80,334737,2,2,L|272:80,1,39.550000120697
264,200,335018,1,0,0:0:0:0:
264,200,335112,1,0,0:0:0:0:
264,200,335206,1,8,0:0:0:0:
264,200,335300,2,10,L|184:200,1,79.100000241394
120,104,335675,5,0,0:0:0:0:
328,104,335862,2,0,L|424:104,1,79.100000241394
240,192,336237,1,0,0:0:0:0:
120,208,336425,1,0,0:0:0:0:
160,248,336518,1,0,0:0:0:0:
208,280,336612,2,0,P|232:296|288:296,1,79.100000241394
72,64,337175,5,0,0:0:0:0:
184,112,337362,1,0,0:0:0:0:
240,112,337456,1,0,0:0:0:0:
296,112,337550,1,0,0:0:0:0:
384,184,337737,1,0,0:0:0:0:
280,248,337925,1,0,0:0:0:0:
232,216,338018,1,0,0:0:0:0:
176,192,338112,1,0,0:0:0:0:
128,224,338206,1,0,0:0:0:0:
80,256,338300,1,0,0:0:0:0:
392,328,338675,5,0,0:0:0:0:
392,272,338768,1,0,0:0:0:0:
392,216,338862,1,0,0:0:0:0:
392,160,338956,1,0,0:0:0:0:
392,104,339050,1,0,0:0:0:0:
288,152,339237,1,0,0:0:0:0:
288,272,339425,5,0,0:0:0:0:
232,272,339518,1,0,0:0:0:0:
176,272,339612,1,0,0:0:0:0:
128,248,339706,1,0,0:0:0:0:
128,200,339800,1,0,0:0:0:0:
168,160,339893,1,0,0:0:0:0:
224,160,339987,1,0,0:0:0:0:
280,160,340081,5,0,0:0:0:0:
336,160,340175,1,0,0:0:0:0:
336,336,340456,2,0,L|288:336,1,39.550000120697
176,336,340737,1,0,0:0:0:0:
80,264,340925,1,0,0:0:0:0:
80,208,341018,1,0,0:0:0:0:
80,152,341112,2,8,B|80:112|80:112|128:112,1,79.100000241394
392,312,341675,5,0,0:0:0:0:
296,144,341862,1,0,0:0:0:0:
120,152,342050,1,0,0:0:0:0:
272,312,342237,1,0,0:0:0:0:
272,312,342331,1,0,0:0:0:0:
272,312,342425,1,0,0:0:0:0:
400,232,342612,2,0,L|400:168,1,39.550000120697
384,64,343175,5,0,0:0:0:0:
264,64,343362,1,0,0:0:0:0:
384,64,343550,1,0,0:0:0:0:
344,160,343737,1,0,0:0:0:0:
304,192,343831,1,0,0:0:0:0:
248,216,343925,1,0,0:0:0:0:
192,240,344019,1,0,0:0:0:0:
144,256,344113,1,0,0:0:0:0:
88,264,344206,1,0,0:0:0:0:
56,216,344300,1,0,0:0:0:0:
88,72,344487,5,0,0:0:0:0:
208,72,344675,2,0,L|304:72,1,79.100000241394
376,152,345050,1,0,0:0:0:0:
80,288,345425,5,0,0:0:0:0:
160,200,345612,1,0,0:0:0:0:
232,296,345800,2,0,L|328:296,1,79.100000241394
376,192,346175,2,0,L|376:96,1,79.100000241394
256,112,346550,1,0,0:0:0:0:
136,112,346737,1,0,0:0:0:0:
160,168,346831,1,0,0:0:0:0:
208,200,346925,1,0,0:0:0:0:
336,288,347206,2,0,L|288:288,1,39.550000120697
120,280,347487,1,0,0:0:0:0:
48,48,347675,5,0,0:0:0:0:
48,48,347768,1,0,0:0:0:0:
48,160,347956,2,0,L|200:160,1,118.650000362091
288,160,348425,5,0,0:0:0:0:
288,160,348518,1,0,0:0:0:0:
288,280,348706,2,0,L|432:280,1,118.650000362091
416,160,349175,5,0,0:0:0:0:
416,160,349268,1,0,0:0:0:0:
416,40,349456,2,0,L|296:40,1,118.650000362091
176,40,349925,5,0,0:0:0:0:
176,40,350018,1,0,0:0:0:0:
56,40,350206,2,0,L|56:176,1,118.650000362091
104,272,350675,5,0,0:0:0:0:
208,336,350862,1,0,0:0:0:0:
208,336,350956,2,0,L|288:336,1,79.100000241394
176,200,351425,5,0,0:0:0:0:
280,264,351612,1,0,0:0:0:0:
280,264,351706,2,0,L|360:264,1,79.100000241394
248,120,352175,5,0,0:0:0:0:
352,184,352362,1,0,0:0:0:0:
352,184,352456,2,0,L|432:184,1,79.100000241394
352,288,352925,5,0,0:0:0:0:
232,288,353112,1,0,0:0:0:0:
176,280,353206,1,0,0:0:0:0:
128,248,353300,1,0,0:0:0:0:
88,200,353393,2,8,B|56:160|64:80|80:64,1,118.650000362091
256,192,364859,5,8,0:0:0:0:
248,184,370025,6,0,L|280:184,4,17.5
416,192,370359,2,0,L|416:120,1,70
416,56,370692,1,0,0:0:0:0:
416,256,370859,1,0,0:0:0:0:
80,192,371025,2,0,L|80:104,1,70
80,56,371359,1,0,0:0:0:0:
80,256,371526,1,0,0:0:0:0:
256,112,371692,1,0,0:0:0:0:
408,112,371859,5,0,0:0:0:0:
408,240,372025,2,0,L|368:240,2,35
128,240,372359,1,0,0:0:0:0:
128,104,372525,1,0,0:0:0:0:
280,104,372692,2,0,L|360:104,1,70
440,104,373025,5,0,0:0:0:0:
440,256,373192,1,0,0:0:0:0:
264,192,373359,2,0,L|200:192,2,35
80,104,373692,1,0,0:0:0:0:
80,264,373859,1,0,0:0:0:0:
376,264,374025,2,0,L|376:184,1,70
256,96,374359,1,0,0:0:0:0:
160,288,374525,5,0,0:0:0:0:
184,288,374609,1,0,0:0:0:0:
208,288,374692,1,0,0:0:0:0:
232,288,374775,1,0,0:0:0:0:
256,288,374859,1,0,0:0:0:0:
280,288,374942,1,0,0:0:0:0:
304,288,375025,1,0,0:0:0:0:
328,288,375109,1,0,0:0:0:0:
352,288,375192,1,0,0:0:0:0:
440,192,375359,1,0,0:0:0:0:
344,80,375525,5,0,0:0:0:0:
272,152,375692,2,0,L|192:200,1,70
72,192,376025,1,0,0:0:0:0:
168,80,376191,1,0,0:0:0:0:
240,144,376358,2,0,L|304:216,1,70
384,200,376692,1,0,0:0:0:0:
379,123,376859,2,0,P|436:138|448:224,1,140
424,280,377359,1,0,0:0:0:0:
328,280,377525,1,0,0:0:0:0:
64,56,377859,5,0,0:0:0:0:
144,120,378025,1,0,0:0:0:0:
232,176,378192,2,0,L|296:224,1,70
456,328,378525,1,0,0:0:0:0:
376,272,378692,1,0,0:0:0:0:
288,216,378859,2,0,L|224:168,1,70
64,192,379192,1,0,0:0:0:0:
144,96,379359,1,0,0:0:0:0:
256,96,379525,2,0,L|408:96,1,140
400,256,380025,1,0,0:0:0:0:
256,192,380192,1,0,0:0:0:0:
80,64,380525,5,0,0:0:0:0:
224,64,380692,1,0,0:0:0:0:
360,64,380859,2,0,L|440:64,1,70
432,216,381192,1,0,0:0:0:0:
280,216,381359,1,0,0:0:0:0:
160,216,381525,2,0,L|71:216,1,70
96,328,381859,1,0,0:0:0:0:
256,328,382025,1,0,0:0:0:0:
256,184,382192,2,0,B|264:168|264:168|256:160|256:160|264:152|264:152|256:144|256:144|264:136|264:136|256:128|256:128|264:120|264:120|256:112|256:112|264:104|264:104|256:96|256:96|264:88|264:88|256:80|256:80,1,140
448,80,382692,1,0,0:0:0:0:
448,296,382859,1,0,0:0:0:0:
64,64,383192,5,0,0:0:0:0:
168,120,383359,1,0,0:0:0:0:
296,120,383525,2,0,P|328:120|336:208,1,140
72,304,384025,1,0,0:0:0:0:
160,256,384192,1,0,0:0:0:0:
256,200,384359,2,0,P|320:184|320:160,1,70
312,88,384692,1,0,0:0:0:0:
128,96,384859,5,0,0:0:0:0:
376,96,385192,1,0,0:0:0:0:
360,96,385275,1,0,0:0:0:0:
344,96,385359,1,0,0:0:0:0:
328,96,385442,1,0,0:0:0:0:
312,96,385525,2,0,P|264:96|312:144,1,140
88,192,386192,5,0,0:0:0:0:
424,192,386358,1,0,0:0:0:0:
256,192,386525,1,0,0:0:0:0:
256,56,386859,5,0,0:0:0:0:
256,336,387025,1,0,0:0:0:0:
256,192,387192,1,0,0:0:0:0:
144,72,387525,5,0,0:0:0:0:
256,72,387692,1,0,0:0:0:0:
368,72,387859,2,0,L|440:72,1,70
440,328,388192,1,0,0:0:0:0:
256,176,388525,1,0,0:0:0:0:
160,104,388859,5,0,0:0:0:0:
256,40,389025,1,0,0:0:0:0:
352,112,389192,1,0,0:0:0:0:
144,240,389525,5,0,0:0:0:0:
256,240,389692,1,0,0:0:0:0:
376,240,389859,1,0,0:0:0:0:
376,216,389942,1,0,0:0:0:0:
376,192,390025,1,0,0:0:0:0:
376,72,390192,5,0,0:0:0:0:
136,72,390359,1,0,0:0:0:0:
256,72,390525,1,0,0:0:0:0:
256,96,390609,1,0,0:0:0:0:
256,128,390692,1,0,0:0:0:0:
256,152,390775,1,0,0:0:0:0:
256,184,390859,2,0,B|280:216|280:216|304:184|304:184|328:216|328:216|344:184,1,140
376,64,391359,5,0,0:0:0:0:
256,64,391525,1,0,0:0:0:0:
128,64,391692,1,0,0:0:0:0:
376,192,391859,1,0,0:0:0:0:
344,192,391942,1,0,0:0:0:0:
312,192,392025,1,0,0:0:0:0:
280,192,392109,1,0,0:0:0:0:
248,192,392192,1,0,0:0:0:0:
376,320,392525,5,0,0:0:0:0:
256,320,392692,1,0,0:0:0:0:
144,320,392859,1,0,0:0:0:0:
376,184,393192,1,0,0:0:0:0:
344,184,393275,1,0,0:0:0:0:
312,184,393359,1,0,0:0:0:0:
280,184,393442,1,0,0:0:0:0:
248,184,393525,1,0,0:0:0:0:
65,182,393858,1,0,0:0:0:0:
65,38,394025,1,0,0:0:0:0:
65,110,394192,1,0,0:0:0:0:
176,128,394358,5,0,0:0:0:0:
176,176,394442,1,0,0:0:0:0:
176,224,394525,1,0,0:0:0:0:
296,56,394692,1,0,0:0:0:0:
296,104,394776,1,0,0:0:0:0:
296,152,394859,1,0,0:0:0:0:
408,128,395025,1,0,0:0:0:0:
408,176,395109,1,0,0:0:0:0:
408,224,395192,1,0,0:0:0:0:
176,120,395358,5,0,0:0:0:0:
192,120,395442,1,0,0:0:0:0:
208,120,395525,1,0,0:0:0:0:
224,120,395608,1,0,0:0:0:0:
240,120,395692,1,0,0:0:0:0:
256,120,395775,1,0,0:0:0:0:
272,120,395858,1,0,0:0:0:0:
288,120,395942,1,0,0:0:0:0:
304,120,396025,1,0,0:0:0:0:
320,120,396108,1,0,0:0:0:0:
336,120,396192,2,0,L|336:272,1,140
192,264,396692,1,0,0:0:0:0:
96,88,396858,5,0,0:0:0:0:
208,88,397025,2,0,P|256:112|288:112,1,70
424,88,397358,1,0,0:0:0:0:
280,88,397525,2,0,P|233:119|201:119,1,70
256,296,397858,2,0,L|256:216,1,70
256,152,398192,1,0,0:0:0:0:
384,152,398358,5,0,0:0:0:0:
96,152,398525,1,0,0:0:0:0:
128,152,398608,1,0,0:0:0:0:
160,152,398691,1,0,0:0:0:0:
200,152,398775,1,0,0:0:0:0:
232,152,398858,2,0,P|296:176|264:224,1,140
96,320,399358,1,0,0:0:0:0:
256,320,399525,1,0,0:0:0:0:
432,160,399692,2,0,L|432:248,1,70
96,72,400025,1,0,0:0:0:0:
256,72,400192,1,0,0:0:0:0:
432,232,400358,2,0,L|432:144,1,70
144,200,400692,1,0,0:0:0:0:
88,328,400858,5,0,0:0:0:0:
304,328,401025,2,0,P|352:320|352:288,1,70
360,280,401275,1,0,0:0:0:0:
360,256,401358,1,0,0:0:0:0:
360,232,401442,1,0,0:0:0:0:
360,208,401525,1,0,0:0:0:0:
160,144,401858,5,0,0:0:0:0:
56,56,402025,1,0,0:0:0:0:
160,144,402192,2,0,L|96:96,1,70
360,144,402525,1,0,0:0:0:0:
456,48,402692,1,0,0:0:0:0:
360,144,402859,2,0,L|424:88,1,70
256,184,403192,1,0,0:0:0:0:
256,320,403358,1,0,0:0:0:0:
256,184,403525,2,0,L|256:272,1,70
184,160,403858,5,0,0:0:0:0:
216,136,403942,1,0,0:0:0:0:
256,128,404025,1,0,0:0:0:0:
296,136,404108,1,0,0:0:0:0:
328,160,404192,1,0,0:0:0:0:
120,296,404525,1,0,0:0:0:0:
224,296,404692,1,0,0:0:0:0:
224,192,404858,5,0,0:0:0:0:
232,168,404942,1,0,0:0:0:0:
256,160,405025,1,0,0:0:0:0:
280,160,405108,1,0,0:0:0:0:
296,176,405192,1,0,0:0:0:0:
304,200,405275,1,0,0:0:0:0:
296,224,405358,1,0,0:0:0:0:
280,240,405442,1,0,0:0:0:0:
256,240,405525,1,0,0:0:0:0:
232,224,405608,1,0,0:0:0:0:
232,200,405692,1,0,0:0:0:0:
248,184,405775,1,0,0:0:0:0:
264,168,405858,2,0,P|287:132|280:184,1,140
144,184,406525,5,0,0:0:0:0:
256,184,406692,1,0,0:0:0:0:
368,184,406858,2,0,L|440:184,2,70
184,248,407525,5,0,0:0:0:0:
80,152,407692,1,0,0:0:0:0:
176,64,407858,1,0,0:0:0:0:
312,64,408025,1,0,0:0:0:0:
408,152,408192,1,0,0:0:0:0:
320,248,408358,1,0,0:0:0:0:
184,248,408525,1,0,0:0:0:0:
256,136,408692,1,0,0:0:0:0:
320,248,408858,5,0,0:0:0:0:
136,64,409192,1,0,0:0:0:0:
400,64,409525,1,0,0:0:0:0:
256,288,409858,1,0,0:0:0:0:
64,64,410192,5,0,0:0:0:0:
152,64,410358,1,0,0:0:0:0:
152,152,410525,1,0,0:0:0:0:
240,152,410692,1,0,0:0:0:0:
240,240,410858,1,0,0:0:0:0:
328,240,411025,1,0,0:0:0:0:
328,216,411108,1,0,0:0:0:0:
328,192,411192,1,0,0:0:0:0:
328,104,411358,1,0,0:0:0:0:
240,104,411525,5,0,0:0:0:0:
240,272,411692,1,0,0:0:0:0:
160,96,411858,1,0,0:0:0:0:
160,272,412025,1,0,0:0:0:0:
240,280,412192,2,0,B|248:264|248:264|256:280|256:280|264:264|264:264|272:280|272:280|280:264|280:264|288:280|288:280|296:264|296:264|304:280|304:280,1,140
328,272,412608,1,0,0:0:0:0:
352,272,412692,1,0,0:0:0:0:
376,272,412775,1,0,0:0:0:0:
400,272,412858,1,0,0:0:0:0:
256,48,413025,5,0,0:0:0:0:
200,96,413192,2,0,L|136:176,1,70
256,48,413525,1,0,0:0:0:0:
312,96,413692,2,0,L|368:176,1,70
256,48,414025,1,0,0:0:0:0:
256,48,414192,2,0,L|256:136,1,70
200,184,414525,1,0,0:0:0:0:
280,184,414692,1,0,0:0:0:0:
280,264,414858,2,0,B|304:256|328:232|344:216|360:184|360:144,1,140
128,48,415525,6,0,L|48:48,1,70
384,56,415858,2,0,L|456:56,1,70
56,176,416192,2,0,L|144:176,1,70
456,184,416525,2,0,L|384:184,1,70
224,256,416858,2,0,L|304:256,4,70
440,56,417858,2,0,L|441:136,1,70
80,144,418192,5,0,0:0:0:0:
152,48,418358,1,0,0:0:0:0:
416,144,418525,1,0,0:0:0:0:
344,48,418691,1,0,0:0:0:0:
176,160,418858,1,0,0:0:0:0:
256,160,419025,1,0,0:0:0:0:
280,160,419108,1,0,0:0:0:0:
304,160,419192,1,0,0:0:0:0:
408,168,419358,1,0,0:0:0:0:
256,32,419525,5,0,0:0:0:0:
96,168,419858,1,0,0:0:0:0:
256,312,420192,1,0,0:0:0:0:
408,168,420525,1,0,0:0:0:0:
88,72,420858,5,0,0:0:0:0:
88,152,421025,1,0,0:0:0:0:
168,152,421192,1,0,0:0:0:0:
168,72,421358,1,0,0:0:0:0:
248,72,421525,1,0,0:0:0:0:
248,152,421692,1,0,0:0:0:0:
272,152,421775,1,0,0:0:0:0:
296,152,421858,1,0,0:0:0:0:
376,152,422025,1,0,0:0:0:0:
304,120,422192,5,0,0:0:0:0:
224,200,422358,1,0,0:0:0:0:
360,64,422525,1,0,0:0:0:0:
160,264,422692,1,0,0:0:0:0:
376,328,422858,1,0,0:0:0:0:
376,232,423025,2,0,L|376:160,1,70
376,144,423275,1,0,0:0:0:0:
344,144,423358,1,0,0:0:0:0:
312,144,423442,1,0,0:0:0:0:
312,184,423525,1,0,0:0:0:0:
208,160,423692,5,0,0:0:0:0:
128,160,423858,2,0,P|56:160|8:120,1,105.000004005432
296,160,424192,1,0,0:0:0:0:
376,160,424358,2,0,P|448:160|496:120,1,105.000004005432
256,192,424692,1,0,0:0:0:0:
256,120,424858,2,0,P|239:49|267:-5,1,105.000004005432
256,192,425192,1,0,0:0:0:0:
256,264,425358,2,0,P|239:334|267:389,1,105.000004005432
424,288,425858,1,0,0:0:0:0:
256,112,426192,5,2,0:0:0:0:
360,112,426358,2,0,P|408:104|464:32,1,140,0|2,0:0|0:0,0:0:0:0:
256,200,426692,1,0,0:0:0:0:
152,200,426858,2,0,P|104:192|56:120,1,140,2|0,0:0|0:0,0:0:0:0:
360,200,427192,2,0,P|410:190|464:120,1,140,2|0,0:0|0:0,0:0:0:0:
256,160,427525,2,0,P|226:121|248:32,1,140,2|0,0:0|0:0,0:0:0:0:
264,232,427858,2,0,P|293:270|264:360,1,140,2|0,0:0|0:0,0:0:0:0:
384,328,428192,2,10,B|392:320|392:320|384:312|384:312|392:304|392:304|384:296|384:296|392:288|392:288|384:280|384:280|392:272|392:272|384:264|384:264|392:256|392:256|384:248|384:248|392:240|392:240|384:232|384:232|392:224|392:224|384:216|384:216|392:208|392:208|384:200|384:200|384:96,1,280
88,72,428858,5,0,0:0:0:0:
168,72,429025,1,0,0:0:0:0:
168,152,429192,1,0,0:0:0:0:
248,152,429358,1,0,0:0:0:0:
248,232,429525,1,0,0:0:0:0:
176,232,429692,1,0,0:0:0:0:
176,232,429775,1,0,0:0:0:0:
176,232,429858,1,0,0:0:0:0:
176,312,430025,1,0,0:0:0:0:
248,232,430192,2,0,B|288:192|328:168|368:152|432:136,1,210.000008010865
248,232,430858,2,0,B|208:192|168:168|128:152|64:136,1,210.000008010865
264,48,431525,5,0,0:0:0:0:
312,120,431692,1,0,0:0:0:0:
216,120,431858,1,0,0:0:0:0:
160,200,432025,1,0,0:0:0:0:
256,200,432192,1,0,0:0:0:0:
352,200,432358,1,0,0:0:0:0:
352,224,432442,1,0,0:0:0:0:
352,248,432525,1,0,0:0:0:0:
256,248,432692,1,0,0:0:0:0:
88,64,432858,5,0,0:0:0:0:
88,64,432942,1,0,0:0:0:0:
88,64,433025,1,0,0:0:0:0:
392,152,433192,1,0,0:0:0:0:
392,152,433275,1,0,0:0:0:0:
392,152,433358,1,0,0:0:0:0:
96,288,433525,1,0,0:0:0:0:
96,288,433608,1,0,0:0:0:0:
96,288,433692,1,0,0:0:0:0:
248,232,433858,5,0,0:0:0:0:
248,208,433942,1,0,0:0:0:0:
248,184,434025,1,0,0:0:0:0:
248,160,434108,1,0,0:0:0:0:
248,136,434192,1,0,0:0:0:0:
248,56,434358,5,0,0:0:0:0:
248,56,434525,2,0,P|168:80|128:136,1,105.000004005432
248,120,434858,1,0,0:0:0:0:
248,120,435025,2,0,P|328:144|368:200,1,105.000004005432
248,192,435358,1,0,0:0:0:0:
248,192,435525,2,0,P|168:216|128:272,1,105.000004005432
248,264,435858,1,0,0:0:0:0:
248,264,436025,2,0,P|328:288|368:344,1,105.000004005432
344,56,436525,1,0,0:0:0:0:
256,192,436858,5,0,0:0:0:0:
192,192,437025,1,0,0:0:0:0:
320,192,437192,1,0,0:0:0:0:
128,192,437358,1,0,0:0:0:0:
384,192,437525,1,0,0:0:0:0:
256,192,437692,5,0,0:0:0:0:
256,128,437858,1,0,0:0:0:0:
256,264,438025,1,0,0:0:0:0:
256,64,438192,1,0,0:0:0:0:
256,336,438358,1,0,0:0:0:0:
104,72,438525,1,0,0:0:0:0:
432,72,438692,1,0,0:0:0:0:
256,192,438858,2,0,L|336:192,2,52.5000020027161
192,192,439192,2,0,L|120:192,2,52.5000020027161
160,48,439525,5,0,0:0:0:0:
240,48,439692,1,0,0:0:0:0:
240,128,439858,1,0,0:0:0:0:
320,128,440025,1,0,0:0:0:0:
320,208,440192,1,0,0:0:0:0:
240,208,440358,1,0,0:0:0:0:
200,208,440442,1,0,0:0:0:0:
160,208,440525,1,0,0:0:0:0:
160,128,440692,1,0,0:0:0:0:
200,128,440775,1,0,0:0:0:0:
240,128,440858,1,0,0:0:0:0:
72,192,441192,5,0,0:0:0:0:
256,312,441525,1,0,0:0:0:0:
432,192,441858,1,0,0:0:0:0:
80,320,442192,5,0,0:0:0:0:
160,320,442358,1,0,0:0:0:0:
160,240,442525,1,0,0:0:0:0:
80,240,442692,1,0,0:0:0:0:
80,160,442858,1,0,0:0:0:0:
160,160,443025,1,0,0:0:0:0:
160,160,443108,1,0,0:0:0:0:
160,160,443192,1,0,0:0:0:0:
160,80,443358,1,0,0:0:0:0:
432,64,443525,5,0,0:0:0:0:
432,64,443608,1,0,0:0:0:0:
432,64,443692,1,0,0:0:0:0:
64,192,443858,1,0,0:0:0:0:
64,192,443942,1,0,0:0:0:0:
64,192,444025,1,0,0:0:0:0:
432,296,444192,1,0,0:0:0:0:
432,296,444275,1,0,0:0:0:0:
432,296,444358,1,0,0:0:0:0:
376,64,444525,5,0,0:0:0:0:
376,80,444608,1,0,0:0:0:0:
376,96,444692,1,0,0:0:0:0:
376,112,444775,1,0,0:0:0:0:
376,128,444858,2,0,L|376:336,1,181.999991668702
120,128,445525,2,0,L|120:312,1,181.999991668702
192,312,446192,6,0,L|384:312,1,181.999991668702
376,184,446692,1,0,0:0:0:0:
376,56,446858,2,0,L|176:56,1,181.999991668702
176,312,447525,5,0,0:0:0:0:
256,64,447692,1,0,0:0:0:0:
336,312,447858,1,0,0:0:0:0:
136,160,448025,1,0,0:0:0:0:
376,160,448192,1,0,0:0:0:0:
136,160,448358,1,0,0:0:0:0:
336,312,448525,1,0,0:0:0:0:
256,64,448692,1,0,0:0:0:0:
176,312,448858,6,0,L|232:312,2,45.4999979171754
256,184,449192,2,0,L|312:184,2,45.4999979171754
424,104,449525,1,0,0:0:0:0:
424,136,449608,1,0,0:0:0:0:
424,168,449692,1,0,0:0:0:0:
416,200,449775,1,0,0:0:0:0:
400,232,449858,1,0,0:0:0:0:
376,256,449942,1,0,0:0:0:0:
344,272,450025,1,0,0:0:0:0:
312,288,450108,1,0,0:0:0:0:
280,304,450192,1,0,0:0:0:0:
256,72,455525,5,0,0:0:0:0:
288,72,455608,1,0,0:0:0:0:
320,72,455692,1,0,0:0:0:0:
384,72,455858,2,0,L|432:72,2,35
256,144,456192,1,0,0:0:0:0:
288,144,456275,1,0,0:0:0:0:
320,144,456358,1,0,0:0:0:0:
384,144,456525,2,0,L|432:144,2,35
256,216,456858,5,0,0:0:0:0:
288,216,456942,1,0,0:0:0:0:
320,216,457025,1,0,0:0:0:0:
384,216,457192,2,0,L|432:216,2,35
256,288,457525,1,0,0:0:0:0:
288,288,457608,1,0,0:0:0:0:
320,288,457692,1,0,0:0:0:0:
384,288,457858,2,0,L|432:288,2,35
256,320,458192,5,0,0:0:0:0:
256,288,458275,1,0,0:0:0:0:
256,256,458358,1,0,0:0:0:0:
256,192,458525,2,0,L|256:144,2,35
256,32,458858,1,0,0:0:0:0:
256,64,458942,1,0,0:0:0:0:
256,96,459025,1,0,0:0:0:0:
256,157,459192,2,0,L|256:197,2,35
256,192,459525,12,0,460692,0:0:0:0:
128,88,460858,5,0,0:0:0:0:
256,192,461025,1,0,0:0:0:0:
384,96,461192,2,0,P|424:96|424:136,1,70
416,304,461525,1,0,0:0:0:0:
256,312,461692,1,0,0:0:0:0:
256,56,461858,5,0,0:0:0:0:
256,312,462025,1,0,0:0:0:0:
256,56,462192,1,0,0:0:0:0:
256,312,462358,1,0,0:0:0:0:
256,56,462525,1,0,0:0:0:0:
88,192,462692,1,0,0:0:0:0:
416,192,462858,1,0,0:0:0:0:
136,56,463192,5,0,0:0:0:0:
72,160,463358,1,0,0:0:0:0:
128,272,463525,2,0,L|280:272,1,140
320,160,464025,1,0,0:0:0:0:
256,56,464192,1,0,0:0:0:0:
192,160,464358,1,0,0:0:0:0:
192,280,464525,2,0,P|200:304|248:304,1,70
384,80,464858,5,0,0:0:0:0:
416,64,464942,1,0,0:0:0:0:
448,48,465025,1,0,0:0:0:0:
392,160,465192,2,0,L|432:160,2,35
128,80,465525,1,0,0:0:0:0:
96,64,465609,1,0,0:0:0:0:
64,48,465692,1,0,0:0:0:0:
120,160,465858,2,0,L|80:160,2,35
256,144,466192,5,0,0:0:0:0:
416,64,466358,1,0,0:0:0:0:
416,208,466525,2,0,L|416:288,1,70
256,144,466858,1,0,0:0:0:0:
96,64,467025,1,0,0:0:0:0:
96,208,467192,2,0,L|96:288,1,70
304,224,467525,5,0,0:0:0:0:
208,120,467692,1,0,0:0:0:0:
384,296,467858,1,0,0:0:0:0:
136,48,468025,1,0,0:0:0:0:
72,304,468192,1,0,0:0:0:0:
256,56,468525,5,0,0:0:0:0:
176,152,468692,1,0,0:0:0:0:
88,240,468858,2,0,P|120:320|184:328,1,140
280,328,469358,1,0,0:0:0:0:
408,328,469525,1,0,0:0:0:0:
408,184,469692,2,0,L|408:88,1,70
256,48,470192,5,0,0:0:0:0:
104,320,470525,1,0,0:0:0:0:
400,320,470858,1,0,0:0:0:0:
224,128,471192,2,0,L|320:128,1,70
456,144,471525,5,0,0:0:0:0:
336,264,471692,1,0,0:0:0:0:
184,264,471858,2,0,L|112:264,1,70
112,88,472192,1,0,0:0:0:0:
288,88,472358,1,0,0:0:0:0:
208,288,472525,5,0,0:0:0:0:
352,192,472692,1,0,0:0:0:0:
120,192,472858,1,0,0:0:0:0:
336,296,473025,1,0,0:0:0:0:
168,128,473192,1,0,0:0:0:0:
336,80,473358,1,0,0:0:0:0:
280,272,473525,1,0,0:0:0:0:
232,32,473692,1,0,0:0:0:0:
176,240,473858,1,0,0:0:0:0:
360,168,474025,1,0,0:0:0:0:
368,280,474192,6,0,P|318:334|248:336,1,140
128,336,474692,1,0,0:0:0:0:
128,176,474858,1,0,0:0:0:0:
288,176,475025,1,0,0:0:0:0:
288,336,475192,1,0,0:0:0:0:
408,232,475358,1,0,0:0:0:0:
416,104,475525,6,0,P|416:56|384:104,1,140
248,192,476025,1,0,0:0:0:0:
112,280,476192,2,0,P|112:328|144:280,1,140
232,160,476692,1,0,0:0:0:0:
232,64,476858,1,0,0:0:0:0:
328,64,477025,2,0,L|408:64,1,70
400,160,477358,1,0,0:0:0:0:
304,160,477525,2,0,L|232:160,1,70
256,296,477858,5,0,0:0:0:0:
328,96,478025,1,0,0:0:0:0:
256,296,478192,1,0,0:0:0:0:
248,88,478358,1,0,0:0:0:0:
256,296,478525,1,0,0:0:0:0:
168,104,478692,1,0,0:0:0:0:
256,296,478858,2,0,P|160:296|128:264,1,140
128,120,479358,1,0,0:0:0:0:
256,40,479525,6,0,P|344:56|384:112,1,140
376,208,480025,1,0,0:0:0:0:
256,288,480192,1,0,0:0:0:0:
144,208,480358,1,0,0:0:0:0:
136,56,480525,2,0,L|232:56,1,70
352,56,480858,1,0,0:0:0:0:
256,288,481192,1,0,0:0:0:0:
136,56,481525,1,0,0:0:0:0:
192,272,481858,5,0,0:0:0:0:
320,272,482025,1,0,0:0:0:0:
408,216,482192,2,0,P|432:184|392:96,1,140
312,56,482692,1,0,0:0:0:0:
184,56,482858,1,0,0:0:0:0:
96,112,483025,2,0,P|72:144|112:232,1,140
256,296,483525,1,0,0:0:0:0:
368,72,483858,1,0,0:0:0:0:
112,72,484192,1,0,0:0:0:0:
368,320,484525,5,0,0:0:0:0:
240,320,484692,1,0,0:0:0:0:
112,320,484858,2,0,P|72:288|96:200,1,140
80,80,485358,2,0,L|152:80,2,70
256,80,485858,1,0,0:0:0:0:
424,192,486192,5,0,0:0:0:0:
256,304,486525,1,0,0:0:0:0:
96,192,486858,1,0,0:0:0:0:
256,72,487192,1,0,0:0:0:0:
256,216,487525,2,0,B|208:216|176:264|224:304|272:320|336:304|368:248|352:152|312:128|240:128|208:152|152:214,1,448
256,192,488942,12,0,490025,0:0:0:0:
80,64,490192,5,0,0:0:0:0:
96,80,490275,1,0,0:0:0:0:
112,96,490358,1,0,0:0:0:0:
128,112,490442,1,0,0:0:0:0:
144,128,490525,2,0,P|184:152|224:144,1,70
232,152,490775,1,0,0:0:0:0:
256,152,490858,1,0,0:0:0:0:
256,264,491025,2,0,L|296:264,2,35
392,264,491358,1,0,0:0:0:0:
392,96,491525,2,0,P|440:96|392:136,1,140
136,80,492192,5,0,0:0:0:0:
136,328,492358,1,0,0:0:0:0:
384,328,492525,1,0,0:0:0:0:
384,80,492692,1,0,0:0:0:0:
152,88,492858,5,0,0:0:0:0:
240,256,493025,1,0,0:0:0:0:
232,64,493192,1,0,0:0:0:0:
256,272,493358,1,0,0:0:0:0:
312,72,493525,1,0,0:0:0:0:
256,272,493692,1,0,0:0:0:0:
384,112,493858,1,0,0:0:0:0:
256,272,494025,1,0,0:0:0:0:
104,128,494192,5,0,0:0:0:0:
88,120,494275,1,0,0:0:0:0:
72,112,494358,1,0,0:0:0:0:
256,200,494525,2,0,L|192:200,2,35
408,128,494858,1,0,0:0:0:0:
424,120,494941,1,0,0:0:0:0:
440,112,495024,1,0,0:0:0:0:
256,200,495192,2,0,L|192:200,2,35
360,200,495525,5,0,0:0:0:0:
304,264,495692,1,0,0:0:0:0:
216,264,495858,1,0,0:0:0:0:
160,200,496025,1,0,0:0:0:0:
160,120,496192,2,0,P|200:80|240:80,1,70
296,80,496525,1,0,0:0:0:0:
88,304,496858,5,0,0:0:0:0:
432,304,497025,1,0,0:0:0:0:
88,304,497192,1,0,0:0:0:0:
432,304,497358,1,0,0:0:0:0:
248,184,497525,2,0,P|296:184|320:152,2,70
320,96,498025,1,0,0:0:0:0:
240,104,498192,2,0,B|192:112|192:112|176:104|176:104|160:120|160:120|144:104|144:104|120:120,1,140
56,192,498692,1,0,0:0:0:0:
432,192,498858,1,0,0:0:0:0:
152,64,499025,1,0,0:0:0:0:
256,304,499192,1,0,0:0:0:0:
360,64,499358,1,0,0:0:0:0:
112,192,499525,5,0,0:0:0:0:
256,48,499858,1,0,0:0:0:0:
416,192,500192,1,0,0:0:0:0:
256,192,500358,2,0,L|216:192,2,35
368,112,500858,6,0,B|432:112|432:112|432:192,2,140
320,168,501692,1,0,0:0:0:0:
256,208,501858,1,0,0:0:0:0:
192,168,502025,1,0,0:0:0:0:
144,112,502192,6,0,B|80:112|80:112|80:192,2,140
192,168,503025,1,0,0:0:0:0:
256,208,503191,1,0,0:0:0:0:
320,168,503358,1,0,0:0:0:0:
368,112,503525,6,0,B|432:112|432:112|432:192,2,140
304,160,504358,1,0,0:0:0:0:
256,104,504525,1,0,0:0:0:0:
208,160,504692,1,0,0:0:0:0:
152,112,504858,6,0,P|104:152|128:224,2,140
216,72,505692,1,0,0:0:0:0:
264,128,505858,1,0,0:0:0:0:
312,72,506025,1,0,0:0:0:0:
376,112,506192,6,0,P|424:152|400:224,2,140
256,288,507025,1,0,0:0:0:0:
200,232,507192,1,0,0:0:0:0:
312,232,507358,1,0,0:0:0:0:
312,152,507525,6,0,P|288:80|216:80,2,140
256,288,508358,1,0,0:0:0:0:
312,232,508525,1,0,0:0:0:0:
200,232,508692,1,0,0:0:0:0:
200,152,508858,6,0,P|224:80|296:80,2,140
256,312,509692,1,0,0:0:0:0:
136,176,509858,1,0,0:0:0:0:
384,176,510025,1,0,0:0:0:0:
256,48,510192,5,0,0:0:0:0:
88,312,510525,1,0,0:0:0:0:
416,312,510858,1,0,0:0:0:0:
48,128,516801,5,0,0:0:0:0:
128,72,516988,1,0,0:0:0:0:
224,64,517176,1,0,0:0:0:0:
320,72,517363,1,0,0:0:0:0:
400,128,517551,2,0,P|424:160|416:200,1,79.100000241394
320,208,517926,1,0,0:0:0:0:
224,208,518113,1,0,0:0:0:0:
200,112,518301,2,0,P|128:128|120:152,1,79.100000241394
88,208,518676,5,0,0:0:0:0:
136,288,518863,1,0,0:0:0:0:
232,304,519051,2,0,P|296:296|304:264,1,79.100000241394
248,208,519426,1,0,0:0:0:0:
200,128,519613,1,0,0:0:0:0:
144,208,519801,2,0,P|112:176|112:144,1,79.100000241394
152,48,520176,1,0,0:0:0:0:
200,128,520363,1,0,0:0:0:0:
256,200,520551,2,0,P|320:232|352:224,1,79.100000241394
328,136,520926,5,0,0:0:0:0:
392,64,521113,1,0,0:0:0:0:
432,152,521301,2,0,P|440:200|408:240,1,79.100000241394
344,272,521676,1,0,0:0:0:0:
248,272,521863,2,0,L|152:272,1,79.100000241394
208,184,522238,1,0,0:0:0:0:
272,112,522426,1,0,0:0:0:0:
192,56,522613,2,0,P|136:64|104:104,1,79.100000241394
96,168,522988,5,0,0:0:0:0:
96,264,523176,1,0,0:0:0:0:
168,320,523363,2,0,P|224:336|272:312,1,79.100000241394
336,304,523738,1,0,0:0:0:0:
336,208,523926,1,0,0:0:0:0:
248,176,524113,2,0,P|144:144|72:256,1,237.300000724182
168,224,524863,1,0,0:0:0:0:
376,224,525238,5,0,0:0:0:0:
224,312,525426,1,0,0:0:0:0:
72,224,525613,1,0,0:0:0:0:
72,312,525801,2,0,P|128:320|216:240,1,158.200000482788
224,80,526364,1,0,0:0:0:0:
320,80,526551,6,0,P|376:80|392:120,1,79.100000241394
328,168,526926,1,0,0:0:0:0:
256,224,527113,1,0,0:0:0:0:
200,144,527301,2,0,P|160:152|152:208,1,79.100000241394
136,280,527676,1,0,0:0:0:0:
224,304,527863,1,0,0:0:0:0:
320,288,528051,2,0,P|368:256|384:208,1,79.100000241394
376,144,528426,5,0,0:0:0:0:
296,88,528613,1,0,0:0:0:0:
248,168,528801,2,0,P|280:208|264:240,1,79.100000241394
200,296,529176,1,0,0:0:0:0:
168,208,529363,1,0,0:0:0:0:
248,160,529551,6,8,P|280:208|280:240,1,79.100000241394
80,232,529926,1,0,0:0:0:0:
376,128,530113,2,0,L|376:176,2,39.550000120697
296,72,530488,1,0,0:0:0:0:
200,80,530676,1,0,0:0:0:0:
120,128,530863,2,8,P|72:184|80:208,1,79.100000241394
248,160,531238,5,0,0:0:0:0:
176,296,531426,1,0,0:0:0:0:
280,240,531613,2,0,L|232:240,2,39.550000120697
272,336,531988,1,0,0:0:0:0:
176,296,532176,1,0,0:0:0:0:
104,216,532363,2,8,P|72:160|80:128,1,79.100000241394
200,224,532738,5,0,0:0:0:0:
240,64,532926,1,0,0:0:0:0:
392,112,533113,2,0,L|336:112,2,39.550000120697
440,280,533676,1,0,0:0:0:0:
352,320,533863,1,0,0:0:0:0:
256,320,534051,2,8,P|208:328|160:312,1,79.100000241394
88,232,534426,1,0,0:0:0:0:
216,136,534613,1,0,0:0:0:0:
96,96,534801,2,0,L|56:96,2,39.550000120697
208,80,535176,5,0,0:0:0:0:
272,168,535363,1,0,0:0:0:0:
336,240,535551,1,0,0:0:0:0:
392,168,535738,2,0,L|448:168,2,39.550000120697
336,88,536113,2,0,L|336:48,2,39.550000120697
240,88,536488,2,0,L|240:40,2,39.550000120697
144,88,536863,2,0,L|144:40,2,39.550000120697
80,160,537238,2,0,L|24:160,2,39.550000120697
152,224,537613,2,0,L|152:272,2,39.550000120697
392,248,537988,5,8,0:0:0:0:
320,40,538176,1,8,0:0:0:0:
256,248,538363,1,8,0:0:0:0:
432,112,538551,1,8,0:0:0:0:
208,112,538738,1,8,0:0:0:0:
408,208,538926,1,8,0:0:0:0:
352,288,539113,2,0,P|320:320|256:336,1,79.100000241394
72,64,539676,5,0,0:0:0:0:
72,176,539863,1,0,0:0:0:0:
72,288,540051,2,8,L|184:288,1,79.100000241394
168,176,540426,1,0,0:0:0:0:
240,96,540613,1,0,0:0:0:0:
288,72,540707,1,0,0:0:0:0:
344,88,540801,1,0,0:0:0:0:
416,168,540988,5,0,0:0:0:0:
336,248,541176,1,0,0:0:0:0:
240,168,541363,2,8,P|184:176|168:216,1,79.100000241394
40,192,541738,1,0,0:0:0:0:
280,288,541926,1,0,0:0:0:0:
360,208,542113,1,0,0:0:0:0:
392,160,542207,1,0,0:0:0:0:
392,104,542301,1,0,0:0:0:0:
280,128,542488,5,0,0:0:0:0:
192,200,542676,1,0,0:0:0:0:
88,168,542863,2,8,P|64:144|88:96,1,79.100000241394
192,256,543238,1,0,0:0:0:0:
296,96,543426,1,0,0:0:0:0:
368,176,543613,1,0,0:0:0:0:
392,224,543707,1,0,0:0:0:0:
376,280,543801,1,0,0:0:0:0:
464,216,543988,5,0,0:0:0:0:
432,112,544176,1,0,0:0:0:0:
328,72,544363,2,8,P|256:56|232:80,1,79.100000241394
120,168,544738,1,0,0:0:0:0:
288,280,544926,1,0,0:0:0:0:
192,336,545113,1,0,0:0:0:0:
136,320,545207,1,0,0:0:0:0:
88,288,545301,1,0,0:0:0:0:
48,248,545394,1,0,0:0:0:0:
40,192,545488,1,0,0:0:0:0:
184,72,545676,5,0,0:0:0:0:
320,72,545863,1,0,0:0:0:0:
184,168,546051,1,0,0:0:0:0:
320,168,546238,1,0,0:0:0:0:
184,264,546426,1,0,0:0:0:0:
320,264,546613,2,8,L|408:264,1,79.100000241394
400,88,547176,5,0,0:0:0:0:
272,216,547363,1,0,0:0:0:0:
152,80,547551,2,0,P|120:104|120:152,1,79.100000241394
64,304,547926,1,0,0:0:0:0:
232,312,548113,1,0,0:0:0:0:
232,312,548207,1,0,0:0:0:0:
232,312,548301,2,8,L|320:312,1,79.100000241394
392,248,548676,5,0,0:0:0:0:
272,88,548863,1,0,0:0:0:0:
168,120,549051,2,0,P|128:144|120:176,1,79.100000241394
152,288,549426,1,0,0:0:0:0:
288,272,549613,2,0,P|328:248|336:208,1,79.100000241394
128,64,549988,1,0,0:0:0:0:
216,320,550176,1,0,0:0:0:0:
368,192,550363,2,8,L|448:192,1,79.100000241394
192,248,550926,5,0,0:0:0:0:
136,144,551113,1,0,0:0:0:0:
48,216,551301,1,0,0:0:0:0:
96,320,551676,2,0,P|176:336|248:296,1,158.200000482788
320,248,552426,5,0,0:0:0:0:
376,144,552613,1,0,0:0:0:0:
464,216,552801,1,0,0:0:0:0:
416,320,553176,2,0,P|336:336|264:296,1,158.200000482788
96,168,553926,1,0,0:0:0:0:
168,88,554113,1,0,0:0:0:0:
248,168,554301,1,0,0:0:0:0:
448,80,554676,2,0,P|456:136|384:224,1,158.200000482788
176,216,555426,5,0,0:0:0:0:
72,168,555613,1,0,0:0:0:0:
64,280,555801,1,0,0:0:0:0:
160,328,555988,1,0,0:0:0:0:
272,336,556176,1,0,0:0:0:0:
384,328,556363,2,8,P|432:280|440:240,1,79.100000241394
424,160,556738,1,0,0:0:0:0:
328,104,556926,1,0,0:0:0:0:
216,96,557113,5,0,0:0:0:0:
168,128,557207,1,0,0:0:0:0:
152,184,557301,1,0,0:0:0:0:
160,296,557488,1,0,0:0:0:0:
272,304,557676,1,0,0:0:0:0:
384,296,557863,2,8,P|408:256|384:208,1,79.100000241394
376,72,558238,1,0,0:0:0:0:
184,216,558426,1,0,0:0:0:0:
184,104,558613,1,0,0:0:0:0:
240,88,558707,1,0,0:0:0:0:
288,112,558801,1,0,0:0:0:0:
384,160,558988,5,0,0:0:0:0:
416,264,559176,1,0,0:0:0:0:
344,344,559363,2,8,L|248:344,1,79.100000241394
208,160,559738,1,0,0:0:0:0:
72,272,559926,1,0,0:0:0:0:
64,160,560113,1,0,0:0:0:0:
80,104,560207,1,0,0:0:0:0:
128,80,560301,1,0,0:0:0:0:
176,176,560488,1,0,0:0:0:0:
288,192,560676,1,0,0:0:0:0:
384,240,560863,2,8,L|384:160,1,79.100000241394
480,224,561238,5,0,0:0:0:0:
408,304,561426,1,0,0:0:0:0:
312,248,561613,1,0,0:0:0:0:
312,248,561707,1,0,0:0:0:0:
312,248,561801,6,0,L|312:160,1,79.100000241394
424,152,562176,2,8,L|424:240,1,79.100000241394
352,312,562551,1,0,0:0:0:0:
240,320,562738,1,0,0:0:0:0:
136,280,562926,1,0,0:0:0:0:
96,176,563113,2,0,P|64:144|192:72,1,237.300000724182
264,112,563863,2,0,L|360:112,1,79.100000241394
416,192,564238,1,0,0:0:0:0:
336,272,564426,2,8,L|248:272,1,79.100000241394
176,192,564801,5,0,0:0:0:0:
88,264,564988,1,0,0:0:0:0:
176,328,565176,2,0,L|272:328,1,79.100000241394
360,320,565551,1,0,0:0:0:0:
440,248,565738,1,0,0:0:0:0:
408,136,565926,2,0,B|384:96|336:80|336:80|344:88,1,79.100000241394
280,192,566301,1,0,0:0:0:0:
136,88,566488,1,0,0:0:0:0:
160,200,566676,2,8,P|137:243|142:276,1,79.100000241394
248,272,567051,5,0,0:0:0:0:
248,160,567238,1,0,0:0:0:0:
336,88,567426,1,0,0:0:0:0:
368,128,567519,1,0,0:0:0:0:
384,184,567613,1,0,0:0:0:0:
384,296,567801,1,0,0:0:0:0:
272,304,567988,1,0,0:0:0:0:
160,304,568176,2,8,P|104:264|104:224,1,79.100000241394
72,48,568551,5,0,0:0:0:0:
208,144,568738,2,0,L|264:144,2,39.550000120697
88,272,569113,1,0,0:0:0:0:
320,256,569301,2,8,P|384:248|384:216,1,79.100000241394
376,136,569676,1,0,0:0:0:0:
280,88,569863,1,0,0:0:0:0:
128,88,570051,2,0,L|168:88,2,39.550000120697
368,80,570426,5,0,0:0:0:0:
160,184,570613,1,0,0:0:0:0:
280,232,570801,2,8,P|280:272|256:304,1,79.100000241394
368,272,571176,1,0,0:0:0:0:
408,168,571363,1,0,0:0:0:0:
352,72,571551,2,0,L|408:72,2,39.550000120697
264,224,571926,1,0,0:0:0:0:
136,120,572113,1,0,0:0:0:0:
72,208,572301,2,0,P|80:256|112:272,1,79.100000241394
192,200,572676,5,0,0:0:0:0:
288,152,572863,1,0,0:0:0:0:
400,128,573051,2,0,L|400:80,2,39.550000120697
256,192,573426,1,0,0:0:0:0:
320,320,573613,1,0,0:0:0:0:
208,320,573801,2,0,P|152:288|144:256,1,79.100000241394
56,336,574176,1,0,0:0:0:0:
56,224,574363,1,0,0:0:0:0:
168,224,574551,2,0,L|168:272,2,39.550000120697
240,136,574926,1,0,0:0:0:0:
344,96,575113,1,0,0:0:0:0:
456,88,575301,2,0,L|456:168,1,79.100000241394
400,264,575676,5,0,0:0:0:0:
288,264,575863,1,0,0:0:0:0:
168,264,576051,2,0,L|232:264,2,39.550000120697
96,184,576426,1,0,0:0:0:0:
152,88,576613,1,0,0:0:0:0:
264,88,576801,2,0,P|240:120|256:160,1,79.100000241394
152,104,577175,5,0,0:0:0:0:
400,104,577363,1,0,0:0:0:0:
152,224,577551,1,0,0:0:0:0:
408,224,577738,1,0,0:0:0:0:
280,64,577926,1,0,0:0:0:0:
240,280,578113,2,0,B|299:301|299:301|323:277|323:277|355:277|379:237|379:237,1,158.200000482788
440,64,578676,5,0,0:0:0:0:
312,72,578863,1,0,0:0:0:0:
216,152,579051,2,0,P|152:168|112:152,1,79.100000241394
64,48,579426,1,0,0:0:0:0:
168,168,579613,1,0,0:0:0:0:
88,272,579801,1,0,0:0:0:0:
136,312,579894,1,0,0:0:0:0:
200,312,579988,1,0,0:0:0:0:
168,168,580176,1,0,0:0:0:0:
352,168,580363,1,0,0:0:0:0:
256,320,580551,1,0,0:0:0:0:
96,256,580738,2,0,L|144:256,2,39.550000120697
312,288,581113,5,0,0:0:0:0:
184,280,581301,2,0,P|128:256|112:216,1,79.100000241394
80,120,581676,1,0,0:0:0:0:
192,64,581863,1,0,0:0:0:0:
320,64,582051,1,0,0:0:0:0:
368,104,582144,1,0,0:0:0:0:
392,160,582238,1,0,0:0:0:0:
264,160,582426,1,0,0:0:0:0:
128,272,582613,1,0,0:0:0:0:
264,160,582801,2,0,L|304:128,2,39.550000120697
304,280,583176,5,0,0:0:0:0:
392,192,583363,1,0,0:0:0:0:
400,64,583551,2,0,L|320:64,1,79.100000241394
192,64,583926,1,0,0:0:0:0:
120,168,584113,1,0,0:0:0:0:
80,288,584301,1,0,0:0:0:0:
128,328,584394,1,0,0:0:0:0:
192,312,584488,1,0,0:0:0:0:
320,304,584676,5,0,0:0:0:0:
176,96,584863,1,0,0:0:0:0:
96,304,585051,2,8,L|176:304,1,79.100000241394
320,216,585426,1,0,0:0:0:0:
432,56,585613,1,0,0:0:0:0:
432,168,585801,5,0,0:0:0:0:
160,224,585988,1,0,0:0:0:0:
64,64,586176,2,8,L|152:64,1,79.100000241394
296,112,586551,1,0,0:0:0:0:
448,232,586738,1,0,0:0:0:0:
408,128,586926,1,0,0:0:0:0:
192,320,587113,1,0,0:0:0:0:
288,232,587301,2,8,L|208:232,1,79.100000241394
72,152,587676,5,0,0:0:0:0:
208,72,587863,1,0,0:0:0:0:
216,232,588051,2,0,L|296:232,1,79.100000241394
440,152,588426,5,0,0:0:0:0:
304,72,588613,2,0,L|224:72,1,79.100000241394
80,128,588988,1,0,0:0:0:0:
192,296,589176,1,0,0:0:0:0:
392,304,589363,2,0,P|416:272|200:176,1,395.50000120697
128,216,590488,1,0,0:0:0:0:
240,216,590676,2,0,L|400:216,1,158.200000482788
328,304,591238,1,0,0:0:0:0:
216,304,591426,2,0,L|40:304,1,158.200000482788
56,192,591988,1,0,0:0:0:0:
168,192,592176,2,0,L|328:192,1,158.200000482788
328,80,592738,1,0,0:0:0:0:
216,80,592926,2,0,L|40:80,1,158.200000482788
48,192,593488,1,0,0:0:0:0:
160,192,593676,2,0,L|160:352,1,158.200000482788
272,336,594238,1,0,0:0:0:0:
384,320,594426,5,0,0:0:0:0:
406,287,594519,1,0,0:0:0:0:
419,250,594613,1,0,0:0:0:0:
424,211,594707,1,0,0:0:0:0:
418,172,594801,1,0,0:0:0:0:
403,135,594894,1,0,0:0:0:0:
380,103,594988,1,0,0:0:0:0:
350,78,595082,1,0,0:0:0:0:
315,60,595176,1,0,0:0:0:0:
276,52,595269,1,0,0:0:0:0:
237,54,595363,1,0,0:0:0:0:
199,65,595457,1,0,0:0:0:0:
168,80,595551,1,0,0:0:0:0:
256,192,595644,12,0,597988,0:0:0:0:
