osu file format v14

[General]
AudioFilename: audio.mp3
AudioLeadIn: 0
PreviewTime: 597616
Countdown: 0
SampleSet: Normal
StackLeniency: 0.7
Mode: 1
LetterboxInBreaks: 0
WidescreenStoryboard: 0

[Editor]
Bookmarks: 21883,42867,63850,87457,97949,108440,118932,129424,145162,153031,174014,194998,215981,236965,257949,278932,299916,320899,341878,362862,383845,404829,415321,425813,442862,463845,474337,484829,501878,512370,522862,543845,564829,585813,598927,619911,640894,661878
DistanceSpacing: 1.1
BeatDivisor: 4
GridSize: 32
TimelineZoom: 2.000002

[Metadata]
Title:International OTOMAD's 6
TitleUnicode:International OTOMAD's 6
Artist:Various Artists
ArtistUnicode:Various Artists
Creator:Midnaait
Version:Inner Oni
Source:
Tags:marathon Ogino Dance Konayuki Sky High Gourmet Race Heaven and Hell Can Sand Canyon Fight Against an Armed Boss Puyo Masked Dedede Battle Bomberman 2 Cid's Test Course Two-faced Lovers World's End Dancehall Ojamajo Carninal!! 東方Project touhou Usatei Bakemonogatari Mitsubachi Hatsune Miku no Shoushitsu Clione Marisa Stole the Precious Thing Albida Snow Goose Bad apple!! U.N. Owen was her? Ievan Polka Second Heaven Mayim Native Faith nyanyanyanyanyanyanya! Oklahoma Mixer Gozaimazu! Oyome ni Shinasai Lunatic Eyes From The New World 4th Movement McDonald's Potato Fryer Alarm Cirno's Perfect Math Class Hakata no Shio Gacha Cute Hammer Red Zone Evans Night of Nights Metalix DrunkyDarwin Rati Neavy S.Sbey camille Bedopear Tartiflette DMB MrLemecinconnu KinkyOats Guiz Marlon zaebatya qoqoa おがちょこ ふーふー 麦畑/むぎばた MatrixMarioX RazQ Tukaari lenga Shikitashi Jaiman ゐず 名残雪 geturenanoka7 Slowly Geezer Kontchalowski Nepu Pooka Shynessgirl01 Fotzu Doggeh Lennoz もっちゃん PacMan たいちゃん
BeatmapID:916603
BeatmapSetID:424276

[Difficulty]
HPDrainRate:3
CircleSize:2
OverallDifficulty:7
ApproachRate:9
SliderMultiplier:1.4
SliderTickRate:1

[Events]
//Background and Video events
0,0,"BG.jpg",0,115
Video,-40,"video.mp4"
//Break Periods
//Storyboard Layer 0 (Background)
//Storyboard Layer 1 (Fail)
//Storyboard Layer 2 (Pass)
//Storyboard Layer 3 (Foreground)
//Storyboard Sound Samples

[TimingPoints]
895,327.868852459016,4,1,0,75,1,0
14337,-100,4,1,0,80,0,0
14993,-100,4,1,0,85,0,0
16632,-100,4,1,0,90,0,0
150321,-100,4,1,0,80,0,0
150731,-100,4,1,0,70,0,0
151058,-100,4,1,0,60,0,0
151386,-100,4,1,0,50,0,0
151632,-100,4,1,0,90,0,0
258354,-105.263157894737,4,1,0,80,0,0
263517,-105.263157894737,4,1,0,75,0,0
268435,-111.111111111111,4,1,0,70,0,0
277944,-114.942528735632,4,1,0,69,0,0
278272,-117.647058823529,4,1,0,68,0,0
278599,-120.481927710843,4,1,0,67,0,0
278927,-125,4,1,0,65,0,0
294665,-121.951219512195,4,1,0,80,0,0
295976,-119.047619047619,4,1,0,80,0,0
297288,-116.279069767442,4,1,0,80,0,0
297944,-113.636363636364,4,1,0,80,0,0
298599,-111.111111111111,4,1,0,80,0,0
298927,-108.695652173913,4,1,0,80,0,0
299255,-106.382978723404,4,1,0,80,0,0
299583,-104.166666666667,4,1,0,80,0,0
299747,-103.092783505155,4,1,0,80,0,0
299829,-102.040816326531,4,1,0,85,0,0
299911,-101.010101010101,4,1,0,85,0,0
300239,-100,4,1,0,85,0,0
320894,-100,4,1,0,90,0,0
405075,-100,4,1,0,60,0,0
406386,-100,4,1,0,70,0,0
406714,-100,4,1,0,80,0,0
407042,-100,4,1,0,90,0,0
499255,-98.0392156862745,4,1,0,90,0,0
499747,-96.1538461538461,4,1,0,90,0,0
500239,-94.3396226415094,4,1,0,90,0,0
500731,-92.5925925925926,4,1,0,90,0,0
501222,-90.9090909090909,4,1,0,90,0,0
504501,-100,4,1,0,90,0,0
523517,-111.111111111111,4,1,0,90,0,0
530731,-90.9090909090908,4,1,0,100,0,0
533354,-111.111111111111,4,1,0,90,0,0
540894,-108.695652173913,4,1,0,90,0,0
540976,-106.382978723404,4,1,0,90,0,0
541058,-104.166666666667,4,1,0,90,0,0
541140,-102.040816326531,4,1,0,90,0,0
541222,-100,4,1,0,90,0,0
596386,-100,4,1,0,30,0,0
598845,-100,4,1,0,90,0,0
598927,-100,4,1,0,90,0,1
661878,-100,4,1,0,90,0,0
662206,-102.040816326531,4,1,0,90,0,0
662534,-104.166666666667,4,1,0,90,0,0
662698,-106.382978723404,4,1,0,90,0,0
663026,-108.695652173913,4,1,0,90,0,0
664419,-111.111111111111,4,1,0,90,0,0
664501,-111.111111111111,4,1,0,80,0,0
665813,-111.111111111111,4,1,0,70,0,0
667042,-111.111111111111,4,1,0,60,0,0
668435,-111.111111111111,4,1,0,50,0,0
681632,-111.111111111111,4,1,0,15,0,0

[HitObjects]
160,128,75,5,0,0:0:0:0:
160,128,239,1,0,0:0:0:0:
160,128,403,1,0,0:0:0:0:
160,128,567,1,8,0:0:0:0:
160,128,731,1,8,0:0:0:0:
160,128,895,1,8,0:0:0:0:
192,128,2534,1,0,0:0:0:0:
192,128,2698,1,0,0:0:0:0:
192,128,2862,1,8,0:0:0:0:
192,128,3026,1,8,0:0:0:0:
192,128,3190,1,0,0:0:0:0:
192,128,3354,1,8,0:0:0:0:
192,128,3517,1,0,0:0:0:0:
192,128,4009,1,0,0:0:0:0:
192,128,4173,1,0,0:0:0:0:
192,128,5813,1,0,0:0:0:0:
192,128,5976,1,0,0:0:0:0:
192,128,6140,1,8,0:0:0:0:
192,128,6960,1,0,0:0:0:0:
192,128,7124,1,8,0:0:0:0:
192,128,7288,1,8,0:0:0:0:
192,128,7452,1,8,0:0:0:0:
192,128,8108,1,8,0:0:0:0:
192,128,8763,1,0,0:0:0:0:
192,128,10567,1,0,0:0:0:0:
192,128,10731,1,0,0:0:0:0:
192,128,10894,1,0,0:0:0:0:
192,128,11058,1,8,0:0:0:0:
192,128,11222,1,8,0:0:0:0:
192,128,11386,1,8,0:0:0:0:
192,128,13026,1,0,0:0:0:0:
192,128,13190,1,0,0:0:0:0:
192,128,13354,1,8,0:0:0:0:
192,128,13517,1,8,0:0:0:0:
192,128,13681,1,0,0:0:0:0:
192,128,13845,1,8,0:0:0:0:
192,128,14009,1,0,0:0:0:0:
192,128,14501,1,0,0:0:0:0:
192,128,14665,1,0,0:0:0:0:
192,128,15321,1,8,0:0:0:0:
192,128,15485,1,0,0:0:0:0:
192,128,15567,1,8,0:0:0:0:
192,128,15649,1,0,0:0:0:0:
192,128,15731,1,0,0:0:0:0:
192,128,15813,1,8,0:0:0:0:
192,128,15894,1,8,0:0:0:0:
192,128,15976,1,0,0:0:0:0:
192,128,16140,1,0,0:0:0:0:
192,128,16304,1,8,0:0:0:0:
192,128,16468,1,8,0:0:0:0:
192,128,16632,1,4,0:0:0:0:
192,128,16960,1,8,0:0:0:0:
192,128,17124,1,0,0:0:0:0:
192,128,17179,1,0,0:0:0:0:
192,128,17233,1,0,0:0:0:0:
192,128,17288,1,0,0:0:0:0:
192,128,17452,1,0,0:0:0:0:
192,128,17616,1,8,0:0:0:0:
224,128,17780,1,8,0:0:0:0:
224,128,17944,1,12,0:0:0:0:
224,128,18108,1,8,0:0:0:0:
224,128,18435,1,8,0:0:0:0:
224,128,18490,1,8,0:0:0:0:
224,160,18545,1,8,0:0:0:0:
224,128,18681,1,8,0:0:0:0:
224,160,18763,1,0,0:0:0:0:
224,160,18927,1,8,0:0:0:0:
224,160,19255,1,4,0:0:0:0:
224,160,19583,1,12,0:0:0:0:
224,160,19911,1,4,0:0:0:0:
224,160,20239,1,12,0:0:0:0:
224,160,20403,1,12,0:0:0:0:
224,160,20567,1,4,0:0:0:0:
224,160,20813,1,12,0:0:0:0:
224,160,21058,1,4,0:0:0:0:
224,128,21304,1,4,0:0:0:0:
224,160,21550,1,12,0:0:0:0:
224,160,21878,1,4,0:0:0:0:
224,160,22206,1,8,0:0:0:0:
224,160,22534,1,0,0:0:0:0:
224,160,22698,1,0,0:0:0:0:
224,160,22862,1,0,0:0:0:0:
224,160,22944,1,8,0:0:0:0:
224,160,23026,1,0,0:0:0:0:
224,160,23354,1,0,0:0:0:0:
224,160,23517,1,8,0:0:0:0:
224,160,23681,1,8,0:0:0:0:
224,160,23763,1,8,0:0:0:0:
224,160,23845,1,0,0:0:0:0:
224,160,24009,1,0,0:0:0:0:
224,160,24173,1,8,0:0:0:0:
224,160,24337,1,8,0:0:0:0:
224,160,24501,1,0,0:0:0:0:
224,160,24829,1,8,0:0:0:0:
224,160,25157,1,8,0:0:0:0:
224,160,25485,1,8,0:0:0:0:
224,160,25649,1,8,0:0:0:0:
224,160,25813,1,0,0:0:0:0:
224,160,25976,1,0,0:0:0:0:
224,160,26058,1,0,0:0:0:0:
224,160,26140,1,8,0:0:0:0:
224,160,26304,1,0,0:0:0:0:
224,160,26468,1,8,0:0:0:0:
224,160,26796,1,0,0:0:0:0:
224,160,26960,1,8,0:0:0:0:
224,160,27124,1,0,0:0:0:0:
224,160,27452,1,8,0:0:0:0:
224,160,27780,1,8,0:0:0:0:
224,160,27944,1,0,0:0:0:0:
224,160,28108,1,8,0:0:0:0:
224,160,28435,1,8,0:0:0:0:
224,160,28599,1,8,0:0:0:0:
224,160,28763,1,0,0:0:0:0:
224,160,28927,1,0,0:0:0:0:
224,160,29091,1,8,0:0:0:0:
224,160,29255,1,0,0:0:0:0:
224,160,29337,1,0,0:0:0:0:
224,160,29419,1,8,0:0:0:0:
224,160,29583,1,8,0:0:0:0:
224,160,29747,1,0,0:0:0:0:
224,160,30075,1,8,0:0:0:0:
224,160,30239,1,0,0:0:0:0:
224,160,30403,1,8,0:0:0:0:
224,160,30731,1,8,0:0:0:0:
224,160,31058,1,0,0:0:0:0:
224,160,31222,1,8,0:0:0:0:
224,160,31386,1,0,0:0:0:0:
224,160,31714,1,0,0:0:0:0:
224,160,31878,1,0,0:0:0:0:
224,160,32042,1,8,0:0:0:0:
224,160,32206,1,8,0:0:0:0:
224,160,32370,1,4,0:0:0:0:
224,160,32698,1,8,0:0:0:0:
224,160,33026,1,0,0:0:0:0:
224,160,33190,1,0,0:0:0:0:
224,160,33354,1,0,0:0:0:0:
224,160,33435,1,8,0:0:0:0:
224,160,33517,1,0,0:0:0:0:
224,160,33845,1,0,0:0:0:0:
224,160,34009,1,8,0:0:0:0:
224,160,34173,1,8,0:0:0:0:
224,160,34255,1,8,0:0:0:0:
224,160,34337,1,0,0:0:0:0:
224,160,34501,1,0,0:0:0:0:
224,160,34665,1,8,0:0:0:0:
224,160,34829,1,8,0:0:0:0:
224,160,34993,1,0,0:0:0:0:
224,160,35321,1,8,0:0:0:0:
224,160,35649,1,8,0:0:0:0:
224,160,35976,1,8,0:0:0:0:
224,160,36140,1,8,0:0:0:0:
224,160,36304,1,0,0:0:0:0:
224,160,36468,1,0,0:0:0:0:
224,160,36550,1,0,0:0:0:0:
224,160,36632,1,8,0:0:0:0:
224,160,36796,1,0,0:0:0:0:
224,160,36960,1,8,0:0:0:0:
224,160,37288,1,0,0:0:0:0:
224,160,37452,1,8,0:0:0:0:
224,160,37616,1,4,0:0:0:0:
224,160,37780,1,0,0:0:0:0:
224,160,37862,1,0,0:0:0:0:
224,160,37944,1,8,0:0:0:0:
224,160,38108,1,8,0:0:0:0:
224,160,38272,1,0,0:0:0:0:
224,160,38435,1,0,0:0:0:0:
224,160,38599,1,8,0:0:0:0:
224,160,38927,1,4,0:0:0:0:
224,160,39091,1,8,0:0:0:0:
224,160,39173,1,8,0:0:0:0:
224,160,39255,1,0,0:0:0:0:
224,160,39419,1,0,0:0:0:0:
224,160,39583,1,8,0:0:0:0:
224,160,39747,1,0,0:0:0:0:
224,160,39911,1,8,0:0:0:0:
224,160,40075,1,8,0:0:0:0:
224,160,40239,1,4,0:0:0:0:
224,160,40567,1,8,0:0:0:0:
224,160,40894,1,4,0:0:0:0:
224,160,41222,1,8,0:0:0:0:
224,160,41550,1,4,0:0:0:0:
224,160,41878,1,4,0:0:0:0:
224,160,42206,1,4,0:0:0:0:
224,160,42534,1,12,0:0:0:0:
224,160,42862,1,4,0:0:0:0:
224,160,43026,1,8,0:0:0:0:
224,160,43108,1,8,0:0:0:0:
224,160,43190,1,0,0:0:0:0:
224,160,43354,1,0,0:0:0:0:
192,160,43435,1,0,0:0:0:0:
192,160,43517,1,8,0:0:0:0:
224,160,43681,1,0,0:0:0:0:
224,160,43763,1,8,0:0:0:0:
224,160,43845,1,8,0:0:0:0:
224,160,44009,1,8,0:0:0:0:
224,160,44173,1,0,0:0:0:0:
224,160,44337,1,0,0:0:0:0:
224,160,44419,1,0,0:0:0:0:
224,160,44501,1,8,0:0:0:0:
224,160,44665,1,8,0:0:0:0:
224,160,44747,1,8,0:0:0:0:
224,160,44829,1,0,0:0:0:0:
224,160,44993,1,8,0:0:0:0:
224,160,45157,1,0,0:0:0:0:
224,160,45321,1,8,0:0:0:0:
224,160,45403,1,8,0:0:0:0:
224,160,45485,1,8,0:0:0:0:
224,160,45649,1,8,0:0:0:0:
224,160,45731,1,8,0:0:0:0:
224,160,45813,1,0,0:0:0:0:
224,160,45976,1,0,0:0:0:0:
224,160,46058,1,0,0:0:0:0:
224,160,46140,1,8,0:0:0:0:
224,160,46304,1,0,0:0:0:0:
224,160,46386,1,8,0:0:0:0:
224,160,46468,1,0,0:0:0:0:
224,160,46714,1,8,0:0:0:0:
224,192,46796,1,8,0:0:0:0:
224,192,46960,1,0,0:0:0:0:
224,192,47042,1,0,0:0:0:0:
224,192,47124,1,8,0:0:0:0:
224,192,47206,1,8,0:0:0:0:
224,192,47288,1,0,0:0:0:0:
224,160,47370,1,8,0:0:0:0:
224,192,47452,1,0,0:0:0:0:
224,192,47616,1,8,0:0:0:0:
224,160,47780,1,0,0:0:0:0:
224,160,48108,1,12,0:0:0:0:
224,160,48354,1,8,0:0:0:0:
224,160,48435,1,8,0:0:0:0:
224,160,48599,1,8,0:0:0:0:
224,160,48681,1,8,0:0:0:0:
224,160,48763,1,0,0:0:0:0:
224,160,48927,1,8,0:0:0:0:
224,160,49091,1,0,0:0:0:0:
224,160,49419,1,0,0:0:0:0:
224,160,49583,1,0,0:0:0:0:
224,160,49665,1,0,0:0:0:0:
224,160,49747,1,8,0:0:0:0:
224,160,49911,1,8,0:0:0:0:
224,160,49993,1,8,0:0:0:0:
224,160,50075,1,0,0:0:0:0:
224,160,50157,1,8,0:0:0:0:
224,160,50239,1,0,0:0:0:0:
224,160,50321,1,0,0:0:0:0:
224,160,50403,1,8,0:0:0:0:
224,160,50731,1,8,0:0:0:0:
224,160,50894,1,0,0:0:0:0:
224,160,50976,1,0,0:0:0:0:
224,160,51058,1,8,0:0:0:0:
224,160,51222,1,8,0:0:0:0:
224,160,51304,1,8,0:0:0:0:
224,160,51386,1,0,0:0:0:0:
224,160,51468,1,0,0:0:0:0:
224,160,51550,1,8,0:0:0:0:
224,160,51632,1,0,0:0:0:0:
224,160,51714,1,8,0:0:0:0:
224,160,51878,1,0,0:0:0:0:
224,160,52042,1,8,0:0:0:0:
224,160,52206,1,8,0:0:0:0:
224,160,52288,1,8,0:0:0:0:
224,160,52370,1,0,0:0:0:0:
224,160,52534,1,8,0:0:0:0:
224,160,52698,1,0,0:0:0:0:
224,160,52862,1,12,0:0:0:0:
224,160,53026,1,4,0:0:0:0:
224,160,53354,1,0,0:0:0:0:
224,160,53517,1,8,0:0:0:0:
224,160,53599,1,8,0:0:0:0:
224,160,53681,1,0,0:0:0:0:
224,160,53845,1,0,0:0:0:0:
224,160,53927,1,0,0:0:0:0:
192,160,54009,1,8,0:0:0:0:
224,160,54173,1,0,0:0:0:0:
224,160,54255,1,8,0:0:0:0:
224,160,54337,1,8,0:0:0:0:
224,160,54501,1,8,0:0:0:0:
224,160,54665,1,0,0:0:0:0:
224,160,54829,1,8,0:0:0:0:
224,160,54993,1,0,0:0:0:0:
224,160,55157,1,8,0:0:0:0:
224,160,55239,1,8,0:0:0:0:
224,160,55321,1,0,0:0:0:0:
224,160,55485,1,8,0:0:0:0:
224,160,55649,1,8,0:0:0:0:
224,160,55813,1,8,0:0:0:0:
224,160,55976,1,0,0:0:0:0:
224,160,56140,1,8,0:0:0:0:
224,160,56222,1,8,0:0:0:0:
224,160,56304,1,0,0:0:0:0:
224,160,56468,1,8,0:0:0:0:
224,160,56550,1,0,0:0:0:0:
224,160,56632,1,8,0:0:0:0:
224,160,56796,1,0,0:0:0:0:
224,160,56878,1,8,0:0:0:0:
224,160,56960,1,0,0:0:0:0:
224,192,57288,1,0,0:0:0:0:
224,192,57452,1,0,0:0:0:0:
224,192,57534,1,0,0:0:0:0:
224,192,57616,1,8,0:0:0:0:
224,192,57698,1,8,0:0:0:0:
224,192,57780,1,0,0:0:0:0:
224,160,57862,1,8,0:0:0:0:
224,192,57944,1,0,0:0:0:0:
224,192,58108,1,8,0:0:0:0:
224,160,58272,1,0,0:0:0:0:
224,160,58599,1,12,0:0:0:0:
224,160,58845,1,8,0:0:0:0:
224,160,58927,1,8,0:0:0:0:
224,160,59091,1,8,0:0:0:0:
224,160,59173,1,8,0:0:0:0:
224,160,59255,1,0,0:0:0:0:
224,160,59419,1,8,0:0:0:0:
224,160,59583,1,0,0:0:0:0:
224,160,59911,1,0,0:0:0:0:
224,160,60075,1,0,0:0:0:0:
224,160,60157,1,0,0:0:0:0:
224,160,60239,1,8,0:0:0:0:
224,160,60403,1,8,0:0:0:0:
224,160,60485,1,8,0:0:0:0:
224,160,60567,1,0,0:0:0:0:
224,160,60649,1,8,0:0:0:0:
224,160,60731,1,0,0:0:0:0:
224,160,60813,1,0,0:0:0:0:
224,160,60894,1,8,0:0:0:0:
224,160,61222,1,8,0:0:0:0:
224,160,61386,1,0,0:0:0:0:
224,160,61468,1,0,0:0:0:0:
224,160,61550,1,8,0:0:0:0:
224,160,61714,1,8,0:0:0:0:
224,160,61796,1,8,0:0:0:0:
224,160,61878,1,0,0:0:0:0:
224,160,61960,1,0,0:0:0:0:
224,160,62042,1,8,0:0:0:0:
224,160,62124,1,0,0:0:0:0:
224,160,62206,1,8,0:0:0:0:
224,160,62370,1,0,0:0:0:0:
224,160,62534,1,8,0:0:0:0:
224,160,62698,1,8,0:0:0:0:
224,160,62780,1,8,0:0:0:0:
224,160,62862,1,0,0:0:0:0:
224,160,63026,1,8,0:0:0:0:
224,160,63190,1,0,0:0:0:0:
224,160,63681,1,8,0:0:0:0:
224,160,63763,1,8,0:0:0:0:
224,160,63845,1,0,0:0:0:0:
224,160,64009,1,0,0:0:0:0:
224,160,64091,1,0,0:0:0:0:
224,160,64173,1,8,0:0:0:0:
224,160,64337,1,0,0:0:0:0:
224,160,64501,1,8,0:0:0:0:
224,160,64665,1,8,0:0:0:0:
224,160,64829,1,0,0:0:0:0:
224,160,64993,1,8,0:0:0:0:
224,160,65157,1,0,0:0:0:0:
224,160,65321,1,0,0:0:0:0:
224,160,65403,1,0,0:0:0:0:
224,160,65485,1,0,0:0:0:0:
224,160,65649,1,8,0:0:0:0:
224,160,65813,1,0,0:0:0:0:
224,160,66140,1,8,0:0:0:0:
224,160,66304,1,8,0:0:0:0:
224,160,66386,1,8,0:0:0:0:
224,160,66468,1,0,0:0:0:0:
224,160,66632,1,0,0:0:0:0:
224,160,66714,1,0,0:0:0:0:
224,160,66796,1,8,0:0:0:0:
224,160,66960,1,0,0:0:0:0:
224,160,67124,1,8,0:0:0:0:
224,160,67288,1,8,0:0:0:0:
224,160,67452,1,0,0:0:0:0:
224,160,67616,1,8,0:0:0:0:
224,160,67780,1,0,0:0:0:0:
224,160,67944,1,0,0:0:0:0:
224,160,68026,1,0,0:0:0:0:
224,160,68108,1,0,0:0:0:0:
224,160,68272,1,0,0:0:0:0:
224,160,68435,1,8,0:0:0:0:
224,160,68763,1,8,0:0:0:0:
224,160,68845,1,0,0:0:0:0:
224,160,68927,1,8,0:0:0:0:
224,160,69009,1,8,0:0:0:0:
224,160,69091,1,0,0:0:0:0:
224,160,69255,1,0,0:0:0:0:
224,160,69337,1,0,0:0:0:0:
224,160,69419,1,8,0:0:0:0:
224,160,69583,1,0,0:0:0:0:
224,160,69747,1,8,0:0:0:0:
224,160,69911,1,8,0:0:0:0:
224,160,69993,1,8,0:0:0:0:
224,160,70075,1,8,0:0:0:0:
224,160,70239,1,8,0:0:0:0:
224,160,70403,1,0,0:0:0:0:
224,160,70567,1,0,0:0:0:0:
224,160,70649,1,0,0:0:0:0:
224,160,70731,1,8,0:0:0:0:
224,160,70894,1,0,0:0:0:0:
224,160,71058,1,8,0:0:0:0:
224,160,71386,1,0,0:0:0:0:
224,160,71714,1,8,0:0:0:0:
224,160,71878,1,8,0:0:0:0:
224,160,71960,1,8,0:0:0:0:
224,160,72042,1,8,0:0:0:0:
224,160,72206,1,0,0:0:0:0:
224,160,72370,1,8,0:0:0:0:
224,160,72534,1,8,0:0:0:0:
224,160,72698,1,8,0:0:0:0:
224,160,72862,1,0,0:0:0:0:
224,160,73026,1,8,0:0:0:0:
224,160,73190,1,8,0:0:0:0:
224,160,73272,1,8,0:0:0:0:
224,160,73354,1,8,0:0:0:0:
224,160,73517,1,0,0:0:0:0:
224,160,73681,1,8,0:0:0:0:
224,160,74009,1,0,0:0:0:0:
224,160,74173,1,8,0:0:0:0:
224,160,74255,1,8,0:0:0:0:
224,160,74337,1,0,0:0:0:0:
224,160,74501,1,0,0:0:0:0:
224,160,74583,1,0,0:0:0:0:
224,160,74665,1,8,0:0:0:0:
224,160,74829,1,0,0:0:0:0:
224,160,74993,1,8,0:0:0:0:
224,160,75157,1,8,0:0:0:0:
224,160,75321,1,0,0:0:0:0:
224,160,75485,1,8,0:0:0:0:
224,160,75649,1,0,0:0:0:0:
224,160,75813,1,0,0:0:0:0:
224,160,75894,1,8,0:0:0:0:
224,160,75976,1,0,0:0:0:0:
224,160,76140,1,8,0:0:0:0:
224,160,76304,1,0,0:0:0:0:
224,160,76632,1,8,0:0:0:0:
224,160,76796,1,8,0:0:0:0:
224,160,76878,1,8,0:0:0:0:
224,160,76960,1,0,0:0:0:0:
224,160,77124,1,0,0:0:0:0:
224,160,77206,1,0,0:0:0:0:
224,160,77288,1,8,0:0:0:0:
224,160,77452,1,0,0:0:0:0:
224,160,77616,1,8,0:0:0:0:
224,160,77780,1,8,0:0:0:0:
224,160,77944,1,0,0:0:0:0:
224,160,78108,1,8,0:0:0:0:
224,160,78272,1,0,0:0:0:0:
224,160,78435,1,0,0:0:0:0:
224,160,78517,1,0,0:0:0:0:
224,160,78599,1,0,0:0:0:0:
224,160,78763,1,0,0:0:0:0:
224,160,78927,1,8,0:0:0:0:
224,160,79255,1,8,0:0:0:0:
224,160,79337,1,0,0:0:0:0:
224,160,79419,1,8,0:0:0:0:
224,160,79501,1,8,0:0:0:0:
224,160,79583,1,0,0:0:0:0:
224,160,79747,1,0,0:0:0:0:
224,160,79829,1,0,0:0:0:0:
224,160,79911,1,8,0:0:0:0:
224,160,80075,1,0,0:0:0:0:
224,160,80239,1,8,0:0:0:0:
224,160,80403,1,0,0:0:0:0:
224,160,80485,1,0,0:0:0:0:
224,160,80567,1,8,0:0:0:0:
224,160,80731,1,8,0:0:0:0:
224,160,80894,1,0,0:0:0:0:
224,160,81058,1,8,0:0:0:0:
224,160,81140,1,8,0:0:0:0:
224,160,81222,1,8,0:0:0:0:
224,160,81386,1,0,0:0:0:0:
224,160,81550,1,8,0:0:0:0:
224,160,81714,1,8,0:0:0:0:
224,160,81878,1,0,0:0:0:0:
224,160,82042,1,8,0:0:0:0:
224,160,82206,1,4,0:0:0:0:
224,160,82370,1,8,0:0:0:0:
224,160,82534,1,8,0:0:0:0:
224,160,82698,1,4,0:0:0:0:
224,160,82862,1,8,0:0:0:0:
224,160,83026,1,8,0:0:0:0:
224,160,83190,1,4,0:0:0:0:
224,160,83354,1,8,0:0:0:0:
224,160,83517,1,0,0:0:0:0:
224,160,83681,1,0,0:0:0:0:
224,160,83845,1,12,0:0:0:0:
224,160,84009,1,0,0:0:0:0:
224,160,84173,1,12,0:0:0:0:
224,160,84501,1,0,0:0:0:0:
224,160,84583,1,0,0:0:0:0:
224,160,84665,1,0,0:0:0:0:
224,160,84747,1,0,0:0:0:0:
224,160,84829,1,8,0:0:0:0:
224,160,85157,1,8,0:0:0:0:
224,160,85321,1,8,0:0:0:0:
224,160,85485,1,8,0:0:0:0:
224,160,85649,1,8,0:0:0:0:
224,160,85813,1,0,0:0:0:0:
224,160,86140,1,0,0:0:0:0:
224,160,86304,1,8,0:0:0:0:
224,160,86468,1,8,0:0:0:0:
224,160,86632,1,8,0:0:0:0:
224,160,86796,1,0,0:0:0:0:
224,160,87124,1,12,0:0:0:0:
224,160,87452,1,4,0:0:0:0:
224,160,87616,1,0,0:0:0:0:
224,160,87780,1,8,0:0:0:0:
224,160,87944,1,0,0:0:0:0:
224,160,88108,1,8,0:0:0:0:
224,160,88272,1,8,0:0:0:0:
224,160,88435,1,0,0:0:0:0:
224,160,88599,1,0,0:0:0:0:
224,160,88763,1,8,0:0:0:0:
224,160,88927,1,0,0:0:0:0:
224,160,89091,1,8,0:0:0:0:
224,160,89255,1,8,0:0:0:0:
224,160,89419,1,8,0:0:0:0:
224,160,89583,1,0,0:0:0:0:
224,160,89747,1,8,0:0:0:0:
224,160,90075,1,8,0:0:0:0:
224,160,90239,1,8,0:0:0:0:
224,160,90403,1,0,0:0:0:0:
224,160,90567,1,8,0:0:0:0:
224,160,90731,1,8,0:0:0:0:
224,160,90894,1,8,0:0:0:0:
224,160,91058,1,0,0:0:0:0:
224,160,91222,1,8,0:0:0:0:
224,160,91386,1,8,0:0:0:0:
224,160,91468,1,8,0:0:0:0:
224,160,91550,1,0,0:0:0:0:
224,160,91632,1,0,0:0:0:0:
224,160,91714,1,8,0:0:0:0:
224,160,91796,1,8,0:0:0:0:
224,160,91878,1,0,0:0:0:0:
224,160,91960,1,0,0:0:0:0:
224,160,92042,1,8,0:0:0:0:
224,160,92124,1,8,0:0:0:0:
224,160,92206,1,0,0:0:0:0:
224,160,92288,1,0,0:0:0:0:
224,160,92370,1,8,0:0:0:0:
224,160,92452,1,8,0:0:0:0:
224,160,92534,1,0,0:0:0:0:
224,160,92616,1,8,0:0:0:0:
224,160,92698,1,0,0:0:0:0:
224,160,92862,1,0,0:0:0:0:
224,160,93026,1,8,0:0:0:0:
224,160,93190,1,0,0:0:0:0:
224,160,93354,1,8,0:0:0:0:
224,160,93517,1,8,0:0:0:0:
224,160,93681,1,0,0:0:0:0:
224,160,93845,1,8,0:0:0:0:
224,160,94009,1,0,0:0:0:0:
224,160,94173,1,8,0:0:0:0:
224,160,94337,1,8,0:0:0:0:
224,160,94501,1,0,0:0:0:0:
224,160,94665,1,8,0:0:0:0:
224,160,94829,1,0,0:0:0:0:
224,160,94993,1,0,0:0:0:0:
224,160,95321,1,8,0:0:0:0:
224,160,95485,1,8,0:0:0:0:
224,160,95649,1,0,0:0:0:0:
224,160,95813,1,8,0:0:0:0:
224,160,95976,1,0,0:0:0:0:
224,160,96140,1,8,0:0:0:0:
224,160,96304,1,0,0:0:0:0:
224,160,96468,1,8,0:0:0:0:
224,160,96632,1,8,0:0:0:0:
224,160,96714,1,8,0:0:0:0:
224,160,96796,1,0,0:0:0:0:
224,160,96878,1,0,0:0:0:0:
224,160,96960,1,8,0:0:0:0:
224,160,97042,1,8,0:0:0:0:
224,160,97124,1,0,0:0:0:0:
224,160,97206,1,0,0:0:0:0:
224,160,97288,1,8,0:0:0:0:
224,160,97452,1,8,0:1:0:0:
224,160,97616,1,0,0:0:0:0:
224,160,97698,1,0,0:0:0:0:
224,160,97780,1,8,0:0:0:0:
224,160,97862,1,8,0:0:0:0:
224,160,97944,1,8,0:0:0:0:
224,160,98108,1,8,0:0:0:0:
224,160,98190,1,8,0:0:0:0:
224,160,98272,1,0,0:0:0:0:
224,160,98435,1,0,0:0:0:0:
224,160,98599,1,8,0:0:0:0:
224,160,98763,1,8,0:0:0:0:
224,160,98927,1,0,0:0:0:0:
224,160,99091,1,8,0:0:0:0:
224,160,99255,1,0,0:0:0:0:
224,160,99501,1,8,0:0:0:0:
224,160,99583,1,8,0:0:0:0:
224,160,99747,1,0,0:0:0:0:
224,160,99911,1,8,0:0:0:0:
224,160,100239,1,0,0:0:0:0:
224,160,100403,1,8,0:0:0:0:
224,160,100567,1,0,0:0:0:0:
224,160,100731,1,0,0:0:0:0:
224,160,100894,1,8,0:0:0:0:
224,160,101058,1,8,0:0:0:0:
224,160,101222,1,8,0:0:0:0:
224,160,101386,1,8,0:0:0:0:
224,160,101550,1,0,0:0:0:0:
224,160,101714,1,8,0:0:0:0:
224,160,101878,1,0,0:0:0:0:
224,160,102124,1,8,0:0:0:0:
224,160,102206,1,8,0:0:0:0:
224,160,102370,1,0,0:0:0:0:
224,160,102534,1,8,0:0:0:0:
224,160,102862,1,0,0:0:0:0:
224,160,103026,1,8,0:0:0:0:
224,160,103190,1,8,0:0:0:0:
224,160,103435,1,8,0:0:0:0:
224,160,103517,1,8,0:0:0:0:
224,160,103681,1,0,0:0:0:0:
224,160,103845,1,8,0:0:0:0:
224,160,104009,1,0,0:0:0:0:
224,160,104173,1,0,0:0:0:0:
224,160,104337,1,8,0:0:0:0:
224,160,104501,1,8,0:0:0:0:
224,160,104583,1,8,0:0:0:0:
224,160,104747,1,8,0:0:0:0:
224,160,104829,1,0,0:0:0:0:
224,160,104993,1,0,0:0:0:0:
224,160,105157,1,8,0:0:0:0:
224,160,105321,1,0,0:0:0:0:
224,160,105649,1,8,0:0:0:0:
224,160,105813,1,8,0:0:0:0:
224,160,105894,1,8,0:0:0:0:
224,160,106058,1,8,0:0:0:0:
224,160,106140,1,0,0:0:0:0:
224,160,106304,1,0,0:0:0:0:
224,160,106468,1,8,0:0:0:0:
224,160,106632,1,8,0:0:0:0:
224,160,106796,1,0,0:0:0:0:
224,160,106960,1,8,0:0:0:0:
224,160,107124,1,0,0:0:0:0:
224,160,107206,1,0,0:0:0:0:
224,160,107288,1,0,0:0:0:0:
224,160,107370,1,0,0:0:0:0:
224,160,107452,1,0,0:0:0:0:
224,160,107534,1,0,0:0:0:0:
224,160,107616,1,0,0:0:0:0:
224,160,107698,1,0,0:0:0:0:
224,160,107780,1,8,0:0:0:0:
224,160,108108,1,0,0:0:0:0:
224,160,108190,1,0,0:0:0:0:
224,160,108272,1,0,0:0:0:0:
224,160,108354,1,8,0:0:0:0:
224,160,108435,1,8,0:0:0:0:
224,160,108681,1,8,0:0:0:0:
224,160,108763,1,0,0:0:0:0:
224,160,108927,1,0,0:0:0:0:
224,160,109091,1,8,0:0:0:0:
224,160,109419,1,0,0:0:0:0:
224,160,109583,1,0,0:0:0:0:
224,160,109665,1,8,0:0:0:0:
224,160,109747,1,0,0:0:0:0:
224,160,109911,1,8,0:0:0:0:
224,160,109993,1,8,0:0:0:0:
224,160,110075,1,0,0:0:0:0:
224,160,110239,1,0,0:0:0:0:
224,160,110403,1,8,0:0:0:0:
224,160,110567,1,0,0:0:0:0:
224,160,110649,1,8,0:0:0:0:
224,160,110731,1,0,0:0:0:0:
224,160,111058,1,8,0:0:0:0:
224,160,111304,1,8,0:0:0:0:
224,160,111386,1,0,0:0:0:0:
224,160,111550,1,0,0:0:0:0:
224,160,111714,1,8,0:0:0:0:
224,160,112042,1,0,0:0:0:0:
224,160,112206,1,0,0:0:0:0:
224,160,112288,1,0,0:0:0:0:
224,160,112370,1,8,0:0:0:0:
224,160,112534,1,8,0:0:0:0:
224,160,112616,1,8,0:0:0:0:
224,160,112698,1,0,0:0:0:0:
224,160,112862,1,8,0:0:0:0:
224,160,113026,1,0,0:0:0:0:
224,160,113190,1,0,0:0:0:0:
224,160,113354,1,8,0:0:0:0:
224,160,113681,1,12,0:0:0:0:
224,160,113927,1,8,0:0:0:0:
224,160,114009,1,0,0:0:0:0:
224,160,114173,1,0,0:0:0:0:
224,160,114337,1,8,0:0:0:0:
224,160,114665,1,0,0:0:0:0:
224,160,114829,1,0,0:0:0:0:
224,160,114911,1,8,0:0:0:0:
224,160,114993,1,0,0:0:0:0:
224,160,115157,1,8,0:0:0:0:
224,160,115239,1,8,0:0:0:0:
224,160,115321,1,0,0:0:0:0:
224,160,115485,1,0,0:0:0:0:
224,160,115649,1,8,0:0:0:0:
224,160,115731,1,8,0:0:0:0:
224,192,115813,1,0,0:0:0:0:
224,192,115976,1,8,0:0:0:0:
224,160,116058,1,8,0:0:0:0:
224,160,116304,1,8,0:0:0:0:
224,160,116550,1,8,0:0:0:0:
224,160,116632,1,0,0:0:0:0:
224,160,116796,1,0,0:0:0:0:
224,160,116960,1,8,0:0:0:0:
224,160,117288,1,0,0:0:0:0:
224,160,117452,1,0,0:0:0:0:
224,160,117534,1,0,0:0:0:0:
224,160,117616,1,8,0:0:0:0:
224,160,117780,1,8,0:0:0:0:
224,160,117862,1,8,0:0:0:0:
224,160,117944,1,0,0:0:0:0:
224,160,118108,1,8,0:0:0:0:
224,160,118272,1,4,0:0:0:0:
224,160,118599,1,12,0:0:0:0:
224,160,118927,1,4,0:0:0:0:
224,160,119255,1,8,0:0:0:0:
224,160,119583,1,0,0:0:0:0:
224,160,119747,1,8,0:0:0:0:
224,160,119911,1,0,0:0:0:0:
224,160,119993,1,0,0:0:0:0:
224,160,120075,1,8,0:0:0:0:
224,160,120239,1,8,0:0:0:0:
224,160,120567,1,8,0:0:0:0:
224,160,120894,1,0,0:0:0:0:
224,160,121058,1,0,0:0:0:0:
224,160,121140,1,0,0:0:0:0:
224,160,121222,1,8,0:0:0:0:
224,160,121386,1,0,0:0:0:0:
224,160,121550,1,8,0:0:0:0:
224,160,121714,1,0,0:0:0:0:
224,160,121796,1,8,0:0:0:0:
224,160,122042,1,8,0:0:0:0:
224,160,122370,1,0,0:0:0:0:
224,160,122534,1,0,0:0:0:0:
224,160,122616,1,0,0:0:0:0:
224,160,122698,1,8,0:0:0:0:
224,160,122862,1,8,0:0:0:0:
224,160,123026,1,8,0:0:0:0:
224,160,123190,1,8,0:0:0:0:
224,160,123272,1,0,0:0:0:0:
224,160,123435,1,8,0:0:0:0:
224,160,123681,1,0,0:0:0:0:
192,160,123845,1,8,0:0:0:0:
224,160,124173,1,4,0:0:0:0:
224,160,124501,1,8,0:0:0:0:
224,160,124829,1,0,0:0:0:0:
224,160,124993,1,8,0:0:0:0:
224,160,125157,1,0,0:0:0:0:
224,160,125239,1,0,0:0:0:0:
224,160,125321,1,8,0:0:0:0:
224,160,125485,1,8,0:0:0:0:
224,160,125813,1,8,0:0:0:0:
224,160,126140,1,0,0:0:0:0:
224,160,126304,1,0,0:0:0:0:
224,160,126386,1,0,0:0:0:0:
224,160,126468,1,8,0:0:0:0:
224,160,126632,1,0,0:0:0:0:
224,160,126796,1,8,0:0:0:0:
224,160,126960,1,0,0:0:0:0:
224,160,127042,1,8,0:0:0:0:
224,160,127288,1,8,0:0:0:0:
224,160,127616,1,0,0:0:0:0:
224,160,127780,1,0,0:0:0:0:
224,160,127862,1,0,0:0:0:0:
224,160,127944,1,8,0:0:0:0:
224,160,128108,1,0,0:0:0:0:
224,160,128217,1,0,0:0:0:0:
224,160,128326,1,0,0:0:0:0:
224,160,128435,1,8,0:0:0:0:
224,160,128545,1,8,0:0:0:0:
224,160,128654,1,8,0:0:0:0:
224,160,128763,1,0,0:0:0:0:
192,160,129091,1,8,0:0:0:0:
224,160,129419,1,0,0:0:0:0:
224,160,129911,1,0,0:0:0:0:
224,160,129993,1,0,0:0:0:0:
224,160,130075,1,0,0:0:0:0:
224,160,130321,1,0,0:0:0:0:
224,160,130567,1,0,0:0:0:0:
224,160,130731,1,8,0:0:0:0:
224,160,131222,1,8,0:0:0:0:
224,160,131304,1,8,0:0:0:0:
224,160,131386,1,8,0:0:0:0:
224,160,131632,1,8,0:0:0:0:
224,160,131878,1,8,0:0:0:0:
224,160,132042,1,0,0:0:0:0:
224,160,132288,1,0,0:0:0:0:
224,160,132534,1,0,0:0:0:0:
224,160,132698,1,8,0:0:0:0:
224,160,132944,1,8,0:0:0:0:
224,160,133190,1,8,0:0:0:0:
224,160,133354,1,0,0:0:0:0:
224,160,133435,1,0,0:0:0:0:
224,160,133517,1,0,0:0:0:0:
224,160,133599,1,0,0:0:0:0:
224,160,133681,1,8,0:0:0:0:
224,160,133763,1,8,0:0:0:0:
224,160,133845,1,8,0:0:0:0:
224,160,133927,1,8,0:0:0:0:
224,160,134009,1,0,0:0:0:0:
224,160,134091,1,0,0:0:0:0:
224,160,134173,1,8,0:0:0:0:
224,160,134255,1,0,0:0:0:0:
224,160,134337,1,0,0:0:0:0:
224,160,134419,1,8,0:0:0:0:
224,160,134501,1,8,0:0:0:0:
224,160,134583,1,0,0:0:0:0:
224,160,134665,1,8,0:0:0:0:
224,160,134747,1,0,0:0:0:0:
224,160,134911,1,0,0:0:0:0:
224,160,134993,1,8,0:0:0:0:
224,160,135157,1,8,0:0:0:0:
224,160,135239,1,0,0:0:0:0:
224,160,135403,1,0,0:0:0:0:
224,160,135485,1,8,0:0:0:0:
224,160,135649,1,8,0:0:0:0:
224,160,135731,1,0,0:0:0:0:
224,160,135813,1,8,0:0:0:0:
224,160,135894,1,8,0:0:0:0:
224,160,135976,1,8,0:0:0:0:
224,160,136058,1,0,0:0:0:0:
224,160,136222,1,0,0:0:0:0:
224,160,136304,1,8,0:0:0:0:
224,160,136468,1,8,0:0:0:0:
224,160,136550,1,0,0:0:0:0:
224,160,136714,1,0,0:0:0:0:
224,160,136796,1,8,0:0:0:0:
224,160,136960,1,8,0:0:0:0:
224,160,137042,1,0,0:0:0:0:
224,160,137124,1,8,0:0:0:0:
224,160,137206,1,0,0:0:0:0:
224,160,137288,1,8,0:0:0:0:
224,160,137370,1,0,0:0:0:0:
224,160,137534,1,0,0:0:0:0:
224,160,137616,1,8,0:0:0:0:
224,160,137780,1,8,0:0:0:0:
224,160,137862,1,0,0:0:0:0:
224,160,138026,1,0,0:0:0:0:
224,160,138108,1,8,0:0:0:0:
192,160,138272,1,8,0:0:0:0:
192,160,138354,1,0,0:0:0:0:
192,160,138435,1,8,0:0:0:0:
192,160,138517,1,0,0:0:0:0:
192,160,138599,1,8,0:0:0:0:
192,160,138681,1,8,0:0:0:0:
192,160,138845,1,0,0:0:0:0:
192,160,138927,1,8,0:0:0:0:
192,160,139091,1,8,0:0:0:0:
192,160,139173,1,8,0:0:0:0:
192,160,139337,1,0,0:0:0:0:
192,160,139419,1,8,0:0:0:0:
192,160,139583,1,8,0:0:0:0:
192,160,139665,1,0,0:0:0:0:
192,160,139747,1,0,0:0:0:0:
192,160,139829,1,0,0:0:0:0:
192,160,139911,1,8,0:0:0:0:
224,160,139993,1,0,0:0:0:0:
224,160,140157,1,0,0:0:0:0:
224,160,140239,1,8,0:0:0:0:
224,160,140403,1,8,0:0:0:0:
224,160,140485,1,0,0:0:0:0:
224,160,140649,1,0,0:0:0:0:
224,160,140731,1,8,0:0:0:0:
224,160,140894,1,8,0:0:0:0:
224,160,140976,1,0,0:0:0:0:
224,160,141058,1,8,0:0:0:0:
224,160,141140,1,8,0:0:0:0:
224,160,141222,1,8,0:0:0:0:
224,160,141304,1,0,0:0:0:0:
224,160,141468,1,0,0:0:0:0:
224,160,141550,1,8,0:0:0:0:
224,160,141714,1,8,0:0:0:0:
224,160,141796,1,0,0:0:0:0:
224,160,141960,1,0,0:0:0:0:
224,160,142042,1,8,0:0:0:0:
224,160,142206,1,8,0:0:0:0:
224,160,142288,1,0,0:0:0:0:
224,160,142370,1,8,0:0:0:0:
224,160,142452,1,0,0:0:0:0:
224,160,142534,1,8,0:0:0:0:
224,160,142616,1,0,0:0:0:0:
224,160,142780,1,0,0:0:0:0:
224,160,142862,1,8,0:0:0:0:
224,160,143026,1,8,0:0:0:0:
224,160,143108,1,0,0:0:0:0:
224,160,143272,1,0,0:0:0:0:
224,160,143354,1,8,0:0:0:0:
192,160,143517,1,8,0:0:0:0:
192,160,143599,1,0,0:0:0:0:
192,160,143681,1,8,0:0:0:0:
192,160,143763,1,0,0:0:0:0:
192,160,143845,1,8,0:0:0:0:
192,160,143927,1,8,0:0:0:0:
192,160,144091,1,0,0:0:0:0:
192,160,144173,1,8,0:0:0:0:
192,160,144337,1,8,0:0:0:0:
192,160,144419,1,8,0:0:0:0:
192,160,144583,1,0,0:0:0:0:
192,160,144665,1,8,0:0:0:0:
192,160,144829,1,8,0:0:0:0:
192,160,144911,1,0,0:0:0:0:
192,160,144993,1,8,0:0:0:0:
192,160,145075,1,8,0:0:0:0:
192,160,145157,1,0,0:0:0:0:
192,160,145321,1,8,0:0:0:0:
192,160,145485,1,0,0:0:0:0:
192,160,145567,1,0,0:0:0:0:
192,160,145649,1,8,0:0:0:0:
192,160,145731,1,0,0:0:0:0:
192,160,145813,1,8,0:0:0:0:
192,160,145894,1,8,0:0:0:0:
192,160,145976,1,8,0:0:0:0:
192,160,146140,1,8,0:0:0:0:
192,160,146222,1,8,0:0:0:0:
192,160,146304,1,0,0:0:0:0:
192,160,146468,1,8,0:0:0:0:
192,160,146796,1,0,0:0:0:0:
192,160,146960,1,8,0:0:0:0:
192,160,147124,1,8,0:0:0:0:
192,160,147206,1,8,0:0:0:0:
192,160,147288,1,8,0:0:0:0:
192,160,147452,1,8,0:0:0:0:
192,160,147616,1,0,0:0:0:0:
192,160,147698,1,8,0:0:0:0:
192,160,147780,1,0,0:0:0:0:
192,160,147944,1,8,0:0:0:0:
192,160,148026,1,8,0:0:0:0:
192,160,148108,1,0,0:0:0:0:
192,160,148272,1,8,0:0:0:0:
192,160,148435,1,0,0:0:0:0:
192,160,148517,1,0,0:0:0:0:
192,160,148599,1,0,0:0:0:0:
192,160,148763,1,8,0:0:0:0:
192,160,148927,1,0,0:0:0:0:
192,160,149091,1,12,0:0:0:0:
192,160,149419,1,12,0:0:0:0:
192,160,149747,1,12,0:0:0:0:
192,160,150075,1,4,0:0:0:0:
192,160,150403,2,0,P|256:160|224:160,7,69.9999983310699
192,160,151714,1,0,0:0:0:0:
192,160,151878,1,0,0:0:0:0:
192,160,151960,1,0,0:0:0:0:
192,160,152042,1,8,0:0:0:0:
192,160,152206,1,0,0:0:0:0:
192,160,152370,1,8,0:0:0:0:
192,160,152534,1,0,0:0:0:0:
192,160,152698,1,0,0:0:0:0:
192,160,153026,1,12,0:0:0:0:
192,160,153354,1,8,0:0:0:0:
192,160,153517,1,8,0:0:0:0:
192,160,153681,1,0,0:0:0:0:
192,160,153845,1,8,0:0:0:0:
192,160,154009,1,0,0:0:0:0:
192,160,154173,1,0,0:0:0:0:
192,160,154337,1,8,0:0:0:0:
192,160,154665,1,0,0:0:0:0:
192,160,154993,1,8,0:0:0:0:
192,160,155485,1,8,0:0:0:0:
192,160,155649,1,0,0:0:0:0:
192,160,155813,1,0,0:0:0:0:
192,160,155894,1,8,0:0:0:0:
192,160,155976,1,0,0:0:0:0:
192,160,156140,1,0,0:0:0:0:
192,160,156304,1,8,0:0:0:0:
192,160,156796,1,8,0:0:0:0:
192,160,156960,1,0,0:0:0:0:
192,160,157124,1,0,0:0:0:0:
192,160,157206,1,8,0:0:0:0:
192,160,157288,1,8,0:0:0:0:
192,160,157452,1,0,0:0:0:0:
192,160,157616,1,8,0:0:0:0:
192,160,157944,1,0,0:0:0:0:
192,160,158026,1,8,0:0:0:0:
192,160,158108,1,0,0:0:0:0:
192,160,158272,1,8,0:0:0:0:
192,160,158599,1,8,0:0:0:0:
192,160,158763,1,8,0:0:0:0:
192,160,158927,1,0,0:0:0:0:
192,160,159091,1,8,0:0:0:0:
192,160,159255,1,0,0:0:0:0:
192,160,159419,1,0,0:0:0:0:
192,160,159583,1,8,0:0:0:0:
192,160,159911,1,0,0:0:0:0:
192,160,160239,1,8,0:0:0:0:
192,160,160731,1,8,0:0:0:0:
192,160,160894,1,0,0:0:0:0:
192,160,161058,1,0,0:0:0:0:
192,160,161140,1,8,0:0:0:0:
192,160,161222,1,0,0:0:0:0:
192,160,161386,1,0,0:0:0:0:
192,160,161550,1,8,0:0:0:0:
192,160,162042,1,8,0:0:0:0:
192,160,162206,1,0,0:0:0:0:
192,160,162370,1,0,0:0:0:0:
192,160,162452,1,8,0:0:0:0:
192,160,162534,1,8,0:0:0:0:
192,160,162698,1,0,0:0:0:0:
192,160,162862,1,8,0:0:0:0:
192,160,163190,1,0,0:0:0:0:
192,160,163272,1,0,0:0:0:0:
192,160,163354,1,0,0:0:0:0:
192,160,163435,1,0,0:0:0:0:
192,160,163517,1,8,0:0:0:0:
192,160,163845,1,8,0:0:0:0:
192,160,164009,1,8,0:0:0:0:
192,160,164173,1,0,0:0:0:0:
192,160,164337,1,0,0:0:0:0:
192,160,164501,1,8,0:0:0:0:
192,160,164665,1,8,0:0:0:0:
192,160,164829,1,0,0:0:0:0:
192,160,165157,1,8,0:0:0:0:
192,160,165485,1,0,0:0:0:0:
192,160,165813,1,0,0:0:0:0:
192,160,165976,1,0,0:0:0:0:
192,160,166140,1,8,0:0:0:0:
192,160,166468,1,8,0:0:0:0:
192,160,166632,1,8,0:0:0:0:
192,160,166796,1,0,0:0:0:0:
192,160,166960,1,8,0:0:0:0:
192,160,167124,1,8,0:0:0:0:
192,160,167288,1,0,0:0:0:0:
192,160,167452,1,12,0:0:0:0:
224,160,168108,1,0,0:0:0:0:
224,160,168272,1,0,0:0:0:0:
192,160,168354,1,0,0:0:0:0:
192,160,168435,1,8,0:0:0:0:
192,160,168599,1,0,0:0:0:0:
192,160,168763,1,8,0:0:0:0:
192,160,169091,1,8,0:0:0:0:
192,160,169255,1,8,0:0:0:0:
192,160,169419,1,0,0:0:0:0:
192,160,169583,1,0,0:0:0:0:
192,160,169747,1,8,0:0:0:0:
192,160,169911,1,8,0:0:0:0:
192,160,170075,1,0,0:0:0:0:
192,160,170403,1,8,0:0:0:0:
192,160,170731,1,0,0:0:0:0:
192,160,171222,1,8,0:0:0:0:
192,160,171386,1,0,0:0:0:0:
192,160,171550,1,0,0:0:0:0:
192,160,171632,1,8,0:0:0:0:
192,160,171714,1,0,0:0:0:0:
192,160,171878,1,0,0:0:0:0:
192,160,172042,1,8,0:0:0:0:
192,160,172534,1,8,0:0:0:0:
192,160,172698,1,0,0:0:0:0:
192,160,172862,1,0,0:0:0:0:
192,160,172944,1,0,0:0:0:0:
192,160,173026,1,8,0:0:0:0:
192,160,173190,1,0,0:0:0:0:
192,160,173354,1,8,0:0:0:0:
192,160,173681,1,8,0:0:0:0:
192,160,174009,1,0,0:0:0:0:
192,160,174173,1,0,0:0:0:0:
192,160,174255,1,0,0:0:0:0:
192,160,174337,1,8,0:0:0:0:
192,160,174419,1,0,0:0:0:0:
192,160,174501,1,0,0:0:0:0:
192,160,174583,1,8,0:0:0:0:
192,160,174665,1,0,0:0:0:0:
192,160,174829,1,8,0:0:0:0:
192,160,174993,1,8,0:0:0:0:
192,160,175321,1,0,0:0:0:0:
192,160,175485,1,0,0:0:0:0:
192,160,175567,1,0,0:0:0:0:
192,160,175649,1,8,0:0:0:0:
192,160,175731,1,0,0:0:0:0:
192,160,175813,1,0,0:0:0:0:
192,160,175894,1,8,0:0:0:0:
192,160,175976,1,0,0:0:0:0:
192,160,176140,1,8,0:0:0:0:
192,160,176304,1,8,0:0:0:0:
192,160,176632,1,0,0:0:0:0:
192,160,176796,1,0,0:0:0:0:
192,160,176878,1,0,0:0:0:0:
192,160,176960,1,8,0:0:0:0:
192,160,177042,1,8,0:0:0:0:
192,160,177124,1,0,0:0:0:0:
192,160,177206,1,8,0:0:0:0:
192,160,177288,1,0,0:0:0:0:
192,160,177452,1,8,0:0:0:0:
192,160,177616,1,8,0:0:0:0:
192,160,177944,1,0,0:0:0:0:
192,160,178108,1,0,0:0:0:0:
192,160,178190,1,0,0:0:0:0:
192,160,178272,1,8,0:0:0:0:
192,160,178354,1,8,0:0:0:0:
192,160,178435,1,0,0:0:0:0:
192,160,178517,1,0,0:0:0:0:
192,160,178599,1,8,0:0:0:0:
192,160,178763,1,8,0:0:0:0:
192,160,178927,1,0,0:0:0:0:
192,160,179091,1,8,0:0:0:0:
192,160,179255,1,0,0:0:0:0:
192,160,179419,1,0,0:0:0:0:
192,160,179501,1,0,0:0:0:0:
192,160,179583,1,8,0:0:0:0:
192,160,179665,1,0,0:0:0:0:
192,160,179747,1,0,0:0:0:0:
192,160,179829,1,8,0:0:0:0:
192,160,179911,1,0,0:0:0:0:
192,160,180075,1,8,0:0:0:0:
192,160,180239,1,8,0:0:0:0:
192,160,180567,1,0,0:0:0:0:
192,160,180731,1,0,0:0:0:0:
192,160,180813,1,0,0:0:0:0:
192,160,180894,1,8,0:0:0:0:
192,160,180976,1,0,0:0:0:0:
192,160,181058,1,0,0:0:0:0:
192,160,181140,1,8,0:0:0:0:
192,160,181222,1,0,0:0:0:0:
192,160,181386,1,8,0:0:0:0:
192,160,181550,1,8,0:0:0:0:
192,160,181878,1,0,0:0:0:0:
192,160,182042,1,0,0:0:0:0:
192,160,182124,1,0,0:0:0:0:
192,160,182206,1,8,0:0:0:0:
192,160,182288,1,8,0:0:0:0:
192,160,182370,1,0,0:0:0:0:
192,160,182452,1,8,0:0:0:0:
192,160,182534,1,0,0:0:0:0:
192,160,182698,1,8,0:0:0:0:
192,160,182862,1,8,0:0:0:0:
192,160,183026,1,0,0:0:0:0:
192,160,183190,1,12,0:0:0:0:
192,160,183517,1,12,0:0:0:0:
192,160,183845,1,12,0:0:0:0:
192,160,184173,1,12,0:0:0:0:
192,160,184501,1,0,0:0:0:0:
192,160,184665,1,8,0:0:0:0:
192,160,184747,1,0,0:0:0:0:
192,160,184829,1,8,0:0:0:0:
192,160,184911,1,0,0:0:0:0:
192,160,184993,1,0,0:0:0:0:
192,160,185075,1,8,0:0:0:0:
192,160,185157,1,0,0:0:0:0:
192,160,185321,1,8,0:0:0:0:
192,160,185485,1,8,0:0:0:0:
192,160,185813,1,0,0:0:0:0:
192,160,185976,1,8,0:0:0:0:
192,160,186058,1,0,0:0:0:0:
192,160,186140,1,8,0:0:0:0:
192,160,186222,1,0,0:0:0:0:
192,160,186304,1,0,0:0:0:0:
192,160,186386,1,8,0:0:0:0:
192,160,186468,1,0,0:0:0:0:
192,160,186632,1,8,0:0:0:0:
192,160,186796,1,8,0:0:0:0:
192,160,187124,1,0,0:0:0:0:
192,160,187288,1,8,0:0:0:0:
192,160,187370,1,0,0:0:0:0:
192,160,187452,1,8,0:0:0:0:
192,160,187534,1,8,0:0:0:0:
192,160,187616,1,0,0:0:0:0:
192,160,187698,1,8,0:0:0:0:
192,160,187780,1,0,0:0:0:0:
192,160,187944,1,8,0:0:0:0:
192,160,188108,1,8,0:0:0:0:
192,160,188435,1,0,0:0:0:0:
192,160,188599,1,8,0:0:0:0:
192,160,188681,1,0,0:0:0:0:
192,160,188763,1,8,0:0:0:0:
192,160,188845,1,8,0:0:0:0:
192,160,188927,1,0,0:0:0:0:
192,160,189009,1,0,0:0:0:0:
192,160,189091,1,8,0:0:0:0:
192,160,189255,1,8,0:0:0:0:
192,160,189419,1,0,0:0:0:0:
192,160,189583,1,8,0:0:0:0:
192,160,189747,1,0,0:0:0:0:
192,160,189911,1,8,0:0:0:0:
192,160,189993,1,0,0:0:0:0:
192,160,190075,1,8,0:0:0:0:
192,160,190157,1,0,0:0:0:0:
192,160,190239,1,0,0:0:0:0:
192,160,190321,1,8,0:0:0:0:
192,160,190403,1,0,0:0:0:0:
192,160,190567,1,8,0:0:0:0:
192,160,190731,1,8,0:0:0:0:
192,160,191058,1,0,0:0:0:0:
192,160,191222,1,8,0:0:0:0:
192,160,191304,1,0,0:0:0:0:
192,160,191386,1,8,0:0:0:0:
192,160,191468,1,0,0:0:0:0:
192,160,191550,1,0,0:0:0:0:
192,160,191632,1,8,0:0:0:0:
192,160,191714,1,0,0:0:0:0:
192,160,191878,1,8,0:0:0:0:
192,160,192042,1,8,0:0:0:0:
192,160,192370,1,0,0:0:0:0:
192,160,192534,1,8,0:0:0:0:
192,160,192616,1,0,0:0:0:0:
192,160,192698,1,8,0:0:0:0:
192,160,192780,1,8,0:0:0:0:
192,160,192862,1,0,0:0:0:0:
192,160,192944,1,8,0:0:0:0:
192,160,193026,1,0,0:0:0:0:
192,160,193190,1,8,0:0:0:0:
192,160,193354,1,8,0:0:0:0:
192,192,193517,1,0,0:0:0:0:
192,160,193681,1,12,0:0:0:0:
192,160,194009,1,12,0:0:0:0:
192,160,194337,1,12,0:0:0:0:
192,160,194665,1,12,0:0:0:0:
192,160,194993,1,12,0:0:0:0:
192,160,195321,1,0,0:0:0:0:
192,160,195485,1,0,0:0:0:0:
192,160,195649,1,8,0:0:0:0:
192,160,195976,1,0,0:0:0:0:
192,160,196140,1,0,0:0:0:0:
192,160,196304,1,8,0:0:0:0:
192,160,196468,1,8,0:0:0:0:
192,160,196632,1,0,0:0:0:0:
192,160,196796,1,0,0:0:0:0:
192,160,196960,1,8,0:0:0:0:
192,160,197288,1,8,0:0:0:0:
192,160,197370,1,8,0:0:0:0:
192,160,197452,1,8,0:0:0:0:
192,160,197534,1,8,0:0:0:0:
192,160,197616,1,0,0:0:0:0:
192,160,197944,1,0,0:0:0:0:
192,160,198108,1,8,0:0:0:0:
192,160,198272,1,0,0:0:0:0:
224,160,198599,1,0,0:0:0:0:
192,160,198763,1,8,0:0:0:0:
192,160,198927,1,0,0:0:0:0:
192,160,199091,1,8,0:0:0:0:
192,160,199255,1,0,0:0:0:0:
192,160,199419,1,0,0:0:0:0:
192,160,199583,1,8,0:0:0:0:
192,160,199911,1,0,0:0:0:0:
192,160,200239,1,12,0:0:0:0:
192,160,200567,1,0,0:0:0:0:
192,160,200731,1,0,0:0:0:0:
192,160,200894,1,8,0:0:0:0:
192,160,201222,1,0,0:0:0:0:
192,160,201386,1,0,0:0:0:0:
192,160,201550,1,8,0:0:0:0:
192,160,201714,1,8,0:0:0:0:
192,160,201878,1,0,0:0:0:0:
192,160,202042,1,8,0:0:0:0:
192,160,202206,1,0,0:0:0:0:
192,160,202534,1,8,0:0:0:0:
192,160,202862,1,0,0:0:0:0:
192,160,203190,1,0,0:0:0:0:
192,160,203354,1,8,0:0:0:0:
192,160,203517,1,0,0:0:0:0:
192,160,203845,1,0,0:0:0:0:
192,160,204009,1,8,0:0:0:0:
192,160,204091,1,8,0:0:0:0:
192,160,204173,1,0,0:0:0:0:
192,160,204337,1,8,0:0:0:0:
192,160,204501,1,0,0:0:0:0:
192,160,204665,1,8,0:0:0:0:
192,160,204829,1,8,0:0:0:0:
192,160,205157,1,8,0:0:0:0:
192,160,205485,1,12,0:0:0:0:
192,160,205813,1,0,0:0:0:0:
192,160,205976,1,0,0:0:0:0:
192,160,206140,1,8,0:0:0:0:
192,160,206468,1,0,0:0:0:0:
192,160,206632,1,0,0:0:0:0:
192,160,206796,1,8,0:0:0:0:
192,160,206960,1,8,0:0:0:0:
192,160,207124,1,0,0:0:0:0:
192,160,207288,1,0,0:0:0:0:
192,160,207452,1,8,0:0:0:0:
192,160,207780,1,8,0:0:0:0:
192,160,207862,1,8,0:0:0:0:
192,160,207944,1,8,0:0:0:0:
192,160,208026,1,8,0:0:0:0:
192,160,208108,1,0,0:0:0:0:
192,160,208435,1,0,0:0:0:0:
192,160,208599,1,8,0:0:0:0:
192,160,208763,1,0,0:0:0:0:
192,160,208927,1,0,0:0:0:0:
224,160,209091,1,8,0:0:0:0:
192,160,209255,1,8,0:0:0:0:
192,160,209419,1,0,0:0:0:0:
192,160,209747,1,0,0:0:0:0:
192,160,209911,1,0,0:0:0:0:
192,160,210075,1,8,0:0:0:0:
192,160,210403,1,0,0:0:0:0:
192,160,210731,1,12,0:0:0:0:
192,160,211058,1,0,0:0:0:0:
192,160,211386,1,8,0:0:0:0:
192,160,211714,1,0,0:0:0:0:
192,160,212042,1,8,0:0:0:0:
192,160,212206,1,8,0:0:0:0:
192,160,212370,1,0,0:0:0:0:
192,160,212534,1,8,0:0:0:0:
192,160,212698,1,0,0:0:0:0:
192,160,213026,1,8,0:0:0:0:
192,160,213354,1,0,0:0:0:0:
192,160,213681,1,0,0:0:0:0:
192,160,213845,1,8,0:0:0:0:
192,160,214009,1,0,0:0:0:0:
192,160,214337,1,0,0:0:0:0:
192,160,214501,1,8,0:0:0:0:
192,160,214583,1,8,0:0:0:0:
192,160,214665,1,0,0:0:0:0:
192,160,214829,1,8,0:0:0:0:
192,160,214993,1,0,0:0:0:0:
192,160,215157,1,8,0:0:0:0:
192,160,215321,1,0,0:0:0:0:
224,160,215403,1,8,0:0:0:0:
192,160,215485,1,8,0:0:0:0:
192,160,215649,1,8,0:0:0:0:
192,160,215731,1,8,0:0:0:0:
192,160,215813,1,0,0:0:0:0:
192,160,215894,1,0,0:0:0:0:
192,160,215976,1,8,0:0:0:0:
192,160,216140,1,0,0:0:0:0:
192,160,216304,1,8,0:0:0:0:
192,160,216468,1,0,0:0:0:0:
192,160,216550,1,8,0:0:0:0:
192,160,216632,1,0,0:0:0:0:
192,160,216796,1,0,0:0:0:0:
192,160,216960,1,8,0:0:0:0:
192,160,217124,1,0,0:0:0:0:
192,160,217288,1,8,0:0:0:0:
192,160,217452,1,0,0:0:0:0:
160,160,217534,1,0,0:0:0:0:
192,160,217616,1,8,0:0:0:0:
192,160,217780,1,0,0:0:0:0:
160,160,217862,1,8,0:0:0:0:
192,160,217944,1,0,0:0:0:0:
160,160,218026,1,8,0:0:0:0:
192,160,218108,1,0,0:0:0:0:
192,160,218272,1,8,0:0:0:0:
192,160,218435,1,0,0:0:0:0:
192,160,218599,1,8,0:0:0:0:
192,160,218763,1,0,0:0:0:0:
192,160,218845,1,8,0:0:0:0:
192,160,218927,1,0,0:0:0:0:
192,160,219091,1,0,0:0:0:0:
192,160,219255,1,8,0:0:0:0:
192,160,219419,1,8,0:0:0:0:
192,160,219583,1,0,0:0:0:0:
192,160,219747,1,0,0:0:0:0:
192,160,219829,1,0,0:0:0:0:
192,160,219911,1,8,0:0:0:0:
192,160,220075,1,0,0:0:0:0:
192,160,220157,1,0,0:0:0:0:
192,160,220239,1,8,0:0:0:0:
192,160,220321,1,8,0:0:0:0:
192,160,220403,1,8,0:0:0:0:
192,160,220485,1,8,0:0:0:0:
192,160,220567,1,0,0:0:0:0:
192,160,220649,1,8,0:0:0:0:
192,160,220731,1,0,0:0:0:0:
192,160,220813,1,0,0:0:0:0:
192,160,220894,1,8,0:0:0:0:
192,160,221058,1,0,0:0:0:0:
192,160,221140,1,8,0:0:0:0:
192,160,221222,1,0,0:0:0:0:
192,160,221386,1,0,0:0:0:0:
192,160,221550,1,8,0:0:0:0:
192,160,221714,1,0,0:0:0:0:
192,160,221796,1,8,0:0:0:0:
192,160,221878,1,0,0:0:0:0:
192,160,222042,1,0,0:0:0:0:
192,160,222206,1,8,0:0:0:0:
192,160,222370,1,0,0:0:0:0:
192,160,222534,1,8,0:0:0:0:
192,160,222698,1,0,0:0:0:0:
160,160,222780,1,0,0:0:0:0:
192,160,222862,1,8,0:0:0:0:
192,160,223026,1,0,0:0:0:0:
160,160,223108,1,8,0:0:0:0:
192,160,223190,1,0,0:0:0:0:
160,160,223272,1,0,0:0:0:0:
192,160,223354,1,8,0:0:0:0:
192,160,223517,1,8,0:0:0:0:
192,160,223681,1,8,0:0:0:0:
192,160,223763,1,8,0:0:0:0:
192,160,223845,1,0,0:0:0:0:
192,160,224009,1,0,0:0:0:0:
192,160,224091,1,8,0:0:0:0:
192,160,224173,1,0,0:0:0:0:
192,160,224337,1,8,0:0:0:0:
192,160,224501,1,0,0:0:0:0:
192,160,224665,1,0,0:0:0:0:
192,160,224829,1,8,0:0:0:0:
192,160,224993,1,0,0:0:0:0:
192,160,225075,1,0,0:0:0:0:
192,160,225157,1,8,0:0:0:0:
192,160,225321,1,0,0:0:0:0:
192,160,225403,1,8,0:0:0:0:
192,160,225485,1,0,0:0:0:0:
192,160,225567,1,0,0:0:0:0:
192,160,225649,1,8,0:0:0:0:
192,160,225731,1,8,0:0:0:0:
192,160,225813,1,0,0:0:0:0:
192,160,225894,1,8,0:0:0:0:
192,160,225976,1,0,0:0:0:0:
192,160,226058,1,0,0:0:0:0:
192,160,226140,1,8,0:0:0:0:
192,160,226304,1,8,0:0:0:0:
192,160,226468,1,8,0:0:0:0:
192,160,226632,1,0,0:0:0:0:
192,160,226796,1,8,0:0:0:0:
192,160,226960,1,0,0:0:0:0:
192,160,227042,1,8,0:0:0:0:
192,160,227124,1,0,0:0:0:0:
192,160,227288,1,0,0:0:0:0:
192,160,227452,1,8,0:0:0:0:
192,160,227616,1,0,0:0:0:0:
192,160,227780,1,8,0:0:0:0:
192,160,227944,1,0,0:0:0:0:
160,160,228026,1,0,0:0:0:0:
192,160,228108,1,8,0:0:0:0:
192,160,228272,1,0,0:0:0:0:
160,160,228354,1,8,0:0:0:0:
192,160,228435,1,0,0:0:0:0:
160,160,228517,1,8,0:0:0:0:
192,160,228599,1,0,0:0:0:0:
160,160,228681,1,0,0:0:0:0:
192,160,228763,1,8,0:0:0:0:
192,160,228845,1,8,0:0:0:0:
192,160,228927,1,0,0:0:0:0:
192,160,229009,1,8,0:0:0:0:
192,160,229091,1,0,0:0:0:0:
192,160,229255,1,0,0:0:0:0:
192,160,229337,1,8,0:0:0:0:
192,160,229419,1,0,0:0:0:0:
192,160,229583,1,0,0:0:0:0:
192,160,229747,1,8,0:0:0:0:
192,160,229911,1,8,0:0:0:0:
192,160,230075,1,0,0:0:0:0:
192,160,230157,1,0,0:0:0:0:
192,160,230239,1,8,0:0:0:0:
192,160,230403,1,8,0:0:0:0:
160,160,230485,1,8,0:0:0:0:
192,160,230567,1,0,0:0:0:0:
192,160,230649,1,0,0:0:0:0:
192,160,230731,1,8,0:0:0:0:
192,160,230813,1,8,0:0:0:0:
192,160,230894,1,8,0:0:0:0:
192,160,230976,1,8,0:0:0:0:
192,160,231058,1,0,0:0:0:0:
192,160,231140,1,0,0:0:0:0:
192,160,231222,1,8,0:0:0:0:
192,160,231304,1,8,0:0:0:0:
192,160,231386,1,8,0:0:0:0:
192,160,231468,1,8,0:0:0:0:
192,160,231550,1,0,0:0:0:0:
192,160,231632,1,8,0:0:0:0:
192,160,231714,1,0,0:0:0:0:
192,160,231878,1,0,0:0:0:0:
192,160,232042,1,8,0:0:0:0:
192,160,232206,1,0,0:0:0:0:
192,160,232288,1,8,0:0:0:0:
192,160,232370,1,0,0:0:0:0:
192,160,232534,1,0,0:0:0:0:
192,160,232698,1,8,0:0:0:0:
192,160,232862,1,0,0:0:0:0:
192,160,233026,1,8,0:0:0:0:
192,160,233190,1,0,0:0:0:0:
160,160,233272,1,0,0:0:0:0:
192,160,233354,1,8,0:0:0:0:
192,160,233435,1,0,0:0:0:0:
192,160,233517,1,0,0:0:0:0:
160,160,233599,1,8,0:0:0:0:
192,160,233681,1,0,0:0:0:0:
160,160,233763,1,8,0:0:0:0:
192,160,233845,1,0,0:0:0:0:
160,160,233927,1,0,0:0:0:0:
192,160,234009,1,8,0:0:0:0:
192,160,234091,1,0,0:0:0:0:
192,160,234173,1,0,0:0:0:0:
192,160,234255,1,0,0:0:0:0:
192,160,234337,1,8,0:0:0:0:
192,160,234501,1,0,0:0:0:0:
192,160,234583,1,8,0:0:0:0:
192,160,234665,1,0,0:0:0:0:
192,160,234829,1,0,0:0:0:0:
192,160,234993,1,8,0:0:0:0:
192,160,235157,1,8,0:0:0:0:
192,160,235321,1,0,0:0:0:0:
192,160,235485,1,0,0:0:0:0:
192,160,235567,1,0,0:0:0:0:
192,160,235649,1,8,0:0:0:0:
192,160,235731,1,8,0:0:0:0:
192,160,235813,1,0,0:0:0:0:
192,160,235894,1,0,0:0:0:0:
192,160,235976,1,8,0:0:0:0:
192,160,236058,1,8,0:0:0:0:
192,160,236140,1,0,0:0:0:0:
192,160,236222,1,0,0:0:0:0:
192,160,236304,1,8,0:0:0:0:
192,160,236386,1,0,0:0:0:0:
192,160,236468,1,8,0:0:0:0:
192,160,236550,1,0,0:0:0:0:
192,160,236632,1,8,0:0:0:0:
192,160,236714,1,8,0:0:0:0:
192,160,236796,1,0,0:0:0:0:
192,160,236878,1,8,0:0:0:0:
192,160,236960,1,0,0:0:0:0:
192,160,237124,1,8,0:0:0:0:
192,160,237206,1,8,0:0:0:0:
192,160,237288,1,0,0:0:0:0:
192,160,237452,1,0,0:0:0:0:
192,160,237616,1,8,0:0:0:0:
192,160,237944,1,0,0:0:0:0:
192,160,238108,1,8,0:0:0:0:
192,160,238190,1,8,0:0:0:0:
192,160,238272,1,0,0:0:0:0:
192,160,238435,1,0,0:0:0:0:
192,160,238599,1,8,0:0:0:0:
192,160,238927,1,8,0:0:0:0:
192,160,239091,1,8,0:0:0:0:
192,160,239255,1,0,0:0:0:0:
192,160,239419,1,8,0:0:0:0:
192,160,239583,1,0,0:0:0:0:
192,160,239665,1,8,0:0:0:0:
192,160,239829,1,8,0:0:0:0:
192,160,239911,1,0,0:0:0:0:
192,160,240075,1,8,0:0:0:0:
192,160,240239,1,0,0:0:0:0:
192,160,240321,1,8,0:0:0:0:
192,160,240485,1,0,0:0:0:0:
192,160,240567,1,8,0:0:0:0:
192,160,240731,1,8,0:0:0:0:
192,160,240894,1,0,0:0:0:0:
192,160,241058,1,8,0:0:0:0:
192,160,241140,1,8,0:0:0:0:
192,160,241222,1,0,0:0:0:0:
192,160,241386,1,8,0:0:0:0:
192,160,241550,1,0,0:0:0:0:
192,160,241632,1,8,0:0:0:0:
192,160,241796,1,0,0:0:0:0:
192,160,241878,1,8,0:0:0:0:
192,160,242206,1,0,0:0:0:0:
192,160,242370,1,8,0:0:0:0:
192,160,242452,1,8,0:0:0:0:
192,160,242534,1,0,0:0:0:0:
192,160,242698,1,0,0:0:0:0:
192,160,242862,1,8,0:0:0:0:
192,160,243190,1,0,0:0:0:0:
192,160,243354,1,8,0:0:0:0:
192,160,243435,1,8,0:0:0:0:
192,160,243517,1,0,0:0:0:0:
192,160,243681,1,0,0:0:0:0:
192,160,243845,1,8,0:0:0:0:
192,160,244173,1,0,0:0:0:0:
192,160,244255,1,0,0:0:0:0:
192,160,244337,1,0,0:0:0:0:
192,160,244419,1,0,0:0:0:0:
192,160,244501,1,8,0:0:0:0:
192,160,244665,1,8,0:0:0:0:
192,160,244829,1,0,0:0:0:0:
192,160,244911,1,8,0:0:0:0:
192,160,245075,1,0,0:0:0:0:
192,160,245157,1,8,0:0:0:0:
192,160,245239,1,8,0:0:0:0:
192,160,245321,1,0,0:0:0:0:
192,160,245485,1,0,0:0:0:0:
192,160,245567,1,8,0:0:0:0:
192,160,245731,1,0,0:0:0:0:
192,160,245813,1,8,0:0:0:0:
192,160,245894,1,8,0:0:0:0:
192,160,245976,1,0,0:0:0:0:
192,160,246140,1,0,0:0:0:0:
192,160,246386,1,8,0:0:0:0:
192,160,246468,1,8,0:0:0:0:
192,160,246632,1,0,0:0:0:0:
192,160,246796,1,8,0:0:0:0:
192,160,247042,1,0,0:0:0:0:
192,160,247124,1,8,0:0:0:0:
192,160,247288,1,8,0:0:0:0:
192,160,247452,1,0,0:0:0:0:
192,160,247616,1,8,0:0:0:0:
192,160,247698,1,8,0:0:0:0:
192,160,247780,1,8,0:0:0:0:
192,160,247944,1,0,0:0:0:0:
192,160,248108,1,8,0:0:0:0:
192,160,248435,1,0,0:0:0:0:
192,160,248599,1,0,0:0:0:0:
192,160,248763,1,8,0:0:0:0:
192,160,248927,1,8,0:0:0:0:
192,160,249255,1,8,0:0:0:0:
192,160,249419,1,8,0:0:0:0:
192,160,249583,1,0,0:0:0:0:
192,160,249747,1,8,0:0:0:0:
192,160,250075,1,0,0:0:0:0:
192,160,250239,1,8,0:0:0:0:
192,160,250321,1,8,0:0:0:0:
192,160,250403,1,8,0:0:0:0:
192,160,250567,1,0,0:0:0:0:
192,160,250731,1,8,0:0:0:0:
192,160,251058,1,0,0:0:0:0:
192,160,251222,1,0,0:0:0:0:
192,160,251386,1,8,0:0:0:0:
192,160,251550,1,8,0:0:0:0:
192,160,251714,1,0,0:0:0:0:
192,160,251878,1,0,0:0:0:0:
192,160,252042,1,8,0:0:0:0:
192,160,252206,1,8,0:0:0:0:
192,160,252370,1,8,0:0:0:0:
192,160,252698,1,0,0:0:0:0:
192,160,252862,1,8,0:0:0:0:
192,160,252944,1,8,0:0:0:0:
192,160,253026,1,8,0:0:0:0:
192,160,253190,1,0,0:0:0:0:
192,160,253354,1,8,0:0:0:0:
192,160,253681,1,0,0:0:0:0:
192,160,253845,1,0,0:0:0:0:
192,160,254009,1,8,0:0:0:0:
192,160,254173,1,8,0:0:0:0:
192,160,254501,1,8,0:0:0:0:
192,160,254665,1,8,0:0:0:0:
192,160,254829,1,0,0:0:0:0:
192,160,254911,1,0,0:0:0:0:
192,160,254993,1,8,0:0:0:0:
192,160,255157,1,0,0:0:0:0:
192,160,255321,1,8,0:0:0:0:
192,160,255567,1,0,0:0:0:0:
192,160,255649,1,0,0:0:0:0:
192,160,255813,1,0,0:0:0:0:
192,160,255976,1,8,0:0:0:0:
192,160,256222,1,0,0:0:0:0:
192,160,256304,1,0,0:0:0:0:
192,160,256468,1,0,0:0:0:0:
192,160,256632,1,8,0:0:0:0:
192,160,256796,1,0,0:0:0:0:
192,160,256878,1,8,0:0:0:0:
192,160,257042,1,0,0:0:0:0:
192,160,257124,1,8,0:0:0:0:
192,160,257288,1,8,0:0:0:0:
192,160,257370,1,8,0:0:0:0:
192,160,257452,1,0,0:0:0:0:
192,160,257616,1,8,0:0:0:0:
192,160,257698,1,8,0:0:0:0:
192,160,257780,1,8,0:0:0:0:
192,160,257862,1,8,0:0:0:0:
192,160,257944,1,0,0:0:0:0:
192,160,258435,1,0,0:0:0:0:
192,160,258927,1,0,0:0:0:0:
192,160,259091,1,0,0:0:0:0:
192,160,259255,1,8,0:0:0:0:
192,160,259583,1,8,0:0:0:0:
192,160,259911,1,0,0:0:0:0:
192,160,260239,1,0,0:0:0:0:
192,160,260403,1,0,0:0:0:0:
192,160,260567,1,8,0:0:0:0:
192,160,260894,1,8,0:0:0:0:
192,160,261058,1,8,0:0:0:0:
192,160,261386,1,8,0:0:0:0:
192,160,261550,1,8,0:0:0:0:
192,160,261878,1,8,0:0:0:0:
192,160,262206,1,8,0:0:0:0:
192,160,262534,1,0,0:0:0:0:
192,160,262862,1,8,0:0:0:0:
192,160,263190,1,0,0:0:0:0:
192,160,263845,1,0,0:0:0:0:
192,160,264173,1,8,0:0:0:0:
192,160,264501,1,8,0:0:0:0:
192,160,264993,1,8,0:0:0:0:
192,160,265485,1,8,0:0:0:0:
192,160,265813,1,0,0:0:0:0:
192,160,266140,1,0,0:0:0:0:
192,160,266468,1,8,0:0:0:0:
192,160,266796,1,8,0:0:0:0:
192,160,266960,1,0,0:0:0:0:
192,160,268435,1,8,0:0:0:0:
192,160,268927,1,0,0:0:0:0:
192,160,269419,1,0,0:0:0:0:
192,160,269583,1,0,0:0:0:0:
192,160,269747,1,8,0:0:0:0:
192,160,270075,1,8,0:0:0:0:
192,160,270403,1,0,0:0:0:0:
192,160,270731,1,0,0:0:0:0:
192,160,270894,1,0,0:0:0:0:
192,160,271058,1,8,0:0:0:0:
192,160,271386,1,8,0:0:0:0:
192,160,271550,1,8,0:0:0:0:
192,160,271878,1,8,0:0:0:0:
192,160,272042,1,8,0:0:0:0:
192,160,272370,1,8,0:0:0:0:
192,160,272698,1,8,0:0:0:0:
192,160,273026,1,0,0:0:0:0:
192,160,273354,1,8,0:0:0:0:
192,160,273681,1,0,0:0:0:0:
192,160,274337,1,0,0:0:0:0:
192,160,274665,1,8,0:0:0:0:
192,160,274993,1,8,0:0:0:0:
192,160,275485,1,8,0:0:0:0:
192,160,275976,1,0,0:0:0:0:
192,160,276304,1,8,0:0:0:0:
192,160,276632,1,0,0:0:0:0:
192,160,276960,1,8,0:0:0:0:
192,160,277288,1,8,0:0:0:0:
192,160,277452,1,0,0:0:0:0:
192,160,277944,1,8,0:0:0:0:
192,160,278272,1,8,0:0:0:0:
192,160,278599,1,8,0:0:0:0:
192,160,278927,1,0,0:0:0:0:
192,160,279419,1,8,0:0:0:0:
192,160,280075,1,8,0:0:0:0:
192,160,280157,1,8,0:0:0:0:
192,160,280239,1,0,0:0:0:0:
192,160,281222,1,8,0:0:0:0:
192,160,281550,1,0,0:0:0:0:
192,160,282206,1,8,0:0:0:0:
192,160,282698,1,8,0:0:0:0:
192,160,283190,1,0,0:0:0:0:
192,160,283681,1,0,0:0:0:0:
192,160,283845,1,0,0:0:0:0:
192,160,284009,1,0,0:0:0:0:
192,160,284173,1,8,0:0:0:0:
192,160,285485,1,0,0:0:0:0:
192,160,286140,1,8,0:0:0:0:
192,160,286796,1,8,0:0:0:0:
192,160,289419,1,0,0:0:0:0:
192,160,289911,1,8,0:0:0:0:
192,160,290567,1,8,0:0:0:0:
192,160,290649,1,8,0:0:0:0:
192,160,290731,1,8,0:0:0:0:
192,160,291222,1,8,0:0:0:0:
192,160,291714,1,0,0:0:0:0:
192,160,292042,1,8,0:0:0:0:
192,160,292534,1,0,0:0:0:0:
192,160,293026,1,8,0:0:0:0:
192,160,293354,1,0,0:0:0:0:
192,160,294665,1,4,0:0:0:0:
192,160,295976,1,4,0:0:0:0:
192,160,297288,1,4,0:0:0:0:
192,160,297944,1,4,0:0:0:0:
192,160,298599,1,4,0:0:0:0:
192,160,298927,1,4,0:0:0:0:
192,160,299255,1,4,0:0:0:0:
192,160,299583,1,4,0:0:0:0:
192,160,299747,1,0,0:0:0:0:
192,160,299829,1,0,0:0:0:0:
192,160,299911,1,8,0:0:0:0:
192,160,300239,1,0,0:0:0:0:
192,160,300567,1,8,0:0:0:0:
192,160,300731,1,0,0:0:0:0:
192,160,301058,1,0,0:0:0:0:
192,160,301140,1,0,0:0:0:0:
192,160,301222,1,8,0:0:0:0:
192,160,301550,1,0,0:0:0:0:
192,160,301878,1,8,0:0:0:0:
192,160,302042,1,8,0:0:0:0:
192,160,302370,1,8,0:0:0:0:
192,160,302534,1,0,0:0:0:0:
192,160,302862,1,8,0:0:0:0:
192,160,303190,1,0,0:0:0:0:
192,160,303354,1,0,0:0:0:0:
192,160,303681,1,8,0:0:0:0:
192,160,304009,1,0,0:0:0:0:
192,160,304173,1,0,0:0:0:0:
192,160,304501,1,0,0:0:0:0:
224,160,304829,1,0,0:0:0:0:
224,160,304993,1,0,0:0:0:0:
224,160,305157,1,12,0:0:0:0:
224,160,305485,1,8,0:0:0:0:
224,160,305649,1,0,0:0:0:0:
224,160,305813,1,0,0:0:0:0:
224,160,306140,1,8,0:0:0:0:
224,160,306468,1,8,0:0:0:0:
224,160,306796,1,0,0:0:0:0:
224,160,306960,1,8,0:0:0:0:
224,160,307452,1,0,0:0:0:0:
224,160,307780,1,8,0:0:0:0:
224,160,308108,1,0,0:0:0:0:
224,160,308272,1,8,0:0:0:0:
224,160,308763,1,8,0:0:0:0:
224,160,309091,1,0,0:0:0:0:
256,160,309255,1,8,0:0:0:0:
256,160,309419,1,8,0:0:0:0:
224,160,309747,1,0,0:0:0:0:
224,160,309993,1,0,0:0:0:0:
224,160,310239,1,0,0:0:0:0:
224,160,310403,1,12,0:0:0:0:
224,160,310731,1,0,0:0:0:0:
224,160,311058,1,8,0:0:0:0:
224,160,311222,1,0,0:0:0:0:
224,160,311550,1,0,0:0:0:0:
224,160,311632,1,0,0:0:0:0:
224,160,311714,1,8,0:0:0:0:
224,160,312042,1,0,0:0:0:0:
224,160,312370,1,8,0:0:0:0:
224,160,312534,1,8,0:0:0:0:
224,160,312862,1,0,0:0:0:0:
224,160,313026,1,8,0:0:0:0:
224,160,313354,1,8,0:0:0:0:
224,160,313681,1,0,0:0:0:0:
224,160,313845,1,0,0:0:0:0:
224,160,314173,1,8,0:0:0:0:
224,160,314501,1,8,0:0:0:0:
224,160,314665,1,8,0:0:0:0:
224,160,314993,1,8,0:0:0:0:
224,160,315321,1,0,0:0:0:0:
224,160,315649,1,12,0:0:0:0:
224,160,315976,1,0,0:0:0:0:
224,160,316140,1,8,0:0:0:0:
224,160,316632,1,0,0:0:0:0:
224,160,316960,1,12,0:0:0:0:
224,160,317288,1,0,0:0:0:0:
224,160,317452,1,8,0:0:0:0:
224,160,317944,1,8,0:0:0:0:
224,160,318272,1,4,0:0:0:0:
224,160,318599,1,12,0:0:0:0:
224,160,318927,1,4,0:0:0:0:
224,160,319255,1,12,0:0:0:0:
192,160,319583,1,0,0:0:0:0:
192,160,319665,1,0,0:0:0:0:
192,160,319747,1,0,0:0:0:0:
192,160,319911,1,0,0:0:0:0:
192,160,320075,1,0,0:0:0:0:
192,160,320157,1,0,0:0:0:0:
192,160,320239,1,8,0:0:0:0:
192,160,320321,1,8,0:0:0:0:
192,160,320403,1,8,0:0:0:0:
192,160,320485,1,8,0:0:0:0:
192,160,320567,1,0,0:0:0:0:
192,160,320649,1,0,0:0:0:0:
192,160,320731,1,0,0:0:0:0:
192,160,320813,1,0,0:0:0:0:
192,160,320894,1,8,0:0:0:0:
192,160,321058,1,0,0:0:0:0:
192,160,321140,1,0,0:0:0:0:
192,160,321222,1,8,0:0:0:0:
192,160,321386,1,0,0:0:0:0:
192,160,321468,1,0,0:0:0:0:
192,160,321632,1,0,0:0:0:0:
192,160,321714,1,8,0:0:0:0:
192,160,321878,1,8,0:0:0:0:
192,160,321960,1,8,0:0:0:0:
192,160,322042,1,0,0:0:0:0:
192,160,322206,1,8,0:0:0:0:
192,160,322370,1,0,0:0:0:0:
192,160,322452,1,0,0:0:0:0:
192,160,322534,1,8,0:0:0:0:
192,160,322616,1,8,0:0:0:0:
192,160,322698,1,0,0:0:0:0:
192,160,322780,1,8,0:0:0:0:
192,160,322944,1,0,0:0:0:0:
192,160,323026,1,8,0:0:0:0:
192,160,323190,1,8,0:0:0:0:
192,160,323272,1,8,0:0:0:0:
192,160,323354,1,0,0:0:0:0:
192,160,323517,1,8,0:0:0:0:
192,160,323845,1,0,0:0:0:0:
192,160,324009,1,8,0:0:0:0:
192,160,324173,1,0,0:0:0:0:
192,160,324255,1,0,0:0:0:0:
192,160,324337,1,0,0:0:0:0:
192,160,324419,1,0,0:0:0:0:
192,160,324501,1,8,0:0:0:0:
192,160,324665,1,8,0:0:0:0:
192,160,324829,1,0,0:0:0:0:
192,160,324993,1,8,0:0:0:0:
192,160,325075,1,8,0:0:0:0:
192,160,325157,1,0,0:0:0:0:
192,160,325321,1,0,0:0:0:0:
192,160,325485,1,0,0:0:0:0:
192,160,325567,1,0,0:0:0:0:
192,160,325649,1,8,0:0:0:0:
192,160,325731,1,8,0:0:0:0:
192,160,325813,1,0,0:0:0:0:
192,160,325894,1,8,0:0:0:0:
192,160,325976,1,0,0:0:0:0:
192,160,326058,1,0,0:0:0:0:
192,160,326140,1,8,0:0:0:0:
192,160,326304,1,0,0:0:0:0:
192,160,326386,1,0,0:0:0:0:
192,160,326468,1,0,0:0:0:0:
192,160,326632,1,0,0:0:0:0:
192,160,326796,1,8,0:0:0:0:
192,160,326960,1,0,0:0:0:0:
192,160,327042,1,0,0:0:0:0:
192,160,327124,1,0,0:0:0:0:
192,160,327288,1,0,0:0:0:0:
192,160,327370,1,0,0:0:0:0:
192,160,327452,1,8,0:0:0:0:
192,160,327616,1,0,0:0:0:0:
192,160,327698,1,0,0:0:0:0:
192,160,327780,1,0,0:0:0:0:
192,160,327944,1,8,0:0:0:0:
192,160,328108,1,8,0:0:0:0:
192,160,328272,1,0,0:0:0:0:
192,160,328354,1,0,0:0:0:0:
192,160,328435,1,0,0:0:0:0:
192,160,328599,1,8,0:0:0:0:
192,160,328763,1,8,0:0:0:0:
192,160,328927,1,0,0:0:0:0:
192,160,329009,1,8,0:0:0:0:
192,160,329173,1,0,0:0:0:0:
192,160,329255,1,8,0:0:0:0:
192,160,329419,1,0,0:0:0:0:
192,160,329501,1,8,0:0:0:0:
192,160,329583,1,0,0:0:0:0:
192,160,329747,1,8,0:0:0:0:
192,160,329911,1,0,0:0:0:0:
192,160,330075,1,8,0:0:0:0:
192,160,330157,1,0,0:0:0:0:
192,160,330239,1,0,0:0:0:0:
192,160,330321,1,8,0:0:0:0:
192,160,330403,1,0,0:0:0:0:
192,160,330485,1,0,0:0:0:0:
192,160,330567,1,8,0:0:0:0:
192,160,330731,1,0,0:0:0:0:
192,160,330813,1,8,0:0:0:0:
192,160,330894,1,0,0:0:0:0:
192,160,331058,1,8,0:0:0:0:
192,160,331222,1,8,0:0:0:0:
192,160,331386,1,8,0:0:0:0:
224,160,331468,1,8,0:0:0:0:
192,160,331550,1,0,0:0:0:0:
192,160,331632,1,0,0:0:0:0:
192,160,331714,1,8,0:0:0:0:
192,160,331878,1,0,0:0:0:0:
192,160,331960,1,0,0:0:0:0:
192,160,332124,1,0,0:0:0:0:
192,160,332206,1,8,0:0:0:0:
192,160,332370,1,8,0:0:0:0:
192,160,332452,1,8,0:0:0:0:
192,160,332534,1,0,0:0:0:0:
192,160,332698,1,8,0:0:0:0:
192,160,332780,1,8,0:0:0:0:
192,160,332862,1,0,0:0:0:0:
192,160,332944,1,0,0:0:0:0:
192,160,333026,1,8,0:0:0:0:
192,160,333190,1,0,0:0:0:0:
192,160,333272,1,0,0:0:0:0:
192,160,333435,1,0,0:0:0:0:
192,160,333517,1,8,0:0:0:0:
192,160,333681,1,8,0:0:0:0:
192,160,333763,1,8,0:0:0:0:
192,160,333845,1,0,0:0:0:0:
192,160,334009,1,8,0:0:0:0:
192,160,334173,1,0,0:0:0:0:
192,160,334337,1,8,0:0:0:0:
192,160,334501,1,0,0:0:0:0:
192,160,334665,1,0,0:0:0:0:
192,160,334747,1,8,0:0:0:0:
192,160,334829,1,0,0:0:0:0:
192,160,334911,1,0,0:0:0:0:
192,160,334993,1,8,0:0:0:0:
192,160,335157,1,8,0:0:0:0:
192,160,335239,1,8,0:0:0:0:
192,160,335321,1,8,0:0:0:0:
192,160,335485,1,8,0:0:0:0:
192,160,335649,1,0,0:0:0:0:
192,160,335813,1,0,0:0:0:0:
192,160,335976,1,0,0:0:0:0:
192,160,336058,1,0,0:0:0:0:
192,160,336140,1,8,0:0:0:0:
192,160,336222,1,8,0:0:0:0:
192,160,336304,1,0,0:0:0:0:
192,160,336386,1,8,0:0:0:0:
192,160,336468,1,0,0:0:0:0:
192,160,336550,1,0,0:0:0:0:
192,160,336632,1,8,0:0:0:0:
192,160,336796,1,8,0:0:0:0:
192,160,336878,1,8,0:0:0:0:
192,160,336960,1,0,0:0:0:0:
192,160,337124,1,8,0:0:0:0:
192,160,337206,1,0,0:0:0:0:
192,160,337288,1,8,0:0:0:0:
192,160,337370,1,8,0:0:0:0:
192,160,337452,1,0,0:0:0:0:
192,160,337616,1,8,0:0:0:0:
192,160,337698,1,0,0:0:0:0:
192,160,337780,1,8,0:0:0:0:
192,160,337862,1,8,0:0:0:0:
192,160,337944,1,0,0:0:0:0:
192,160,338026,1,0,0:0:0:0:
192,160,338108,1,8,0:0:0:0:
192,160,338190,1,0,0:0:0:0:
192,160,338272,1,8,0:0:0:0:
192,160,338354,1,8,0:0:0:0:
192,160,338435,1,0,0:0:0:0:
192,160,338517,1,0,0:0:0:0:
192,160,338599,1,8,0:0:0:0:
192,160,338681,1,0,0:0:0:0:
192,160,338763,1,8,0:0:0:0:
192,160,338845,1,8,0:0:0:0:
192,160,338927,1,0,0:0:0:0:
192,160,339091,1,0,0:0:0:0:
192,160,339173,1,0,0:0:0:0:
192,160,339255,1,8,0:0:0:0:
192,160,339419,1,0,0:0:0:0:
192,160,339501,1,8,0:0:0:0:
192,160,339583,1,0,0:0:0:0:
192,160,339747,1,8,0:0:0:0:
192,160,339911,1,0,0:0:0:0:
192,160,339993,1,8,0:0:0:0:
192,160,340075,1,0,0:0:0:0:
192,160,340239,1,0,0:0:0:0:
192,160,340321,1,0,0:0:0:0:
192,160,340403,1,8,0:0:0:0:
192,160,340567,1,8,0:0:0:0:
192,160,340649,1,8,0:0:0:0:
192,160,340731,1,0,0:0:0:0:
192,160,340813,1,8,0:0:0:0:
192,160,340894,1,0,0:0:0:0:
192,160,340976,1,8,0:0:0:0:
192,160,341058,1,0,0:0:0:0:
192,160,341222,1,0,0:0:0:0:
192,160,341468,1,8,0:0:0:0:
192,160,341714,1,8,0:0:0:0:
160,160,341878,1,4,0:0:0:0:
192,160,342042,1,0,0:0:0:0:
192,160,342124,1,0,0:0:0:0:
192,160,342206,1,0,0:0:0:0:
192,160,342370,1,8,0:0:0:0:
192,160,342698,1,0,0:0:0:0:
192,160,342862,1,8,0:0:0:0:
192,160,343026,1,0,0:0:0:0:
192,160,343190,1,8,0:0:0:0:
192,160,343354,1,0,0:0:0:0:
192,160,343435,1,0,0:0:0:0:
192,160,343517,1,8,0:0:0:0:
192,160,343845,1,0,0:0:0:0:
192,160,343927,1,0,0:0:0:0:
192,160,344009,1,0,0:0:0:0:
192,192,344091,1,0,0:0:0:0:
192,160,344173,1,8,0:0:0:0:
192,160,344337,1,0,0:0:0:0:
192,160,344501,1,8,0:0:0:0:
192,160,344829,1,0,0:0:0:0:
192,160,344993,1,0,0:0:0:0:
192,160,345157,1,8,0:0:0:0:
192,160,345321,1,8,0:0:0:0:
192,160,345403,1,8,0:0:0:0:
192,160,345485,1,0,0:0:0:0:
192,160,345649,1,0,0:0:0:0:
192,160,345813,1,8,0:0:0:0:
192,160,345894,1,8,0:0:0:0:
192,160,345976,1,8,0:0:0:0:
192,160,346140,1,0,0:0:0:0:
192,160,346304,1,0,0:0:0:0:
192,160,346468,1,8,0:0:0:0:
192,160,346632,1,0,0:0:0:0:
192,160,346796,1,8,0:0:0:0:
192,160,347124,1,8,0:0:0:0:
192,160,347288,1,0,0:0:0:0:
192,160,347370,1,0,0:0:0:0:
192,160,347452,1,0,0:0:0:0:
192,160,347616,1,8,0:0:0:0:
192,160,347780,1,0,0:0:0:0:
192,160,347862,1,0,0:0:0:0:
192,160,347944,1,0,0:0:0:0:
192,160,348108,1,8,0:0:0:0:
192,160,348272,1,0,0:0:0:0:
192,160,348435,1,8,0:0:0:0:
192,160,348599,1,0,0:0:0:0:
192,160,348681,1,0,0:0:0:0:
192,160,348763,1,0,0:0:0:0:
192,160,348927,1,8,0:0:0:0:
192,160,349091,1,0,0:0:0:0:
192,160,349173,1,0,0:0:0:0:
192,160,349255,1,0,0:0:0:0:
192,160,349419,1,8,0:0:0:0:
192,160,349583,1,0,0:0:0:0:
192,160,349747,1,8,0:0:0:0:
192,160,349911,1,8,0:0:0:0:
192,160,350075,1,0,0:0:0:0:
192,160,350239,1,0,0:0:0:0:
192,160,350403,1,8,0:0:0:0:
192,160,350567,1,0,0:0:0:0:
192,160,350649,1,0,0:0:0:0:
192,160,350731,1,8,0:0:0:0:
192,160,350894,1,8,0:0:0:0:
192,160,350976,1,8,0:0:0:0:
192,160,351058,1,0,0:0:0:0:
192,160,351140,1,8,0:0:0:0:
192,160,351222,1,0,0:0:0:0:
192,160,351304,1,0,0:0:0:0:
192,160,351386,1,8,0:0:0:0:
192,160,351468,1,8,0:0:0:0:
192,160,351550,1,8,0:0:0:0:
192,160,351632,1,8,0:0:0:0:
192,160,351714,1,0,0:0:0:0:
192,160,351796,1,0,0:0:0:0:
192,160,351878,1,8,0:0:0:0:
192,160,351960,1,8,0:0:0:0:
192,160,352042,1,8,0:0:0:0:
192,160,352124,1,0,0:0:0:0:
192,160,352206,1,8,0:0:0:0:
192,160,352288,1,8,0:0:0:0:
192,160,352370,1,0,0:0:0:0:
192,128,352534,1,0,0:0:0:0:
192,128,352616,1,0,0:0:0:0:
192,128,352698,1,0,0:0:0:0:
192,160,352862,1,8,0:0:0:0:
192,160,353026,1,0,0:0:0:0:
192,160,353190,1,0,0:0:0:0:
192,160,353354,1,8,0:0:0:0:
192,160,353681,1,8,0:0:0:0:
192,160,353845,1,0,0:0:0:0:
192,128,353927,1,0,0:0:0:0:
192,160,354009,1,8,0:0:0:0:
192,160,354173,1,8,0:0:0:0:
192,160,354337,1,0,0:0:0:0:
192,160,354501,1,8,0:0:0:0:
192,160,354665,1,0,0:0:0:0:
192,160,354829,1,0,0:0:0:0:
192,160,354993,1,8,0:0:0:0:
192,160,355157,1,0,0:0:0:0:
192,160,355239,1,0,0:0:0:0:
192,160,355321,1,0,0:0:0:0:
192,160,355485,1,8,0:0:0:0:
192,160,355649,1,0,0:0:0:0:
192,160,355813,1,0,0:0:0:0:
192,160,355976,1,8,0:0:0:0:
192,160,356304,1,0,0:0:0:0:
192,160,356468,1,0,0:0:0:0:
192,160,356632,1,8,0:0:0:0:
192,160,356960,1,0,0:0:0:0:
192,160,357124,1,0,0:0:0:0:
192,160,357288,1,8,0:0:0:0:
192,160,357370,1,8,0:0:0:0:
192,160,357452,1,8,0:0:0:0:
192,160,357534,1,8,0:0:0:0:
192,160,357616,1,0,0:0:0:0:
192,160,357780,1,8,0:0:0:0:
192,160,357862,1,8,0:0:0:0:
192,160,357944,1,8,0:0:0:0:
192,160,358108,1,0,0:0:0:0:
192,160,358272,1,8,0:0:0:0:
192,160,358354,1,8,0:0:0:0:
192,160,358435,1,8,0:0:0:0:
192,160,358599,1,0,0:0:0:0:
192,160,358763,1,8,0:0:0:0:
192,160,358927,1,0,0:0:0:0:
192,160,359091,1,8,0:0:0:0:
192,160,359173,1,8,0:0:0:0:
192,160,359255,1,8,0:0:0:0:
192,160,359419,1,0,0:0:0:0:
192,160,359583,1,8,0:0:0:0:
192,160,359665,1,8,0:0:0:0:
192,160,359747,1,0,0:0:0:0:
192,160,359829,1,0,0:0:0:0:
192,160,359911,1,8,0:0:0:0:
192,160,360075,1,8,0:0:0:0:
192,160,360239,1,0,0:0:0:0:
192,160,360321,1,8,0:0:0:0:
192,160,360403,1,0,0:0:0:0:
192,160,360485,1,0,0:0:0:0:
192,160,360567,1,8,0:0:0:0:
192,160,360731,1,0,0:0:0:0:
192,160,360894,1,0,0:0:0:0:
192,160,361058,1,0,0:0:0:0:
192,160,361140,1,0,0:0:0:0:
192,160,361222,1,8,0:0:0:0:
192,160,361386,1,0,0:0:0:0:
192,160,361550,1,12,0:0:0:0:
192,160,361878,1,0,0:0:0:0:
192,160,362042,1,12,0:0:0:0:
192,160,362370,1,0,0:0:0:0:
192,160,362534,1,12,0:0:0:0:
192,160,362698,1,0,0:0:0:0:
192,160,362862,1,12,0:0:0:0:
192,160,363026,1,8,0:0:0:0:
192,160,363108,1,8,0:0:0:0:
192,160,363190,1,0,0:0:0:0:
192,160,363354,1,0,0:0:0:0:
192,160,363517,1,8,0:0:0:0:
192,160,363845,1,0,0:0:0:0:
192,160,364009,1,0,0:0:0:0:
192,160,364173,1,8,0:0:0:0:
192,160,364337,1,8,0:0:0:0:
192,160,364419,1,8,0:0:0:0:
192,160,364501,1,0,0:0:0:0:
192,160,364665,1,0,0:0:0:0:
192,160,364829,1,8,0:0:0:0:
192,160,365157,1,0,0:0:0:0:
192,160,365321,1,8,0:0:0:0:
192,160,365485,1,0,0:0:0:0:
192,160,365649,1,0,0:0:0:0:
192,160,365731,1,0,0:0:0:0:
192,160,365813,1,0,0:0:0:0:
192,160,365976,1,0,0:0:0:0:
192,160,366140,1,8,0:0:0:0:
192,160,366468,1,0,0:0:0:0:
192,160,366632,1,0,0:0:0:0:
192,160,366796,1,8,0:0:0:0:
192,160,366960,1,0,0:0:0:0:
192,160,367042,1,0,0:0:0:0:
192,160,367124,1,8,0:0:0:0:
192,160,367288,1,8,0:0:0:0:
192,160,367452,1,0,0:0:0:0:
192,160,367780,1,0,0:0:0:0:
192,160,367944,1,0,0:0:0:0:
192,160,368108,1,8,0:0:0:0:
192,160,368272,1,8,0:0:0:0:
192,160,368354,1,8,0:0:0:0:
192,160,368435,1,0,0:0:0:0:
192,160,368599,1,0,0:0:0:0:
192,160,368763,1,8,0:0:0:0:
192,160,369091,1,0,0:0:0:0:
192,160,369255,1,0,0:0:0:0:
192,160,369419,1,8,0:0:0:0:
192,160,369583,1,8,0:0:0:0:
192,160,369665,1,8,0:0:0:0:
192,160,369747,1,0,0:0:0:0:
192,160,369911,1,0,0:0:0:0:
192,160,370075,1,8,0:0:0:0:
192,160,370403,1,0,0:0:0:0:
192,160,370567,1,8,0:0:0:0:
192,160,370731,1,0,0:0:0:0:
192,160,370894,1,0,0:0:0:0:
192,160,370976,1,0,0:0:0:0:
192,160,371058,1,0,0:0:0:0:
192,160,371222,1,0,0:0:0:0:
192,160,371386,1,8,0:0:0:0:
192,160,371714,1,0,0:0:0:0:
192,160,371878,1,0,0:0:0:0:
192,160,372042,1,12,0:0:0:0:
192,160,372206,1,0,0:0:0:0:
192,160,372288,1,8,0:0:0:0:
192,160,372370,1,0,0:0:0:0:
192,160,372534,1,12,0:0:0:0:
192,160,372698,1,0,0:0:0:0:
192,160,373026,1,12,0:0:0:0:
192,160,373190,1,0,0:0:0:0:
192,160,373354,1,12,0:0:0:0:
192,160,373517,1,8,0:0:0:0:
192,160,373599,1,8,0:0:0:0:
192,160,373681,1,0,0:0:0:0:
192,160,373845,1,0,0:0:0:0:
192,160,374009,1,8,0:0:0:0:
192,160,374337,1,0,0:0:0:0:
192,160,374501,1,0,0:0:0:0:
192,160,374665,1,8,0:0:0:0:
192,160,374829,1,8,0:0:0:0:
192,160,374911,1,8,0:0:0:0:
192,160,374993,1,0,0:0:0:0:
192,160,375157,1,0,0:0:0:0:
192,160,375321,1,8,0:0:0:0:
192,160,375649,1,0,0:0:0:0:
192,160,375813,1,8,0:0:0:0:
192,160,375976,1,0,0:0:0:0:
192,160,376140,1,0,0:0:0:0:
192,160,376222,1,0,0:0:0:0:
192,160,376304,1,0,0:0:0:0:
192,160,376468,1,0,0:0:0:0:
192,160,376632,1,8,0:0:0:0:
192,160,376960,1,0,0:0:0:0:
192,160,377124,1,0,0:0:0:0:
192,160,377288,1,8,0:0:0:0:
192,160,377452,1,0,0:0:0:0:
192,160,377534,1,0,0:0:0:0:
192,160,377616,1,8,0:0:0:0:
192,160,377780,1,8,0:0:0:0:
192,160,377944,1,0,0:0:0:0:
192,160,378272,1,8,0:0:0:0:
192,160,378435,1,0,0:0:0:0:
192,160,378599,1,12,0:0:0:0:
192,160,378763,1,8,0:0:0:0:
192,160,378845,1,8,0:0:0:0:
192,160,378927,1,0,0:0:0:0:
192,160,379091,1,12,0:0:0:0:
192,160,379255,1,0,0:0:0:0:
192,160,379419,1,0,0:0:0:0:
192,160,379583,1,12,0:0:0:0:
192,160,379747,1,0,0:0:0:0:
192,160,379911,1,12,0:0:0:0:
192,160,380075,1,8,0:0:0:0:
192,160,380157,1,8,0:0:0:0:
192,160,380239,1,0,0:0:0:0:
192,160,380403,1,12,0:0:0:0:
192,160,380567,1,0,0:0:0:0:
192,160,380731,1,0,0:0:0:0:
192,160,380894,1,12,0:0:0:0:
192,160,381058,1,0,0:0:0:0:
192,160,381222,1,12,0:0:0:0:
192,160,381386,1,0,0:0:0:0:
192,160,381468,1,8,0:0:0:0:
192,160,381550,1,0,0:0:0:0:
192,160,381714,1,12,0:0:0:0:
192,160,381878,1,0,0:0:0:0:
192,160,382042,1,0,0:0:0:0:
192,160,382206,1,12,0:0:0:0:
192,160,382370,1,0,0:0:0:0:
192,160,382534,1,12,0:0:0:0:
192,160,383517,1,0,0:0:0:0:
192,160,383599,1,0,0:0:0:0:
192,160,383681,1,8,0:0:0:0:
192,160,383763,1,8,0:0:0:0:
192,160,383845,1,0,0:0:0:0:
192,160,384173,1,8,0:0:0:0:
192,160,384501,1,0,0:0:0:0:
192,160,384829,1,8,0:0:0:0:
192,160,385157,1,0,0:0:0:0:
192,160,385485,1,0,0:0:0:0:
192,160,385649,1,8,0:0:0:0:
192,160,385813,1,0,0:0:0:0:
192,160,386140,1,8,0:0:0:0:
192,160,386468,1,8,0:0:0:0:
192,160,386632,1,0,0:0:0:0:
192,160,386796,1,8,0:0:0:0:
192,160,386960,1,8,0:0:0:0:
192,160,387124,1,0,0:0:0:0:
192,160,387288,1,8,0:0:0:0:
192,160,387370,1,8,0:0:0:0:
192,160,387452,1,0,0:0:0:0:
192,160,387616,1,8,0:0:0:0:
192,160,387780,1,0,0:0:0:0:
192,160,387944,1,8,0:0:0:0:
192,160,388108,1,0,0:0:0:0:
192,160,388272,1,8,0:0:0:0:
192,160,388435,1,0,0:0:0:0:
192,160,388599,1,8,0:0:0:0:
192,160,388763,1,8,0:0:0:0:
192,160,389091,1,0,0:0:0:0:
192,160,389419,1,8,0:0:0:0:
192,160,389747,1,0,0:0:0:0:
192,160,390075,1,8,0:0:0:0:
192,160,390403,1,0,0:0:0:0:
192,160,390731,1,0,0:0:0:0:
192,160,390894,1,8,0:0:0:0:
192,160,391058,1,0,0:0:0:0:
192,160,391386,1,8,0:0:0:0:
192,160,391714,1,8,0:0:0:0:
192,160,391878,1,0,0:0:0:0:
192,160,392042,1,8,0:0:0:0:
192,160,392206,1,8,0:0:0:0:
192,160,392370,1,0,0:0:0:0:
192,160,392534,1,8,0:0:0:0:
192,160,392616,1,8,0:0:0:0:
192,160,392698,1,0,0:0:0:0:
192,160,392862,1,0,0:0:0:0:
192,160,393026,1,8,0:0:0:0:
192,160,393190,1,8,0:0:0:0:
192,160,393272,1,8,0:0:0:0:
192,160,393354,1,8,0:0:0:0:
192,160,393517,1,8,0:0:0:0:
192,160,393681,1,8,0:0:0:0:
192,160,393763,1,8,0:0:0:0:
192,160,393845,1,8,0:0:0:0:
192,160,393927,1,8,0:0:0:0:
192,160,394009,1,8,0:0:0:0:
192,160,394091,1,8,0:0:0:0:
192,160,394173,1,8,0:0:0:0:
192,160,394255,1,8,0:0:0:0:
192,160,394337,1,0,0:0:0:0:
192,160,394501,1,0,0:0:0:0:
192,160,394665,1,8,0:0:0:0:
192,160,394829,1,8,0:0:0:0:
192,160,394911,1,8,0:0:0:0:
192,160,394993,1,0,0:0:0:0:
192,160,395075,1,0,0:0:0:0:
192,160,395157,1,8,0:0:0:0:
192,160,395321,1,0,0:0:0:0:
192,160,395403,1,0,0:0:0:0:
192,160,395485,1,8,0:0:0:0:
192,160,395649,1,8,0:0:0:0:
192,160,395731,1,0,0:0:0:0:
192,160,395813,1,0,0:0:0:0:
192,160,395894,1,8,0:0:0:0:
192,160,395976,1,0,0:0:0:0:
192,160,396058,1,0,0:0:0:0:
192,160,396140,1,8,0:0:0:0:
192,160,396222,1,0,0:0:0:0:
192,160,396304,1,8,0:0:0:0:
192,160,396386,1,8,0:0:0:0:
192,160,396468,1,0,0:0:0:0:
192,160,396550,1,0,0:0:0:0:
192,160,396632,1,8,0:0:0:0:
192,160,396960,1,8,0:0:0:0:
192,160,397124,1,0,0:0:0:0:
192,160,397288,1,8,0:0:0:0:
192,160,397452,1,8,0:0:0:0:
192,160,397616,1,0,0:0:0:0:
192,160,397780,1,8,0:0:0:0:
192,160,397862,1,8,0:0:0:0:
192,160,397944,1,0,0:0:0:0:
192,160,398108,1,8,0:0:0:0:
192,160,398272,1,0,0:0:0:0:
192,160,398435,1,8,0:0:0:0:
192,160,398599,1,0,0:0:0:0:
192,160,398763,1,8,0:0:0:0:
192,160,398927,1,0,0:0:0:0:
192,160,399091,1,8,0:0:0:0:
192,160,399173,1,0,0:0:0:0:
192,160,399255,1,8,0:0:0:0:
192,160,399337,1,8,0:0:0:0:
192,160,399419,1,0,0:0:0:0:
192,160,399583,1,0,0:0:0:0:
192,160,399747,1,0,0:0:0:0:
192,160,399911,1,8,0:0:0:0:
192,160,400075,1,8,0:0:0:0:
192,160,400157,1,8,0:0:0:0:
192,160,400239,1,0,0:0:0:0:
192,160,400321,1,0,0:0:0:0:
192,160,400403,1,8,0:0:0:0:
192,160,400567,1,0,0:0:0:0:
192,160,400649,1,0,0:0:0:0:
192,160,400731,1,8,0:0:0:0:
192,160,400894,1,8,0:0:0:0:
192,160,400976,1,0,0:0:0:0:
192,160,401058,1,0,0:0:0:0:
192,160,401140,1,8,0:0:0:0:
192,160,401222,1,0,0:0:0:0:
192,160,401304,1,0,0:0:0:0:
192,160,401386,1,8,0:0:0:0:
192,160,401468,1,0,0:0:0:0:
192,160,401550,1,8,0:0:0:0:
192,160,401632,1,8,0:0:0:0:
192,160,401714,1,0,0:0:0:0:
192,160,401796,1,0,0:0:0:0:
192,160,401878,1,8,0:0:0:0:
192,160,402206,1,8,0:0:0:0:
192,160,402370,1,0,0:0:0:0:
192,160,402534,1,8,0:0:0:0:
192,160,402698,1,12,0:0:0:0:
192,160,403026,1,8,0:0:0:0:
192,160,403108,1,8,0:0:0:0:
192,160,403190,1,0,0:0:0:0:
192,160,403354,1,8,0:0:0:0:
192,160,403517,1,4,0:0:0:0:
192,160,403845,1,4,0:0:0:0:
192,160,404173,1,0,0:0:0:0:
192,160,404255,1,0,0:0:0:0:
192,160,404337,1,0,0:0:0:0:
192,160,404419,1,0,0:0:0:0:
192,160,404501,1,8,0:0:0:0:
192,160,404583,1,8,0:0:0:0:
192,160,404665,1,8,0:0:0:0:
192,160,404747,1,8,0:0:0:0:
192,160,404829,1,0,0:0:0:0:
192,160,405157,1,0,0:0:0:0:
192,160,405485,1,0,0:0:0:0:
192,160,405813,1,0,0:0:0:0:
192,160,406140,1,0,0:0:0:0:
192,160,406304,1,8,0:0:0:0:
192,160,406468,1,0,0:0:0:0:
192,160,406632,1,0,0:0:0:0:
192,160,406796,1,8,0:0:0:0:
192,160,406960,1,8,0:0:0:0:
192,160,407124,1,8,0:0:0:0:
192,160,407288,1,8,0:0:0:0:
192,160,407370,1,8,0:0:0:0:
192,160,407452,1,0,0:0:0:0:
192,160,407616,1,8,0:0:0:0:
192,160,407780,1,8,0:0:0:0:
192,160,407944,1,0,0:0:0:0:
192,160,408026,1,0,0:0:0:0:
192,160,408108,1,8,0:0:0:0:
192,160,408272,1,0,0:0:0:0:
192,160,408354,1,0,0:0:0:0:
192,160,408435,1,0,0:0:0:0:
192,160,408517,1,0,0:0:0:0:
192,160,408599,1,0,0:0:0:0:
192,160,408681,1,0,0:0:0:0:
192,160,408763,1,8,0:0:0:0:
192,160,408845,1,8,0:0:0:0:
192,160,408927,1,8,0:0:0:0:
192,160,409009,1,8,0:0:0:0:
192,160,409091,1,0,0:0:0:0:
192,160,409173,1,8,0:0:0:0:
192,160,409255,1,0,0:0:0:0:
192,160,409419,1,12,0:0:0:0:
192,160,409583,1,4,0:0:0:0:
192,160,409747,1,4,0:0:0:0:
192,160,410075,1,8,0:0:0:0:
192,160,410239,1,8,0:0:0:0:
192,160,410321,1,8,0:0:0:0:
192,160,410403,1,0,0:0:0:0:
192,160,410567,1,0,0:0:0:0:
192,160,410731,1,8,0:0:0:0:
192,160,410894,1,0,0:0:0:0:
192,160,410976,1,0,0:0:0:0:
192,160,411058,1,0,0:0:0:0:
192,160,411222,1,0,0:0:0:0:
192,160,411304,1,0,0:0:0:0:
192,160,411386,1,8,0:0:0:0:
192,160,411468,1,8,0:0:0:0:
192,160,411550,1,8,0:0:0:0:
192,160,411632,1,8,0:0:0:0:
192,160,411714,1,8,0:0:0:0:
192,160,411878,1,0,0:0:0:0:
192,160,412042,1,8,0:0:0:0:
192,160,412206,1,0,0:0:0:0:
192,160,412370,1,0,0:0:0:0:
192,160,412534,1,0,0:0:0:0:
192,160,412616,1,0,0:0:0:0:
192,160,412698,1,8,0:0:0:0:
192,160,412862,1,8,0:0:0:0:
192,160,412944,1,8,0:0:0:0:
192,160,413026,1,0,0:0:0:0:
192,160,413190,1,0,0:0:0:0:
192,160,413354,1,8,0:0:0:0:
192,160,413517,1,0,0:0:0:0:
192,160,413599,1,0,0:0:0:0:
192,160,413681,1,0,0:0:0:0:
192,160,413845,1,0,0:0:0:0:
192,160,413927,1,0,0:0:0:0:
192,160,414009,1,8,0:0:0:0:
192,160,414173,1,0,0:0:0:0:
192,160,414337,1,8,0:0:0:0:
192,160,414419,1,0,0:0:0:0:
192,160,414501,1,8,0:0:0:0:
192,160,414583,1,8,0:0:0:0:
192,160,414665,1,0,0:0:0:0:
192,160,414993,1,12,0:0:0:0:
192,160,415321,1,8,0:0:0:0:
192,160,415485,1,8,0:0:0:0:
192,160,415567,1,0,0:0:0:0:
192,160,415731,1,0,0:0:0:0:
192,160,415813,1,0,0:0:0:0:
192,160,415894,1,0,0:0:0:0:
192,160,415976,1,8,0:0:0:0:
192,160,416058,1,0,0:0:0:0:
192,160,416140,1,8,0:0:0:0:
192,160,416222,1,8,0:0:0:0:
192,160,416304,1,0,0:0:0:0:
192,160,416468,1,0,0:0:0:0:
192,160,416550,1,0,0:0:0:0:
192,160,416632,1,8,0:0:0:0:
192,160,416796,1,8,0:0:0:0:
192,160,416878,1,0,0:0:0:0:
192,160,417042,1,0,0:0:0:0:
192,160,417124,1,8,0:0:0:0:
192,160,417206,1,0,0:0:0:0:
192,160,417288,1,8,0:0:0:0:
192,160,417452,1,0,0:0:0:0:
192,160,417616,1,8,0:0:0:0:
192,160,417780,1,0,0:0:0:0:
192,160,417944,1,8,0:0:0:0:
192,160,418108,1,8,0:0:0:0:
192,160,418190,1,0,0:0:0:0:
192,160,418354,1,0,0:0:0:0:
192,160,418435,1,0,0:0:0:0:
192,160,418517,1,0,0:0:0:0:
192,160,418599,1,8,0:0:0:0:
192,160,418763,1,8,0:0:0:0:
192,160,418927,1,0,0:0:0:0:
192,160,419091,1,0,0:0:0:0:
192,160,419173,1,0,0:0:0:0:
192,160,419255,1,8,0:0:0:0:
192,160,419419,1,8,0:0:0:0:
192,160,419501,1,8,0:0:0:0:
192,160,419583,1,0,0:0:0:0:
192,160,419747,1,0,0:0:0:0:
192,160,419911,1,12,0:0:0:0:
192,160,420567,1,8,0:0:0:0:
192,160,420731,1,8,0:0:0:0:
192,160,420813,1,0,0:0:0:0:
192,160,420894,1,8,0:0:0:0:
192,160,420976,1,0,0:0:0:0:
192,160,421058,1,0,0:0:0:0:
192,160,421140,1,0,0:0:0:0:
192,160,421222,1,8,0:0:0:0:
192,160,421386,1,8,0:0:0:0:
192,160,421550,1,0,0:0:0:0:
192,160,421714,1,0,0:0:0:0:
192,160,421796,1,0,0:0:0:0:
192,160,421878,1,8,0:0:0:0:
192,160,422042,1,8,0:0:0:0:
192,160,422124,1,0,0:0:0:0:
192,160,422288,1,0,0:0:0:0:
192,160,422370,1,8,0:0:0:0:
192,160,422452,1,0,0:0:0:0:
192,160,422534,1,8,0:0:0:0:
192,160,422698,1,0,0:0:0:0:
192,160,422862,1,8,0:0:0:0:
192,160,423026,1,0,0:0:0:0:
192,160,423190,1,8,0:0:0:0:
192,160,423354,1,8,0:0:0:0:
192,160,423435,1,0,0:0:0:0:
192,160,423517,1,8,0:0:0:0:
192,160,423599,1,0,0:0:0:0:
192,160,423681,1,0,0:0:0:0:
192,160,423763,1,0,0:0:0:0:
192,160,423845,1,8,0:0:0:0:
192,160,424009,1,8,0:0:0:0:
192,160,424173,1,0,0:0:0:0:
192,160,424337,1,0,0:0:0:0:
192,160,424419,1,0,0:0:0:0:
192,160,424501,1,8,0:0:0:0:
192,160,424665,1,0,0:0:0:0:
192,160,424829,1,8,0:0:0:0:
192,160,424993,1,0,0:0:0:0:
192,160,425157,1,12,0:0:0:0:
192,160,425813,1,0,0:0:0:0:
192,160,425976,1,0,0:0:0:0:
192,160,426140,1,8,0:0:0:0:
192,160,426222,1,0,0:0:0:0:
192,160,426304,1,0,0:0:0:0:
192,160,426468,1,0,0:0:0:0:
192,160,426632,1,0,0:0:0:0:
192,160,426796,1,8,0:0:0:0:
192,160,427124,1,0,0:0:0:0:
192,160,427288,1,0,0:0:0:0:
192,160,427452,1,8,0:0:0:0:
192,160,427616,1,8,0:0:0:0:
192,160,427698,1,8,0:0:0:0:
192,160,427780,1,0,0:0:0:0:
192,160,427944,1,0,0:0:0:0:
192,160,428108,1,8,0:0:0:0:
192,160,428435,1,0,0:0:0:0:
192,160,428599,1,0,0:0:0:0:
192,160,428763,1,8,0:0:0:0:
192,160,428845,1,0,0:0:0:0:
192,160,428927,1,0,0:0:0:0:
192,160,429091,1,0,0:0:0:0:
192,160,429255,1,0,0:0:0:0:
192,160,429419,1,8,0:0:0:0:
192,160,429747,1,8,0:0:0:0:
192,160,429911,1,8,0:0:0:0:
192,160,430075,1,0,0:0:0:0:
192,160,430239,1,8,0:0:0:0:
192,160,430403,1,0,0:0:0:0:
192,160,430567,1,0,0:0:0:0:
192,160,430731,1,8,0:0:0:0:
192,160,431058,1,8,0:0:0:0:
192,160,431386,1,8,0:0:0:0:
192,160,431714,1,8,0:0:0:0:
192,160,432042,1,8,0:0:0:0:
192,160,432534,1,8,0:0:0:0:
192,160,432698,1,8,0:0:0:0:
192,160,432862,1,8,0:0:0:0:
192,160,433026,1,0,0:0:0:0:
192,160,433190,1,0,0:0:0:0:
192,160,433354,1,8,0:0:0:0:
192,160,433681,1,8,0:0:0:0:
192,160,434009,1,8,0:0:0:0:
192,160,434337,1,8,0:0:0:0:
192,160,434665,1,8,0:0:0:0:
160,160,435157,1,8,0:0:0:0:
160,160,435321,1,8,0:0:0:0:
160,160,435485,1,8,0:0:0:0:
160,160,435649,1,8,0:0:0:0:
160,160,435813,1,0,0:0:0:0:
160,160,435976,1,8,0:0:0:0:
160,160,436304,1,0,0:0:0:0:
160,160,436632,1,0,0:0:0:0:
160,160,436960,1,0,0:0:0:0:
160,160,437124,1,0,0:0:0:0:
160,160,437288,1,0,0:0:0:0:
160,160,437452,1,0,0:0:0:0:
160,160,437616,1,8,0:0:0:0:
160,160,437780,1,8,0:0:0:0:
160,160,437944,1,8,0:0:0:0:
160,160,438026,1,8,0:0:0:0:
160,160,438108,1,0,0:0:0:0:
160,160,438272,1,8,0:0:0:0:
160,160,438435,1,8,0:0:0:0:
160,160,438599,1,8,0:0:0:0:
160,160,438681,1,8,0:0:0:0:
160,160,438763,1,0,0:0:0:0:
160,160,438927,1,0,0:0:0:0:
160,160,439091,1,0,0:0:0:0:
160,160,439173,1,0,0:0:0:0:
160,160,439255,1,8,0:0:0:0:
160,160,439419,1,0,0:0:0:0:
160,160,439583,1,0,0:0:0:0:
160,160,439665,1,8,0:0:0:0:
160,160,439747,1,0,0:0:0:0:
160,160,439829,1,0,0:0:0:0:
160,160,439911,1,8,0:0:0:0:
160,160,440075,1,0,0:0:0:0:
160,160,440239,1,12,0:0:0:0:
160,160,440403,1,8,0:0:0:0:
160,160,440567,1,8,0:0:0:0:
160,160,440649,1,8,0:0:0:0:
160,160,440731,1,0,0:0:0:0:
160,160,440894,1,12,0:0:0:0:
160,160,441058,1,8,0:0:0:0:
160,160,441222,1,8,0:0:0:0:
160,160,441304,1,8,0:0:0:0:
160,160,441386,1,0,0:0:0:0:
160,160,441550,1,12,0:0:0:0:
160,160,441714,1,8,0:0:0:0:
160,160,441796,1,8,0:0:0:0:
160,160,441878,1,0,0:0:0:0:
160,160,441960,1,0,0:0:0:0:
160,160,442042,1,0,0:0:0:0:
160,160,442206,1,12,0:0:0:0:
160,160,442370,1,8,0:0:0:0:
160,160,442534,1,4,0:0:0:0:
160,160,442862,1,8,0:0:0:0:
160,160,443190,1,0,0:0:0:0:
160,160,443354,1,0,0:0:0:0:
160,160,443517,1,8,0:0:0:0:
160,160,443845,1,0,0:0:0:0:
160,160,444009,1,8,0:0:0:0:
160,160,444173,1,8,0:0:0:0:
160,160,444419,1,0,0:0:0:0:
160,160,444665,1,8,0:0:0:0:
160,160,444829,1,0,0:0:0:0:
160,160,445157,1,0,0:0:0:0:
160,160,445239,1,0,0:0:0:0:
160,160,445321,1,0,0:0:0:0:
160,160,445403,1,0,0:0:0:0:
160,160,445485,1,8,0:0:0:0:
160,160,445813,1,0,0:0:0:0:
160,160,445976,1,8,0:0:0:0:
160,160,446140,1,8,0:0:0:0:
160,160,446386,1,8,0:0:0:0:
160,160,446632,1,0,0:0:0:0:
160,160,446796,1,8,0:0:0:0:
160,160,447124,1,8,0:0:0:0:
160,160,447288,1,0,0:0:0:0:
160,160,447370,1,0,0:0:0:0:
160,160,447452,1,8,0:0:0:0:
160,160,447616,1,8,0:0:0:0:
160,160,447780,1,0,0:0:0:0:
160,160,447944,1,0,0:0:0:0:
160,160,448108,1,8,0:0:0:0:
160,160,448435,1,0,0:0:0:0:
160,160,448599,1,0,0:0:0:0:
160,160,448681,1,0,0:0:0:0:
160,160,448763,1,8,0:0:0:0:
160,160,448927,1,0,0:0:0:0:
160,160,449009,1,8,0:0:0:0:
160,160,449255,1,0,0:0:0:0:
160,160,449419,1,8,0:0:0:0:
160,160,449665,1,8,0:0:0:0:
160,160,449747,1,0,0:0:0:0:
160,160,449911,1,0,0:0:0:0:
160,160,450075,1,8,0:0:0:0:
160,160,450321,1,8,0:0:0:0:
160,160,450403,1,0,0:0:0:0:
160,160,450567,1,8,0:0:0:0:
160,160,450731,1,0,0:0:0:0:
160,160,451058,1,8,0:0:0:0:
160,160,451386,1,0,0:0:0:0:
160,160,451632,1,0,0:0:0:0:
160,160,451714,1,8,0:0:0:0:
160,160,451878,1,0,0:0:0:0:
160,160,452042,1,8,0:0:0:0:
160,160,452206,1,0,0:0:0:0:
160,160,452370,1,8,0:0:0:0:
160,160,452534,1,0,0:0:0:0:
160,160,452698,1,8,0:0:0:0:
160,192,453026,1,0,0:0:0:0:
160,192,453108,1,0,0:0:0:0:
160,192,453190,1,0,0:0:0:0:
160,192,453272,1,0,0:0:0:0:
160,160,453354,1,8,0:0:0:0:
160,160,453681,1,0,0:0:0:0:
160,160,453845,1,0,0:0:0:0:
160,160,454009,1,8,0:0:0:0:
160,160,454337,1,0,0:0:0:0:
160,160,454501,1,8,0:0:0:0:
160,160,454665,1,8,0:0:0:0:
160,160,454911,1,0,0:0:0:0:
160,160,455157,1,8,0:0:0:0:
160,160,455321,1,0,0:0:0:0:
160,160,455649,1,0,0:0:0:0:
160,160,455813,1,0,0:0:0:0:
160,160,455976,1,8,0:0:0:0:
160,160,456304,1,0,0:0:0:0:
160,160,456468,1,8,0:0:0:0:
160,160,456632,1,8,0:0:0:0:
160,160,456878,1,8,0:0:0:0:
160,160,457124,1,0,0:0:0:0:
160,160,457288,1,8,0:0:0:0:
160,160,457616,1,8,0:0:0:0:
160,160,457780,1,0,0:0:0:0:
160,160,457862,1,0,0:0:0:0:
160,160,457944,1,8,0:0:0:0:
160,160,458108,1,8,0:0:0:0:
160,160,458272,1,0,0:0:0:0:
160,160,458435,1,0,0:0:0:0:
160,160,458599,1,8,0:0:0:0:
160,160,458927,1,0,0:0:0:0:
160,160,459091,1,0,0:0:0:0:
160,160,459173,1,0,0:0:0:0:
160,160,459255,1,8,0:0:0:0:
160,160,459419,1,0,0:0:0:0:
160,160,459501,1,8,0:0:0:0:
160,160,459747,1,0,0:0:0:0:
160,160,459911,1,8,0:0:0:0:
160,160,460157,1,8,0:0:0:0:
160,160,460239,1,0,0:0:0:0:
160,160,460403,1,0,0:0:0:0:
160,160,460567,1,8,0:0:0:0:
160,160,460813,1,8,0:0:0:0:
160,160,460894,1,0,0:0:0:0:
160,160,461058,1,8,0:0:0:0:
160,160,461222,1,0,0:0:0:0:
160,160,461550,1,8,0:0:0:0:
160,160,461878,1,0,0:0:0:0:
160,160,462124,1,0,0:0:0:0:
160,160,462206,1,8,0:0:0:0:
160,160,462370,1,0,0:0:0:0:
160,160,462534,1,12,0:0:0:0:
160,160,462862,1,12,0:0:0:0:
160,160,463190,1,8,0:0:0:0:
160,160,463272,1,8,0:0:0:0:
160,160,463354,1,8,0:0:0:0:
160,160,463435,1,8,0:0:0:0:
160,192,463517,1,0,0:0:0:0:
160,192,463599,1,8,0:0:0:0:
160,192,463681,1,0,0:0:0:0:
128,128,463763,1,0,0:0:0:0:
128,128,463845,1,8,0:0:0:0:
128,128,464009,1,0,0:0:0:0:
128,128,464091,1,0,0:0:0:0:
128,128,464173,1,8,0:0:0:0:
128,128,464337,1,0,0:0:0:0:
128,128,464419,1,0,0:0:0:0:
128,128,464501,1,8,0:0:0:0:
128,128,464583,1,8,0:0:0:0:
128,128,464665,1,0,0:0:0:0:
128,128,464747,1,0,0:0:0:0:
128,128,464829,1,8,0:0:0:0:
128,128,464911,1,0,0:0:0:0:
128,128,464993,1,8,0:0:0:0:
128,128,465075,1,8,0:0:0:0:
128,128,465157,1,0,0:0:0:0:
128,128,465321,1,0,0:0:0:0:
128,128,465485,1,8,0:0:0:0:
128,128,465567,1,0,0:0:0:0:
128,128,465649,1,0,0:0:0:0:
128,128,465731,1,0,0:0:0:0:
128,128,465813,1,8,0:0:0:0:
128,128,465894,1,8,0:0:0:0:
128,128,465976,1,0,0:0:0:0:
128,128,466058,1,0,0:0:0:0:
128,128,466140,1,8,0:0:0:0:
128,128,466222,1,0,0:0:0:0:
128,128,466304,1,0,0:0:0:0:
128,128,466386,1,0,0:0:0:0:
128,128,466468,1,8,0:0:0:0:
128,128,466632,1,0,0:0:0:0:
128,128,466714,1,0,0:0:0:0:
128,128,466796,1,8,0:0:0:0:
128,128,466960,1,0,0:0:0:0:
128,128,467042,1,0,0:0:0:0:
128,128,467124,1,8,0:0:0:0:
128,128,467206,1,0,0:0:0:0:
128,128,467288,1,8,0:0:0:0:
128,128,467370,1,0,0:0:0:0:
128,128,467452,1,8,0:0:0:0:
128,128,467534,1,8,0:0:0:0:
128,128,467616,1,0,0:0:0:0:
128,128,467698,1,0,0:0:0:0:
128,128,467780,1,8,0:0:0:0:
128,128,467944,1,8,0:0:0:0:
128,128,468026,1,0,0:0:0:0:
128,128,468108,1,8,0:0:0:0:
128,128,468190,1,0,0:0:0:0:
128,128,468272,1,0,0:0:0:0:
128,128,468354,1,0,0:0:0:0:
128,128,468435,1,8,0:0:0:0:
128,128,468517,1,0,0:0:0:0:
128,128,468599,1,8,0:0:0:0:
128,128,468681,1,8,0:0:0:0:
128,128,468763,1,0,0:0:0:0:
128,128,468845,1,8,0:0:0:0:
128,128,468927,1,0,0:0:0:0:
128,128,469009,1,0,0:0:0:0:
128,128,469091,1,8,0:0:0:0:
128,128,469255,1,0,0:0:0:0:
128,128,469337,1,0,0:0:0:0:
128,128,469419,1,8,0:0:0:0:
128,128,469583,1,0,0:0:0:0:
128,128,469665,1,0,0:0:0:0:
128,128,469747,1,0,0:0:0:0:
128,128,469829,1,8,0:0:0:0:
128,128,469911,1,0,0:0:0:0:
128,128,469993,1,8,0:0:0:0:
128,128,470075,1,0,0:0:0:0:
128,128,470157,1,8,0:0:0:0:
128,128,470239,1,8,0:0:0:0:
128,128,470321,1,8,0:0:0:0:
128,128,470403,1,0,0:0:0:0:
128,128,470567,1,8,0:0:0:0:
128,128,470649,1,8,0:0:0:0:
128,128,470731,1,0,0:0:0:0:
128,128,470813,1,8,0:0:0:0:
128,128,470894,1,8,0:0:0:0:
128,128,470976,1,8,0:0:0:0:
128,128,471058,1,0,0:0:0:0:
128,128,471140,1,8,0:0:0:0:
128,128,471222,1,8,0:0:0:0:
128,128,471304,1,0,0:0:0:0:
128,128,471386,1,8,0:0:0:0:
128,128,471468,1,8,0:0:0:0:
128,128,471550,1,0,0:0:0:0:
128,128,471632,1,0,0:0:0:0:
128,128,471714,1,8,0:0:0:0:
128,128,471878,1,0,0:0:0:0:
128,128,471960,1,0,0:0:0:0:
128,128,472042,1,8,0:0:0:0:
128,128,472206,1,0,0:0:0:0:
128,128,472288,1,0,0:0:0:0:
128,128,472370,1,8,0:0:0:0:
128,128,472452,1,0,0:0:0:0:
128,128,472534,1,8,0:0:0:0:
128,128,472616,1,0,0:0:0:0:
128,128,472698,1,8,0:0:0:0:
128,128,472780,1,8,0:0:0:0:
128,128,472862,1,0,0:0:0:0:
128,128,472944,1,0,0:0:0:0:
128,128,473026,1,8,0:0:0:0:
128,128,473190,1,8,0:0:0:0:
128,128,473272,1,0,0:0:0:0:
128,128,473354,1,8,0:0:0:0:
128,128,473435,1,0,0:0:0:0:
128,128,473517,1,0,0:0:0:0:
128,128,473599,1,0,0:0:0:0:
128,128,473681,1,8,0:0:0:0:
128,128,473763,1,0,0:0:0:0:
128,128,473845,1,8,0:0:0:0:
128,128,473927,1,8,0:0:0:0:
128,128,474009,1,0,0:0:0:0:
128,128,474091,1,8,0:0:0:0:
128,128,474173,1,0,0:0:0:0:
128,128,474255,1,8,0:0:0:0:
128,128,474337,1,0,0:0:0:0:
128,128,474501,1,8,0:0:0:0:
128,128,474829,1,0,0:0:0:0:
128,128,474993,1,8,0:0:0:0:
128,128,475157,1,0,0:0:0:0:
128,128,475321,1,0,0:0:0:0:
128,128,475403,1,8,0:0:0:0:
128,128,475485,1,0,0:0:0:0:
128,128,475567,1,8,0:0:0:0:
128,128,475649,1,0,0:0:0:0:
128,128,475813,1,8,0:0:0:0:
128,128,475894,1,8,0:0:0:0:
128,128,475976,1,8,0:0:0:0:
128,128,476140,1,0,0:0:0:0:
128,128,476304,1,8,0:0:0:0:
128,128,476468,1,8,0:0:0:0:
128,128,476550,1,8,0:0:0:0:
128,128,476632,1,0,0:0:0:0:
128,128,476960,1,0,0:0:0:0:
128,128,477124,1,8,0:0:0:0:
128,128,477206,1,8,0:0:0:0:
128,128,477288,1,0,0:0:0:0:
128,128,477452,1,0,0:0:0:0:
128,128,477616,1,8,0:0:0:0:
128,128,477780,1,0,0:0:0:0:
128,128,477862,1,8,0:0:0:0:
128,128,477944,1,8,0:0:0:0:
128,128,478108,1,8,0:0:0:0:
128,128,478272,1,0,0:0:0:0:
128,128,478435,1,8,0:0:0:0:
128,128,478517,1,8,0:0:0:0:
128,128,478599,1,8,0:0:0:0:
128,128,478763,1,0,0:0:0:0:
128,128,478927,1,8,0:0:0:0:
128,128,479255,1,8,0:0:0:0:
128,128,479337,1,8,0:0:0:0:
128,128,479419,1,8,0:0:0:0:
128,128,479501,1,8,0:0:0:0:
128,128,479583,1,0,0:0:0:0:
128,128,479665,1,0,0:0:0:0:
128,128,479747,1,0,0:0:0:0:
128,128,479829,1,0,0:0:0:0:
128,128,479911,1,8,0:0:0:0:
128,128,480075,1,8,0:0:0:0:
128,128,480239,1,0,0:0:0:0:
128,128,480567,1,8,0:0:0:0:
128,128,480649,1,8,0:0:0:0:
128,128,480731,1,8,0:0:0:0:
128,128,480813,1,8,0:0:0:0:
128,128,480894,1,0,0:0:0:0:
128,128,480949,1,0,0:0:0:0:
128,128,481004,1,0,0:0:0:0:
128,128,481058,1,0,0:0:0:0:
128,128,481222,1,8,0:0:0:0:
128,128,481386,1,8,0:0:0:0:
128,128,481468,1,8,0:0:0:0:
128,128,481550,1,0,0:0:0:0:
128,128,481714,1,8,0:0:0:0:
128,128,481878,1,8,0:0:0:0:
128,128,482206,1,0,0:0:0:0:
128,128,482370,1,8,0:0:0:0:
128,128,482452,1,8,0:0:0:0:
128,128,482534,1,8,0:0:0:0:
128,128,482698,1,0,0:0:0:0:
128,128,482862,1,8,0:0:0:0:
128,128,483026,1,8,0:0:0:0:
128,128,483190,1,0,0:0:0:0:
128,128,483354,1,8,0:0:0:0:
128,128,483517,1,4,0:0:0:0:
128,128,483845,1,12,0:0:0:0:
128,128,484173,1,4,0:0:0:0:
128,128,484501,1,0,0:0:0:0:
128,128,484583,1,0,0:0:0:0:
128,128,484665,1,0,0:0:0:0:
128,128,484747,1,0,0:0:0:0:
128,128,484829,1,8,0:0:0:0:
128,128,484993,1,0,0:0:0:0:
128,128,485075,1,0,0:0:0:0:
128,128,485157,1,8,0:0:0:0:
128,128,485321,1,8,0:0:0:0:
128,128,485485,1,0,0:0:0:0:
128,128,485813,1,8,0:0:0:0:
128,128,486140,1,8,0:0:0:0:
128,128,486222,1,0,0:0:0:0:
128,128,486304,1,8,0:0:0:0:
128,128,486468,1,8,0:0:0:0:
128,128,486632,1,8,0:0:0:0:
128,128,486796,1,0,0:0:0:0:
128,128,487042,1,0,0:0:0:0:
128,128,487124,1,8,0:0:0:0:
128,128,487288,1,0,0:0:0:0:
128,128,487452,1,8,0:0:0:0:
128,128,487616,1,0,0:0:0:0:
128,128,487698,1,0,0:0:0:0:
128,128,487780,1,8,0:0:0:0:
128,128,487944,1,8,0:0:0:0:
128,128,488108,1,0,0:0:0:0:
128,128,488435,1,8,0:0:0:0:
128,128,488763,1,0,0:0:0:0:
128,128,488845,1,8,0:0:0:0:
128,128,488927,1,0,0:0:0:0:
128,128,489091,1,0,0:0:0:0:
128,128,489255,1,8,0:0:0:0:
128,128,489419,1,8,0:0:0:0:
128,128,489583,1,0,0:0:0:0:
128,128,489747,1,8,0:0:0:0:
128,128,489911,1,8,0:0:0:0:
128,128,490075,1,0,0:0:0:0:
128,128,490157,1,0,0:0:0:0:
128,128,490239,1,8,0:0:0:0:
128,128,490403,1,0,0:0:0:0:
128,128,490567,1,8,0:0:0:0:
128,128,490731,1,0,0:0:0:0:
128,128,490813,1,0,0:0:0:0:
128,128,490894,1,8,0:0:0:0:
128,128,491058,1,0,0:0:0:0:
128,128,491222,1,8,0:0:0:0:
128,128,491386,1,0,0:0:0:0:
128,128,491550,1,8,0:0:0:0:
128,128,491632,1,8,0:0:0:0:
128,128,491714,1,0,0:0:0:0:
128,128,491878,1,8,0:0:0:0:
128,128,492042,1,0,0:0:0:0:
128,128,492206,1,8,0:0:0:0:
128,128,492370,1,8,0:0:0:0:
128,128,492698,1,0,0:0:0:0:
128,128,492862,1,8,0:0:0:0:
128,128,493026,1,0,0:0:0:0:
128,128,493108,1,0,0:0:0:0:
128,128,493190,1,8,0:0:0:0:
128,128,493354,1,0,0:0:0:0:
128,128,493517,1,8,0:0:0:0:
128,128,493681,1,0,0:0:0:0:
128,128,493763,1,0,0:0:0:0:
128,128,493845,1,8,0:0:0:0:
128,128,494009,1,0,0:0:0:0:
128,128,494173,1,8,0:0:0:0:
128,128,494255,1,0,0:0:0:0:
128,128,494337,1,8,0:0:0:0:
128,128,494419,1,8,0:0:0:0:
128,128,494501,1,0,0:0:0:0:
128,128,494583,1,8,0:0:0:0:
128,128,494665,1,0,0:0:0:0:
128,128,494829,1,8,0:0:0:0:
128,128,494993,1,8,0:0:0:0:
160,128,495321,1,0,0:0:0:0:
160,128,495485,1,8,0:0:0:0:
128,128,495649,1,8,0:0:0:0:
160,128,495813,1,0,0:0:0:0:
160,128,495894,1,0,0:0:0:0:
160,128,495976,1,0,0:0:0:0:
160,128,496140,1,8,0:0:0:0:
160,128,496304,1,8,0:0:0:0:
160,128,496632,1,8,0:0:0:0:
160,128,496796,1,0,0:0:0:0:
160,128,496878,1,8,0:0:0:0:
160,128,496960,1,0,0:0:0:0:
160,128,497124,1,8,0:0:0:0:
160,128,497288,1,0,0:0:0:0:
160,128,497452,1,8,0:0:0:0:
160,128,497616,1,8,0:0:0:0:
160,128,497944,1,0,0:0:0:0:
160,128,498108,1,0,0:0:0:0:
160,128,498272,1,8,0:0:0:0:
160,128,498435,1,0,0:0:0:0:
160,128,498517,1,0,0:0:0:0:
160,128,498599,1,0,0:0:0:0:
160,128,498763,1,0,0:0:0:0:
160,128,498927,1,8,0:0:0:0:
160,128,499091,1,0,0:0:0:0:
160,128,499255,1,12,0:0:0:0:
160,128,499419,1,0,0:0:0:0:
160,128,499501,1,0,0:0:0:0:
160,128,499583,1,0,0:0:0:0:
160,128,499747,1,12,0:0:0:0:
160,128,499911,1,0,0:0:0:0:
160,128,499993,1,0,0:0:0:0:
160,128,500075,1,0,0:0:0:0:
160,128,500239,1,12,0:0:0:0:
160,128,500403,1,0,0:0:0:0:
160,128,500485,1,0,0:0:0:0:
160,128,500567,1,0,0:0:0:0:
160,128,500731,1,12,0:0:0:0:
160,128,500894,1,0,0:0:0:0:
160,128,500949,1,0,0:0:0:0:
160,128,501004,1,0,0:0:0:0:
160,128,501058,1,0,0:0:0:0:
192,128,501222,1,12,0:0:0:0:
192,128,501550,1,12,0:0:0:0:
192,128,501714,1,12,0:0:0:0:
192,128,501878,1,4,0:0:0:0:
192,128,504501,1,12,0:0:0:0:
192,128,505157,1,12,0:0:0:0:
192,128,505813,1,12,0:0:0:0:
192,128,505976,1,12,0:0:0:0:
192,128,506140,1,12,0:0:0:0:
192,128,506304,1,12,0:0:0:0:
192,128,506468,1,8,0:0:0:0:
192,128,506550,1,8,0:0:0:0:
192,128,506632,1,8,0:0:0:0:
192,128,506714,1,8,0:0:0:0:
192,128,506796,1,8,0:0:0:0:
192,128,506878,1,8,0:0:0:0:
192,128,506960,1,8,0:0:0:0:
192,128,507042,1,8,0:0:0:0:
192,128,507124,1,0,0:0:0:0:
192,128,507288,1,0,0:0:0:0:
192,128,507452,1,8,0:0:0:0:
192,128,507616,1,0,0:0:0:0:
192,160,507698,1,8,0:0:0:0:
192,160,507862,1,0,0:0:0:0:
192,128,507944,1,8,0:0:0:0:
192,128,508108,1,0,0:0:0:0:
192,128,508272,1,0,0:0:0:0:
192,128,508435,1,8,0:0:0:0:
192,128,508517,1,8,0:0:0:0:
192,128,508599,1,8,0:0:0:0:
192,128,508763,1,0,0:0:0:0:
192,128,508845,1,0,0:0:0:0:
192,128,508927,1,8,0:0:0:0:
192,128,509009,1,8,0:0:0:0:
192,128,509091,1,0,0:0:0:0:
192,128,509173,1,8,0:0:0:0:
192,128,509255,1,0,0:0:0:0:
192,128,509337,1,8,0:0:0:0:
192,128,509419,1,0,0:0:0:0:
192,128,509501,1,0,0:0:0:0:
192,128,509583,1,8,0:0:0:0:
192,128,509747,1,0,0:0:0:0:
192,128,509829,1,0,0:0:0:0:
192,128,509911,1,8,0:0:0:0:
192,128,509993,1,8,0:0:0:0:
192,128,510075,1,0,0:0:0:0:
192,128,510157,1,8,0:0:0:0:
192,128,510239,1,0,0:0:0:0:
192,128,510321,1,0,0:0:0:0:
192,128,510403,1,8,0:0:0:0:
192,128,510649,1,8,0:0:0:0:
192,128,510731,1,0,0:0:0:0:
192,128,510894,1,0,0:0:0:0:
192,128,511058,1,8,0:0:0:0:
192,128,511386,1,8,0:0:0:0:
192,128,511550,1,0,0:0:0:0:
192,128,511714,1,8,0:0:0:0:
192,128,511796,1,8,0:0:0:0:
192,128,511878,1,8,0:0:0:0:
192,128,511960,1,8,0:0:0:0:
192,128,512042,1,8,0:0:0:0:
192,128,512206,1,8,0:0:0:0:
192,128,512288,1,8,0:0:0:0:
192,128,512370,1,0,0:0:0:0:
192,128,512452,1,8,0:0:0:0:
192,128,512534,1,0,0:0:0:0:
192,128,512616,1,0,0:0:0:0:
192,128,512698,1,8,0:0:0:0:
192,128,512862,1,0,0:0:0:0:
192,128,512944,1,8,0:0:0:0:
192,128,513026,1,0,0:0:0:0:
192,128,513108,1,8,0:0:0:0:
192,128,513190,1,0,0:0:0:0:
192,128,513272,1,0,0:0:0:0:
192,128,513354,1,8,0:0:0:0:
192,128,513517,1,8,0:0:0:0:
192,128,513599,1,0,0:0:0:0:
192,128,513681,1,8,0:0:0:0:
192,128,513763,1,0,0:0:0:0:
192,128,513845,1,8,0:0:0:0:
192,128,513927,1,8,0:0:0:0:
192,128,514009,1,0,0:0:0:0:
192,128,514091,1,8,0:0:0:0:
192,128,514173,1,0,0:0:0:0:
192,128,514255,1,0,0:0:0:0:
192,128,514337,1,8,0:0:0:0:
192,128,514501,1,0,0:0:0:0:
192,128,514583,1,0,0:0:0:0:
192,128,514665,1,8,0:0:0:0:
192,128,514747,1,8,0:0:0:0:
192,128,514829,1,0,0:0:0:0:
192,128,514993,1,12,0:0:0:0:
192,128,515321,1,12,0:0:0:0:
192,128,515649,1,12,0:0:0:0:
192,128,515813,1,0,0:0:0:0:
192,128,515894,1,0,0:0:0:0:
192,128,515976,1,8,0:0:0:0:
192,128,516140,1,0,0:0:0:0:
192,128,516304,1,8,0:0:0:0:
192,128,516386,1,0,0:0:0:0:
192,128,516468,1,8,0:0:0:0:
192,128,516550,1,0,0:0:0:0:
192,128,516632,1,8,0:0:0:0:
192,128,516714,1,8,0:0:0:0:
192,128,516796,1,0,0:0:0:0:
192,128,516878,1,0,0:0:0:0:
192,128,516960,1,8,0:0:0:0:
192,128,517042,1,0,0:0:0:0:
192,128,517124,1,8,0:0:0:0:
192,128,517206,1,8,0:0:0:0:
192,128,517288,1,0,0:0:0:0:
192,128,517370,1,0,0:0:0:0:
192,128,517452,1,8,0:0:0:0:
192,128,517534,1,0,0:0:0:0:
192,128,517616,1,8,0:0:0:0:
192,128,517698,1,8,0:0:0:0:
192,128,517780,1,0,0:0:0:0:
192,128,517862,1,0,0:0:0:0:
192,128,517944,1,8,0:0:0:0:
192,128,518108,1,0,0:0:0:0:
192,128,518190,1,8,0:0:0:0:
192,128,518272,1,0,0:0:0:0:
192,128,518354,1,8,0:0:0:0:
192,128,518436,1,0,0:0:0:0:
192,128,518518,1,0,0:0:0:0:
192,128,518600,1,8,0:0:0:0:
192,128,518763,1,8,0:0:0:0:
192,128,518845,1,0,0:0:0:0:
192,128,518927,1,8,0:0:0:0:
192,128,519009,1,8,0:0:0:0:
192,128,519091,1,0,0:0:0:0:
192,128,519173,1,8,0:0:0:0:
192,128,519255,1,0,0:0:0:0:
192,128,519337,1,8,0:0:0:0:
192,128,519419,1,0,0:0:0:0:
192,128,519501,1,0,0:0:0:0:
192,128,519583,1,8,0:0:0:0:
192,128,519747,1,0,0:0:0:0:
192,128,519829,1,0,0:0:0:0:
192,128,519911,1,8,0:0:0:0:
192,128,519993,1,8,0:0:0:0:
192,128,520075,1,0,0:0:0:0:
192,128,520239,1,8,0:0:0:0:
192,128,520321,1,0,0:0:0:0:
192,128,520403,1,8,0:0:0:0:
192,128,520485,1,8,0:0:0:0:
192,128,520567,1,0,0:0:0:0:
192,128,520649,1,0,0:0:0:0:
192,128,520731,1,8,0:0:0:0:
192,128,520813,1,0,0:0:0:0:
192,128,520895,1,8,0:0:0:0:
192,128,521140,1,0,0:0:0:0:
192,128,521222,1,8,0:0:0:0:
192,128,521386,1,0,0:0:0:0:
192,128,521550,1,8,0:0:0:0:
192,128,521878,1,8,0:0:0:0:
192,128,522042,1,0,0:0:0:0:
192,128,522206,1,8,0:0:0:0:
192,128,522288,1,8,0:0:0:0:
192,128,522370,1,8,0:0:0:0:
192,128,522452,1,8,0:0:0:0:
192,128,522534,1,8,0:0:0:0:
192,128,522698,1,0,0:0:0:0:
192,128,522862,1,8,0:0:0:0:
192,128,523517,1,8,0:0:0:0:
192,128,523845,1,8,0:0:0:0:
192,128,524173,1,0,0:0:0:0:
192,128,524665,1,8,0:0:0:0:
192,128,524829,1,0,0:0:0:0:
192,128,525485,1,8,0:0:0:0:
192,128,525976,1,0,0:0:0:0:
192,128,526140,1,8,0:0:0:0:
192,128,526468,1,0,0:0:0:0:
192,128,526632,1,0,0:0:0:0:
192,128,526796,1,8,0:0:0:0:
192,128,527944,1,8,0:0:0:0:
192,128,528108,1,8,0:0:0:0:
192,128,528763,1,0,0:0:0:0:
192,128,529091,1,8,0:0:0:0:
192,128,529419,1,8,0:0:0:0:
192,128,529911,1,0,0:0:0:0:
192,128,530075,1,8,0:0:0:0:
192,128,530731,1,12,0:0:0:0:
192,128,531058,1,8,0:0:0:0:
192,128,531168,1,0,0:0:0:0:
192,128,531277,1,0,0:0:0:0:
192,128,531386,1,12,0:0:0:0:
192,128,531714,1,0,0:0:0:0:
192,128,532042,2,4,L|192:192,12,38.5000002570153,4|4|4|4|4|4|4|4|4|4|4|4|4,0:0|0:0|0:0|0:0|0:0|0:0|0:0|0:0|0:0|0:0|0:0|0:0|0:0,0:0:0:0:
192,128,533354,1,8,0:0:0:0:
192,128,533682,1,8,0:0:0:0:
192,128,534009,1,8,0:0:0:0:
192,128,534173,1,0,0:0:0:0:
192,128,534337,1,8,0:0:0:0:
192,128,534501,1,8,0:0:0:0:
192,128,534665,1,0,0:0:0:0:
192,128,534993,1,0,0:0:0:0:
192,128,535157,1,8,0:0:0:0:
192,128,535321,1,0,0:0:0:0:
192,128,535977,1,8,0:0:0:0:
192,128,536305,1,8,0:0:0:0:
192,128,536632,1,0,0:0:0:0:
192,128,536796,1,0,0:0:0:0:
192,128,536878,1,0,0:0:0:0:
192,128,536960,1,8,0:0:0:0:
192,128,537124,1,0,0:0:0:0:
192,128,537288,1,8,0:0:0:0:
192,128,537616,1,0,0:0:0:0:
192,128,537944,1,8,0:0:0:0:
192,128,538272,1,0,0:0:0:0:
192,128,538436,1,8,0:0:0:0:
192,128,538600,1,8,0:0:0:0:
192,128,538927,1,0,0:0:0:0:
192,128,539091,1,0,0:0:0:0:
192,128,539255,1,8,0:0:0:0:
192,128,539419,1,0,0:0:0:0:
192,128,539501,1,0,0:0:0:0:
192,128,539583,1,8,0:0:0:0:
192,128,539747,1,0,0:0:0:0:
192,128,539911,1,12,0:0:0:0:
192,128,540403,1,0,0:0:0:0:
192,128,540567,1,12,0:0:0:0:
192,128,540895,1,0,0:0:0:0:
192,128,540976,1,0,0:0:0:0:
192,128,541058,1,0,0:0:0:0:
192,128,541140,1,0,0:0:0:0:
192,128,541223,1,8,0:0:0:0:
192,128,541386,1,0,0:0:0:0:
192,128,541550,1,8,0:0:0:0:
192,128,541714,1,8,0:0:0:0:
192,128,542042,1,8,0:0:0:0:
192,128,542206,1,0,0:0:0:0:
192,128,542534,1,8,0:0:0:0:
192,128,543190,1,8,0:0:0:0:
192,128,543354,1,0,0:0:0:0:
192,128,543517,1,0,0:0:0:0:
192,128,543681,1,0,0:0:0:0:
192,128,543845,1,12,0:0:0:0:
192,128,544173,1,0,0:0:0:0:
192,128,544337,1,8,0:0:0:0:
192,128,544501,1,0,0:0:0:0:
192,128,544665,1,8,0:0:0:0:
192,128,544829,1,0,0:0:0:0:
192,128,544993,1,8,0:0:0:0:
192,128,545157,1,8,0:0:0:0:
192,128,545321,1,0,0:0:0:0:
192,128,545485,1,8,0:0:0:0:
192,128,545649,1,8,0:0:0:0:
192,128,545813,1,8,0:0:0:0:
192,128,545976,1,0,0:0:0:0:
192,128,546140,1,0,0:0:0:0:
192,128,546304,1,0,0:0:0:0:
192,128,546468,1,8,0:0:0:0:
192,128,546796,1,0,0:0:0:0:
192,128,546960,1,8,0:0:0:0:
192,128,547124,1,0,0:0:0:0:
192,128,547288,1,8,0:0:0:0:
192,128,547452,1,0,0:0:0:0:
192,128,547616,1,0,0:0:0:0:
192,128,547780,1,8,0:0:0:0:
192,128,547944,1,8,0:0:0:0:
192,128,548026,1,8,0:0:0:0:
192,128,548108,1,0,0:0:0:0:
192,128,548190,1,8,0:0:0:0:
192,128,548272,1,0,0:0:0:0:
192,128,548354,1,0,0:0:0:0:
192,128,548435,1,8,0:0:0:0:
192,128,548763,1,4,0:0:0:0:
192,128,549091,1,12,0:0:0:0:
192,128,549583,1,8,0:0:0:0:
192,128,549747,1,0,0:0:0:0:
192,128,549911,1,8,0:0:0:0:
192,128,550075,1,8,0:0:0:0:
192,128,550239,1,0,0:0:0:0:
192,128,550403,1,8,0:0:0:0:
192,128,550567,1,8,0:0:0:0:
192,128,550649,1,8,0:0:0:0:
192,128,550731,1,8,0:0:0:0:
192,128,550894,1,0,0:0:0:0:
192,128,551058,1,8,0:0:0:0:
192,128,551222,1,8,0:0:0:0:
192,128,551304,1,8,0:0:0:0:
192,128,551386,1,0,0:0:0:0:
192,128,551550,1,0,0:0:0:0:
192,128,551714,1,12,0:0:0:0:
192,128,551878,1,0,0:0:0:0:
192,128,551960,1,8,0:0:0:0:
192,128,552042,1,0,0:0:0:0:
192,128,552206,1,0,0:0:0:0:
192,128,552370,1,12,0:0:0:0:
192,128,552534,1,0,0:0:0:0:
192,128,552616,1,8,0:0:0:0:
192,128,552698,1,0,0:0:0:0:
192,128,552862,1,8,0:0:0:0:
192,128,553026,1,4,0:0:0:0:
192,128,553354,1,12,0:0:0:0:
192,128,553681,1,12,0:0:0:0:
192,128,553845,1,0,0:0:0:0:
192,128,554009,1,0,0:0:0:0:
192,128,554173,1,0,0:0:0:0:
192,128,554337,1,12,0:0:0:0:
192,128,554665,1,0,0:0:0:0:
192,128,554829,1,8,0:0:0:0:
192,128,554993,1,0,0:0:0:0:
192,128,555157,1,8,0:0:0:0:
192,128,555321,1,0,0:0:0:0:
192,128,555485,1,8,0:0:0:0:
192,128,555649,1,0,0:0:0:0:
192,128,555813,1,0,0:0:0:0:
192,128,555977,1,8,0:0:0:0:
192,128,556141,1,8,0:0:0:0:
192,128,556305,1,8,0:0:0:0:
192,128,556468,1,0,0:0:0:0:
192,128,556632,1,0,0:0:0:0:
192,128,556796,1,0,0:0:0:0:
192,128,556960,1,8,0:0:0:0:
192,128,557124,1,0,0:0:0:0:
192,128,557288,1,8,0:0:0:0:
192,128,557452,1,8,0:0:0:0:
192,128,557616,1,0,0:0:0:0:
192,128,557780,1,8,0:0:0:0:
192,128,557944,1,0,0:0:0:0:
192,128,558108,1,0,0:0:0:0:
192,128,558272,1,8,0:0:0:0:
192,128,558436,1,8,0:0:0:0:
192,128,558518,1,8,0:0:0:0:
192,128,558600,1,0,0:0:0:0:
192,128,558682,1,8,0:0:0:0:
192,128,558764,1,0,0:0:0:0:
192,128,558846,1,0,0:0:0:0:
192,128,558927,1,8,0:0:0:0:
192,128,559091,1,8,0:0:0:0:
192,128,559173,1,8,0:0:0:0:
192,128,559255,1,0,0:0:0:0:
192,128,559419,1,8,0:0:0:0:
192,128,559583,1,8,0:0:0:0:
192,128,559911,1,0,0:0:0:0:
192,128,560075,1,8,0:0:0:0:
192,128,560157,1,8,0:0:0:0:
192,128,560239,1,0,0:0:0:0:
192,128,560403,1,8,0:0:0:0:
192,128,560567,1,8,0:0:0:0:
192,128,560731,1,0,0:0:0:0:
192,128,560895,1,8,0:0:0:0:
192,128,561059,1,8,0:0:0:0:
192,128,561141,1,8,0:0:0:0:
192,128,561223,1,8,0:0:0:0:
192,128,561386,1,8,0:0:0:0:
192,128,561550,1,8,0:0:0:0:
192,128,561714,1,8,0:0:0:0:
192,128,561878,1,0,0:0:0:0:
192,128,562042,1,0,0:0:0:0:
192,128,562206,1,12,0:0:0:0:
192,128,562534,1,12,0:0:0:0:
192,128,562862,1,12,0:0:0:0:
192,128,563190,1,12,0:0:0:0:
192,128,563518,1,4,0:0:0:0:
192,128,563681,1,4,0:0:0:0:
192,128,564009,1,0,0:0:0:0:
192,128,564091,1,0,0:0:0:0:
192,128,564173,1,8,0:0:0:0:
192,128,564255,1,0,0:0:0:0:
192,128,564337,1,8,0:0:0:0:
192,128,564419,1,8,0:0:0:0:
192,128,564501,1,0,0:0:0:0:
192,128,564583,1,8,0:0:0:0:
192,128,564665,1,0,0:0:0:0:
192,128,564747,1,0,0:0:0:0:
192,128,564829,1,8,0:0:0:0:
224,160,564993,1,8,0:0:0:0:
224,160,565075,1,8,0:0:0:0:
224,128,565157,1,0,0:0:0:0:
224,128,565211,1,0,0:0:0:0:
224,160,565266,1,0,0:0:0:0:
224,128,565321,1,0,0:0:0:0:
224,128,565485,1,0,0:0:0:0:
224,128,565649,1,0,0:0:0:0:
224,128,565703,1,0,0:0:0:0:
224,128,565758,1,0,0:0:0:0:
224,128,565813,1,8,0:0:0:0:
224,128,565976,1,8,0:0:0:0:
224,128,566140,1,0,0:0:0:0:
224,128,566222,1,0,0:0:0:0:
224,128,566304,1,8,0:0:0:0:
224,128,566468,1,8,0:0:0:0:
224,128,566550,1,8,0:0:0:0:
224,128,566632,1,0,0:0:0:0:
224,128,566714,1,0,0:0:0:0:
224,128,566796,1,0,0:0:0:0:
224,128,566878,1,8,0:0:0:0:
224,128,566960,1,0,0:0:0:0:
224,128,567042,1,0,0:0:0:0:
224,128,567124,1,8,0:0:0:0:
224,96,567288,1,8,0:0:0:0:
224,96,567370,1,8,0:0:0:0:
224,96,567452,1,0,0:0:0:0:
224,128,567534,1,8,0:0:0:0:
224,128,567616,1,8,0:0:0:0:
224,128,567780,1,0,0:0:0:0:
224,128,567862,1,8,0:0:0:0:
224,128,567944,1,0,0:0:0:0:
224,128,568026,1,8,0:0:0:0:
224,128,568108,1,0,0:0:0:0:
224,128,568190,1,8,0:0:0:0:
224,128,568272,1,0,0:0:0:0:
224,128,568354,1,8,0:0:0:0:
224,128,568435,1,0,0:0:0:0:
224,128,568599,1,8,0:0:0:0:
224,128,568763,1,0,0:0:0:0:
224,128,568927,1,0,0:0:0:0:
224,128,569009,1,0,0:0:0:0:
224,128,569091,1,0,0:0:0:0:
224,128,569255,1,8,0:0:0:0:
224,128,569337,1,8,0:0:0:0:
224,128,569419,1,0,0:0:0:0:
224,128,569583,1,8,0:0:0:0:
224,128,569911,1,8,0:0:0:0:
224,128,569993,1,8,0:0:0:0:
192,128,570075,1,0,0:0:0:0:
224,160,570239,1,8,0:0:0:0:
224,160,570321,1,8,0:0:0:0:
224,128,570403,1,0,0:0:0:0:
224,128,570567,1,8,0:0:0:0:
224,128,570731,1,0,0:0:0:0:
224,128,570813,1,0,0:0:0:0:
224,128,570895,1,0,0:0:0:0:
224,128,570977,1,8,0:0:0:0:
224,128,571058,1,0,0:0:0:0:
224,128,571140,1,0,0:0:0:0:
224,128,571222,1,8,0:0:0:0:
224,128,571386,1,0,0:0:0:0:
224,128,571468,1,0,0:0:0:0:
224,128,571550,1,8,0:0:0:0:
224,128,571714,1,8,0:0:0:0:
224,128,571796,1,8,0:0:0:0:
224,128,571878,1,0,0:0:0:0:
224,128,571960,1,8,0:0:0:0:
224,128,572042,1,0,0:0:0:0:
224,128,572124,1,8,0:0:0:0:
224,128,572206,1,0,0:0:0:0:
224,128,572288,1,8,0:0:0:0:
224,128,572370,1,0,0:0:0:0:
224,96,572534,1,8,0:0:0:0:
224,96,572616,1,8,0:0:0:0:
224,96,572698,1,0,0:0:0:0:
224,128,572780,1,8,0:0:0:0:
224,128,572862,1,8,0:0:0:0:
224,128,573026,1,0,0:0:0:0:
224,128,573190,1,8,0:0:0:0:
224,128,573354,1,0,0:0:0:0:
224,128,573435,1,0,0:0:0:0:
224,128,573517,1,8,0:0:0:0:
224,128,573600,1,8,0:0:0:0:
224,128,573681,1,0,0:0:0:0:
224,128,573736,1,0,0:0:0:0:
224,128,573791,1,0,0:0:0:0:
224,128,573845,1,8,0:0:0:0:
224,128,573927,1,8,0:0:0:0:
224,128,574009,1,0,0:0:0:0:
224,128,574091,1,8,0:0:0:0:
224,128,574173,1,8,0:0:0:0:
224,128,574255,1,8,0:0:0:0:
224,128,574337,1,0,0:0:0:0:
224,128,574419,1,8,0:0:0:0:
224,128,574501,1,8,0:0:0:0:
224,128,574583,1,0,0:0:0:0:
224,128,574665,1,8,0:0:0:0:
224,128,574829,1,8,0:0:0:0:
224,128,574993,1,0,0:0:0:0:
224,128,575157,1,8,0:0:0:0:
224,128,575239,1,8,0:0:0:0:
224,128,575321,1,0,0:0:0:0:
224,128,575485,1,0,0:0:0:0:
224,128,575649,1,8,0:0:0:0:
224,128,575813,1,0,0:0:0:0:
224,128,575976,1,8,0:0:0:0:
224,128,576304,1,0,0:0:0:0:
224,128,576468,1,8,0:0:0:0:
224,128,576632,1,8,0:0:0:0:
224,128,576796,1,0,0:0:0:0:
224,128,576960,1,8,0:0:0:0:
224,128,577288,1,0,0:0:0:0:
224,128,577616,1,8,0:0:0:0:
224,128,577780,1,0,0:0:0:0:
224,128,577944,1,8,0:0:0:0:
224,128,578272,1,8,0:0:0:0:
224,128,578435,1,0,0:0:0:0:
224,128,578599,1,8,0:0:0:0:
224,128,578763,1,8,0:0:0:0:
224,128,578927,1,0,0:0:0:0:
224,128,579091,1,0,0:0:0:0:
224,128,579255,1,8,0:0:0:0:
224,128,579583,1,0,0:0:0:0:
224,128,579747,1,8,0:0:0:0:
224,128,579911,1,0,0:0:0:0:
224,128,580239,1,8,0:0:0:0:
224,128,580567,1,0,0:0:0:0:
224,128,580731,1,0,0:0:0:0:
224,128,580895,1,8,0:0:0:0:
224,128,581059,1,0,0:0:0:0:
224,128,581222,1,8,0:0:0:0:
224,128,581550,1,0,0:0:0:0:
224,128,581714,1,8,0:0:0:0:
224,128,581878,1,8,0:0:0:0:
224,128,582042,1,0,0:0:0:0:
224,128,582206,1,8,0:0:0:0:
224,128,582534,1,0,0:0:0:0:
224,128,582862,1,8,0:0:0:0:
224,128,583190,1,0,0:0:0:0:
224,128,583518,1,8,0:0:0:0:
224,128,583681,1,0,0:0:0:0:
224,128,583845,1,8,0:0:0:0:
224,128,584173,1,0,0:0:0:0:
224,128,584337,1,8,0:0:0:0:
224,128,584665,1,8,0:0:0:0:
224,128,584829,1,0,0:0:0:0:
224,128,584993,1,8,0:0:0:0:
224,128,585157,1,0,0:0:0:0:
224,128,585239,1,0,0:0:0:0:
224,128,585321,1,0,0:0:0:0:
224,128,585403,1,0,0:0:0:0:
224,128,585485,1,8,0:0:0:0:
224,128,585567,1,8,0:0:0:0:
224,128,585649,1,8,0:0:0:0:
224,128,585731,1,8,0:0:0:0:
224,128,585813,1,0,0:0:0:0:
224,128,585976,1,0,0:0:0:0:
224,128,586058,1,0,0:0:0:0:
224,128,586140,1,0,0:0:0:0:
224,128,586304,1,0,0:0:0:0:
224,128,586468,1,8,0:0:0:0:
224,128,586632,1,0,0:0:0:0:
224,128,586796,1,8,0:0:0:0:
224,128,586960,1,0,0:0:0:0:
224,128,587124,1,8,0:0:0:0:
224,128,587288,1,8,0:0:0:0:
224,128,587370,1,8,0:0:0:0:
224,128,587452,1,8,0:0:0:0:
224,128,587616,1,8,0:0:0:0:
224,128,587780,1,8,0:0:0:0:
224,128,587944,1,0,0:0:0:0:
224,128,588108,1,8,0:0:0:0:
224,128,588272,1,0,0:0:0:0:
224,128,588435,1,0,0:0:0:0:
224,128,588599,1,0,0:0:0:0:
224,128,588681,1,0,0:0:0:0:
224,128,588763,1,0,0:0:0:0:
224,128,588927,1,0,0:0:0:0:
224,128,589091,1,8,0:0:0:0:
224,128,589255,1,0,0:0:0:0:
224,128,589419,1,8,0:0:0:0:
224,128,589583,1,0,0:0:0:0:
224,128,589747,1,8,0:0:0:0:
224,128,589911,1,8,0:0:0:0:
224,128,589993,1,8,0:0:0:0:
224,128,590075,1,8,0:0:0:0:
224,128,590239,1,8,0:0:0:0:
224,128,590403,1,8,0:0:0:0:
224,128,590567,1,0,0:0:0:0:
224,128,590731,1,8,0:0:0:0:
224,128,590813,1,8,0:0:0:0:
224,128,590894,1,0,0:0:0:0:
224,128,591058,1,0,0:0:0:0:
224,128,591222,1,0,0:0:0:0:
224,128,591304,1,0,0:0:0:0:
224,128,591386,1,8,0:0:0:0:
224,128,591550,1,0,0:0:0:0:
224,128,591714,1,8,0:0:0:0:
224,128,591878,1,0,0:0:0:0:
224,128,592042,1,8,0:0:0:0:
224,128,592206,1,0,0:0:0:0:
224,128,592370,1,8,0:0:0:0:
224,128,592534,1,0,0:0:0:0:
224,128,592616,1,8,0:0:0:0:
224,128,592698,1,8,0:0:0:0:
224,128,592862,1,8,0:0:0:0:
224,128,593026,1,8,0:0:0:0:
224,128,593190,1,0,0:0:0:0:
224,128,593354,1,8,0:0:0:0:
224,128,593517,1,0,0:0:0:0:
224,128,593681,1,0,0:0:0:0:
224,128,593845,1,0,0:0:0:0:
224,128,593927,1,0,0:0:0:0:
224,128,594009,1,8,0:0:0:0:
224,128,594173,1,0,0:0:0:0:
224,128,594337,1,8,0:0:0:0:
224,128,594501,1,0,0:0:0:0:
224,128,594665,1,8,0:0:0:0:
224,128,594829,1,0,0:0:0:0:
224,128,594993,1,8,0:0:0:0:
224,128,595157,1,0,0:0:0:0:
224,128,595239,1,8,0:0:0:0:
224,128,595321,1,8,0:0:0:0:
224,128,595485,1,8,0:0:0:0:
224,128,595813,1,0,0:0:0:0:
224,128,595976,1,8,0:0:0:0:
224,128,596304,1,12,0:0:0:0:
256,192,596468,12,0,598599,0:0:0:0:
192,160,598927,5,8,0:0:0:0:
192,160,599091,1,0,0:0:0:0:
192,160,599255,1,8,0:0:0:0:
192,160,599419,1,0,0:0:0:0:
192,160,599583,1,8,0:0:0:0:
192,160,599665,1,8,0:0:0:0:
192,160,599747,1,0,0:0:0:0:
192,160,599829,1,8,0:0:0:0:
192,160,599993,1,0,0:0:0:0:
192,160,600075,1,8,0:0:0:0:
192,160,600239,1,8,0:0:0:0:
192,160,600403,1,0,0:0:0:0:
192,160,600567,1,8,0:0:0:0:
192,160,600731,1,0,0:0:0:0:
192,160,600894,1,8,0:0:0:0:
192,160,600976,1,0,0:0:0:0:
192,160,601058,1,0,0:0:0:0:
192,160,601140,1,8,0:0:0:0:
192,160,601304,1,0,0:0:0:0:
192,160,601386,1,8,0:0:0:0:
192,160,601468,1,0,0:0:0:0:
192,160,601550,1,8,0:0:0:0:
192,160,601632,1,8,0:0:0:0:
192,160,601714,1,0,0:0:0:0:
192,160,601878,1,8,0:0:0:0:
192,160,602042,1,0,0:0:0:0:
192,160,602206,1,8,0:0:0:0:
192,160,602288,1,8,0:0:0:0:
192,160,602370,1,0,0:0:0:0:
192,160,602452,1,8,0:0:0:0:
192,160,602616,1,0,0:0:0:0:
192,160,602698,1,8,0:0:0:0:
192,160,602862,1,8,0:0:0:0:
192,160,602944,1,0,0:0:0:0:
192,160,603026,1,8,0:0:0:0:
192,160,603108,1,0,0:0:0:0:
192,160,603190,1,8,0:0:0:0:
192,160,603354,1,0,0:0:0:0:
192,160,603517,1,8,0:0:0:0:
192,160,603599,1,0,0:0:0:0:
192,160,603681,1,8,0:0:0:0:
192,160,603845,1,0,0:0:0:0:
192,160,603927,1,0,0:0:0:0:
192,160,604009,1,8,0:0:0:0:
192,160,604091,1,0,0:0:0:0:
192,160,604173,1,8,0:0:0:0:
192,160,604337,1,0,0:0:0:0:
192,160,604501,1,8,0:0:0:0:
192,160,604665,1,0,0:0:0:0:
192,160,604829,1,8,0:0:0:0:
192,160,604993,1,0,0:0:0:0:
192,160,605075,1,8,0:0:0:0:
192,160,605239,1,0,0:0:0:0:
192,160,605321,1,8,0:0:0:0:
192,160,605485,1,8,0:0:0:0:
192,160,605567,1,8,0:0:0:0:
192,160,605649,1,0,0:0:0:0:
192,160,605813,1,8,0:0:0:0:
192,160,605976,1,0,0:0:0:0:
192,160,606140,1,8,0:0:0:0:
192,160,606304,1,0,0:0:0:0:
192,160,606386,1,8,0:0:0:0:
192,160,606550,1,0,0:0:0:0:
192,160,606632,1,8,0:0:0:0:
192,160,606714,1,0,0:0:0:0:
192,160,606796,1,8,0:0:0:0:
192,160,606878,1,8,0:0:0:0:
192,160,606960,1,0,0:0:0:0:
192,160,607124,1,8,0:0:0:0:
192,160,607288,1,0,0:0:0:0:
192,160,607452,1,8,0:0:0:0:
192,160,607534,1,8,0:0:0:0:
192,160,607616,1,0,0:0:0:0:
192,160,607698,1,8,0:0:0:0:
192,160,607862,1,0,0:0:0:0:
192,160,607944,1,8,0:0:0:0:
192,160,608108,1,8,0:0:0:0:
192,160,608190,1,0,0:0:0:0:
192,160,608272,1,8,0:0:0:0:
192,160,608354,1,0,0:0:0:0:
192,160,608435,1,8,0:0:0:0:
192,160,608599,1,0,0:0:0:0:
192,160,608763,1,8,0:0:0:0:
192,160,608845,1,0,0:0:0:0:
192,160,608927,1,8,0:0:0:0:
192,160,609091,1,0,0:0:0:0:
192,160,609173,1,0,0:0:0:0:
192,160,609255,1,0,0:0:0:0:
192,160,609337,1,0,0:0:0:0:
192,160,609419,1,8,0:0:0:0:
192,160,609501,1,8,0:0:0:0:
192,160,609583,1,8,0:0:0:0:
192,160,609665,1,8,0:0:0:0:
192,160,609747,1,8,0:0:0:0:
192,160,609911,1,0,0:0:0:0:
192,160,609993,1,0,0:0:0:0:
192,160,610075,1,0,0:0:0:0:
192,160,610157,1,0,0:0:0:0:
192,160,610239,1,0,0:0:0:0:
192,160,610403,1,8,0:0:0:0:
192,160,610485,1,8,0:0:0:0:
192,160,610567,1,0,0:0:0:0:
192,160,610731,1,0,0:0:0:0:
192,160,610813,1,0,0:0:0:0:
192,160,610894,1,8,0:0:0:0:
192,160,610976,1,8,0:0:0:0:
192,160,611058,1,0,0:0:0:0:
192,160,611140,1,8,0:0:0:0:
192,160,611222,1,0,0:0:0:0:
192,160,611304,1,0,0:0:0:0:
192,160,611386,1,8,0:0:0:0:
192,160,611550,1,0,0:0:0:0:
192,160,611632,1,0,0:0:0:0:
192,160,611714,1,8,0:0:0:0:
192,160,611796,1,0,0:0:0:0:
192,160,611878,1,8,0:0:0:0:
192,160,611960,1,0,0:0:0:0:
192,160,612042,1,8,0:0:0:0:
192,160,612124,1,8,0:0:0:0:
192,160,612206,1,0,0:0:0:0:
192,160,612288,1,8,0:0:0:0:
192,160,612370,1,8,0:0:0:0:
192,160,612452,1,0,0:0:0:0:
192,160,612534,1,8,0:0:0:0:
192,160,612616,1,8,0:0:0:0:
192,160,612698,1,0,0:0:0:0:
192,160,612780,1,8,0:0:0:0:
192,160,612862,1,8,0:0:0:0:
192,160,612944,1,0,0:0:0:0:
192,160,613026,1,8,0:0:0:0:
192,160,613190,1,8,0:0:0:0:
192,160,613354,1,0,0:0:0:0:
192,160,613435,1,0,0:0:0:0:
192,160,613517,1,8,0:0:0:0:
192,160,613599,1,0,0:0:0:0:
192,160,613681,1,8,0:0:0:0:
192,160,613763,1,8,0:0:0:0:
192,160,613845,1,0,0:0:0:0:
192,160,613927,1,0,0:0:0:0:
192,160,614009,1,8,0:0:0:0:
192,160,614091,1,0,0:0:0:0:
192,160,614173,1,8,0:0:0:0:
192,160,614255,1,0,0:0:0:0:
192,160,614337,1,8,0:0:0:0:
192,160,614501,1,0,0:0:0:0:
192,160,614665,1,0,0:0:0:0:
192,160,614829,1,0,0:0:0:0:
192,160,614911,1,8,0:0:0:0:
192,160,614993,1,0,0:0:0:0:
192,160,615075,1,0,0:0:0:0:
192,160,615157,1,8,0:0:0:0:
192,160,615321,1,8,0:0:0:0:
192,160,615403,1,0,0:0:0:0:
192,160,615485,1,8,0:0:0:0:
192,160,615567,1,8,0:0:0:0:
192,160,615649,1,0,0:0:0:0:
192,160,615731,1,8,0:0:0:0:
192,160,615813,1,0,0:0:0:0:
192,160,615976,1,8,0:0:0:0:
192,160,616058,1,8,0:0:0:0:
192,160,616140,1,0,0:0:0:0:
192,160,616222,1,8,0:0:0:0:
192,160,616386,1,0,0:0:0:0:
192,160,616468,1,8,0:0:0:0:
192,160,616632,1,0,0:0:0:0:
192,160,616714,1,8,0:0:0:0:
192,160,616796,1,0,0:0:0:0:
192,160,616878,1,0,0:0:0:0:
192,160,616960,1,8,0:0:0:0:
192,160,617124,1,0,0:0:0:0:
192,160,617206,1,8,0:0:0:0:
192,160,617288,1,8,0:0:0:0:
192,160,617370,1,0,0:0:0:0:
192,160,617452,1,8,0:0:0:0:
192,160,617616,1,0,0:0:0:0:
192,160,617698,1,8,0:0:0:0:
192,160,617780,1,0,0:0:0:0:
192,160,617862,1,0,0:0:0:0:
192,160,617944,1,8,0:0:0:0:
192,160,618026,1,8,0:0:0:0:
192,160,618108,1,0,0:0:0:0:
192,160,618190,1,0,0:0:0:0:
192,160,618272,1,8,0:0:0:0:
192,160,618435,1,0,0:0:0:0:
192,160,618599,1,8,0:0:0:0:
192,160,618681,1,8,0:0:0:0:
192,160,618763,1,8,0:0:0:0:
192,160,618845,1,8,0:0:0:0:
192,160,618927,1,0,0:0:0:0:
192,160,619009,1,8,0:0:0:0:
192,160,619091,1,0,0:0:0:0:
192,160,619255,1,12,0:0:0:0:
192,160,619501,1,12,0:0:0:0:
192,160,619747,1,12,0:0:0:0:
192,160,619911,1,4,0:0:0:0:
192,160,620239,1,0,0:0:0:0:
192,160,620321,1,8,0:0:0:0:
192,160,620403,1,0,0:0:0:0:
192,160,620567,1,0,0:0:0:0:
192,160,620649,1,8,0:0:0:0:
192,160,620813,1,0,0:0:0:0:
192,160,620895,1,8,0:0:0:0:
192,160,620976,1,0,0:0:0:0:
192,160,621058,1,8,0:0:0:0:
192,160,621140,1,0,0:0:0:0:
192,160,621222,1,8,0:0:0:0:
192,160,621386,1,0,0:0:0:0:
192,160,621468,1,8,0:0:0:0:
192,160,621632,1,0,0:0:0:0:
192,160,621714,1,0,0:0:0:0:
192,160,621878,1,0,0:0:0:0:
192,160,621960,1,8,0:0:0:0:
192,160,622124,1,0,0:0:0:0:
192,160,622206,1,8,0:0:0:0:
192,160,622288,1,0,0:0:0:0:
192,160,622370,1,8,0:0:0:0:
192,160,622452,1,8,0:0:0:0:
192,160,622534,1,0,0:0:0:0:
192,160,622698,1,0,0:0:0:0:
192,160,622780,1,8,0:0:0:0:
192,160,622944,1,0,0:0:0:0:
192,160,623026,1,8,0:0:0:0:
192,160,623190,1,0,0:0:0:0:
192,160,623272,1,8,0:0:0:0:
192,160,623435,1,0,0:0:0:0:
192,160,623517,1,8,0:0:0:0:
192,160,623599,1,0,0:0:0:0:
192,160,623681,1,8,0:0:0:0:
192,160,623763,1,0,0:0:0:0:
192,160,623845,1,8,0:0:0:0:
192,160,624009,1,0,0:0:0:0:
192,160,624091,1,8,0:0:0:0:
192,160,624255,1,8,0:0:0:0:
192,160,624337,1,8,0:0:0:0:
192,160,624501,1,8,0:0:0:0:
192,160,624583,1,0,0:0:0:0:
192,160,624747,1,0,0:0:0:0:
192,160,624829,1,0,0:0:0:0:
192,160,624993,1,0,0:0:0:0:
192,160,625075,1,0,0:0:0:0:
192,160,625157,1,8,0:0:0:0:
192,160,625321,1,0,0:0:0:0:
192,160,625403,1,8,0:0:0:0:
192,160,625567,1,0,0:0:0:0:
192,160,625649,1,0,0:0:0:0:
192,160,625813,1,0,0:0:0:0:
192,160,625894,1,8,0:0:0:0:
192,160,626058,1,0,0:0:0:0:
192,160,626140,1,8,0:0:0:0:
192,160,626304,1,8,0:0:0:0:
192,160,626468,1,8,0:0:0:0:
192,160,626632,1,0,0:0:0:0:
192,160,626714,1,8,0:0:0:0:
192,160,626878,1,0,0:0:0:0:
192,160,626960,1,8,0:0:0:0:
192,160,627124,1,0,0:0:0:0:
192,160,627206,1,8,0:0:0:0:
192,160,627370,1,8,0:0:0:0:
192,160,627452,1,0,0:0:0:0:
192,160,627616,1,8,0:0:0:0:
192,160,627780,1,8,0:0:0:0:
192,160,627944,1,0,0:0:0:0:
192,160,628026,1,8,0:0:0:0:
192,160,628190,1,8,0:0:0:0:
192,160,628272,1,0,0:0:0:0:
192,160,628435,1,0,0:0:0:0:
192,160,628517,1,8,0:0:0:0:
192,160,628599,1,0,0:0:0:0:
192,160,628681,1,0,0:0:0:0:
192,160,628763,1,8,0:0:0:0:
192,160,628845,1,8,0:0:0:0:
192,160,628927,1,0,0:0:0:0:
192,160,629091,1,8,0:0:0:0:
192,160,629255,1,0,0:0:0:0:
192,160,629337,1,8,0:0:0:0:
192,160,629501,1,0,0:0:0:0:
192,160,629583,1,8,0:0:0:0:
192,160,629747,1,0,0:0:0:0:
192,160,629829,1,8,0:0:0:0:
192,160,629911,1,0,0:0:0:0:
192,160,629993,1,0,0:0:0:0:
192,160,630075,1,8,0:0:0:0:
192,160,630157,1,0,0:0:0:0:
192,160,630239,1,8,0:0:0:0:
192,160,630321,1,8,0:0:0:0:
192,160,630403,1,0,0:0:0:0:
192,160,630567,1,0,0:0:0:0:
192,160,630649,1,8,0:0:0:0:
192,160,630813,1,0,0:0:0:0:
192,160,630894,1,8,0:0:0:0:
192,160,631058,1,8,0:0:0:0:
192,160,631140,1,0,0:0:0:0:
192,160,631304,1,0,0:0:0:0:
192,160,631386,1,8,0:0:0:0:
192,160,631468,1,0,0:0:0:0:
192,160,631550,1,8,0:0:0:0:
192,160,631632,1,0,0:0:0:0:
192,160,631714,1,8,0:0:0:0:
192,160,631878,1,0,0:0:0:0:
192,160,631960,1,8,0:0:0:0:
192,160,632124,1,0,0:0:0:0:
192,160,632206,1,0,0:0:0:0:
192,160,632370,1,0,0:0:0:0:
192,160,632452,1,8,0:0:0:0:
192,160,632616,1,0,0:0:0:0:
192,160,632698,1,8,0:0:0:0:
192,160,632780,1,0,0:0:0:0:
192,160,632862,1,8,0:0:0:0:
192,160,632944,1,8,0:0:0:0:
192,160,633026,1,0,0:0:0:0:
192,160,633190,1,8,0:0:0:0:
192,160,633272,1,0,0:0:0:0:
192,160,633435,1,0,0:0:0:0:
192,160,633517,1,8,0:0:0:0:
192,160,633681,1,0,0:0:0:0:
192,160,633763,1,8,0:0:0:0:
192,160,633927,1,0,0:0:0:0:
192,160,634009,1,8,0:0:0:0:
192,160,634091,1,8,0:0:0:0:
192,160,634173,1,0,0:0:0:0:
192,160,634255,1,8,0:0:0:0:
192,160,634337,1,0,0:0:0:0:
192,160,634501,1,0,0:0:0:0:
192,160,634583,1,8,0:0:0:0:
192,160,634747,1,0,0:0:0:0:
192,160,634829,1,8,0:0:0:0:
192,160,634993,1,0,0:0:0:0:
192,160,635075,1,8,0:0:0:0:
192,160,635239,1,8,0:0:0:0:
192,160,635321,1,0,0:0:0:0:
192,160,635485,1,0,0:0:0:0:
192,160,635567,1,0,0:0:0:0:
192,160,635649,1,8,0:0:0:0:
192,160,635813,1,0,0:0:0:0:
192,160,635894,1,8,0:0:0:0:
192,160,636058,1,0,0:0:0:0:
192,160,636140,1,0,0:0:0:0:
192,160,636304,1,0,0:0:0:0:
192,160,636386,1,8,0:0:0:0:
192,160,636550,1,0,0:0:0:0:
192,160,636632,1,8,0:0:0:0:
192,160,636714,1,0,0:0:0:0:
192,160,636796,1,8,0:0:0:0:
192,160,636878,1,0,0:0:0:0:
192,160,636960,1,8,0:0:0:0:
192,160,637124,1,0,0:0:0:0:
192,160,637206,1,8,0:0:0:0:
192,160,637370,1,8,0:0:0:0:
192,160,637452,1,0,0:0:0:0:
192,160,637616,1,8,0:0:0:0:
192,160,637698,1,0,0:0:0:0:
192,160,637862,1,8,0:0:0:0:
192,160,637944,1,0,0:0:0:0:
192,160,638026,1,0,0:0:0:0:
192,160,638108,1,8,0:0:0:0:
192,160,638190,1,0,0:0:0:0:
192,160,638272,1,8,0:0:0:0:
192,160,638435,1,0,0:0:0:0:
192,160,638517,1,8,0:0:0:0:
192,160,638681,1,8,0:0:0:0:
192,160,638763,1,0,0:0:0:0:
192,160,638927,1,8,0:0:0:0:
192,160,639009,1,0,0:0:0:0:
192,160,639173,1,0,0:0:0:0:
192,160,639255,1,8,0:0:0:0:
192,160,639337,1,8,0:0:0:0:
192,160,639419,1,0,0:0:0:0:
192,160,639583,1,8,0:0:0:0:
192,160,639665,1,0,0:0:0:0:
192,160,639747,1,0,0:0:0:0:
192,160,639829,1,8,0:0:0:0:
192,160,639911,1,0,0:0:0:0:
192,160,639993,1,0,0:0:0:0:
192,160,640075,1,8,0:0:0:0:
192,160,640157,1,0,0:0:0:0:
192,160,640239,1,0,0:0:0:0:
192,160,640321,1,8,0:0:0:0:
192,160,640403,1,0,0:0:0:0:
192,160,640485,1,0,0:0:0:0:
160,160,640567,1,8,0:0:0:0:
192,160,640649,1,0,0:0:0:0:
192,160,640731,1,8,0:0:0:0:
192,160,640894,1,4,0:0:0:0:
192,160,641058,1,8,0:0:0:0:
192,160,641222,1,0,0:0:0:0:
192,160,641304,1,8,0:0:0:0:
192,160,641386,1,0,0:0:0:0:
192,160,641550,1,8,0:0:0:0:
192,160,641714,1,8,0:0:0:0:
192,160,641878,1,0,0:0:0:0:
192,160,641960,1,8,0:0:0:0:
192,160,642042,1,0,0:0:0:0:
192,160,642124,1,0,0:0:0:0:
192,160,642206,1,0,0:0:0:0:
192,160,642370,1,8,0:0:0:0:
192,160,642534,1,0,0:0:0:0:
192,160,642616,1,8,0:0:0:0:
192,160,642698,1,0,0:0:0:0:
192,160,642780,1,0,0:0:0:0:
192,160,642862,1,8,0:0:0:0:
192,160,643026,1,8,0:0:0:0:
192,160,643190,1,0,0:0:0:0:
192,160,643354,1,8,0:0:0:0:
192,160,643517,1,0,0:0:0:0:
192,160,643681,1,8,0:0:0:0:
192,160,643845,1,0,0:0:0:0:
192,160,643927,1,8,0:0:0:0:
192,160,644009,1,0,0:0:0:0:
192,160,644173,1,8,0:0:0:0:
192,160,644337,1,8,0:0:0:0:
192,160,644501,1,0,0:0:0:0:
192,160,644583,1,8,0:0:0:0:
192,160,644665,1,0,0:0:0:0:
192,160,644747,1,0,0:0:0:0:
192,160,644829,1,0,0:0:0:0:
192,160,644993,1,8,0:0:0:0:
192,160,645157,1,0,0:0:0:0:
192,160,645239,1,8,0:0:0:0:
192,160,645321,1,0,0:0:0:0:
192,160,645403,1,8,0:0:0:0:
192,160,645485,1,8,0:0:0:0:
192,160,645649,1,8,0:0:0:0:
192,160,645813,1,0,0:0:0:0:
192,160,645976,1,8,0:0:0:0:
192,160,646140,1,0,0:0:0:0:
192,160,646304,1,8,0:0:0:0:
192,160,646468,1,0,0:0:0:0:
192,160,646550,1,8,0:0:0:0:
192,160,646632,1,0,0:0:0:0:
192,160,646796,1,8,0:0:0:0:
192,160,646960,1,8,0:0:0:0:
192,160,647124,1,0,0:0:0:0:
192,160,647206,1,8,0:0:0:0:
192,160,647288,1,0,0:0:0:0:
192,160,647370,1,0,0:0:0:0:
192,160,647452,1,0,0:0:0:0:
192,160,647616,1,8,0:0:0:0:
192,160,647780,1,0,0:0:0:0:
192,160,647862,1,8,0:0:0:0:
192,160,647944,1,0,0:0:0:0:
192,160,648026,1,0,0:0:0:0:
192,160,648108,1,8,0:0:0:0:
192,160,648272,1,8,0:0:0:0:
192,160,648354,1,8,0:0:0:0:
192,160,648435,1,0,0:0:0:0:
192,160,648599,1,0,0:0:0:0:
192,160,648763,1,8,0:0:0:0:
192,160,648927,1,8,0:0:0:0:
192,160,649009,1,8,0:0:0:0:
192,160,649091,1,0,0:0:0:0:
192,160,649173,1,8,0:0:0:0:
192,160,649255,1,0,0:0:0:0:
192,160,649337,1,0,0:0:0:0:
192,160,649419,1,8,0:0:0:0:
192,160,649583,1,8,0:0:0:0:
192,160,649665,1,8,0:0:0:0:
192,160,649747,1,0,0:0:0:0:
192,160,649829,1,8,0:0:0:0:
192,160,649911,1,0,0:0:0:0:
192,160,649993,1,8,0:0:0:0:
192,160,650075,1,8,0:0:0:0:
192,160,650239,1,0,0:0:0:0:
192,160,650321,1,0,0:0:0:0:
192,160,650403,1,8,0:0:0:0:
192,160,650567,1,0,0:0:0:0:
192,160,650731,1,8,0:0:0:0:
192,160,650813,1,8,0:0:0:0:
192,160,650894,1,8,0:0:0:0:
192,160,650976,1,8,0:0:0:0:
192,160,651058,1,8,0:0:0:0:
192,160,651140,1,8,0:0:0:0:
192,160,651222,1,8,0:0:0:0:
192,160,651304,1,8,0:0:0:0:
192,160,651386,1,0,0:0:0:0:
192,160,651550,1,8,0:0:0:0:
192,160,651714,1,0,0:0:0:0:
192,160,651796,1,8,0:0:0:0:
192,160,651878,1,0,0:0:0:0:
192,160,652042,1,8,0:0:0:0:
192,160,652206,1,8,0:0:0:0:
192,160,652370,1,0,0:0:0:0:
192,160,652452,1,8,0:0:0:0:
192,160,652534,1,0,0:0:0:0:
192,160,652616,1,0,0:0:0:0:
192,160,652698,1,0,0:0:0:0:
192,160,652862,1,8,0:0:0:0:
192,160,653026,1,0,0:0:0:0:
192,160,653108,1,8,0:0:0:0:
192,160,653190,1,0,0:0:0:0:
192,160,653272,1,0,0:0:0:0:
192,160,653354,1,8,0:0:0:0:
192,160,653518,1,8,0:0:0:0:
192,160,653682,1,0,0:0:0:0:
192,160,653846,1,8,0:0:0:0:
192,160,654009,1,0,0:0:0:0:
192,160,654173,1,8,0:0:0:0:
192,160,654337,1,0,0:0:0:0:
192,160,654419,1,8,0:0:0:0:
192,160,654501,1,0,0:0:0:0:
192,160,654665,1,8,0:0:0:0:
192,160,654829,1,8,0:0:0:0:
192,160,654993,1,0,0:0:0:0:
192,160,655075,1,8,0:0:0:0:
192,160,655157,1,0,0:0:0:0:
192,160,655239,1,0,0:0:0:0:
192,160,655321,1,0,0:0:0:0:
192,160,655485,1,8,0:0:0:0:
192,160,655649,1,0,0:0:0:0:
192,160,655731,1,8,0:0:0:0:
192,160,655813,1,0,0:0:0:0:
192,160,655895,1,8,0:0:0:0:
192,160,655977,1,8,0:0:0:0:
192,160,656141,1,0,0:0:0:0:
192,160,656305,1,8,0:0:0:0:
192,160,656468,1,0,0:0:0:0:
192,160,656632,1,8,0:0:0:0:
192,160,656714,1,0,0:0:0:0:
192,160,656796,1,0,0:0:0:0:
192,160,656878,1,8,0:0:0:0:
192,160,656960,1,0,0:0:0:0:
192,160,657042,1,0,0:0:0:0:
192,160,657124,1,8,0:0:0:0:
192,160,657206,1,0,0:0:0:0:
192,160,657288,1,8,0:0:0:0:
192,160,657370,1,8,0:0:0:0:
192,160,657452,1,0,0:0:0:0:
192,160,657534,1,8,0:0:0:0:
192,160,657616,1,8,0:0:0:0:
192,160,657698,1,0,0:0:0:0:
192,160,657780,1,8,0:0:0:0:
192,160,657862,1,8,0:0:0:0:
192,160,657944,1,8,0:0:0:0:
192,160,658026,1,0,0:0:0:0:
192,160,658108,1,0,0:0:0:0:
192,160,658190,1,8,0:0:0:0:
192,160,658272,1,0,0:0:0:0:
192,160,658354,1,0,0:0:0:0:
192,160,658436,1,8,0:0:0:0:
192,160,658518,1,0,0:0:0:0:
192,160,658600,1,8,0:0:0:0:
192,160,658681,1,8,0:0:0:0:
192,160,658764,1,0,0:0:0:0:
192,160,658846,1,8,0:0:0:0:
192,160,658927,1,0,0:0:0:0:
192,160,659009,1,0,0:0:0:0:
192,160,659091,1,8,0:0:0:0:
192,160,659173,1,0,0:0:0:0:
192,160,659255,1,8,0:0:0:0:
192,160,659419,1,8,0:0:0:0:
192,160,659501,1,0,0:0:0:0:
192,160,659583,1,8,0:0:0:0:
192,160,659665,1,0,0:0:0:0:
192,160,659747,1,8,0:0:0:0:
192,160,659829,1,8,0:0:0:0:
192,160,659911,1,0,0:0:0:0:
192,160,660075,1,8,0:0:0:0:
192,160,660157,1,8,0:0:0:0:
192,160,660239,1,0,0:0:0:0:
192,160,660403,1,8,0:0:0:0:
192,160,660567,1,0,0:0:0:0:
192,160,660649,1,8,0:0:0:0:
192,160,660731,1,0,0:0:0:0:
192,160,660813,1,0,0:0:0:0:
192,160,660895,1,8,0:0:0:0:
192,160,660976,1,8,0:0:0:0:
192,160,661058,1,0,0:0:0:0:
192,160,661223,1,8,0:0:0:0:
192,160,661386,1,0,0:0:0:0:
192,160,661468,1,0,0:0:0:0:
192,160,661550,1,8,0:0:0:0:
192,160,661714,1,0,0:0:0:0:
224,128,661878,1,4,0:0:0:0:
192,128,662206,1,8,0:0:0:0:
192,128,662534,1,0,0:0:0:0:
192,128,662698,1,8,0:0:0:0:
192,128,663026,1,8,0:0:0:0:
192,128,663517,1,0,0:0:0:0:
192,128,663845,1,8,0:0:0:0:
192,128,664173,1,0,0:0:0:0:
192,128,664337,1,0,0:0:0:0:
192,128,664501,1,0,0:0:0:0:
192,128,664829,1,8,0:0:0:0:
192,128,665157,1,0,0:0:0:0:
192,128,665321,1,8,0:0:0:0:
192,128,665649,1,8,0:0:0:0:
192,128,666140,1,8,0:0:0:0:
192,128,666468,1,8,0:0:0:0:
192,128,666796,1,8,0:0:0:0:
192,128,667124,1,0,0:0:0:0:
192,128,667780,1,0,0:0:0:0:
192,128,667944,1,0,0:0:0:0:
192,128,668272,1,8,0:0:0:0:
192,128,668763,1,8,0:0:0:0:
192,128,669091,1,0,0:0:0:0:
192,128,669419,1,0,0:0:0:0:
192,128,669583,1,0,0:0:0:0:
192,128,669747,1,8,0:0:0:0:
192,128,669911,1,0,0:0:0:0:
192,128,670075,1,0,0:0:0:0:
192,128,670239,1,8,0:0:0:0:
192,128,670567,1,0,0:0:0:0:
192,128,670731,1,8,0:0:0:0:
192,128,670894,1,8,0:0:0:0:
192,128,671222,1,0,0:0:0:0:
192,128,671386,1,8,0:0:0:0:
192,128,671550,1,8,0:0:0:0:
192,128,671714,1,8,0:0:0:0:
192,128,671878,1,8,0:0:0:0:
192,128,672042,1,0,0:0:0:0:
192,128,672370,1,0,0:0:0:0:
192,128,672698,1,8,0:0:0:0:
192,128,673026,1,8,0:0:0:0:
192,128,673190,1,0,0:0:0:0:
192,128,673517,1,0,0:0:0:0:
192,128,674829,1,0,0:0:0:0:
192,128,675157,1,0,0:0:0:0:
192,128,675321,1,8,0:0:0:0:
192,128,675649,1,8,0:0:0:0:
192,128,675813,1,8,0:0:0:0:
192,128,675976,1,0,0:0:0:0:
192,128,676140,1,8,0:0:0:0:
192,128,677124,1,8,0:0:0:0:
192,128,677288,1,0,0:0:0:0:
192,128,677452,1,0,0:0:0:0:
192,128,677616,1,8,0:0:0:0:
192,128,678108,1,8,0:0:0:0:
192,128,678272,1,0,0:0:0:0:
192,128,678435,1,0,0:0:0:0:
192,128,678599,1,0,0:0:0:0:
192,128,678763,1,8,0:0:0:0:
192,128,679091,1,0,0:0:0:0:
192,128,679255,1,0,0:0:0:0:
192,128,679419,1,8,0:0:0:0:
192,128,679583,1,0,0:0:0:0:
192,128,679665,1,8,0:0:0:0:
160,128,679747,1,0,0:0:0:0:
192,128,679829,1,8,0:0:0:0:
192,128,679911,1,0,0:0:0:0:
192,128,680075,1,0,0:0:0:0:
192,128,680239,1,8,0:0:0:0:
192,128,680403,1,0,0:0:0:0:
192,128,680485,1,8,0:0:0:0:
192,128,680567,1,0,0:0:0:0:
192,128,680731,1,8,0:0:0:0:
192,128,680894,1,0,0:0:0:0:
192,128,681058,1,8,0:0:0:0:
192,128,681222,1,8,0:0:0:0:
192,128,681386,1,0,0:0:0:0:
192,128,681550,1,8,0:0:0:0:
256,192,681714,12,0,682862,0:0:0:0:
