osu file format v14

[General]
AudioFilename: audio.mp3
AudioLeadIn: 0
PreviewTime: -1
Countdown: 0
SampleSet: None
StackLeniency: 0.2
Mode: 0
LetterboxInBreaks: 0
WidescreenStoryboard: 1

[Editor]
Bookmarks: 198438,244242
DistanceSpacing: 0.7
BeatDivisor: 4
GridSize: 16
TimelineZoom: 1.7

[Metadata]
Title:Initial D ~Hyper Mega Mix~
TitleUnicode:Initial D ~Hyper Mega Mix~
Artist:Various Artists
ArtistUnicode:Various Artists
Creator:Lazer
Version:Running in the 90s
Source:
Tags:
BeatmapID:1628468
BeatmapSetID:774860

[Difficulty]
HPDrainRate:5
CircleSize:4
OverallDifficulty:8
ApproachRate:8
SliderMultiplier:2
SliderTickRate:1

[Events]
//Background and Video events
//Break Periods
2,177807,179889
2,242833,243560
//Storyboard Layer 0 (Background)
//Storyboard Layer 1 (Fail)
//Storyboard Layer 2 (Pass)
//Storyboard Layer 3 (Foreground)
//Storyboard Sound Samples

[TimingPoints]
9357,387.096774193548,4,1,0,20,1,0
9357,-200,4,1,0,20,0,0
26389,-100,4,1,0,20,0,0
38389,-74.6268656716418,4,1,0,20,0,0
44969,-100,4,1,0,20,0,0
54260,-74.6268656716418,4,1,0,20,0,0
88313,387.096774193548,4,1,0,20,1,0
88324,-100,4,1,0,20,0,0
111534,384.492149951938,4,1,0,20,1,0
111534,-133.333333333333,4,1,0,20,0,0
113071,-83.3333333333333,4,1,0,20,0,0
127682,-66.6666666666667,4,1,0,20,0,0
128643,-83.3333333333333,4,1,0,20,0,0
148445,-133.333333333333,4,1,0,20,0,0
149983,-76.9230769230769,4,1,0,20,0,0
174590,378.548895899054,4,1,0,20,1,0
174590,-133.333333333333,4,1,0,20,0,0
180646,-76.9230769230769,4,1,0,20,0,0
197302,-66.6666666666667,4,1,0,20,0,0
198627,-76.9230769230769,4,1,0,20,0,0
216987,-71.4285714285714,4,1,0,20,0,0
238943,-133.333333333333,4,1,0,20,0,0
241214,-100,4,1,0,20,0,0
244310,387.096774193548,4,1,0,20,1,0
250676,386.847195357834,4,1,0,20,1,0

[HitObjects]
397,247,174590,6,0,P|402:198|402:148,1,75.0000028610231
329,22,174968,2,0,P|323:71|323:121,1,75.0000028610231
188,121,175347,2,0,P|188:71|183:22,1,75.0000028610231
109,148,175725,2,0,P|109:198|114:247,1,75.0000028610231
207,288,176104,6,0,P|237:307|266:288,1,75.0000028610231
448,224,176482,2,0,P|418:204|389:224,1,75.0000028610231
285,96,176861,2,0,P|255:76|226:96,1,75.0000028610231
44,160,177239,2,0,P|73:179|102:159,1,75.0000028610231
96,352,180646,5,0,0:0:0:0:
96,320,180741,1,0,0:0:0:0:
57,284,180836,1,0,0:0:0:0:
63,248,180930,1,0,0:0:0:0:
96,232,181025,1,0,0:0:0:0:
128,247,181119,1,0,0:0:0:0:
135,283,181214,1,0,0:0:0:0:
432,240,181403,5,0,0:0:0:0:
432,272,181498,1,0,0:0:0:0:
471,308,181593,1,0,0:0:0:0:
465,344,181687,1,0,0:0:0:0:
432,360,181782,1,0,0:0:0:0:
400,345,181876,1,0,0:0:0:0:
393,309,181971,1,0,0:0:0:0:
224,176,182160,5,0,0:0:0:0:
192,112,182254,1,0,0:0:0:0:
224,48,182349,1,0,0:0:0:0:
256,111,182444,2,0,L|80:111,1,129.999994049073
48,112,182728,1,0,0:0:0:0:
288,208,182918,5,0,0:0:0:0:
320,272,183012,1,0,0:0:0:0:
288,336,183107,1,0,0:0:0:0:
256,273,183202,2,0,L|432:273,1,129.999994049073
464,272,183486,1,0,0:0:0:0:
208,352,183675,5,0,0:0:0:0:
165,343,183769,1,0,0:0:0:0:
133,313,183864,1,0,0:0:0:0:
121,271,183958,1,0,0:0:0:0:
132,229,184053,1,0,0:0:0:0:
163,198,184148,1,0,0:0:0:0:
206,188,184242,1,0,0:0:0:0:
304,32,184432,5,0,0:0:0:0:
346,40,184526,1,0,0:0:0:0:
378,70,184621,1,0,0:0:0:0:
390,112,184715,1,0,0:0:0:0:
379,154,184810,1,0,0:0:0:0:
348,185,184905,1,0,0:0:0:0:
305,195,184999,1,0,0:0:0:0:
112,112,185189,5,0,0:0:0:0:
112,112,185284,1,0,0:0:0:0:
208,112,185473,1,0,0:0:0:0:
208,112,185568,1,0,0:0:0:0:
320,112,185757,1,0,0:0:0:0:
400,272,185946,5,0,0:0:0:0:
400,272,186041,1,0,0:0:0:0:
304,272,186230,5,0,0:0:0:0:
304,272,186325,1,0,0:0:0:0:
256,240,186419,1,0,0:0:0:0:
240,256,186514,1,0,0:0:0:0:
224,272,186608,1,0,0:0:0:0:
176,304,186703,1,0,0:0:0:0:
124,306,186797,1,0,0:0:0:0:
86,274,186892,1,0,0:0:0:0:
79,223,186987,1,0,0:0:0:0:
109,182,187081,1,0,0:0:0:0:
159,174,187176,1,0,0:0:0:0:
203,201,187270,1,0,0:0:0:0:
336,80,187460,5,0,0:0:0:0:
388,78,187554,1,0,0:0:0:0:
426,110,187649,1,0,0:0:0:0:
433,161,187744,1,0,0:0:0:0:
403,202,187838,1,0,0:0:0:0:
353,210,187933,1,0,0:0:0:0:
309,183,188027,1,0,0:0:0:0:
176,112,188217,5,0,0:0:0:0:
108,134,188311,1,0,0:0:0:0:
85,202,188406,1,0,0:0:0:0:
151,179,188501,2,0,L|26:54,1,129.999994049073
6,32,188785,1,0,0:0:0:0:
328,277,188974,5,0,0:0:0:0:
396,255,189068,1,0,0:0:0:0:
419,187,189163,1,0,0:0:0:0:
353,210,189258,2,0,L|477:334,1,129.999994049073
498,357,189542,1,0,0:0:0:0:
356,29,189731,5,0,0:0:0:0:
349,73,189825,1,0,0:0:0:0:
364,116,189920,1,0,0:0:0:0:
397,146,190014,1,0,0:0:0:0:
441,157,190109,1,0,0:0:0:0:
441,157,190205,1,0,0:0:0:0:
441,157,190299,1,0,0:0:0:0:
156,355,190489,5,0,0:0:0:0:
162,310,190583,1,0,0:0:0:0:
147,267,190678,1,0,0:0:0:0:
114,237,190772,1,0,0:0:0:0:
70,226,190867,1,0,0:0:0:0:
70,226,190963,1,0,0:0:0:0:
70,226,191057,1,0,0:0:0:0:
117,59,191246,6,0,L|131:128,1,64.9999970245363
137,77,191435,2,0,L|151:146,1,64.9999970245363
164,97,191624,2,0,L|178:166,1,64.9999970245363
191,117,191813,2,0,L|205:186,1,64.9999970245363
308,180,192003,6,0,L|321:117,1,64.9999970245363
335,160,192192,2,0,L|348:97,1,64.9999970245363
362,140,192381,2,0,L|375:77,1,64.9999970245363
382,122,192570,2,0,L|395:59,1,64.9999970245363
256,240,192760,6,0,B|256:288|256:288|272:304|240:304|256:336|256:336|256:384,1,129.999994049073
80,176,193138,2,0,B|63:144|63:144|63:32,1,129.999994049073
144,128,193517,1,0,0:0:0:0:
48,240,193706,1,0,0:0:0:0:
144,352,193895,1,0,0:0:0:0:
208,288,194085,1,0,0:0:0:0:
304,288,194274,6,0,L|448:288,1,129.999994049073
496,224,194653,2,0,B|512:192|512:192|512:96,1,129.999994049073
432,176,195031,1,0,0:0:0:0:
512,304,195220,1,0,0:0:0:0:
432,96,195410,2,0,B|400:80|400:80|288:80,1,129.999994049073
352,290,195788,6,0,P|336:224|352:160,1,129.999994049073
258,258,196167,2,0,P|271:321|256:384,1,129.999994049073
176,320,196545,1,0,0:0:0:0:
128,240,196735,1,0,0:0:0:0:
48,288,196924,1,0,0:0:0:0:
48,192,197113,1,0,0:0:0:0:
128,144,197302,6,0,P|162:74|128:0,1,150.000005722046
192,224,197681,2,0,P|215:293|180:357,1,150.000005722046
272,144,198060,1,0,0:0:0:0:
331,357,198249,1,0,0:0:0:0:
331,357,198627,1,0,0:0:0:0:
412,146,198817,6,0,P|405:214|452:265,1,129.999994049073
480,96,199195,1,0,0:0:0:0:
320,208,199384,1,0,0:0:0:0:
320,208,199479,1,0,0:0:0:0:
320,208,199574,1,0,0:0:0:0:
441,259,199763,1,0,0:0:0:0:
246,165,199952,2,0,P|235:227|271:279,1,129.999994049073
448,144,200331,6,0,B|448:49|448:49|432:17,1,129.999994049073
230,38,200709,2,0,B|230:132|230:132|246:164,1,129.999994049073
304,112,201088,1,0,0:0:0:0:
144,64,201277,1,0,0:0:0:0:
64,112,201466,1,0,0:0:0:0:
155,58,201656,1,0,0:0:0:0:
128,288,201845,6,0,B|144:256|144:256|144:161,1,129.999994049073
240,384,202224,2,0,B|224:352|224:352|224:224,1,129.999994049073
272,176,202602,1,0,0:0:0:0:
320,256,202791,1,0,0:0:0:0:
336,96,202981,2,0,L|192:96,1,129.999994049073
48,352,203359,6,0,P|48:256|32:176,1,129.999994049073
96,16,203738,2,0,P|96:112|112:192,1,129.999994049073
144,352,204116,1,0,0:0:0:0:
208,64,204306,1,0,0:0:0:0:
208,64,204684,1,0,0:0:0:0:
304,352,204873,6,0,P|352:304|352:224,1,129.999994049073
320,176,205157,1,0,0:0:0:0:
320,176,205252,2,0,P|328:112|374:68,1,129.999994049073
416,160,205631,1,0,0:0:0:0:
256,240,205820,1,0,0:0:0:0:
96,160,206009,1,0,0:0:0:0:
96,160,206198,1,0,0:0:0:0:
208,352,206388,6,0,P|160:304|160:224,1,129.999994049073
192,176,206672,1,0,0:0:0:0:
192,176,206767,2,0,P|183:112|137:68,1,129.999994049073
64,80,207145,1,0,0:0:0:0:
96,0,207334,1,0,0:0:0:0:
96,160,207523,1,0,0:0:0:0:
96,160,207713,1,0,0:0:0:0:
256,16,207902,6,0,P|240:80|256:160,1,129.999994049073
256,368,208280,2,0,P|272:304|256:224,1,129.999994049073
192,192,208659,1,0,0:0:0:0:
320,192,208848,1,0,0:0:0:0:
256,96,209037,1,0,0:0:0:0:
128,240,209227,1,0,0:0:0:0:
384,240,209416,5,0,0:0:0:0:
256,32,209795,1,0,0:0:0:0:
64,288,210173,1,0,0:0:0:0:
448,288,210362,1,0,0:0:0:0:
448,288,210457,1,0,0:0:0:0:
448,288,210552,1,0,0:0:0:0:
256,224,210741,1,0,0:0:0:0:
400,48,210930,6,0,P|416:128|400:176,1,129.999994049073
352,256,211214,1,0,0:0:0:0:
352,256,211309,2,0,P|336:318|353:380,1,129.999994049073
416,304,211687,1,0,0:0:0:0:
256,224,211876,1,0,0:0:0:0:
96,304,212065,1,0,0:0:0:0:
96,304,212254,1,0,0:0:0:0:
112,48,212444,6,0,P|96:128|112:176,1,129.999994049073
160,256,212728,1,0,0:0:0:0:
160,256,212823,2,0,P|175:318|158:380,1,129.999994049073
192,176,213201,1,0,0:0:0:0:
256,48,213391,1,0,0:0:0:0:
320,208,213580,1,0,0:0:0:0:
256,336,213770,1,0,0:0:0:0:
352,96,213959,6,0,L|480:128,1,129.999994049073
160,288,214337,2,0,L|32:256,1,129.999994049073
256,368,214716,1,0,0:0:0:0:
144,176,214905,1,0,0:0:0:0:
464,240,215094,1,0,0:0:0:0:
64,48,215473,5,0,0:0:0:0:
256,336,215851,1,0,0:0:0:0:
448,48,216230,1,0,0:0:0:0:
256,192,216608,1,0,0:0:0:0:
64,112,216987,6,0,L|208:128,1,139.999995727539
256,64,217271,1,0,0:0:0:0:
308,127,217366,2,0,L|448:112,1,139.999995727539
302,320,217744,6,0,P|255:275|211:320,1,139.999995727539
384,352,218123,1,0,0:0:0:0:
128,303,218312,2,0,P|211:198|351:228,1,279.999991455078
256,288,218880,1,0,0:0:0:0:
256,288,219069,1,0,0:0:0:0:
32,80,219258,2,0,P|82:127|150:140,1,139.999995727539
361,140,219637,2,0,P|429:127|480:80,1,139.999995727539
160,64,220015,6,0,P|192:128|192:208,1,139.999995727539
256,240,220299,1,0,0:0:0:0:
317,195,220394,2,0,P|320:125|352:64,1,139.999995727539
320,304,220772,2,0,P|256:329|192:304,1,139.999995727539
256,240,221056,1,0,0:0:0:0:
256,240,221151,1,0,0:0:0:0:
449,356,221340,6,0,B|367:241|470:213|363:80,1,279.999991455078
137,93,221908,2,0,P|100:158|95:226,1,139.999995727539
112,240,222192,1,0,0:0:0:0:
128,256,222287,1,0,0:0:0:0:
224,192,222476,1,0,0:0:0:0:
240,192,222570,1,0,0:0:0:0:
255,191,222665,2,0,P|275:256|255:326,1,139.999995727539
64,288,223044,6,0,P|133:261|208:272,1,139.999995727539
256,325,223328,1,0,0:0:0:0:
314,267,223422,2,0,P|383:261|448:288,1,139.999995727539
302,64,223801,2,0,P|255:108|211:64,1,139.999995727539
384,32,224180,1,0,0:0:0:0:
128,80,224369,6,0,P|211:186|351:156,1,279.999991455078
256,96,224937,1,0,0:0:0:0:
256,96,225126,1,0,0:0:0:0:
32,304,225315,2,0,P|82:256|150:243,1,139.999995727539
361,243,225694,2,0,P|429:256|480:304,1,139.999995727539
160,320,226072,6,0,P|192:256|192:176,1,139.999995727539
256,144,226356,1,0,0:0:0:0:
317,188,226451,2,0,P|320:258|352:320,1,139.999995727539
320,80,226829,2,0,P|256:55|192:80,1,139.999995727539
256,144,227113,1,0,0:0:0:0:
256,144,227208,1,0,0:0:0:0:
449,28,227397,1,0,0:0:0:0:
352,208,227586,5,0,0:0:0:0:
344,241,227680,1,0,0:0:0:0:
355,274,227775,1,0,0:0:0:0:
381,296,227869,1,0,0:0:0:0:
416,300,227964,1,0,0:0:0:0:
447,285,228059,1,0,0:0:0:0:
466,256,228153,1,0,0:0:0:0:
466,222,228248,1,0,0:0:0:0:
448,192,228343,1,0,0:0:0:0:
422,150,228437,1,0,0:0:0:0:
418,102,228532,1,0,0:0:0:0:
436,57,228626,1,0,0:0:0:0:
400,77,228721,1,0,0:0:0:0:
358,83,228816,1,0,0:0:0:0:
317,75,228910,1,0,0:0:0:0:
281,54,229005,1,0,0:0:0:0:
255,22,229101,6,0,L|77:44,1,139.999995727539
116,39,229384,1,0,0:0:0:0:
116,39,229479,1,0,0:0:0:0:
47,132,229668,1,0,0:0:0:0:
179,301,229858,2,0,P|187:232|161:167,1,139.999995727539
70,246,230236,1,0,0:0:0:0:
274,345,230425,6,0,P|282:207|224:81,1,279.999991455078
224,81,230899,1,0,0:0:0:0:
224,81,230993,1,0,0:0:0:0:
84,75,231183,1,0,0:0:0:0:
97,99,231277,1,0,0:0:0:0:
112,122,231372,1,0,0:0:0:0:
400,122,231561,1,0,0:0:0:0:
415,99,231656,1,0,0:0:0:0:
428,75,231750,1,0,0:0:0:0:
421,109,231844,1,0,0:0:0:0:
423,144,231939,1,0,0:0:0:0:
434,177,232033,1,0,0:0:0:0:
453,206,232129,6,0,P|458:283|424:336,1,139.999995727539
400,352,232413,1,0,0:0:0:0:
400,352,232507,1,0,0:0:0:0:
346,244,232697,1,0,0:0:0:0:
240,288,232886,6,0,P|233:219|267:159,1,139.999995727539
293,142,233170,1,0,0:0:0:0:
293,142,233264,1,0,0:0:0:0:
219,76,233454,1,0,0:0:0:0:
366,33,233643,5,0,0:0:0:0:
440,99,233833,1,0,0:0:0:0:
440,99,233927,1,0,0:0:0:0:
440,99,234022,1,0,0:0:0:0:
463,243,234211,1,0,0:0:0:0:
389,176,234400,2,0,P|361:240|387:308,1,139.999995727539
127,304,234779,2,0,P|150:239|122:176,1,139.999995727539
182,26,235157,6,0,P|175:95|204:159,1,139.999995727539
256,96,235441,1,0,0:0:0:0:
307,159,235536,2,0,P|336:95|330:27,1,139.999995727539
335,351,235914,2,0,P|320:284|352:224,1,139.999995727539
416,176,236293,1,0,0:0:0:0:
96,176,236482,1,0,0:0:0:0:
176,351,236672,6,0,P|191:284|160:224,1,139.999995727539
96,176,236955,1,0,0:0:0:0:
96,176,237050,1,0,0:0:0:0:
99,296,237239,1,0,0:0:0:0:
180,118,237429,2,0,L|40:152,1,139.999995727539
256,224,237807,1,0,0:0:0:0:
332,118,237996,6,0,L|472:152,1,139.999995727539
352,208,238375,1,0,0:0:0:0:
256,64,238564,1,0,0:0:0:0:
160,208,238754,1,0,0:0:0:0:
256,374,238943,2,0,L|256:214,1,150.000005722046
256,224,239511,1,0,0:0:0:0:
256,224,239700,5,0,0:0:0:0:
256,64,239889,1,0,0:0:0:0:
160,208,240079,1,0,0:0:0:0:
352,208,240268,1,0,0:0:0:0:
256,224,240457,2,0,L|256:374,1,150.000005722046
176,304,241025,1,0,0:0:0:0:
336,304,241214,2,0,L|352:224,1,50
352,320,241403,2,0,L|368:240,1,50
368,336,241593,2,0,L|384:256,1,50
384,352,241782,2,0,L|400:272,1,50
176,304,241971,2,0,L|160:224,1,50
160,320,242160,2,0,L|144:240,1,50
144,336,242350,2,0,L|128:256,1,50
128,352,242539,2,0,L|112:272,1,50
112,112,244310,5,0,0:0:0:0:
48,288,244697,1,0,0:0:0:0:
193,109,245084,2,0,P|188:85|176:64,2,50
112,208,245519,1,0,0:0:0:0:
336,304,245858,6,0,L|368:310,5,33.3333333333333
362,279,246245,2,0,L|395:277,5,33.3333333333333
381,248,246632,2,0,L|412:238,5,33.3333333333333
391,214,247019,2,0,L|419:196,5,33.3333333333333
400,160,247455,1,0,0:0:0:0:
