osu file format v14

[General]
AudioFilename: audio.mp3
AudioLeadIn: 0
PreviewTime: -1
Countdown: 0
SampleSet: Normal
StackLeniency: 0.2
Mode: 0
LetterboxInBreaks: 0
WidescreenStoryboard: 0

[Editor]
Bookmarks: 198438,244242
DistanceSpacing: 1
BeatDivisor: 8
GridSize: 16
TimelineZoom: 1.7

[Metadata]
Title:Initial D ~Hyper Mega Mix~
TitleUnicode:Initial D ~Hyper Mega Mix~
Artist:Various Artists
ArtistUnicode:Various Artists
Creator:Lazer
Version:Grand Prix(Marathon)
Source:
Tags:
BeatmapID:1628467
BeatmapSetID:774860

[Difficulty]
HPDrainRate:5
CircleSize:4
OverallDifficulty:8
ApproachRate:8
SliderMultiplier:2
SliderTickRate:1

[Events]
//Background and Video events
//Break Periods
2,177807,179889
2,242847,243560
2,247647,249926
//Storyboard Layer 0 (Background)
//Storyboard Layer 1 (Fail)
//Storyboard Layer 2 (Pass)
//Storyboard Layer 3 (Foreground)
//Storyboard Sound Samples

[TimingPoints]
9357,387.021866735471,4,1,0,20,1,0
9357,-200,4,1,0,60,0,0
9744,-200,4,1,0,5,0,0
9840,-200,4,1,0,20,0,0
26385,-100,4,1,0,60,0,0
38383,-74.6268656716418,4,1,0,60,0,0
44969,-100,4,1,0,60,0,0
54251,-74.6268656716418,4,1,0,60,0,0
88313,387.096774193548,4,1,0,60,1,0
88324,-100,4,1,0,60,0,0
111529,384.492149951938,4,1,0,60,1,0
111529,-133.333333333333,4,1,0,60,0,0
113071,-83.3333333333333,4,1,0,60,0,0
127677,-66.6666666666667,4,1,0,60,0,0
128643,-83.3333333333333,4,1,0,60,0,0
148440,-133.333333333333,4,1,0,60,0,0
149983,-76.9230769230769,4,1,0,60,0,0
174595,378.548895899054,4,1,0,60,1,0
174595,-133.333333333333,4,1,0,60,0,0
180646,-76.9230769230769,4,1,0,60,0,0
197302,-66.6666666666667,4,1,0,60,0,0
198627,-76.9230769230769,4,1,0,60,0,0
216992,378.787878787879,4,1,0,60,1,0
216992,-71.4285714285714,4,1,0,60,0,0
238943,-133.333333333333,4,1,0,60,0,0
239705,379.746835443038,4,1,0,60,1,0
239705,-133.333333333333,4,1,0,60,0,0
241214,-100,4,1,0,60,0,0
244310,392.156862745098,4,1,0,60,1,0
250676,386.847195357834,4,1,0,60,1,0
252223,-66.6666666666667,4,1,0,60,0,0
264409,-200,4,1,0,60,0,0
264795,-100,4,1,0,60,0,0
289360,-66.6666666666667,4,1,0,60,0,0

[HitObjects]
118,295,9227,5,0,0:0:0:0:
118,295,9292,1,0,0:0:0:0:
118,295,9357,2,0,B|129:239|129:239|116:189,1,100
393,88,10905,6,0,B|382:144|382:144|395:194,1,100
400,210,11486,2,0,B|411:266|411:266|398:315,1,100
393,331,12066,1,0,0:0:0:0:
256,64,12260,5,0,0:0:0:0:
208,112,12357,1,0,0:0:0:0:
239,175,12453,6,0,P|256:248|245:322,2,150
96,96,15357,5,0,0:0:0:0:
416,80,15550,2,0,L|384:192,1,100
288,176,16131,2,0,L|320:288,1,100
187,368,16711,2,0,B|217:260|217:260|195:175,1,200
64,64,18210,5,0,0:0:0:0:
48,240,18452,1,0,0:0:0:0:
64,256,18548,1,0,0:0:0:0:
96,288,18645,2,0,L|208:288,1,100
272,288,19226,1,0,0:0:0:0:
176,208,19419,2,0,B|160:188|160:188|160:108,1,100
160,32,20000,1,0,0:0:0:0:
240,160,20193,6,0,L|304:160,1,50
336,96,20580,2,0,L|400:96,1,50
496,240,20967,1,0,0:0:0:0:
446,240,21064,1,0,0:0:0:0:
396,240,21161,1,0,0:0:0:0:
346,240,21257,1,0,0:0:0:0:
304,256,21354,1,0,0:0:0:0:
346,272,21451,1,0,0:0:0:0:
396,272,21548,1,0,0:0:0:0:
446,272,21644,1,0,0:0:0:0:
496,272,21741,1,0,0:0:0:0:
256,176,22128,5,0,0:0:0:0:
16,272,22515,1,0,0:0:0:0:
256,192,22902,1,0,0:0:0:0:
496,272,23289,5,0,0:0:0:0:
368,336,23676,1,0,0:0:0:0:
256,80,24063,1,0,0:0:0:0:
144,336,24450,1,0,0:0:0:0:
16,272,24644,1,0,0:0:0:0:
16,272,24741,1,0,0:0:0:0:
16,272,24840,6,0,B|32:240|32:240|32:176,1,100
240,32,25615,2,0,B|224:64|224:64|224:128,1,100
176,272,26195,1,0,0:0:0:0:
240,272,26292,1,0,0:0:0:0:
304,272,26385,6,0,L|304:384,1,100
400,192,26772,2,0,P|416:144|400:96,1,100
448,256,27160,1,0,0:0:0:0:
352,48,27353,2,0,P|256:23|159:48,1,200
64,256,27934,5,0,0:0:0:0:
110,98,28127,2,0,P|96:145|112:192,1,100
188,196,28514,2,0,P|217:294|184:392,1,200
127,334,29095,1,0,0:0:0:0:
321,384,29288,6,0,P|293:289|324:196,1,200
224,112,29869,2,0,P|258:144|288:106,1,100
256,48,30256,1,0,0:0:0:0:
368,176,30449,1,0,0:0:0:0:
448,160,30643,2,0,P|416:112|368:96,1,100
144,240,31030,6,0,B|128:272|128:272|128:352,1,100
384,336,31417,2,0,B|384:272|384:272|368:240,1,100
336,272,31707,1,0,0:0:0:0:
304,288,31804,2,0,P|256:302|208:288,1,100
208,96,32191,2,0,P|256:82|304:96,1,100
64,240,32578,6,0,B|80:272|80:272|80:352,1,100
142,50,32965,2,0,P|128:97|144:144,1,100
256,240,33352,1,0,0:0:0:0:
368,143,33545,2,0,P|383:97|369:50,1,100
176,224,33932,1,0,0:0:0:0:
336,224,34126,6,0,L|464:240,1,100
435,236,34416,1,0,0:0:0:0:
435,236,34513,1,0,0:0:0:0:
176,224,34706,2,0,L|48:240,1,100
304,384,35093,2,0,P|320:336|304:288,1,100
256,144,35486,1,0,0:0:0:0:
206,290,35674,6,0,P|192:337|208:384,1,100
256,176,36061,1,0,0:0:0:0:
144,32,36448,1,0,0:0:0:0:
256,112,36642,1,0,0:0:0:0:
368,32,36835,1,0,0:0:0:0:
256,80,37029,1,0,0:0:0:0:
102,270,37222,5,0,0:0:0:0:
130,309,37319,1,0,0:0:0:0:
177,326,37416,1,0,0:0:0:0:
224,313,37512,1,0,0:0:0:0:
256,275,37609,1,0,0:0:0:0:
288,313,37706,1,0,0:0:0:0:
335,326,37803,1,0,0:0:0:0:
382,309,37899,1,0,0:0:0:0:
410,270,37996,1,0,0:0:0:0:
192,223,38383,6,0,P|256:159|321:223,1,200.999990492249
256,275,38770,1,0,0:0:0:0:
160,112,38964,1,0,0:0:0:0:
352,112,39157,1,0,0:0:0:0:
93,160,39351,2,0,P|112:223|96:288,1,133.999993661499
160,352,39738,1,0,0:0:0:0:
160,112,39931,2,0,L|16:144,1,133.999993661499
239,32,40318,6,0,P|216:155|326:214,1,267.999987322999
312,109,40899,2,0,P|440:110|376:201,2,267.999987322999
400,336,41866,5,0,0:0:0:0:
320,256,42060,1,0,0:0:0:0:
306,349,42253,1,0,0:0:0:0:
413,242,42447,1,0,0:0:0:0:
98,242,42640,5,0,0:0:0:0:
205,349,42834,1,0,0:0:0:0:
197,303,42931,1,0,0:0:0:0:
192,256,43027,1,0,0:0:0:0:
112,336,43221,1,0,0:0:0:0:
144,160,43414,6,0,P|78:166|8:209,1,133.999993661499
32,160,43705,1,0,0:0:0:0:
48,128,43801,2,0,P|64:64|45:0,1,133.999993661499
48,272,44188,1,0,0:0:0:0:
144,160,44382,1,0,0:0:0:0:
176,272,44575,1,0,0:0:0:0:
224,80,44769,1,0,0:0:0:0:
192,64,44866,1,0,0:0:0:0:
160,47,44963,6,0,P|256:23|352:48,1,200
432,96,45543,1,0,0:0:0:0:
352,128,45737,2,0,P|336:176|352:240,2,100
416,272,46317,1,0,0:0:0:0:
351,336,46511,6,0,P|255:311|160:336,1,200
224,192,47091,2,0,P|258:224|288:186,1,100
256,64,47478,1,0,0:0:0:0:
256,80,47575,1,0,0:0:0:0:
256,96,47672,1,0,0:0:0:0:
256,112,47768,1,0,0:0:0:0:
256,112,47865,1,0,0:0:0:0:
256,112,47962,1,0,0:0:0:0:
256,112,48059,5,0,0:0:0:0:
80,160,48252,2,0,L|96:272,1,100
256,144,48639,1,0,0:0:0:0:
432,160,49026,2,0,L|416:272,1,100
256,176,49413,1,0,0:0:0:0:
208,320,49607,6,0,P|256:309|304:320,1,100
304,64,49994,2,0,P|256:75|208:64,1,100
387,273,50381,1,0,0:0:0:0:
373,233,50478,1,0,0:0:0:0:
369,191,50574,1,0,0:0:0:0:
374,149,50671,1,0,0:0:0:0:
388,109,50776,2,0,P|405:70|409:25,3,50
304,64,51155,6,0,P|256:53|208:64,1,100
128,112,51542,1,0,0:0:0:0:
112,320,51735,2,0,P|144:256|128:112,2,200
208,336,52703,1,0,0:0:0:0:
224,304,52800,1,0,0:0:0:0:
256,288,52896,1,0,0:0:0:0:
288,304,52993,1,0,0:0:0:0:
304,336,53090,1,0,0:0:0:0:
256,208,53283,1,0,0:0:0:0:
368,272,53477,6,0,L|480:256,1,100
144,272,53864,2,0,L|45:257,1,100
96,64,54251,6,0,P|128:112|224:96,1,133.999993661499
256,16,54638,1,0,0:0:0:0:
312,116,54832,2,0,P|377:115|416:64,1,133.999993661499
112,192,55219,2,0,P|80:240|96:336,1,133.999993661499
320,256,55606,1,0,0:0:0:0:
428,313,55799,6,0,P|434:248|400:192,1,133.999993661499
192,256,56186,1,0,0:0:0:0:
304,336,56380,1,0,0:0:0:0:
400,192,56573,2,0,P|386:127|348:70,1,133.999993661499
360,221,56863,1,0,0:0:0:0:
319,244,56960,2,0,P|332:308|383:349,1,133.999993661499
300,172,57347,6,0,P|255:129|212:172,1,133.999993661499
256,336,57734,1,0,0:0:0:0:
128,352,57928,2,0,P|128:272|160:208,1,133.999993661499
128,128,58315,1,0,0:0:0:0:
48,176,58508,1,0,0:0:0:0:
208,80,58702,6,0,B|144:96|144:96|96:80|96:80|0:112,1,200.999990492249
0,111,59089,2,0,P|23:173|8:237,1,133.999993661499
176,208,59476,5,0,0:0:0:0:
160,208,59573,1,0,0:0:0:0:
128,208,59669,2,0,L|144:288,7,66.9999968307497
101,336,60443,6,0,P|165:343|209:297,1,133.999993661499
256,160,60830,1,0,0:0:0:0:
411,336,61024,2,0,P|346:343|302:297,1,133.999993661499
302,297,61314,1,0,0:0:0:0:
302,297,61411,1,0,0:0:0:0:
288,160,61604,5,0,0:0:0:0:
256,128,61701,1,0,0:0:0:0:
224,160,61798,1,0,0:0:0:0:
256,192,61895,1,0,0:0:0:0:
256,160,61991,1,0,0:0:0:0:
256,160,62088,1,0,0:0:0:0:
352,240,62378,5,0,0:0:0:0:
160,240,62572,1,0,0:0:0:0:
139,64,62766,1,0,0:0:0:0:
167,47,62862,1,0,0:0:0:0:
200,43,62959,1,0,0:0:0:0:
232,54,63056,1,0,0:0:0:0:
256,76,63153,1,0,0:0:0:0:
280,54,63249,1,0,0:0:0:0:
312,43,63346,1,0,0:0:0:0:
345,47,63443,1,0,0:0:0:0:
373,64,63540,2,0,P|403:94|377:57,1,133.999993661499
118,184,63927,6,0,B|148:244|148:244|139:319,1,133.999993661499
69,259,64314,1,0,0:0:0:0:
208,350,64507,1,0,0:0:0:0:
160,111,64701,1,0,0:0:0:0:
128,100,64797,1,0,0:0:0:0:
95,104,64894,1,0,0:0:0:0:
66,120,64991,1,0,0:0:0:0:
46,146,65088,1,0,0:0:0:0:
111,308,65281,6,0,P|100:242|118:178,1,133.999993661499
416,80,65668,2,0,P|452:207|431:338,1,267.999987322999
352,271,66249,2,0,P|370:209|342:150,1,133.999993661499
352,352,66636,5,0,0:0:0:0:
277,215,66829,1,0,0:0:0:0:
334,66,67023,2,0,L|465:91,1,133.999993661499
429,307,67410,2,0,L|473:257,1,66.9999968307497
299,278,67603,2,0,L|276:214,1,66.9999968307497
372,254,67797,1,0,0:0:0:0:
372,254,67990,1,0,0:0:0:0:
320,64,68184,6,0,B|256:83|256:83|192:64,1,133.999993661499
112,32,68571,1,0,0:0:0:0:
83,49,68668,1,0,0:0:0:0:
65,77,68764,1,0,0:0:0:0:
59,109,68861,1,0,0:0:0:0:
67,142,68958,1,0,0:0:0:0:
128,288,69151,1,0,0:0:0:0:
144,112,69345,1,0,0:0:0:0:
64,224,69538,1,0,0:0:0:0:
224,160,69732,6,0,P|256:144|224:176,1,133.999993661499
416,48,70119,2,0,B|416:128|416:128|448:192,1,133.999993661499
400,272,70506,1,0,0:0:0:0:
352,192,70699,1,0,0:0:0:0:
480,240,70893,1,0,0:0:0:0:
483,278,70990,1,0,0:0:0:0:
471,315,71086,1,0,0:0:0:0:
447,345,71183,1,0,0:0:0:0:
413,364,71280,1,0,0:0:0:0:
392,158,71474,6,0,P|410:222|400:288,1,133.999993661499
79,317,71861,2,0,P|58:186|95:59,1,267.999987322999
167,129,72441,2,0,P|139:188|158:251,1,133.999993661499
159,331,72828,5,0,0:0:0:0:
234,194,73022,1,0,0:0:0:0:
177,45,73215,2,0,L|45:70,1,133.999993661499
81,287,73602,2,0,L|37:236,1,66.9999968307497
212,257,73796,2,0,L|234:193,1,66.9999968307497
139,233,73989,1,0,0:0:0:0:
160,368,74183,1,0,0:0:0:0:
173,102,74376,6,0,P|255:15|336:102,1,267.999987322999
256,288,74957,1,0,0:0:0:0:
256,272,75053,1,0,0:0:0:0:
256,240,75150,2,0,L|256:96,1,133.999993661499
300,327,75537,2,0,P|255:369|212:326,1,133.999993661499
416,176,75924,6,0,P|463:186|416:199,1,133.999993661499
128,304,76311,2,0,B|160:272|160:272|160:183,1,133.999993661499
112,112,76698,1,0,0:0:0:0:
80,240,76892,1,0,0:0:0:0:
179,42,77085,1,0,0:0:0:0:
143,23,77182,1,0,0:0:0:0:
103,20,77279,1,0,0:0:0:0:
66,34,77376,1,0,0:0:0:0:
36,61,77472,1,0,0:0:0:0:
256,112,77666,6,0,B|235:176|283:176|251:256,1,133.999993661499
333,342,78053,2,0,P|453:338|445:218,1,267.999987322999
458,132,78633,2,0,P|393:123|329:141,1,133.999993661499
391,282,79020,5,0,0:0:0:0:
120,94,79407,2,0,L|247:139,1,133.999993661499
172,340,79794,2,0,L|222:296,1,66.9999968307497
43,300,79988,2,0,L|30:234,1,66.9999968307497
121,282,80182,1,0,0:0:0:0:
121,282,80375,1,0,0:0:0:0:
383,45,80569,6,0,P|465:83|333:78,1,401.999980984498
333,256,81343,2,0,P|376:291|343:354,1,133.999993661499
165,352,81730,2,0,P|134:299|179:256,1,133.999993661499
83,77,82117,6,0,P|81:28|95:76,1,133.999993661499
78,179,82504,1,0,0:0:0:0:
151,242,82697,1,0,0:0:0:0:
199,157,82891,2,0,P|218:81|213:23,1,133.999993661499
77,258,83278,1,0,0:0:0:0:
84,283,83374,1,0,0:0:0:0:
87,310,83471,1,0,0:0:0:0:
85,336,83568,1,0,0:0:0:0:
77,362,83665,1,0,0:0:0:0:
256,272,83858,6,0,B|235:208|283:208|251:128,1,133.999993661499
333,41,84245,2,0,P|453:45|445:165,1,267.999987322999
327,242,84826,2,0,P|392:259|458:251,1,133.999993661499
391,102,85213,5,0,0:0:0:0:
391,102,85406,1,0,0:0:0:0:
192,368,85600,2,0,B|208:320|208:320|208:224,1,133.999993661499
128,16,85987,1,0,0:0:0:0:
32,112,86180,1,0,0:0:0:0:
143,192,86374,2,0,P|201:160|264:178,1,133.999993661499
448,208,86761,6,0,B|465:275|465:275|433:332,1,133.999993661499
434,332,87051,1,0,0:0:0:0:
434,332,87148,1,0,0:0:0:0:
256,288,87341,1,0,0:0:0:0:
387,264,87535,5,0,0:0:0:0:
48,128,87922,1,0,0:0:0:0:
256,272,88313,6,0,L|256:384,1,100
401,98,88700,2,0,P|415:145|400:192,1,100
448,256,89087,1,0,0:0:0:0:
352,48,89280,2,0,P|256:23|159:48,1,200
109,98,89861,6,0,P|96:145|111:191,1,100
64,256,90247,1,0,0:0:0:0:
188,196,90442,2,0,P|217:294|184:392,1,200
127,334,91022,1,0,0:0:0:0:
323,196,91216,2,0,P|292:289|321:384,1,200
224,112,91796,2,0,P|258:144|288:106,1,100
256,48,92183,1,0,0:0:0:0:
256,224,92377,1,0,0:0:0:0:
448,160,92571,2,0,P|416:112|368:96,1,100
144,240,92958,6,0,B|128:272|128:272|128:352,1,100
384,336,93345,2,0,B|384:272|384:272|368:240,1,100
302,95,93635,1,0,0:0:0:0:
302,95,93732,2,0,P|255:82|208:95,1,100
209,288,94119,2,0,P|256:301|304:288,1,100
448,240,94506,6,0,B|432:272|432:272|432:352,1,100
370,50,94893,2,0,P|384:97|368:144,1,100
256,240,95280,1,0,0:0:0:0:
144,143,95474,2,0,P|129:97|143:50,1,100
176,224,95861,1,0,0:0:0:0:
336,224,96054,6,0,L|464:240,1,100
435,236,96345,1,0,0:0:0:0:
435,236,96442,1,0,0:0:0:0:
176,224,96635,2,0,L|48:240,1,100
304,384,97022,2,0,P|320:336|304:288,1,100
256,144,97409,1,0,0:0:0:0:
206,290,97603,6,0,P|192:337|208:384,1,100
256,176,97990,1,0,0:0:0:0:
144,32,98377,1,0,0:0:0:0:
256,112,98571,1,0,0:0:0:0:
368,32,98764,1,0,0:0:0:0:
256,80,98958,1,0,0:0:0:0:
102,270,99150,5,0,0:0:0:0:
130,309,99248,1,0,0:0:0:0:
177,326,99345,1,0,0:0:0:0:
224,313,99442,1,0,0:0:0:0:
256,275,99538,1,0,0:0:0:0:
288,313,99635,1,0,0:0:0:0:
335,326,99732,1,0,0:0:0:0:
382,309,99829,1,0,0:0:0:0:
410,270,99925,1,0,0:0:0:0:
256,192,100312,5,0,0:0:0:0:
48,64,100700,6,0,P|96:53|144:64,1,100
144,64,100990,1,0,0:0:0:0:
144,64,101087,2,0,P|192:75|240:64,1,100
448,16,101474,2,0,P|459:64|448:112,1,100
447,112,101764,1,0,0:0:0:0:
448,112,101861,2,0,P|436:160|447:208,1,100
464,320,102248,6,0,P|416:331|368:320,1,100
367,319,102538,1,0,0:0:0:0:
368,320,102635,2,0,P|319:308|271:319,1,100
64,368,103022,2,0,P|53:320|64:272,1,100
65,272,103312,1,0,0:0:0:0:
64,272,103409,2,0,P|75:223|64:175,1,100
160,96,103796,5,0,0:0:0:0:
176,336,103990,1,0,0:0:0:0:
192,320,104087,1,0,0:0:0:0:
208,304,104183,1,0,0:0:0:0:
272,240,104377,1,0,0:0:0:0:
352,288,104571,5,0,0:0:0:0:
336,48,104765,1,0,0:0:0:0:
320,64,104862,1,0,0:0:0:0:
304,80,104958,1,0,0:0:0:0:
224,144,105151,6,0,B|144:144|144:144|112:112|112:112|33:112,1,200
80,192,105635,1,0,0:0:0:0:
80,192,105732,2,0,B|96:208|96:208|96:304,1,100
208,48,106119,2,0,L|308:48,1,100
304,336,106506,2,0,L|204:336,1,100
192,336,106796,1,0,0:0:0:0:
160,336,106893,1,0,0:0:0:0:
256,256,107087,5,0,0:0:0:0:
352,160,107280,2,0,P|400:192|400:240,1,100
108,230,107667,2,0,P|117:182|160:160,1,100
336,32,108054,1,0,0:0:0:0:
256,112,108248,1,0,0:0:0:0:
256,112,108345,1,0,0:0:0:0:
256,112,108442,5,0,0:0:0:0:
176,32,108635,1,0,0:0:0:0:
64,208,108829,2,0,P|80:144|64:80,1,100
448,176,109216,2,0,P|432:240|448:304,1,100
384,352,109603,1,0,0:0:0:0:
256,272,109796,1,0,0:0:0:0:
128,352,109990,5,0,0:0:0:0:
128,352,110183,1,0,0:0:0:0:
384,192,110377,1,0,0:0:0:0:
384,192,110571,1,0,0:0:0:0:
128,192,110764,5,0,0:0:0:0:
128,192,110958,1,0,0:0:0:0:
384,352,111151,1,0,0:0:0:0:
384,352,111345,1,0,0:0:0:0:
224,48,111529,6,0,L|374:48,1,150.000005722046
240,288,112297,2,0,L|90:288,1,150.000005722046
64,128,113066,5,0,0:0:0:0:
112,96,113163,1,0,0:0:0:0:
160,128,113259,1,0,0:0:0:0:
208,96,113355,1,0,0:0:0:0:
256,128,113451,1,0,0:0:0:0:
400,96,113643,1,0,0:0:0:0:
400,96,113739,1,0,0:0:0:0:
272,48,113932,1,0,0:0:0:0:
272,48,114028,1,0,0:0:0:0:
224,208,114220,1,0,0:0:0:0:
352,256,114412,1,0,0:0:0:0:
448,256,114604,5,0,0:0:0:0:
400,288,114701,1,0,0:0:0:0:
352,256,114797,1,0,0:0:0:0:
304,288,114893,1,0,0:0:0:0:
256,256,114989,1,0,0:0:0:0:
112,288,115181,1,0,0:0:0:0:
112,288,115277,1,0,0:0:0:0:
240,336,115470,1,0,0:0:0:0:
240,336,115566,1,0,0:0:0:0:
288,176,115758,1,0,0:0:0:0:
240,208,115854,1,0,0:0:0:0:
192,176,115950,1,0,0:0:0:0:
144,208,116046,1,0,0:0:0:0:
96,176,116142,6,0,L|16:192,4,59.9999981689454
176,80,116719,1,0,0:0:0:0:
176,80,116815,1,0,0:0:0:0:
336,80,117008,1,0,0:0:0:0:
336,80,117104,1,0,0:0:0:0:
256,280,117296,2,0,B|272:224|240:224|256:160,1,119.999996337891
96,144,117680,5,0,0:0:0:0:
64,192,117777,1,0,0:0:0:0:
96,240,117873,1,0,0:0:0:0:
64,288,117969,1,0,0:0:0:0:
96,336,118065,1,0,0:0:0:0:
208,288,118257,1,0,0:0:0:0:
208,288,118353,1,0,0:0:0:0:
208,192,118545,1,0,0:0:0:0:
208,192,118642,1,0,0:0:0:0:
284,339,118834,1,0,0:0:0:0:
416,240,119026,5,0,0:0:0:0:
416,240,119122,1,0,0:0:0:0:
416,240,119218,1,0,0:0:0:0:
448,192,119315,1,0,0:0:0:0:
416,144,119411,1,0,0:0:0:0:
448,96,119507,1,0,0:0:0:0:
416,48,119603,1,0,0:0:0:0:
336,192,119795,1,0,0:0:0:0:
336,192,119891,1,0,0:0:0:0:
256,48,120083,1,0,0:0:0:0:
256,48,120180,1,0,0:0:0:0:
192,208,120372,1,0,0:0:0:0:
160,224,120468,1,0,0:0:0:0:
192,256,120564,1,0,0:0:0:0:
160,272,120660,1,0,0:0:0:0:
192,304,120756,6,0,L|176:384,4,59.9999981689454
352,256,121333,1,0,0:0:0:0:
352,256,121429,1,0,0:0:0:0:
464,352,121621,1,0,0:0:0:0:
464,352,121718,1,0,0:0:0:0:
256,352,121910,1,0,0:0:0:0:
416,96,122102,5,0,0:0:0:0:
416,96,122198,1,0,0:0:0:0:
416,96,122294,1,0,0:0:0:0:
368,128,122390,1,0,0:0:0:0:
320,96,122486,1,0,0:0:0:0:
272,128,122582,1,0,0:0:0:0:
224,96,122678,1,0,0:0:0:0:
352,240,122871,1,0,0:0:0:0:
352,240,122967,1,0,0:0:0:0:
160,144,123159,1,0,0:0:0:0:
160,144,123255,1,0,0:0:0:0:
64,352,123448,1,0,0:0:0:0:
166,276,123640,5,0,0:0:0:0:
166,276,123736,1,0,0:0:0:0:
166,276,123832,1,0,0:0:0:0:
130,237,123928,1,0,0:0:0:0:
102,244,124024,1,0,0:0:0:0:
74,251,124121,1,0,0:0:0:0:
46,258,124217,1,0,0:0:0:0:
197,360,124409,1,0,0:0:0:0:
225,353,124506,1,0,0:0:0:0:
300,185,124697,1,0,0:0:0:0:
272,192,124794,1,0,0:0:0:0:
346,334,124986,1,0,0:0:0:0:
463,171,125178,1,0,0:0:0:0:
154,32,125370,6,0,P|163:91|165:151,1,119.999996337891
123,225,125755,1,0,0:0:0:0:
256,288,125947,1,0,0:0:0:0:
58,272,126139,2,0,P|46:210|86:153,1,119.999996337891
26,92,126524,1,0,0:0:0:0:
239,42,126716,6,0,B|282:30|282:30|362:48,1,119.999996337891
372,169,127100,2,0,B|410:190|410:190|454:260,1,119.999996337891
376,352,127485,1,0,0:0:0:0:
224,240,127677,6,0,P|256:132|286:241,2,300.000011444092
86,356,128638,5,0,0:0:0:0:
112,240,128831,1,0,0:0:0:0:
240,272,129023,1,0,0:0:0:0:
160,304,129215,1,0,0:0:0:0:
7,322,129407,2,0,P|30:267|35:208,1,119.999996337891
16,96,129792,2,0,B|128:96|128:192|240:192,2,239.999992675781
313,36,130753,5,0,0:0:0:0:
296,75,130849,1,0,0:0:0:0:
257,91,130945,1,0,0:0:0:0:
217,76,131041,1,0,0:0:0:0:
199,38,131137,1,0,0:0:0:0:
199,64,131234,1,0,0:0:0:0:
217,102,131330,1,0,0:0:0:0:
256,116,131426,1,0,0:0:0:0:
295,101,131522,1,0,0:0:0:0:
400,192,131714,5,0,0:0:0:0:
320,336,131907,2,0,P|384:352|448:304,1,119.999996337891
256,160,132291,1,0,0:0:0:0:
192,336,132483,2,0,P|128:352|64:304,2,119.999996337891
123,142,133060,6,0,P|139:200|141:260,1,119.999996337891
32,144,133445,1,0,0:0:0:0:
224,160,133637,1,0,0:0:0:0:
48,224,133829,2,0,P|48:283|62:342,1,119.999996337891
222,320,134214,1,0,0:0:0:0:
231,297,134310,1,0,0:0:0:0:
254,288,134406,1,0,0:0:0:0:
276,297,134502,1,0,0:0:0:0:
286,319,134598,1,0,0:0:0:0:
449,342,134790,6,0,P|463:283|464:224,1,119.999996337891
395,36,135175,2,0,P|341:50|385:186,1,239.999992675781
422,113,135752,1,0,0:0:0:0:
512,163,135944,1,0,0:0:0:0:
328,261,136136,6,0,P|354:268|332:336,2,119.999996337891
117,36,136713,2,0,P|170:50|126:186,1,239.999992675781
0,163,137289,1,0,0:0:0:0:
0,163,137674,5,0,0:0:0:0:
90,113,137866,1,0,0:0:0:0:
144,272,138058,1,0,0:0:0:0:
224,208,138251,2,0,B|348:166|348:249|473:208,1,239.999992675781
400,128,138827,1,0,0:0:0:0:
304,320,139020,6,0,L|480:304,1,119.999996337891
320,96,139404,2,0,L|144:112,1,119.999996337891
112,240,139789,2,0,L|288:224,1,119.999996337891
128,16,140173,2,0,L|-48:32,1,119.999996337891
32,48,140558,1,0,0:0:0:0:
64,160,140750,5,0,0:0:0:0:
16,288,140942,1,0,0:0:0:0:
112,272,141134,1,0,0:0:0:0:
160,144,141327,1,0,0:0:0:0:
256,128,141519,1,0,0:0:0:0:
208,256,141711,1,0,0:0:0:0:
304,240,141903,1,0,0:0:0:0:
352,112,142096,6,0,P|448:128|384:224,1,239.999992675781
304,240,142672,1,0,0:0:0:0:
288,352,142865,1,0,0:0:0:0:
368,304,143057,2,0,L|496:336,1,119.999996337891
144,304,143441,2,0,L|16:336,1,119.999996337891
27,333,143730,1,0,0:0:0:0:
27,333,143826,1,0,0:0:0:0:
96,176,144018,5,0,0:0:0:0:
144,16,144210,1,0,0:0:0:0:
201,200,144403,2,0,P|195:136|142:76,1,119.999996337891
348,91,144787,2,0,P|314:140|311:200,1,119.999996337891
471,364,145172,6,0,P|475:247|392:167,1,239.999992675781
310,199,145748,1,0,0:0:0:0:
422,153,145941,1,0,0:0:0:0:
302,95,146133,2,0,P|256:64|208:95,1,119.999996337891
90,153,146517,1,0,0:0:0:0:
202,199,146710,1,0,0:0:0:0:
52,60,146902,6,0,P|63:118|67:194,1,119.999996337891
119,241,147286,1,0,0:0:0:0:
22,22,147479,2,0,P|41:128|44:274,1,239.999992675781
113,347,148055,1,0,0:0:0:0:
446,341,148440,6,0,B|436:255|436:255|451:212|451:212|439:119,2,225.000008583069
256,64,149978,5,0,0:0:0:0:
80,192,150170,1,0,0:0:0:0:
256,320,150362,1,0,0:0:0:0:
432,192,150554,2,0,B|288:240|288:240|182:216,1,259.999988098145
80,192,151131,1,0,0:0:0:0:
256,320,151323,1,0,0:0:0:0:
271,33,151516,6,0,P|268:97|281:161,1,129.999994049073
432,192,151900,1,0,0:0:0:0:
256,320,152092,1,0,0:0:0:0:
80,192,152285,2,0,B|65:127|65:127|95:71,1,129.999994049073
432,192,152669,2,0,B|447:257|447:257|416:312,1,129.999994049073
133,292,153054,5,0,0:0:0:0:
102,159,153246,1,0,0:0:0:0:
187,52,153438,1,0,0:0:0:0:
324,52,153630,2,0,P|384:96|409:178,1,129.999994049073
324,331,154015,2,0,P|377:296|406:238,1,129.999994049073
256,128,154399,1,0,0:0:0:0:
323,371,154592,6,0,P|402:323|449:244,1,129.999994049073
188,12,154976,2,0,P|109:60|62:139,1,129.999994049073
188,371,155361,2,0,P|109:323|62:244,1,129.999994049073
323,12,155745,2,0,P|402:60|449:139,1,129.999994049073
256,320,156130,5,0,0:0:0:0:
80,192,156322,1,0,0:0:0:0:
256,64,156514,1,0,0:0:0:0:
432,192,156706,2,0,B|288:144|288:144|182:167,1,259.999988098145
80,192,157283,1,0,0:0:0:0:
256,64,157475,1,0,0:0:0:0:
271,350,157668,6,0,P|268:286|281:222,1,129.999994049073
432,192,158052,1,0,0:0:0:0:
256,64,158244,1,0,0:0:0:0:
80,192,158437,2,0,B|65:257|65:257|95:312,1,129.999994049073
432,192,158821,2,0,B|447:127|447:127|416:71,1,129.999994049073
400,48,159109,1,0,0:0:0:0:
384,32,159206,5,0,0:0:0:0:
148,54,159398,1,0,0:0:0:0:
170,290,159590,1,0,0:0:0:0:
406,268,159782,1,0,0:0:0:0:
269,77,159975,5,0,0:0:0:0:
193,168,160167,1,0,0:0:0:0:
284,244,160359,1,0,0:0:0:0:
360,153,160551,1,0,0:0:0:0:
235,173,160743,6,0,L|244:306,1,129.999994049073
365,334,161128,1,0,0:0:0:0:
379,305,161224,1,0,0:0:0:0:
403,283,161320,1,0,0:0:0:0:
434,273,161416,1,0,0:0:0:0:
466,274,161512,1,0,0:0:0:0:
256,32,161897,1,0,0:0:0:0:
96,128,162281,5,0,0:0:0:0:
128,176,162378,1,0,0:0:0:0:
96,224,162474,1,0,0:0:0:0:
128,272,162570,1,0,0:0:0:0:
96,319,162666,1,0,0:0:0:0:
192,224,162858,1,0,0:0:0:0:
192,224,162954,1,0,0:0:0:0:
32,176,163147,1,0,0:0:0:0:
32,176,163243,1,0,0:0:0:0:
192,112,163435,1,0,0:0:0:0:
192,112,163627,1,0,0:0:0:0:
256,352,163819,5,0,0:0:0:0:
232,316,163915,1,0,0:0:0:0:
257,281,164011,1,0,0:0:0:0:
279,245,164108,1,0,0:0:0:0:
256,208,164204,1,0,0:0:0:0:
183,246,164396,1,0,0:0:0:0:
183,246,164492,1,0,0:0:0:0:
326,316,164685,1,0,0:0:0:0:
326,316,164781,1,0,0:0:0:0:
312,155,164973,1,0,0:0:0:0:
287,133,165069,1,0,0:0:0:0:
256,126,165165,1,0,0:0:0:0:
225,133,165261,1,0,0:0:0:0:
200,154,165357,6,0,L|134:146,4,64.9999970245363
259,224,165934,1,0,0:0:0:0:
259,224,166030,1,0,0:0:0:0:
176,72,166223,1,0,0:0:0:0:
176,72,166319,1,0,0:0:0:0:
190,287,166511,1,0,0:0:0:0:
256,352,166703,1,0,0:0:0:0:
416,288,166895,5,0,0:0:0:0:
384,240,166992,1,0,0:0:0:0:
416,192,167088,1,0,0:0:0:0:
384,144,167184,1,0,0:0:0:0:
416,97,167280,1,0,0:0:0:0:
320,192,167472,1,0,0:0:0:0:
320,192,167568,1,0,0:0:0:0:
480,240,167761,1,0,0:0:0:0:
480,240,167857,1,0,0:0:0:0:
320,304,168049,1,0,0:0:0:0:
432,368,168241,1,0,0:0:0:0:
432,368,168337,1,0,0:0:0:0:
432,368,168433,5,0,0:0:0:0:
400,336,168529,1,0,0:0:0:0:
368,368,168625,1,0,0:0:0:0:
336,336,168721,1,0,0:0:0:0:
304,368,168818,1,0,0:0:0:0:
208,272,169009,5,0,0:0:0:0:
208,272,169106,1,0,0:0:0:0:
64,352,169298,1,0,0:0:0:0:
64,352,169394,1,0,0:0:0:0:
128,256,169587,1,0,0:0:0:0:
140,225,169683,1,0,0:0:0:0:
144,193,169779,1,0,0:0:0:0:
139,161,169875,1,0,0:0:0:0:
126,131,169971,5,0,0:0:0:0:
122,88,170067,1,0,0:0:0:0:
158,65,170163,1,0,0:0:0:0:
195,88,170259,1,0,0:0:0:0:
191,131,170355,1,0,0:0:0:0:
256,224,170548,1,0,0:0:0:0:
256,224,170644,1,0,0:0:0:0:
256,336,170836,1,0,0:0:0:0:
256,336,170933,1,0,0:0:0:0:
448,192,171125,1,0,0:0:0:0:
385,131,171317,1,0,0:0:0:0:
385,131,171413,1,0,0:0:0:0:
385,131,171509,5,0,0:0:0:0:
372,161,171605,1,0,0:0:0:0:
367,193,171701,1,0,0:0:0:0:
371,225,171797,1,0,0:0:0:0:
384,256,171893,1,0,0:0:0:0:
464,192,172086,1,0,0:0:0:0:
464,192,172182,1,0,0:0:0:0:
304,304,172374,1,0,0:0:0:0:
304,304,172471,1,0,0:0:0:0:
218,279,172663,1,0,0:0:0:0:
141,327,172855,1,0,0:0:0:0:
234,77,173047,5,0,0:0:0:0:
272,79,173143,1,0,0:0:0:0:
311,82,173239,1,0,0:0:0:0:
350,85,173335,1,0,0:0:0:0:
389,88,173431,1,0,0:0:0:0:
185,183,173624,1,0,0:0:0:0:
152,160,173720,1,0,0:0:0:0:
331,202,173912,1,0,0:0:0:0:
364,225,174008,1,0,0:0:0:0:
112,240,174201,1,0,0:0:0:0:
256,352,174393,1,0,0:0:0:0:
397,247,174595,6,0,P|402:198|402:148,1,75.0000028610231
329,22,174973,2,0,P|323:71|323:121,1,75.0000028610231
188,121,175352,2,0,P|188:71|183:22,1,75.0000028610231
109,148,175730,2,0,P|109:198|114:247,1,75.0000028610231
207,288,176109,6,0,P|237:307|266:288,1,75.0000028610231
448,224,176487,2,0,P|418:204|389:224,1,75.0000028610231
285,96,176866,2,0,P|255:76|226:96,1,75.0000028610231
44,160,177244,2,0,P|73:179|102:159,1,75.0000028610231
96,352,180651,5,0,0:0:0:0:
96,320,180746,1,0,0:0:0:0:
57,284,180841,1,0,0:0:0:0:
63,248,180935,1,0,0:0:0:0:
96,232,181030,1,0,0:0:0:0:
128,247,181124,1,0,0:0:0:0:
135,283,181219,1,0,0:0:0:0:
432,240,181408,5,0,0:0:0:0:
432,272,181503,1,0,0:0:0:0:
471,308,181598,1,0,0:0:0:0:
465,344,181692,1,0,0:0:0:0:
432,360,181787,1,0,0:0:0:0:
400,345,181881,1,0,0:0:0:0:
393,309,181976,1,0,0:0:0:0:
224,176,182165,5,0,0:0:0:0:
192,112,182259,1,0,0:0:0:0:
224,48,182354,1,0,0:0:0:0:
256,111,182449,2,0,L|80:111,1,129.999994049073
48,112,182733,1,0,0:0:0:0:
288,208,182923,5,0,0:0:0:0:
320,272,183017,1,0,0:0:0:0:
288,336,183112,1,0,0:0:0:0:
256,273,183207,2,0,L|432:273,1,129.999994049073
464,272,183491,1,0,0:0:0:0:
208,352,183680,5,0,0:0:0:0:
165,343,183774,1,0,0:0:0:0:
133,313,183869,1,0,0:0:0:0:
121,271,183963,1,0,0:0:0:0:
132,229,184058,1,0,0:0:0:0:
163,198,184153,1,0,0:0:0:0:
206,188,184247,1,0,0:0:0:0:
304,32,184437,5,0,0:0:0:0:
346,40,184531,1,0,0:0:0:0:
378,70,184626,1,0,0:0:0:0:
390,112,184720,1,0,0:0:0:0:
379,154,184815,1,0,0:0:0:0:
348,185,184910,1,0,0:0:0:0:
305,195,185004,1,0,0:0:0:0:
112,112,185194,5,0,0:0:0:0:
112,112,185289,1,0,0:0:0:0:
208,112,185478,1,0,0:0:0:0:
208,112,185573,1,0,0:0:0:0:
320,112,185762,1,0,0:0:0:0:
400,272,185951,5,0,0:0:0:0:
400,272,186046,1,0,0:0:0:0:
304,272,186235,5,0,0:0:0:0:
304,272,186330,1,0,0:0:0:0:
256,240,186424,1,0,0:0:0:0:
240,256,186519,1,0,0:0:0:0:
224,272,186613,1,0,0:0:0:0:
176,304,186708,5,0,0:0:0:0:
124,306,186802,1,0,0:0:0:0:
86,274,186897,1,0,0:0:0:0:
79,223,186992,1,0,0:0:0:0:
109,182,187086,1,0,0:0:0:0:
159,174,187181,1,0,0:0:0:0:
203,201,187275,1,0,0:0:0:0:
336,80,187465,5,0,0:0:0:0:
388,78,187559,1,0,0:0:0:0:
426,110,187654,1,0,0:0:0:0:
433,161,187749,1,0,0:0:0:0:
403,202,187843,1,0,0:0:0:0:
353,210,187938,1,0,0:0:0:0:
309,183,188032,1,0,0:0:0:0:
176,112,188222,5,0,0:0:0:0:
108,134,188316,1,0,0:0:0:0:
85,202,188411,1,0,0:0:0:0:
151,179,188506,2,0,L|26:54,1,129.999994049073
6,32,188790,1,0,0:0:0:0:
328,277,188979,5,0,0:0:0:0:
396,255,189073,1,0,0:0:0:0:
419,187,189168,1,0,0:0:0:0:
353,210,189263,2,0,L|477:334,1,129.999994049073
498,357,189547,1,0,0:0:0:0:
356,29,189736,5,0,0:0:0:0:
349,73,189830,1,0,0:0:0:0:
364,116,189925,1,0,0:0:0:0:
397,146,190019,1,0,0:0:0:0:
441,157,190114,1,0,0:0:0:0:
441,157,190210,1,0,0:0:0:0:
441,157,190304,1,0,0:0:0:0:
156,355,190494,5,0,0:0:0:0:
162,310,190588,1,0,0:0:0:0:
147,267,190683,1,0,0:0:0:0:
114,237,190777,1,0,0:0:0:0:
70,226,190872,1,0,0:0:0:0:
70,226,190968,1,0,0:0:0:0:
70,226,191062,1,0,0:0:0:0:
117,59,191251,6,0,L|131:128,1,64.9999970245363
137,77,191440,2,0,L|151:146,1,64.9999970245363
164,97,191629,2,0,L|178:166,1,64.9999970245363
191,117,191818,2,0,L|205:186,1,64.9999970245363
308,180,192008,6,0,L|321:117,1,64.9999970245363
335,160,192197,2,0,L|348:97,1,64.9999970245363
362,140,192386,2,0,L|375:77,1,64.9999970245363
382,122,192575,2,0,L|395:59,1,64.9999970245363
256,240,192765,6,0,B|256:288|256:288|272:304|240:304|256:336|256:336|256:384,1,129.999994049073
80,176,193143,2,0,B|63:144|63:144|63:32,1,129.999994049073
144,128,193522,1,0,0:0:0:0:
48,240,193711,1,0,0:0:0:0:
144,352,193900,1,0,0:0:0:0:
208,288,194090,1,0,0:0:0:0:
144,144,194279,6,0,B|128:176|128:176|128:304,1,129.999994049073
352,368,194658,2,0,B|368:336|368:336|368:240,1,129.999994049073
432,176,195036,1,0,0:0:0:0:
512,304,195225,1,0,0:0:0:0:
432,352,195415,1,0,0:0:0:0:
512,304,195604,1,0,0:0:0:0:
349,164,195793,6,0,P|336:227|352:290,1,129.999994049073
256,383,196172,2,0,P|270:321|258:258,1,129.999994049073
176,320,196550,1,0,0:0:0:0:
48,192,196740,1,0,0:0:0:0:
96,288,196929,1,0,0:0:0:0:
16,352,197118,1,0,0:0:0:0:
128,144,197307,6,0,P|162:74|128:0,1,150.000005722046
192,224,197686,2,0,P|215:293|180:357,1,150.000005722046
272,144,198065,1,0,0:0:0:0:
331,357,198254,1,0,0:0:0:0:
331,357,198632,1,0,0:0:0:0:
412,146,198822,6,0,P|405:214|452:265,1,129.999994049073
480,96,199200,1,0,0:0:0:0:
320,208,199389,1,0,0:0:0:0:
320,208,199484,1,0,0:0:0:0:
320,208,199579,1,0,0:0:0:0:
441,259,199768,1,0,0:0:0:0:
246,165,199957,2,0,P|235:227|271:279,1,129.999994049073
448,144,200336,6,0,B|448:49|448:49|432:17,1,129.999994049073
230,38,200714,2,0,B|230:132|230:132|246:164,1,129.999994049073
304,112,201093,1,0,0:0:0:0:
144,64,201282,1,0,0:0:0:0:
64,112,201471,1,0,0:0:0:0:
155,58,201661,1,0,0:0:0:0:
128,288,201850,6,0,B|144:256|144:256|144:161,1,129.999994049073
240,384,202229,2,0,B|224:352|224:352|224:224,1,129.999994049073
272,176,202607,1,0,0:0:0:0:
320,256,202796,1,0,0:0:0:0:
336,96,202986,2,0,L|192:96,1,129.999994049073
48,352,203364,6,0,P|48:256|32:176,1,129.999994049073
96,16,203743,2,0,P|96:112|112:192,1,129.999994049073
144,352,204121,1,0,0:0:0:0:
208,64,204311,1,0,0:0:0:0:
208,64,204689,1,0,0:0:0:0:
304,352,204878,6,0,P|352:304|352:224,1,129.999994049073
320,176,205162,1,0,0:0:0:0:
320,176,205257,2,0,P|328:112|374:68,1,129.999994049073
416,160,205636,1,0,0:0:0:0:
256,240,205825,1,0,0:0:0:0:
96,160,206014,1,0,0:0:0:0:
96,160,206203,1,0,0:0:0:0:
208,352,206393,6,0,P|160:304|160:224,1,129.999994049073
192,176,206677,1,0,0:0:0:0:
192,176,206772,2,0,P|183:112|137:68,1,129.999994049073
64,80,207150,1,0,0:0:0:0:
96,0,207339,1,0,0:0:0:0:
96,160,207528,1,0,0:0:0:0:
96,160,207718,1,0,0:0:0:0:
256,16,207907,6,0,P|240:80|256:160,1,129.999994049073
256,368,208285,2,0,P|272:304|256:224,1,129.999994049073
192,192,208664,1,0,0:0:0:0:
320,192,208853,1,0,0:0:0:0:
256,96,209042,1,0,0:0:0:0:
128,240,209232,1,0,0:0:0:0:
384,240,209421,5,0,0:0:0:0:
256,32,209800,1,0,0:0:0:0:
64,288,210178,1,0,0:0:0:0:
448,288,210367,1,0,0:0:0:0:
448,288,210462,1,0,0:0:0:0:
448,288,210557,1,0,0:0:0:0:
256,224,210746,1,0,0:0:0:0:
400,48,210935,6,0,P|416:128|400:176,1,129.999994049073
352,256,211219,1,0,0:0:0:0:
352,256,211314,2,0,P|336:318|353:380,1,129.999994049073
416,304,211692,1,0,0:0:0:0:
256,224,211881,1,0,0:0:0:0:
96,304,212070,1,0,0:0:0:0:
96,304,212259,1,0,0:0:0:0:
112,48,212449,6,0,P|96:128|112:176,1,129.999994049073
160,256,212733,1,0,0:0:0:0:
160,256,212828,2,0,P|175:318|158:380,1,129.999994049073
192,176,213206,1,0,0:0:0:0:
256,48,213396,1,0,0:0:0:0:
320,208,213585,1,0,0:0:0:0:
256,336,213775,1,0,0:0:0:0:
352,96,213964,6,0,L|480:128,1,129.999994049073
160,288,214342,2,0,L|32:256,1,129.999994049073
256,368,214721,1,0,0:0:0:0:
144,176,214910,1,0,0:0:0:0:
464,240,215099,1,0,0:0:0:0:
64,48,215478,5,0,0:0:0:0:
256,336,215856,1,0,0:0:0:0:
448,48,216235,1,0,0:0:0:0:
256,192,216613,1,0,0:0:0:0:
64,112,216992,6,0,L|208:128,1,139.999995727539
256,64,217276,1,0,0:0:0:0:
308,127,217370,2,0,L|448:112,1,139.999995727539
302,320,217749,6,0,P|255:275|211:320,1,139.999995727539
384,352,218128,1,0,0:0:0:0:
128,303,218317,2,0,P|211:198|351:228,1,279.999991455078
256,288,218885,1,0,0:0:0:0:
256,288,219075,1,0,0:0:0:0:
32,80,219264,2,0,P|82:127|150:140,1,139.999995727539
361,140,219643,2,0,P|429:127|480:80,1,139.999995727539
160,64,220022,6,0,P|192:128|192:208,1,139.999995727539
256,240,220306,1,0,0:0:0:0:
317,195,220401,2,0,P|320:125|352:64,1,139.999995727539
320,304,220779,2,0,P|256:329|192:304,1,139.999995727539
256,240,221063,1,0,0:0:0:0:
256,240,221158,1,0,0:0:0:0:
449,356,221348,6,0,B|367:241|470:213|363:80,1,279.999991455078
137,93,221916,2,0,P|100:158|95:226,1,139.999995727539
112,240,222200,1,0,0:0:0:0:
128,256,222295,1,0,0:0:0:0:
288,112,222484,1,0,0:0:0:0:
256,144,222579,1,0,0:0:0:0:
255,191,222673,2,0,P|275:256|255:326,1,139.999995727539
64,288,223052,6,0,P|133:261|208:272,1,139.999995727539
256,325,223336,1,0,0:0:0:0:
314,267,223431,2,0,P|383:261|448:288,1,139.999995727539
302,63,223810,2,0,P|256:108|210:63,1,139.999995727539
384,32,224188,1,0,0:0:0:0:
128,80,224378,6,0,P|211:186|351:156,1,279.999991455078
256,96,224946,1,0,0:0:0:0:
256,96,225135,1,0,0:0:0:0:
32,304,225325,2,0,P|82:256|150:243,1,139.999995727539
361,243,225704,2,0,P|429:256|480:304,1,139.999995727539
160,320,226082,6,0,P|192:256|192:176,1,139.999995727539
256,144,226367,1,0,0:0:0:0:
317,188,226461,2,0,P|320:258|352:320,1,139.999995727539
320,80,226840,2,0,P|256:55|192:80,1,139.999995727539
256,144,227124,1,0,0:0:0:0:
256,144,227219,1,0,0:0:0:0:
449,28,227408,1,0,0:0:0:0:
352,208,227598,5,0,0:0:0:0:
344,241,227692,1,0,0:0:0:0:
355,274,227787,1,0,0:0:0:0:
381,296,227882,1,0,0:0:0:0:
416,300,227976,1,0,0:0:0:0:
447,285,228071,1,0,0:0:0:0:
466,256,228166,1,0,0:0:0:0:
466,222,228260,1,0,0:0:0:0:
448,192,228355,1,0,0:0:0:0:
422,150,228450,1,0,0:0:0:0:
418,102,228545,1,0,0:0:0:0:
436,57,228639,1,0,0:0:0:0:
400,77,228734,1,0,0:0:0:0:
358,83,228829,1,0,0:0:0:0:
317,75,228923,1,0,0:0:0:0:
281,54,229018,1,0,0:0:0:0:
255,22,229113,6,0,L|77:44,1,139.999995727539
116,39,229397,1,0,0:0:0:0:
116,39,229492,1,0,0:0:0:0:
47,132,229681,1,0,0:0:0:0:
179,301,229870,2,0,P|187:232|161:167,1,139.999995727539
70,246,230249,1,0,0:0:0:0:
274,345,230438,6,0,P|282:207|224:81,1,279.999991455078
224,81,230912,1,0,0:0:0:0:
224,81,231007,1,0,0:0:0:0:
84,75,231196,1,0,0:0:0:0:
97,99,231291,1,0,0:0:0:0:
112,122,231385,1,0,0:0:0:0:
400,122,231575,1,0,0:0:0:0:
400,64,231670,1,0,0:0:0:0:
432,80,231764,1,0,0:0:0:0:
421,109,231859,1,0,0:0:0:0:
423,144,231954,1,0,0:0:0:0:
434,177,232048,1,0,0:0:0:0:
453,206,232143,6,0,P|458:283|424:336,1,139.999995727539
400,352,232427,1,0,0:0:0:0:
400,352,232522,1,0,0:0:0:0:
346,244,232711,1,0,0:0:0:0:
240,288,232901,6,0,P|233:219|267:159,1,139.999995727539
293,142,233185,1,0,0:0:0:0:
293,142,233279,1,0,0:0:0:0:
219,76,233469,1,0,0:0:0:0:
366,33,233658,5,0,0:0:0:0:
440,99,233848,1,0,0:0:0:0:
440,99,233942,1,0,0:0:0:0:
440,99,234037,1,0,0:0:0:0:
463,243,234226,1,0,0:0:0:0:
389,176,234416,2,0,P|361:240|387:308,1,139.999995727539
127,304,234795,2,0,P|150:239|122:176,1,139.999995727539
182,26,235173,6,0,P|175:95|204:159,1,139.999995727539
256,96,235457,1,0,0:0:0:0:
307,159,235552,2,0,P|336:95|330:27,1,139.999995727539
335,351,235931,2,0,P|320:284|352:224,1,139.999995727539
416,176,236310,1,0,0:0:0:0:
96,176,236499,1,0,0:0:0:0:
176,351,236688,6,0,P|191:284|160:224,1,139.999995727539
96,176,236973,1,0,0:0:0:0:
96,176,237067,1,0,0:0:0:0:
99,296,237257,1,0,0:0:0:0:
180,118,237446,2,0,L|40:152,1,139.999995727539
256,224,237825,1,0,0:0:0:0:
332,118,238014,6,0,L|472:152,1,139.999995727539
352,208,238393,1,0,0:0:0:0:
256,64,238582,1,0,0:0:0:0:
160,208,238772,1,0,0:0:0:0:
256,374,238961,2,0,L|256:214,1,150.000005722046
256,224,239529,1,0,0:0:0:0:
256,224,239705,5,0,0:0:0:0:
256,64,239894,1,0,0:0:0:0:
160,208,240084,1,0,0:0:0:0:
352,208,240274,1,0,0:0:0:0:
256,224,240464,2,0,L|256:382,1,150.000005722046
176,304,241034,1,0,0:0:0:0:
336,304,241223,6,0,L|352:224,1,50
361,270,241413,2,0,L|352:320,1,50
368,336,241606,2,0,L|384:256,1,50
393,302,241793,2,0,L|384:352,1,50
176,304,241983,6,0,L|166:254,1,50
150,270,242173,2,0,L|160:320,1,50
144,336,242363,2,0,L|128:256,1,50
118,302,242553,2,0,L|128:352,1,50
112,112,244310,5,0,0:0:0:0:
48,288,244702,1,0,0:0:0:0:
193,109,245094,2,0,P|187:82|174:59,2,50
112,208,245486,1,0,0:0:0:0:
336,304,245878,6,0,L|368:310,5,33.3333333333333
362,279,246270,2,0,L|395:277,5,33.3333333333333
381,248,246662,2,0,L|412:238,5,33.3333333333333
391,214,247055,2,0,L|419:196,5,33.3333333333333
400,160,247447,1,0,0:0:0:0:
112,64,250676,5,0,0:0:0:0:
146,100,250772,1,0,0:0:0:0:
160,147,250869,1,0,0:0:0:0:
150,196,250966,1,0,0:0:0:0:
120,235,251062,2,0,P|104:254|94:277,1,50
208,320,251256,1,0,0:0:0:0:
247,320,251352,1,0,0:0:0:0:
288,320,251449,1,0,0:0:0:0:
323,339,251546,5,0,0:0:0:0:
480,192,251836,1,0,0:0:0:0:
358,14,252029,1,0,0:0:0:0:
447,85,252223,6,0,B|335:85|335:85|304:64,1,150.000005722046
208,64,252513,2,0,B|176:85|176:85|64:85,1,150.000005722046
80,160,252803,2,0,L|192:160,1,75.0000028610231
256,128,252997,2,0,L|256:278,1,150.000005722046
256,384,253383,1,0,0:0:0:0:
256,384,253480,1,0,0:0:0:0:
256,384,253577,1,0,0:0:0:0:
464,240,253770,6,0,B|416:272|416:272|304:272,1,150.000005722046
256,224,254060,2,0,B|163:224|163:224|115:256,1,150.000005722046
192,376,254351,2,0,L|192:280,1,75.0000028610231
72,320,254544,2,0,B|40:288|40:288|40:183,1,150.000005722046
40,80,254931,1,0,0:0:0:0:
40,80,255028,1,0,0:0:0:0:
40,80,255124,1,0,0:0:0:0:
208,40,255318,6,0,B|256:96|256:96|312:32,1,150.000005722046
176,128,255608,2,0,B|160:168|160:168|176:288,1,150.000005722046
256,192,255898,2,0,L|256:104,1,75.0000028610231
337,273,256091,2,0,B|352:168|352:168|336:128,1,150.000005722046
256,304,256478,1,0,0:0:0:0:
256,304,256575,1,0,0:0:0:0:
256,304,256672,1,0,0:0:0:0:
56,56,256865,5,0,0:0:0:0:
101,56,256961,1,0,0:0:0:0:
146,56,257058,1,0,0:0:0:0:
191,56,257155,1,0,0:0:0:0:
216,104,257252,1,0,0:0:0:0:
171,104,257348,1,0,0:0:0:0:
126,104,257445,1,0,0:0:0:0:
81,104,257542,1,0,0:0:0:0:
106,152,257639,1,0,0:0:0:0:
151,152,257736,1,0,0:0:0:0:
196,152,257833,1,0,0:0:0:0:
241,152,257929,1,0,0:0:0:0:
266,200,258025,1,0,0:0:0:0:
221,200,258121,1,0,0:0:0:0:
176,200,258219,2,0,L|64:200,1,75.0000028610231
32,272,258412,6,0,B|64:296|64:296|192:296,1,150.000005722046
272,336,258703,2,0,B|382:336|382:336|414:312,1,150.000005722046
352,256,258993,2,0,L|352:176,1,75.0000028610231
432,64,259186,2,0,L|432:224,1,150.000005722046
432,320,259573,1,0,0:0:0:0:
432,320,259670,1,0,0:0:0:0:
432,320,259766,1,0,0:0:0:0:
192,224,259960,6,0,B|208:144|208:144|176:80,1,150.000005722046
334,82,260250,2,0,B|304:144|304:144|320:224,1,150.000005722046
256,288,260540,2,0,L|256:368,1,75.0000028610231
368,304,260734,2,0,B|398:242|398:242|382:162,1,150.000005722046
128,160,261120,1,0,0:0:0:0:
128,160,261217,1,0,0:0:0:0:
128,160,261314,1,0,0:0:0:0:
353,15,261507,6,0,P|320:80|384:144,1,150.000005722046
448,160,261797,2,0,P|481:225|417:289,1,150.000005722046
336,224,262087,2,0,L|240:224,1,75.0000028610231
293,308,262281,2,0,B|357:308|357:308|405:388,1,150.000005722046
448,160,262668,1,0,0:0:0:0:
448,160,262764,1,0,0:0:0:0:
448,160,262861,1,0,0:0:0:0:
456,328,263055,5,0,0:0:0:0:
411,328,263151,1,0,0:0:0:0:
366,328,263248,1,0,0:0:0:0:
321,328,263345,1,0,0:0:0:0:
296,280,263442,1,0,0:0:0:0:
341,280,263538,1,0,0:0:0:0:
386,280,263635,1,0,0:0:0:0:
431,280,263732,1,0,0:0:0:0:
406,232,263829,1,0,0:0:0:0:
361,232,263926,1,0,0:0:0:0:
316,232,264023,1,0,0:0:0:0:
271,232,264119,1,0,0:0:0:0:
246,184,264215,1,0,0:0:0:0:
256,176,264311,1,0,0:0:0:0:
266,168,264409,6,0,L|327:168,1,50
336,144,264795,1,0,0:0:0:0:
208,64,264989,2,0,P|176:80|112:96,1,100
0,272,265376,2,0,P|32:256|96:240,1,100
192,240,265763,1,0,0:0:0:0:
304,352,265956,6,0,L|448:336,1,100
512,112,266343,2,0,L|368:96,1,100
336,32,266730,1,0,0:0:0:0:
415,288,266923,2,0,P|432:241|423:192,1,100
240,32,267310,2,0,P|223:78|232:127,1,100
232,127,267600,1,0,0:0:0:0:
232,127,267697,6,0,L|354:100,1,100
260,329,268084,2,0,L|138:301,1,100
32,368,268470,1,0,0:0:0:0:
144,304,268664,1,0,0:0:0:0:
0,256,268857,1,0,0:0:0:0:
176,192,269051,1,0,0:0:0:0:
25,265,269244,6,0,P|1:212|4:161,1,100
64,32,269631,1,0,0:0:0:0:
160,80,269824,1,0,0:0:0:0:
336,48,270018,2,0,L|464:32,1,100
128,224,270405,2,0,L|0:208,1,100
28,211,270695,1,0,0:0:0:0:
28,211,270792,5,0,0:0:0:0:
112,320,270985,1,0,0:0:0:0:
192,160,271178,2,0,P|175:98|147:55,1,100
354,67,271565,6,0,P|330:111|320:160,1,100
400,320,271951,1,0,0:0:0:0:
484,211,272144,1,0,0:0:0:0:
272,48,272339,6,0,L|144:64,1,100
288,304,272726,2,0,L|400:320,1,100
176,352,273113,1,0,0:0:0:0:
416,304,273306,1,0,0:0:0:0:
416,304,273403,1,0,0:0:0:0:
416,304,273499,1,0,0:0:0:0:
336,240,273693,1,0,0:0:0:0:
480,192,273886,6,0,B|483:141|452:149|451:83,1,100
256,224,274176,1,0,0:0:0:0:
256,240,274273,2,0,B|252:290|283:282|284:348,1,100
320,144,274660,1,0,0:0:0:0:
192,320,274853,2,0,P|176:272|176:224,1,100
208,144,275240,1,0,0:0:0:0:
96,288,275434,6,0,P|112:336|112:384,1,100
0,208,275821,1,0,0:0:0:0:
80,144,276014,2,0,P|88:94|104:47,1,100
192,224,276401,1,0,0:0:0:0:
256,352,276594,1,0,0:0:0:0:
320,224,276788,1,0,0:0:0:0:
448,352,276981,6,0,P|400:335|351:327,1,100
256,272,277367,1,0,0:0:0:0:
64,352,277561,6,0,P|111:335|160:327,1,100
288,256,277948,1,0,0:0:0:0:
96,256,278142,2,0,B|112:204|80:204|96:156,1,100
496,240,278528,6,0,P|448:223|399:215,1,100
224,256,278915,1,0,0:0:0:0:
336,366,279109,2,0,P|355:321|351:271,1,100
175,17,279496,2,0,P|156:62|160:112,1,100
256,192,279882,1,0,0:0:0:0:
368,32,280076,6,0,L|512:64,1,100
304,96,280463,1,0,0:0:0:0:
448,224,280656,2,0,P|464:176|448:112,1,100
496,352,281043,1,0,0:0:0:0:
336,272,281236,1,0,0:0:0:0:
266,376,281430,1,0,0:0:0:0:
336,160,281623,6,0,P|320:208|336:272,1,100
256,32,282010,1,0,0:0:0:0:
176,336,282204,2,0,P|192:288|176:224,1,100
128,160,282590,1,0,0:0:0:0:
123,51,282784,1,0,0:0:0:0:
147,52,282880,1,0,0:0:0:0:
171,60,282977,1,0,0:0:0:0:
192,73,283074,1,0,0:0:0:0:
210,91,283171,6,0,P|251:140|257:205,1,100
259,174,283461,1,0,0:0:0:0:
259,174,283558,1,0,0:0:0:0:
142,351,283751,2,0,P|103:263|152:180,1,200
408,262,284331,2,0,P|394:215|360:180,2,100
304,368,284911,1,0,0:0:0:0:
221,320,285105,2,0,P|256:285|304:272,1,100
112,208,285492,2,0,P|76:173|29:159,1,100
224,160,285879,1,0,0:0:0:0:
320,272,286072,1,0,0:0:0:0:
272,112,286265,6,0,L|144:128,1,100
368,336,286652,2,0,L|496:352,1,100
336,176,287039,1,0,0:0:0:0:
272,256,287233,1,0,0:0:0:0:
211,120,287426,1,0,0:0:0:0:
364,312,287620,1,0,0:0:0:0:
160,336,287813,5,0,0:0:0:0:
187,295,287909,1,0,0:0:0:0:
189,245,288006,1,0,0:0:0:0:
163,203,288103,1,0,0:0:0:0:
119,181,288199,1,0,0:0:0:0:
70,186,288296,1,0,0:0:0:0:
32,217,288393,1,0,0:0:0:0:
16,263,288489,1,0,0:0:0:0:
27,311,288586,1,0,0:0:0:0:
48,304,288683,1,0,0:0:0:0:
119,181,288973,5,0,0:0:0:0:
0,145,289167,1,0,0:0:0:0:
176,272,289360,6,0,B|176:192|176:192|128:112,1,150.000005722046
112,96,289650,1,0,0:0:0:0:
112,96,289747,1,0,0:0:0:0:
256,176,289940,6,0,B|256:256|256:256|304:336,1,150.000005722046
451,284,290327,2,0,P|408:226|335:224,1,150.000005722046
190,357,290714,2,0,L|29:334,1,150.000005722046
168,162,291101,2,0,B|256:175|256:175|287:156|288:118,1,150.000005722046
83,88,291488,2,0,B|8:243|169:242|103:389,1,300.000011444092
14,323,291971,1,0,0:0:0:0:
14,323,292068,1,0,0:0:0:0:
168,162,292262,1,0,0:0:0:0:
336,112,292455,6,0,B|336:192|336:192|384:272,1,150.000005722046
400,288,292745,1,0,0:0:0:0:
400,288,292842,1,0,0:0:0:0:
256,208,293035,6,0,B|256:128|256:128|208:48,1,150.000005722046
60,99,293422,2,0,P|103:157|176:159,1,150.000005722046
322,27,293809,2,0,L|483:50,1,150.000005722046
344,222,294196,2,0,B|256:209|256:209|225:228|224:266,1,150.000005722046
429,296,294583,2,0,B|503:140|342:141|408:-5,1,300.000011444092
498,61,295066,1,0,0:0:0:0:
498,61,295163,1,0,0:0:0:0:
344,222,295357,1,0,0:0:0:0:
160,80,295550,6,0,B|128:112|128:112|80:224,1,150.000005722046
144,288,295937,1,0,0:0:0:0:
219,363,296130,2,0,P|251:293|219:213,1,150.000005722046
293,21,296517,2,0,P|261:91|293:171,1,150.000005722046
352,304,296904,6,0,B|384:272|384:272|432:160,1,150.000005722046
368,96,297291,1,0,0:0:0:0:
230,226,297484,2,0,P|250:296|219:363,1,150.000005722046
71,327,297871,1,0,0:0:0:0:
71,327,297968,1,0,0:0:0:0:
71,327,298064,1,0,0:0:0:0:
95,118,298258,1,0,0:0:0:0:
113,129,298354,1,0,0:0:0:0:
131,140,298452,1,0,0:0:0:0:
149,151,298548,1,0,0:0:0:0:
167,162,298645,1,0,0:0:0:0:
256,48,298838,1,0,0:0:0:0:
256,64,298935,1,0,0:0:0:0:
256,112,299031,1,0,0:0:0:0:
320,224,299225,2,0,P|432:224|512:384,1,300.000011444092
384,336,299805,1,0,0:0:0:0:
320,224,299999,1,0,0:0:0:0:
384,336,300192,2,0,P|272:336|192:176,1,300.000011444092
