osu file format v14

[General]
AudioFilename: audio.mp3
AudioLeadIn: 0
PreviewTime: -1
Countdown: 0
SampleSet: None
StackLeniency: 0.2
Mode: 0
LetterboxInBreaks: 0
WidescreenStoryboard: 1

[Editor]
Bookmarks: 198438,244242
DistanceSpacing: 0.7
BeatDivisor: 4
GridSize: 16
TimelineZoom: 1.7

[Metadata]
Title:Initial D ~Hyper Mega Mix~
TitleUnicode:Initial D ~Hyper Mega Mix~
Artist:Various Artists
ArtistUnicode:Various Artists
Creator:Lazer
Version:Back on the Rocks
Source:
Tags:
BeatmapID:1628466
BeatmapSetID:774860

[Difficulty]
HPDrainRate:5
CircleSize:4
OverallDifficulty:8
ApproachRate:8
SliderMultiplier:2
SliderTickRate:1

[Events]
//Background and Video events
//Break Periods
//Storyboard Layer 0 (Background)
//Storyboard Layer 1 (Fail)
//Storyboard Layer 2 (Pass)
//Storyboard Layer 3 (Foreground)
//Storyboard Sound Samples

[TimingPoints]
9357,387.096774193548,4,1,0,20,1,0
9357,-200,4,1,0,20,0,0
26389,-100,4,1,0,20,0,0
38389,-74.6268656716418,4,1,0,20,0,0
44969,-100,4,1,0,20,0,0
54260,-74.6268656716418,4,1,0,20,0,0
88313,387.096774193548,4,1,0,20,1,0
88324,-100,4,1,0,20,0,0
111534,384.492149951938,4,1,0,20,1,0
111534,-133.333333333333,4,1,0,20,0,0
113071,-83.3333333333333,4,1,0,20,0,0
127682,-66.6666666666667,4,1,0,20,0,0
128643,-83.3333333333333,4,1,0,20,0,0
148445,-133.333333333333,4,1,0,20,0,0
149983,-76.9230769230769,4,1,0,20,0,0
174590,378.548895899054,4,1,0,20,1,0
174590,-133.333333333333,4,1,0,20,0,0
180646,-76.9230769230769,4,1,0,20,0,0
197302,-66.6666666666667,4,1,0,20,0,0
198627,-76.9230769230769,4,1,0,20,0,0
216987,-71.4285714285714,4,1,0,20,0,0
238943,-133.333333333333,4,1,0,20,0,0
241214,-100,4,1,0,20,0,0
244310,387.096774193548,4,1,0,20,1,0
250676,386.847195357834,4,1,0,20,1,0

[HitObjects]
224,48,111534,6,0,L|374:48,1,150.000005722046
240,288,112302,2,0,L|90:288,1,150.000005722046
64,128,113071,5,0,0:0:0:0:
112,96,113168,1,0,0:0:0:0:
160,128,113264,1,0,0:0:0:0:
208,96,113360,1,0,0:0:0:0:
256,128,113456,1,0,0:0:0:0:
400,96,113648,1,0,0:0:0:0:
400,96,113744,1,0,0:0:0:0:
272,48,113937,1,0,0:0:0:0:
272,48,114033,1,0,0:0:0:0:
224,208,114225,1,0,0:0:0:0:
352,256,114417,1,0,0:0:0:0:
448,256,114609,5,0,0:0:0:0:
400,288,114706,1,0,0:0:0:0:
352,256,114802,1,0,0:0:0:0:
304,288,114898,1,0,0:0:0:0:
256,256,114994,1,0,0:0:0:0:
112,288,115186,1,0,0:0:0:0:
112,288,115282,1,0,0:0:0:0:
240,336,115475,1,0,0:0:0:0:
240,336,115571,1,0,0:0:0:0:
288,176,115763,1,0,0:0:0:0:
240,160,115859,1,0,0:0:0:0:
192,144,115955,1,0,0:0:0:0:
144,128,116051,1,0,0:0:0:0:
96,112,116147,6,0,L|32:128,4,59.9999981689454
176,80,116724,1,0,0:0:0:0:
176,80,116820,1,0,0:0:0:0:
336,80,117013,1,0,0:0:0:0:
336,80,117109,1,0,0:0:0:0:
256,280,117301,2,0,B|272:224|240:224|256:160,1,119.999996337891
96,144,117685,5,0,0:0:0:0:
64,192,117782,1,0,0:0:0:0:
96,240,117878,1,0,0:0:0:0:
64,288,117974,1,0,0:0:0:0:
96,336,118070,1,0,0:0:0:0:
208,288,118262,1,0,0:0:0:0:
208,288,118358,1,0,0:0:0:0:
208,192,118550,1,0,0:0:0:0:
208,192,118647,1,0,0:0:0:0:
284,339,118839,1,0,0:0:0:0:
416,240,119031,5,0,0:0:0:0:
416,240,119127,1,0,0:0:0:0:
416,240,119223,1,0,0:0:0:0:
448,192,119320,1,0,0:0:0:0:
416,144,119416,1,0,0:0:0:0:
448,96,119512,1,0,0:0:0:0:
416,48,119608,1,0,0:0:0:0:
336,192,119800,1,0,0:0:0:0:
336,192,119896,1,0,0:0:0:0:
256,48,120088,1,0,0:0:0:0:
256,48,120185,1,0,0:0:0:0:
176,192,120377,1,0,0:0:0:0:
192,224,120473,1,0,0:0:0:0:
208,256,120569,1,0,0:0:0:0:
224,288,120665,1,0,0:0:0:0:
240,320,120761,6,0,L|224:384,4,59.9999981689454
352,256,121338,1,0,0:0:0:0:
352,256,121434,1,0,0:0:0:0:
464,352,121626,1,0,0:0:0:0:
464,352,121723,1,0,0:0:0:0:
256,352,121915,1,0,0:0:0:0:
432,160,122107,5,0,0:0:0:0:
432,160,122203,1,0,0:0:0:0:
400,128,122299,1,0,0:0:0:0:
372,115,122395,1,0,0:0:0:0:
343,111,122491,1,0,0:0:0:0:
313,116,122587,1,0,0:0:0:0:
287,130,122683,1,0,0:0:0:0:
352,240,122876,1,0,0:0:0:0:
352,240,122972,1,0,0:0:0:0:
160,144,123164,1,0,0:0:0:0:
160,144,123260,1,0,0:0:0:0:
64,352,123453,1,0,0:0:0:0:
166,276,123645,5,0,0:0:0:0:
166,276,123741,1,0,0:0:0:0:
166,276,123837,1,0,0:0:0:0:
130,237,123933,1,0,0:0:0:0:
102,244,124029,1,0,0:0:0:0:
74,251,124126,1,0,0:0:0:0:
46,258,124222,1,0,0:0:0:0:
197,360,124414,1,0,0:0:0:0:
225,353,124511,1,0,0:0:0:0:
300,185,124702,1,0,0:0:0:0:
272,192,124799,1,0,0:0:0:0:
346,334,124991,1,0,0:0:0:0:
463,171,125183,1,0,0:0:0:0:
154,32,125375,6,0,P|163:91|165:151,1,119.999996337891
123,225,125760,1,0,0:0:0:0:
197,263,125952,1,0,0:0:0:0:
58,272,126144,2,0,P|46:210|86:153,1,119.999996337891
26,92,126529,1,0,0:0:0:0:
239,42,126721,6,0,B|282:30|282:30|362:48,1,119.999996337891
372,169,127105,2,0,B|410:190|410:190|454:260,1,119.999996337891
376,352,127490,1,0,0:0:0:0:
224,240,127682,6,0,P|256:132|286:241,2,300.000011444092
86,356,128643,5,0,0:0:0:0:
61,281,128836,1,0,0:0:0:0:
136,257,129028,1,0,0:0:0:0:
160,331,129220,1,0,0:0:0:0:
35,208,129412,2,0,P|28:276|4:328,1,119.999996337891
16,96,129797,2,0,B|128:96|128:192|240:192,2,239.999992675781
313,36,130758,5,0,0:0:0:0:
296,75,130854,1,0,0:0:0:0:
257,91,130950,1,0,0:0:0:0:
217,76,131046,1,0,0:0:0:0:
199,38,131142,1,0,0:0:0:0:
199,64,131239,1,0,0:0:0:0:
217,102,131335,1,0,0:0:0:0:
256,116,131431,1,0,0:0:0:0:
295,101,131527,1,0,0:0:0:0:
400,192,131719,5,0,0:0:0:0:
320,336,131912,2,0,P|384:352|448:304,1,119.999996337891
256,160,132296,1,0,0:0:0:0:
192,336,132488,2,0,P|128:352|64:304,2,119.999996337891
123,142,133065,6,0,P|139:200|141:260,1,119.999996337891
32,144,133450,1,0,0:0:0:0:
224,160,133642,1,0,0:0:0:0:
48,224,133834,2,0,P|48:283|62:342,1,119.999996337891
222,320,134219,1,0,0:0:0:0:
231,297,134315,1,0,0:0:0:0:
254,288,134411,1,0,0:0:0:0:
276,297,134507,1,0,0:0:0:0:
286,319,134603,1,0,0:0:0:0:
449,342,134795,6,0,P|463:283|464:224,1,119.999996337891
395,36,135180,2,0,P|341:50|385:186,1,239.999992675781
422,113,135757,1,0,0:0:0:0:
512,163,135949,1,0,0:0:0:0:
328,261,136141,6,0,P|354:268|332:336,2,119.999996337891
117,36,136718,2,0,P|170:50|126:186,1,239.999992675781
0,163,137294,1,0,0:0:0:0:
0,163,137679,5,0,0:0:0:0:
90,113,137871,1,0,0:0:0:0:
144,272,138063,1,0,0:0:0:0:
224,208,138256,2,0,B|348:166|348:249|473:208,1,239.999992675781
400,128,138832,1,0,0:0:0:0:
304,320,139025,6,0,L|480:304,1,119.999996337891
320,96,139409,2,0,L|144:112,1,119.999996337891
112,240,139794,2,0,L|288:224,1,119.999996337891
128,16,140178,2,0,L|-48:32,1,119.999996337891
32,48,140563,1,0,0:0:0:0:
64,160,140755,5,0,0:0:0:0:
16,288,140947,1,0,0:0:0:0:
112,272,141139,1,0,0:0:0:0:
160,144,141332,1,0,0:0:0:0:
256,128,141524,1,0,0:0:0:0:
208,256,141716,1,0,0:0:0:0:
304,240,141908,1,0,0:0:0:0:
352,112,142101,6,0,P|448:128|384:224,1,239.999992675781
304,240,142677,1,0,0:0:0:0:
288,352,142870,1,0,0:0:0:0:
368,304,143062,2,0,L|496:336,1,119.999996337891
144,304,143446,2,0,L|16:336,1,119.999996337891
32,320,143735,1,0,0:0:0:0:
32,320,143831,1,0,0:0:0:0:
96,176,144023,5,0,0:0:0:0:
144,16,144215,1,0,0:0:0:0:
201,200,144408,2,0,P|195:136|142:76,1,119.999996337891
348,91,144792,2,0,P|314:140|311:200,1,119.999996337891
471,364,145177,6,0,P|475:247|392:167,1,239.999992675781
310,199,145753,1,0,0:0:0:0:
422,153,145946,1,0,0:0:0:0:
302,95,146138,2,0,P|256:64|208:95,1,119.999996337891
90,153,146522,1,0,0:0:0:0:
202,199,146715,1,0,0:0:0:0:
52,60,146907,6,0,P|63:118|67:194,1,119.999996337891
119,241,147291,1,0,0:0:0:0:
22,22,147484,2,0,P|41:128|44:274,1,239.999992675781
113,347,148060,1,0,0:0:0:0:
446,341,148445,6,0,B|436:255|436:255|451:212|451:212|439:119,2,225.000008583069
256,64,149983,5,0,0:0:0:0:
80,192,150175,1,0,0:0:0:0:
256,320,150367,1,0,0:0:0:0:
432,192,150559,2,0,B|288:240|288:240|182:216,1,259.999988098145
80,192,151136,1,0,0:0:0:0:
256,320,151328,1,0,0:0:0:0:
271,33,151521,6,0,P|268:97|281:161,1,129.999994049073
432,192,151905,1,0,0:0:0:0:
256,320,152097,1,0,0:0:0:0:
80,192,152290,2,0,B|65:127|65:127|95:71,1,129.999994049073
432,192,152674,2,0,B|447:257|447:257|416:312,1,129.999994049073
133,292,153059,5,0,0:0:0:0:
102,159,153251,1,0,0:0:0:0:
187,52,153443,1,0,0:0:0:0:
324,52,153635,2,0,P|384:96|409:178,1,129.999994049073
324,331,154020,2,0,P|377:296|406:238,1,129.999994049073
256,128,154404,1,0,0:0:0:0:
323,371,154597,6,0,P|402:323|449:244,1,129.999994049073
188,12,154981,2,0,P|109:60|62:139,1,129.999994049073
188,371,155366,2,0,P|109:323|62:244,1,129.999994049073
323,12,155750,2,0,P|402:60|449:139,1,129.999994049073
256,320,156135,5,0,0:0:0:0:
80,192,156327,1,0,0:0:0:0:
256,64,156519,1,0,0:0:0:0:
432,192,156711,2,0,B|288:144|288:144|182:167,1,259.999988098145
80,192,157288,1,0,0:0:0:0:
256,64,157480,1,0,0:0:0:0:
271,350,157673,6,0,P|268:286|281:222,1,129.999994049073
432,192,158057,1,0,0:0:0:0:
256,64,158249,1,0,0:0:0:0:
80,192,158442,2,0,B|65:257|65:257|95:312,1,129.999994049073
432,192,158826,2,0,B|447:127|447:127|416:71,1,129.999994049073
400,48,159114,1,0,0:0:0:0:
384,32,159211,5,0,0:0:0:0:
148,54,159403,1,0,0:0:0:0:
170,290,159595,1,0,0:0:0:0:
406,268,159787,1,0,0:0:0:0:
269,77,159980,5,0,0:0:0:0:
193,168,160172,1,0,0:0:0:0:
284,244,160364,1,0,0:0:0:0:
360,153,160556,1,0,0:0:0:0:
235,173,160748,6,0,L|244:306,1,129.999994049073
365,334,161133,1,0,0:0:0:0:
379,305,161229,1,0,0:0:0:0:
403,283,161325,1,0,0:0:0:0:
434,273,161421,1,0,0:0:0:0:
466,274,161517,1,0,0:0:0:0:
256,32,161902,1,0,0:0:0:0:
96,128,162286,5,0,0:0:0:0:
128,176,162383,1,0,0:0:0:0:
96,224,162479,1,0,0:0:0:0:
128,272,162575,1,0,0:0:0:0:
96,319,162671,1,0,0:0:0:0:
192,224,162863,1,0,0:0:0:0:
192,224,162959,1,0,0:0:0:0:
32,176,163152,1,0,0:0:0:0:
32,176,163248,1,0,0:0:0:0:
192,112,163440,1,0,0:0:0:0:
192,112,163632,1,0,0:0:0:0:
256,352,163824,5,0,0:0:0:0:
232,316,163920,1,0,0:0:0:0:
257,281,164016,1,0,0:0:0:0:
279,245,164113,1,0,0:0:0:0:
256,208,164209,1,0,0:0:0:0:
183,246,164401,1,0,0:0:0:0:
183,246,164497,1,0,0:0:0:0:
326,316,164690,1,0,0:0:0:0:
326,316,164786,1,0,0:0:0:0:
312,155,164978,1,0,0:0:0:0:
287,133,165074,1,0,0:0:0:0:
256,126,165170,1,0,0:0:0:0:
225,133,165266,1,0,0:0:0:0:
200,154,165362,6,0,L|134:146,4,64.9999970245363
259,224,165939,1,0,0:0:0:0:
259,224,166035,1,0,0:0:0:0:
176,72,166228,1,0,0:0:0:0:
176,72,166324,1,0,0:0:0:0:
190,287,166516,1,0,0:0:0:0:
256,352,166708,1,0,0:0:0:0:
416,288,166900,5,0,0:0:0:0:
384,240,166997,1,0,0:0:0:0:
416,192,167093,1,0,0:0:0:0:
384,144,167189,1,0,0:0:0:0:
416,97,167285,1,0,0:0:0:0:
320,192,167477,1,0,0:0:0:0:
320,192,167573,1,0,0:0:0:0:
480,240,167766,1,0,0:0:0:0:
480,240,167862,1,0,0:0:0:0:
320,304,168054,1,0,0:0:0:0:
448,352,168246,1,0,0:0:0:0:
448,352,168342,1,0,0:0:0:0:
448,352,168438,5,0,0:0:0:0:
400,332,168534,1,0,0:0:0:0:
349,332,168630,1,0,0:0:0:0:
302,352,168726,1,0,0:0:0:0:
320,304,168823,1,0,0:0:0:0:
192,304,169014,5,0,0:0:0:0:
210,352,169111,1,0,0:0:0:0:
163,332,169207,1,0,0:0:0:0:
112,332,169303,1,0,0:0:0:0:
64,352,169399,1,0,0:0:0:0:
128,256,169592,1,0,0:0:0:0:
140,225,169688,1,0,0:0:0:0:
144,193,169784,1,0,0:0:0:0:
139,161,169880,1,0,0:0:0:0:
126,131,169976,5,0,0:0:0:0:
122,88,170072,1,0,0:0:0:0:
158,65,170168,1,0,0:0:0:0:
195,88,170264,1,0,0:0:0:0:
191,131,170360,1,0,0:0:0:0:
256,224,170553,1,0,0:0:0:0:
256,224,170649,1,0,0:0:0:0:
256,336,170841,1,0,0:0:0:0:
256,336,170938,1,0,0:0:0:0:
320,131,171130,1,0,0:0:0:0:
316,88,171226,1,0,0:0:0:0:
353,65,171322,1,0,0:0:0:0:
389,88,171418,1,0,0:0:0:0:
385,131,171514,5,0,0:0:0:0:
372,161,171610,1,0,0:0:0:0:
367,193,171706,1,0,0:0:0:0:
371,225,171802,1,0,0:0:0:0:
384,256,171898,1,0,0:0:0:0:
464,192,172091,1,0,0:0:0:0:
464,192,172187,1,0,0:0:0:0:
304,304,172379,1,0,0:0:0:0:
304,304,172476,1,0,0:0:0:0:
218,279,172668,1,0,0:0:0:0:
141,327,172860,1,0,0:0:0:0:
234,77,173052,5,0,0:0:0:0:
272,79,173148,1,0,0:0:0:0:
311,82,173244,1,0,0:0:0:0:
350,85,173340,1,0,0:0:0:0:
389,88,173436,1,0,0:0:0:0:
185,183,173629,1,0,0:0:0:0:
152,160,173725,1,0,0:0:0:0:
331,202,173917,1,0,0:0:0:0:
364,225,174013,1,0,0:0:0:0:
112,240,174206,1,0,0:0:0:0:
256,352,174398,1,0,0:0:0:0:
