osu file format v14

[General]
AudioFilename: audio.ogg
AudioLeadIn: 0
PreviewTime: 98330
Countdown: 0
SampleSet: Soft
StackLeniency: 0.7
Mode: 0
LetterboxInBreaks: 0
WidescreenStoryboard: 0

[Editor]
DistanceSpacing: 0.5
BeatDivisor: 4
GridSize: 16
TimelineZoom: 1.86

[Metadata]
Title:Ijigen BIGBANG
TitleUnicode:異次元★♥BIGBANG
Artist:Various Artists
ArtistUnicode:Various Artists
Creator:Wien Margarete
Version:ANOTHER DIMENSIONS
Source:異次元フェス アイドルマスター★♥ラブライブ!歌合戦
Tags:Japanese pop jpop j-pop idolm@ster imas im@s アイドルマスター シンデレラガールス the idolmaster cinderella girls 346pro アイドルマスター ミリオンライブ! Million Live 765pro アイドルマスター シャイニーカラーズ shiny colors 283pro ラブライブ!スクールアイドルフェスティバル LoveLive! School idol festival 2 ラブライブ!スクールアイドルフェスティバル2 MIRACLE LIVE! sukufesu sukufesu2 SIF SIF2 ラブライブ!サンシャイン!! Sunshine!! Aqours ラブライブ!虹ヶ咲学園スクールアイドル同好会 Nijigasaki High Club ラブライブ!スーパースター!! Superstar!! Liella! Link!Like! ラブライブ!蓮ノ空女学院スクールアイドルクラブ Hasu no Sora Jokaguin Hasunosora 島村卯月 Shimamura Uzuki 大橋彩香 Ohashi Ayaka 最上静香 Mogami Shizuka 田所あずさ Tadokoro Azusa 月岡恋鐘 Tsukioka Kogane 磯部花凜 Isobe Karin 高海千歌 Takami Chika 伊波杏樹 Inami Anju 上原歩夢 Uehara Ayumu 大西亜玖璃 Onishi Aguri 渋谷かのん Shibuya Kanon 伊達さゆり Date Sayuri 日野下花帆 Hinoshita Kaho 楡井希実 Nirei Nozomi 小高光太郎 Odaka Kotaro UiNA 谷ナオキ Tani Naoki Bokamin
BeatmapID:4381665
BeatmapSetID:2090594

[Difficulty]
HPDrainRate:5
CircleSize:4
OverallDifficulty:8.8
ApproachRate:9.5
SliderMultiplier:2
SliderTickRate:1

[Events]
//Background and Video events
0,0,"sakurauchi BG.jpg",0,0
//Break Periods
//Storyboard Layer 0 (Background)
//Storyboard Layer 1 (Fail)
//Storyboard Layer 2 (Pass)
//Storyboard Layer 3 (Foreground)
//Storyboard Layer 4 (Overlay)
//Storyboard Sound Samples

[TimingPoints]
1407,1090.90909090909,4,2,1,40,1,0
1407,-62.5,4,2,1,40,0,1
5497,-62.5,4,2,1,40,0,0
5770,-62.5,4,2,1,40,0,1
9588,-62.5,4,2,1,40,0,0
10270,-62.5,4,2,1,20,0,0
11225,-62.5,4,2,1,30,0,0
12316,-62.5,4,2,1,40,0,0
13406,-62.5,4,2,1,50,0,0
14497,333.333333333333,4,2,1,50,1,0
14830,-166.666666666667,4,2,1,40,0,0
16496,-333.333333333334,4,2,1,40,0,0
17163,-166.666666666667,4,2,1,40,0,0
17830,-250.000000000001,4,2,1,40,0,0
18496,-166.666666666667,4,2,1,40,0,0
19163,-250.000000000001,4,2,1,40,0,0
19830,-166.666666666667,4,2,1,50,0,0
20496,-125,4,2,1,50,0,0
21830,-250.000000000001,4,2,1,50,0,0
22496,-250.000000000001,4,2,1,60,0,0
22830,-250.000000000001,4,2,1,40,0,0
23163,-250.000000000001,4,2,1,50,0,0
23496,-125,4,2,1,60,0,0
23830,-125,4,2,1,70,0,0
25163,-83.3333333333333,4,2,1,80,0,0
31163,-90.9090909090909,4,2,1,80,0,0
35830,-71.4285714285714,4,2,1,80,0,1
40496,-71.4285714285714,4,2,1,80,0,0
40830,-71.4285714285714,4,2,1,50,0,0
41163,-166.666666666667,4,2,1,50,0,0
42496,-125,4,2,1,60,0,0
50496,-111.111111111111,4,2,1,60,0,0
51830,-111.111111111111,4,2,1,70,0,0
52663,-83.3333333333333,4,2,1,70,0,0
53163,-100,4,2,1,65,0,0
63830,-100,4,2,1,60,0,0
68330,-166.666666666667,4,2,1,60,0,0
68663,-100,4,2,1,60,0,0
69163,-125,4,2,1,60,0,0
71830,-111.111111111111,4,2,1,65,0,0
73163,-111.111111111111,4,2,1,70,0,0
73830,-111.111111111111,4,2,1,60,0,0
74496,-142.857142857143,4,2,1,55,0,0
83830,-166.666666666667,4,2,1,55,0,0
84163,-142.857142857143,4,2,1,55,0,0
84496,-125,4,2,1,55,0,0
85163,-111.111111111111,4,2,1,65,0,0
87830,-100,4,2,1,70,0,0
93163,-100,4,2,1,75,0,0
94330,-83.3333333333333,4,2,1,80,0,0
95830,-83.3333333333333,4,2,1,60,0,0
96496,-83.3333333333333,4,2,1,70,0,0
97163,-83.3333333333333,4,2,1,65,0,0
97496,-90.9090909090909,4,2,1,60,0,0
97830,-90.9090909090909,4,2,1,80,0,0
98496,-83.3333333333333,4,2,1,90,0,0
117496,-83.3333333333333,4,2,1,70,0,0
117830,-83.3333333333333,4,2,1,75,0,0
118163,-83.3333333333333,4,2,1,80,0,0
118496,-83.3333333333333,4,2,1,90,0,0
119163,-83.3333333333333,4,2,1,70,0,0
120163,-125,4,2,1,70,0,0
124496,-125,4,2,1,75,0,0
124830,-125,4,2,1,65,0,0
125163,-125,4,2,1,70,0,0
127996,-125,4,2,1,60,0,0
128496,-125,4,2,1,70,0,0
128830,-125,4,2,1,80,0,0
130330,-125,4,2,1,50,0,0
130496,-83.3333333333333,4,2,1,80,0,0
136496,-100,4,2,1,80,0,0
142496,-166.666666666667,4,2,1,40,0,0
151830,-166.666666666667,4,2,1,70,0,0
152663,-100,4,2,1,70,0,0
152830,-100,4,2,1,50,0,0
152996,-100,4,2,1,55,0,0
153163,-100,4,2,1,65,0,0
153663,-166.666666666667,4,2,1,60,0,0
154496,-100,4,2,1,80,0,0
154996,-100,4,2,1,60,0,0
155496,-166.666666666667,4,2,1,60,0,0
155830,-100,4,2,1,80,0,0
156330,-100,4,2,1,75,0,0
158163,-100,4,2,1,80,0,0
158496,-125,4,2,1,70,0,0
161163,-125,4,2,1,75,0,0
162496,-125,4,2,1,80,0,0
163163,-125,4,2,1,60,0,0
163830,-166.666666666667,4,2,1,60,0,0
169163,-153.846153846154,4,2,1,60,0,0
170830,-181.818181818182,4,2,1,60,0,0
171163,-142.857142857143,4,2,1,60,0,0
171496,-166.666666666667,4,2,1,60,0,0
171830,-125,4,2,1,60,0,0
173163,-125,4,2,1,70,0,0
173330,-83.3333333333333,4,2,1,70,0,0
173996,-83.3333333333333,4,2,1,50,0,0
174163,-83.3333333333333,4,2,1,60,0,0
174496,-100,4,2,1,70,0,0
177163,-90.9090909090909,4,2,1,75,0,0
182496,-90.9090909090909,4,2,1,80,0,0
183663,-76.9230769230769,4,2,1,85,0,0
185163,-76.9230769230769,4,2,1,60,0,0
185830,-76.9230769230769,4,2,1,70,0,0
186496,-76.9230769230769,4,2,1,65,0,0
186830,-90.9090909090909,4,2,1,55,0,0
187163,-90.9090909090909,4,2,1,50,0,0
187330,-90.9090909090909,4,2,1,60,0,0
187496,-90.9090909090909,4,2,1,70,0,0
187663,-90.9090909090909,4,2,1,80,0,0
187830,-83.3333333333333,4,2,1,90,0,0
209163,-111.111111111111,4,2,1,70,0,0
211830,-142.857142857143,4,2,1,70,0,0
212496,-125,4,2,1,70,0,0
213163,-166.666666666666,4,2,1,70,0,0
214496,-166.666666666666,4,2,1,70,0,0
215163,-111.111111111111,4,2,1,70,0,0
219830,-111.111111111111,4,2,1,80,0,0
221385,-99.9999999999999,4,2,1,80,0,0
221608,-111.111111111111,4,2,1,75,0,0
221830,-125,4,2,1,70,0,0
222052,-142.857142857143,4,2,1,65,0,0
222274,-166.666666666667,4,2,1,60,0,0
222496,-166.666666666667,4,2,1,55,0,0
222996,-166.666666666667,4,2,1,60,0,0
223496,-166.666666666667,4,2,1,65,0,0
223996,-125,4,2,1,80,0,0
224163,-90.9090909090909,4,2,1,80,0,0
224496,-90.9090909090909,4,2,1,65,0,0
224830,-90.9090909090909,4,2,1,55,0,0
225163,-90.9090909090909,4,2,1,75,0,0
226496,-90.9090909090909,4,2,1,80,0,0
226830,-90.9090909090909,4,2,1,65,0,0
227163,-90.9090909090909,4,2,1,75,0,0
227830,-90.9090909090909,4,2,1,85,0,0
229163,-90.9090909090909,4,2,1,75,0,0
229663,-90.9090909090909,4,2,1,65,0,0
230163,-200,4,2,1,60,0,0
230830,-200,4,2,1,40,0,0
235830,-200,4,2,1,50,0,0
238496,-200,4,2,1,60,0,0
240496,-200,4,2,1,65,0,0
241163,-200,4,2,1,75,0,0
241496,-100,4,2,1,75,0,0
245163,-111.111111111111,4,2,1,75,0,0
246496,-99.9999999999999,4,2,1,75,0,0
249496,-99.9999999999999,4,2,1,55,0,0
249830,-99.9999999999999,4,2,1,65,0,0
250163,-99.9999999999999,4,2,1,75,0,0
250496,-99.9999999999999,4,2,1,70,0,0
250830,-99.9999999999999,4,2,1,60,0,0
250941,-125,4,2,1,60,0,0
251163,-99.9999999999999,4,2,1,50,0,0
251496,-99.9999999999999,4,2,1,55,0,0
251580,-99.9999999999999,4,2,1,60,0,0
251663,-99.9999999999999,4,2,1,65,0,0
251746,-99.9999999999999,4,2,1,70,0,0
251830,-99.9999999999999,4,2,1,75,0,0
252663,-166.666666666667,4,2,1,75,0,0
253163,-99.9999999999999,4,2,1,75,0,0
253996,-200,4,2,1,75,0,0
254496,-99.9999999999999,4,2,1,75,0,0
256663,-99.9999999999999,4,2,1,60,0,0
256830,-99.9999999999999,4,2,1,70,0,0
257163,-71.4285714285714,4,2,1,85,0,1
261830,-71.4285714285714,4,2,1,85,0,0
262496,-166.666666666667,4,2,1,60,0,0
263163,-125,4,2,1,65,0,0
263830,-125,4,2,1,70,0,0
264163,-125,4,2,1,60,0,0
264496,-166.666666666667,4,2,1,50,0,0
264830,-125,4,2,1,70,0,0
265163,-71.4285714285714,4,2,1,60,0,0
265496,-71.4285714285714,4,2,1,90,0,0
266496,-83.3333333333333,4,2,1,90,0,0
267830,-125,4,2,1,60,0,0
269163,-125,4,2,1,80,0,0
269496,-125,4,2,1,70,0,0
269830,-125,4,2,1,60,0,0
270163,-125,4,2,1,70,0,0
270496,-83.3333333333333,4,2,1,90,0,0
274163,-71.4285714285714,4,2,1,90,0,0
274496,-83.3333333333333,4,2,1,90,0,0
285163,-83.3333333333333,4,2,1,95,0,0
286830,-83.3333333333333,4,2,1,80,0,0
287163,-111.111111111111,4,2,1,80,0,0
291163,-111.111111111111,4,2,1,70,0,0
291496,-111.111111111111,4,2,1,60,0,0
291830,-111.111111111111,4,2,1,80,0,0
294163,-111.111111111111,4,2,1,70,0,0
294830,-111.111111111111,4,2,1,75,0,0
295163,-99.9999999999999,4,2,1,75,0,0
295496,-99.9999999999999,4,2,1,80,0,0
295830,-90.9090909090909,4,2,1,80,0,0
296163,-90.9090909090909,4,2,1,70,0,0
296496,-90.9090909090909,4,2,1,80,0,0
297163,-83.3333333333333,4,2,1,85,0,0
302496,-83.3333333333333,4,2,1,90,0,0
307830,-83.3333333333333,4,2,1,80,0,0
310496,-83.3333333333333,4,2,1,5,0,0

[Colours]
Combo1 : 215,122,250
Combo2 : 255,128,128
Combo3 : 254,184,78
Combo4 : 255,255,128
Combo5 : 128,255,128
Combo6 : 128,255,255
Combo7 : 111,135,253

[HitObjects]
103,299,1407,6,0,B|137:245|159:190|159:190|145:133|107:80|107:80|169:102|228:100|228:100|272:65|316:16|316:16|312:79|334:139|334:139|382:172|440:196|440:196|378:222|330:250|330:250|312:306|310:369|310:369|269:317|222:281|222:281|162:283|100:303,1,1200,4|0,0:2|0:2,0:0:0:0:
224,125,5770,6,0,B|104:87|30:136|10:220|49:291|125:351|242:344|189:262|279:278|347:353|347:353|330:252|374:164|405:257|475:165|462:71|425:-1|341:-36|262:3|224:125|224:125,1,1120,4|0,0:2|0:2,0:0:0:0:
256,192,10134,5,4,0:2:0:0:
256,192,10270,12,2,11224,0:2:0:0:
256,192,11361,12,2,12316,0:2:0:0:
256,192,12452,12,2,13406,0:2:0:0:
256,192,13543,12,6,14497,0:1:0:0:
300,119,14830,6,0,P|327:140|340:173,1,59.9999981689454,2|0,2:2|2:2,0:0:0:0:
297,266,15163,2,0,P|265:279|230:274,1,59.9999981689454,2|0,0:2|0:2,0:0:0:0:
170,190,15496,2,0,P|175:156|197:128,1,59.9999981689454,2|0,0:2|0:2,0:0:0:0:
363,15,15830,6,0,P|278:77|214:52,1,179.999994506836,2|2,0:2|0:2,0:0:0:0:
297,159,16496,2,0,P|310:211|324:249,1,89.9999972534181,2|0,0:2|0:2,0:0:0:0:
261,323,17163,6,0,P|238:327|198:307,1,59.9999981689454,6|0,0:2|0:2,0:0:0:0:
133,372,17496,2,0,P|118:354|115:309,1,59.9999981689454,2|0,0:2|0:2,0:0:0:0:
92,136,17830,6,0,P|101:147|103:177,1,40,2|0,0:2|0:2,0:0:0:0:
173,205,18163,2,0,P|167:219|142:236,1,40,2|0,0:2|0:2,0:0:0:0:
11,275,18496,6,0,P|57:240|199:204,1,179.999994506836,2|2,0:2|0:2,0:0:0:0:
261,256,19163,2,0,P|248:282|253:253,1,80,2|0,0:2|0:2,0:0:0:0:
333,186,19663,5,0,1:2:0:0:
344,177,19746,1,0,1:2:0:0:
355,166,19830,2,0,P|368:134|371:106,1,59.9999981689454,6|0,1:2|0:2,0:0:0:0:
279,84,20163,2,0,P|266:116|263:144,1,59.9999981689454,2|0,2:2|0:2,0:0:0:0:
454,112,20496,6,0,P|435:57|407:30,1,80,2|0,1:2|0:2,0:0:0:0:
179,138,20830,2,0,P|197:192|226:220,1,80,2|0,2:2|0:2,0:0:0:0:
477,321,21163,6,0,B|393:293|411:371|316:356,1,160,2|0,1:2|0:2,0:0:0:0:
317,185,21663,1,2,0:2:0:0:
317,185,21830,2,0,P|329:236|346:271,1,80,2|0,1:2|0:2,0:0:0:0:
206,363,22330,1,0,0:2:0:0:
206,363,22413,1,0,0:2:0:0:
206,363,22496,1,6,1:2:0:0:
0,169,22830,5,0,1:2:0:0:
112,287,22996,1,0,1:2:0:0:
197,26,23163,5,0,1:2:0:0:
220,230,23330,1,0,1:2:0:0:
426,56,23496,6,0,P|420:87|412:110,1,40,8|8,0:2|0:2,0:0:0:0:
325,293,23663,2,0,P|331:262|339:239,1,40,8|8,0:2|0:2,0:0:0:0:
512,205,23830,5,4,1:2:0:0:
256,192,23913,12,0,24996,0:2:0:0:
59,79,25163,5,4,1:1:0:0:
182,280,25330,1,0,1:2:0:0:
182,280,25413,1,0,1:2:0:0:
182,280,25496,2,0,P|187:249|197:216,1,59.9999981689454,0|0,1:2|2:2,0:0:0:0:
350,109,25663,6,0,B|446:75|510:149|510:149|500:188|431:206,1,239.999992675781,8|0,0:2|1:2,0:0:0:0:
288,246,26163,2,0,P|275:191|242:110,1,119.999996337891,8|0,0:2|1:2,0:0:0:0:
292,39,26413,1,0,1:2:0:0:
292,39,26496,5,12,0:2:0:0:
152,141,26663,1,0,1:2:0:0:
368,235,26830,1,0,1:2:0:0:
165,27,26996,6,0,B|125:41|93:47|93:47|70:81|70:81|44:84|-26:110,1,179.999994506836,8|0,0:2|0:2,0:0:0:0:
14,6,27330,1,0,1:2:0:0:
152,141,27496,2,0,P|143:173|138:208,1,59.9999981689454,8|0,0:2|1:2,0:0:0:0:
80,346,27663,1,0,1:2:0:0:
80,346,27746,1,0,1:2:0:0:
80,346,27830,5,4,1:2:0:0:
42,177,27996,1,8,0:3:0:0:
259,241,28163,1,4,0:3:0:0:
189,384,28330,6,0,P|178:327|150:254,1,119.999996337891,8|0,0:2|1:2,0:0:0:0:
166,255,28580,1,0,1:2:0:0:
174,243,28663,1,0,1:2:0:0:
112,62,28830,2,0,P|155:98|239:94,1,119.999996337891,12|0,0:2|0:2,0:0:0:0:
240,83,29080,2,0,P|244:52|259:17,1,59.9999981689454,0|0,1:2|1:2,0:0:0:0:
419,228,29330,6,0,B|346:202|289:242|325:261|260:303|190:264,1,239.999992675781,12|0,0:2|1:2,0:0:0:0:
379,126,29830,1,0,1:2:0:0:
228,7,29996,1,8,0:2:0:0:
190,29,30080,1,8,0:2:0:0:
191,72,30163,2,0,P|212:119|218:140,1,59.9999981689454,8|8,0:3|1:3,0:0:0:0:
11,224,30330,5,4,1:3:0:0:
0,201,30413,1,4,1:3:0:0:
15,174,30496,2,0,B|95:158|95:158|144:217|144:217|264:263,1,239.999992675781,4|8,1:2|0:2,0:0:0:0:
382,182,30996,1,0,0:2:0:0:
352,374,31163,2,0,P|308:346|302:277,1,110.000003356934,0|0,1:2|1:2,0:0:0:0:
457,90,31496,2,0,P|501:118|507:187,1,110.000003356934,8|0,0:2|1:2,0:0:0:0:
450,236,31746,1,0,1:2:0:0:
450,236,31830,6,0,P|330:193|210:160,1,220.000006713867,4|8,1:2|0:2,0:0:0:0:
156,99,32330,1,0,0:2:0:0:
254,269,32496,5,0,1:2:0:0:
303,101,32663,1,0,1:2:0:0:
130,274,32830,1,8,0:2:0:0:
60,105,32996,1,0,1:2:0:0:
60,105,33080,1,0,1:2:0:0:
60,105,33163,6,0,P|143:111|151:193,1,165.000005035401,12|0,2:2|0:2,0:0:0:0:
98,252,33496,2,0,P|45:220|-13:201,1,110.000003356934,8|0,0:2|1:2,0:0:0:0:
294,255,33830,5,8,0:2:0:0:
153,367,33996,1,0,1:2:0:0:
284,143,34163,2,0,P|338:153|384:200,1,110.000003356934,8|0,0:2|1:2,0:0:0:0:
425,336,34496,5,8,0:2:0:0:
179,211,34663,1,0,1:2:0:0:
358,27,34830,1,0,1:2:0:0:
100,102,34996,5,8,0:2:0:0:
365,223,35163,1,0,0:2:0:0:
132,360,35330,2,0,P|145:329|153:295,1,55.0000016784668,0|0,1:2|0:2,0:0:0:0:
246,202,35496,1,0,1:2:0:0:
246,202,35580,1,0,1:2:0:0:
246,202,35663,2,0,P|234:171|226:132,1,55.0000016784668,0|0,1:2|1:2,0:0:0:0:
41,39,35830,6,0,P|20:115|76:161,1,139.999995727539,14|0,0:2|1:2,0:0:0:0:
246,75,36080,5,0,1:2:0:0:
254,59,36163,2,0,P|198:2|130:28,1,139.999995727539,10|0,0:2|1:2,0:0:0:0:
126,222,36413,5,0,1:2:0:0:
135,236,36496,2,0,P|212:216|223:144,1,139.999995727539,10|0,0:2|0:2,0:0:0:0:
507,125,36830,5,0,1:2:0:0:
501,142,36913,1,0,1:2:0:0:
493,158,36996,1,0,1:2:0:0:
485,175,37080,1,0,1:2:0:0:
478,194,37163,2,0,B|431:191|410:166|432:161|404:126|340:126,1,139.999995727539,10|0,0:2|1:2,0:0:0:0:
218,268,37413,5,0,1:2:0:0:
231,281,37496,2,0,B|277:278|299:253|277:248|305:213|369:213,1,139.999995727539,10|0,2:2|1:2,0:0:0:0:
497,356,37746,5,0,1:2:0:0:
484,369,37830,2,0,B|437:366|416:341|438:336|410:301|346:301,1,139.999995727539,10|0,0:2|0:2,0:0:0:0:
131,384,38163,5,0,1:2:0:0:
131,384,38246,1,0,1:2:0:0:
131,384,38330,2,0,P|139:345|157:296,1,69.9999978637696,0|0,1:2|1:2,0:0:0:0:
109,99,38496,5,14,0:2:0:0:
222,362,38663,1,0,1:2:0:0:
373,49,38830,1,10,0:2:0:0:
333,308,38996,1,0,1:2:0:0:
87,28,39163,5,10,0:2:0:0:
417,124,39330,1,0,1:2:0:0:
120,309,39496,1,10,0:2:0:0:
370,236,39663,1,0,1:2:0:0:
140,119,39830,5,10,0:2:0:0:
281,375,39996,1,0,1:2:0:0:
284,38,40163,1,10,0:2:0:0:
49,216,40330,1,0,1:2:0:0:
414,350,40496,5,14,0:2:0:0:
49,216,40830,5,8,0:3:0:0:
22,245,40941,5,4,0:3:0:0:
32,280,41052,5,0,1:2:0:0:
65,294,41163,6,0,P|259:212|477:160,1,419.999987182618,4|0,1:2|1:2,0:0:0:0:
473,142,42413,1,0,1:2:0:0:
460,125,42496,2,0,P|414:124|387:152,1,80,4|0,1:1|0:2,0:0:0:0:
228,94,42830,6,0,P|206:62|196:-3,1,80,2|0,1:2|0:2,0:0:0:0:
295,40,43163,2,0,P|313:73|255:177,1,160,2|2,1:2|1:2,0:0:0:0:
120,61,43663,1,2,0:2:0:0:
204,6,43830,1,2,1:2:0:0:
119,148,43996,6,0,P|84:136|24:122,1,80,2|0,0:2|1:2,0:0:0:0:
234,266,44330,2,0,P|269:254|329:240,1,80,2|0,0:2|1:2,0:0:0:0:
440,67,44663,1,2,0:2:0:0:
362,10,44830,2,0,P|310:70|335:122,1,120,2|0,1:2|0:2,0:0:0:0:
357,129,45163,6,0,P|396:235|433:309,1,160,0|2,1:2|1:2,0:0:0:0:
287,384,45663,1,2,0:2:0:0:
193,331,45830,2,0,P|195:289|224:254,1,80,2|2,1:2|0:2,0:0:0:0:
336,301,46163,2,0,P|333:342|304:377,1,80,2|2,1:2|0:2,0:0:0:0:
128,209,46496,5,2,1:2:0:0:
56,284,46663,2,0,P|78:325|95:367,1,80,2|0,0:2|1:2,0:0:0:0:
188,158,46996,2,0,P|156:134|103:135,1,80,2|0,0:2|1:2,0:0:0:0:
207,305,47330,2,0,P|246:301|277:277,1,80,2|0,0:2|1:2,0:0:0:0:
363,171,47663,1,2,0:2:0:0:
363,171,47746,1,2,0:2:0:0:
363,171,47830,2,0,P|343:135|328:99,1,80,6|0,1:2|0:2,0:0:0:0:
180,21,48163,5,2,1:2:0:0:
180,21,48330,1,2,0:2:0:0:
117,108,48496,2,0,P|137:151|151:197,1,80,2|0,1:2|0:2,0:0:0:0:
223,118,48830,5,2,1:2:0:0:
55,65,48996,1,0,0:2:0:0:
80,235,49163,2,0,P|128:265|174:261,1,80,2|0,1:2|0:2,0:0:0:0:
360,207,49496,5,2,1:2:0:0:
276,280,49663,1,2,0:2:0:0:
337,373,49830,1,2,1:2:0:0:
276,172,49996,5,2,0:2:0:0:
417,283,50163,1,2,1:2:0:0:
232,384,50330,1,2,0:2:0:0:
112,180,50496,6,0,B|116:124|151:87|161:108|198:72|193:1,1,179.999994506836,6|0,1:2|0:2,0:0:0:0:
285,205,50996,2,0,P|239:185|173:169,1,89.9999972534181,2|2,1:2|0:2,0:0:0:0:
98,28,51330,1,0,1:2:0:0:
274,93,51496,5,8,0:2:0:0:
45,216,51663,1,0,1:2:0:0:
238,265,51830,5,14,0:2:0:0:
133,120,51996,1,2,1:2:0:0:
163,377,52163,1,2,1:2:0:0:
401,266,52330,1,10,0:2:0:0:
401,266,52663,6,0,P|412:235|427:201,1,59.9999981689454,8|0,0:2|2:2,0:0:0:0:
242,141,52830,2,0,P|269:238|295:359,1,179.999994506836,12|0,0:2|0:2,0:0:0:0:
208,374,53163,6,0,P|166:350|147:296,1,100,6|0,1:1|0:2,0:0:0:0:
336,132,53496,2,0,P|336:180|298:223,1,100,10|0,0:2|0:2,0:0:0:0:
91,112,53830,1,2,1:2:0:0:
241,40,53996,1,2,1:2:0:0:
128,276,54163,2,0,P|80:249|6:236,1,100,10|0,0:0|0:0,0:0:0:0:
230,148,54496,5,2,1:2:0:0:
268,327,54663,1,2,1:2:0:0:
118,179,54830,2,0,P|143:135|160:81,1,100,8|2,0:2|0:2,0:0:0:0:
186,61,55080,2,0,P|174:39|169:11,1,50,0|0,1:2|1:2,0:0:0:0:
17,189,55330,1,2,1:2:0:0:
197,297,55496,2,0,B|247:298|273:263|255:258|283:225|358:228,1,150,10|0,0:2|0:2,0:0:0:0:
399,274,55830,6,0,P|411:198|449:96,1,150,4|0,1:2|0:2,0:0:0:0:
465,89,56163,2,0,P|433:48|362:51,1,100,10|0,0:2|0:2,0:0:0:0:
206,138,56496,1,2,1:2:0:0:
319,211,56663,1,2,1:2:0:0:
222,25,56830,5,10,0:2:0:0:
87,188,56996,2,0,P|107:238|120:299,1,100,2|0,1:2|0:2,0:0:0:0:
241,157,57330,1,2,1:2:0:0:
96,82,57496,1,8,0:2:0:0:
242,259,57663,2,0,P|294:247|334:197,1,100,2|0,0:2|1:2,0:0:0:0:
92,97,57996,2,0,P|40:109|0:159,1,100,2|8,1:2|0:2,0:0:0:0:
290,0,58330,1,2,1:2:0:0:
290,0,58413,1,2,1:2:0:0:
290,0,58496,6,0,P|345:96|457:66,1,200,6|10,1:2|0:2,0:0:0:0:
504,20,58996,1,2,1:2:0:0:
412,191,59163,2,0,P|437:257|450:302,1,100,2|0,1:2|0:2,0:0:0:0:
253,134,59496,6,0,P|206:124|146:103,1,100,10|2,0:2|1:2,0:0:0:0:
82,186,59746,1,2,1:2:0:0:
82,186,59830,2,0,P|129:196|189:217,1,100,2|0,1:2|0:2,0:0:0:0:
327,271,60163,1,10,0:2:0:0:
234,338,60330,1,2,2:2:0:0:
366,285,60496,1,2,1:2:0:0:
263,177,60663,5,2,1:2:0:0:
337,384,60830,1,10,0:2:0:0:
105,270,60996,1,2,1:2:0:0:
299,71,61163,6,0,P|351:88|409:119,1,100,14|0,0:2|0:2,0:0:0:0:
145,180,61496,1,0,1:2:0:0:
278,250,61663,2,0,B|286:188|250:140|234:172|194:128|195:60,1,200,14|0,0:2|1:2,0:0:0:0:
166,57,62080,2,0,P|179:21|183:-12,1,50,0|8,1:2|0:2,0:0:0:0:
299,71,62330,1,2,1:2:0:0:
169,241,62496,6,0,B|99:249|66:304|66:304|7:316|-12:245,1,200,14|10,2:2|0:2,0:0:0:0:
150,58,62996,1,2,1:2:0:0:
150,58,63330,5,8,0:3:0:0:
242,90,63496,1,4,0:3:0:0:
337,119,63663,1,0,1:2:0:0:
246,4,63830,5,12,0:2:0:0:
135,207,63996,1,8,0:2:0:0:
135,207,64330,5,2,1:2:0:0:
303,105,64496,1,10,0:2:0:0:
141,76,64663,1,2,1:2:0:0:
233,218,64830,2,0,P|276:230|333:257,1,100,10|0,0:2|0:2,0:0:0:0:
496,90,65163,6,0,P|484:67|479:40,1,50,14|0,0:2|0:2,0:0:0:0:
386,74,65330,2,0,P|397:96|402:123,1,50,10|0,0:2|0:2,0:0:0:0:
504,379,65663,5,2,1:2:0:0:
456,310,65830,1,10,0:2:0:0:
351,285,65997,1,2,1:2:0:0:
240,329,66163,1,10,0:2:0:0:
131,183,66330,5,2,1:2:0:0:
131,183,66413,1,2,1:2:0:0:
131,183,66496,2,0,P|145:156|153:120,1,50,14|0,0:2|0:2,0:0:0:0:
241,183,66663,2,0,P|226:209|218:245,1,50,10|0,0:2|0:2,0:0:0:0:
23,366,66996,5,2,1:2:0:0:
138,280,67163,1,10,0:2:0:0:
52,251,67330,1,2,1:2:0:0:
151,384,67496,1,10,0:2:0:0:
252,323,67663,1,2,1:2:0:0:
444,382,67830,5,14,0:2:0:0:
329,220,67996,2,0,P|348:164|366:87,1,100,10|0,0:2|1:2,0:0:0:0:
471,11,68330,6,0,P|475:36|494:75,1,59.9999981689454,2|8,1:2|0:2,0:0:0:0:
349,34,68663,2,0,B|288:38|256:90|291:98|256:148|186:151,1,200,2|0,1:2|1:2,0:0:0:0:
118,99,69080,1,0,1:2:0:0:
118,99,69163,6,0,P|105:55|89:22,1,80,6|0,1:2|0:2,0:0:0:0:
51,189,69496,2,0,P|82:213|136:208,1,80,10|0,0:2|0:2,0:0:0:0:
283,155,69830,2,0,P|266:191|256:230,1,80,2|0,1:2|1:2,0:0:0:0:
327,345,70163,2,0,P|296:369|257:370,1,80,10|0,0:2|0:2,0:0:0:0:
420,207,70496,6,0,B|468:245|522:253|522:253|492:260|463:284,1,160,2|8,1:2|0:2,0:0:0:0:
306,140,70996,1,2,0:2:0:0:
365,55,71163,2,0,P|399:39|456:21,1,80,2|0,1:2|1:2,0:0:0:0:
290,159,71496,1,8,0:2:0:0:
149,4,71663,1,0,1:2:0:0:
149,4,71746,1,0,1:2:0:0:
149,4,71830,5,14,1:2:0:0:
204,183,71996,1,0,1:2:0:0:
357,66,72163,5,10,1:2:0:0:
284,265,72330,1,0,1:2:0:0:
136,97,72496,5,10,1:2:0:0:
365,180,72663,1,0,1:2:0:0:
116,366,72830,5,10,1:2:0:0:
411,285,72996,1,0,1:2:0:0:
411,285,73080,1,0,1:2:0:0:
411,285,73163,5,14,1:2:0:0:
88,157,73330,1,8,0:3:0:0:
310,35,73496,1,4,0:3:0:0:
178,253,73663,1,8,0:2:0:0:
292,193,73830,5,0,1:2:0:0:
181,138,73996,1,8,0:3:0:0:
292,193,74163,1,4,1:3:0:0:
181,138,74329,1,8,1:2:0:0:
390,114,74496,6,0,P|407:185|440:267,1,139.999995727539,6|2,1:2|1:2,0:0:0:0:
353,320,74996,1,2,0:2:0:0:
353,320,75163,2,0,P|342:280|315:227,1,69.9999978637696,0|2,1:2|0:2,0:0:0:0:
365,144,75496,1,2,1:2:0:0:
226,247,75663,6,0,P|157:232|120:162,1,139.999995727539,8|0,0:2|1:2,0:0:0:0:
237,89,76163,2,0,P|221:119|207:163,1,69.9999978637696,0|0,1:2|0:2,0:0:0:0:
126,43,76496,5,2,1:2:0:0:
126,43,76663,1,0,0:2:0:0:
302,0,76830,2,0,P|316:47|335:76,1,69.9999978637696,2|0,1:2|1:2,0:0:0:0:
364,94,77080,1,0,1:2:0:0:
364,94,77163,6,0,P|424:65|500:50,1,139.999995727539,6|2,1:2|1:2,0:0:0:0:
512,207,77663,2,0,P|476:205|425:180,1,69.9999978637696,2|0,0:2|1:2,0:0:0:0:
291,348,77996,1,2,0:2:0:0:
390,384,78163,2,0,P|377:330|343:237,1,139.999995727539,2|0,1:2|1:2,0:0:0:0:
270,91,78663,5,0,1:2:0:0:
193,244,78830,2,0,P|240:226|278:221,1,69.9999978637696,8|0,1:3|0:2,0:0:0:0:
71,55,79163,5,4,1:3:0:0:
188,129,79330,1,0,0:2:0:0:
93,220,79496,1,0,1:2:0:0:
93,220,79830,6,0,P|57:214|13:194,1,69.9999978637696,6|0,1:2|1:2,0:0:0:0:
26,201,80080,1,0,1:2:0:0:
26,201,80163,1,0,1:2:0:0:
127,346,80330,1,8,0:2:0:0:
197,264,80496,2,0,P|237:252|278:248,1,69.9999978637696,0|0,1:2|0:2,0:0:0:0:
133,192,80830,5,2,1:2:0:0:
247,381,80996,1,8,0:2:0:0:
401,255,81163,6,0,P|385:291|368:345,1,69.9999978637696,2|0,1:2|0:2,0:0:0:0:
257,192,81496,2,0,P|273:228|290:282,1,69.9999978637696,2|0,1:2|0:2,0:0:0:0:
391,110,81830,2,0,P|375:146|358:200,1,69.9999978637696,2|0,1:2|0:2,0:0:0:0:
302,29,82163,1,2,1:2:0:0:
302,29,82496,6,0,P|244:77|177:67,1,139.999995727539,6|0,1:2|1:2,0:0:0:0:
58,116,82996,1,8,0:2:0:0:
114,0,83163,1,0,1:2:0:0:
114,0,83496,5,0,1:2:0:0:
197,121,83663,1,0,1:2:0:0:
47,145,83830,6,0,P|34:117|-3:83,1,59.9999981689454,2|0,1:2|0:2,0:0:0:0:
226,200,84163,6,0,P|259:202|310:186,1,69.9999978637696,2|8,1:2|0:3,0:0:0:0:
88,312,84496,6,0,P|68:339|57:391,1,80,2|4,1:2|0:3,0:0:0:0:
20,243,84830,5,2,1:2:0:0:
203,357,84996,1,0,1:2:0:0:
203,357,85080,1,0,1:2:0:0:
203,357,85163,6,0,B|266:361|297:319|280:310|312:268|382:278,1,179.999994506836,6|8,1:2|0:2,0:0:0:0:
469,311,85663,1,2,0:2:0:0:
382,126,85830,1,2,1:2:0:0:
491,165,85996,5,2,1:2:0:0:
347,252,86163,2,0,P|305:237|234:225,1,89.9999972534181,10|2,0:2|0:2,0:0:0:0:
156,112,86496,1,2,1:2:0:0:
258,73,86663,1,2,1:2:0:0:
144,288,86830,1,10,0:2:0:0:
25,235,86996,1,2,0:2:0:0:
109,65,87163,6,0,P|129:105|149:172,1,89.9999972534181,2|0,1:2|1:2,0:0:0:0:
8,0,87496,1,10,0:2:0:0:
8,0,87830,6,0,P|105:84|164:60,1,200,6|8,1:2|0:2,0:0:0:0:
320,204,88330,1,2,0:2:0:0:
223,234,88496,2,0,P|231:183|248:133,1,100,2|2,1:2|1:2,0:0:0:0:
364,26,88830,1,10,0:2:0:0:
509,206,88996,1,2,0:2:0:0:
248,260,89163,5,2,1:2:0:0:
430,163,89330,1,2,1:2:0:0:
282,112,89496,1,10,0:2:0:0:
375,353,89663,6,0,P|356:273|340:174,1,150,2|0,1:2|0:2,0:0:0:0:
360,173,89996,1,2,1:2:0:0:
451,273,90163,1,10,0:2:0:0:
295,384,90330,1,2,1:2:0:0:
201,264,90496,6,0,P|215:220|231:153,1,100,14|0,0:2|0:2,0:0:0:0:
344,33,90830,1,2,1:2:0:0:
171,109,90996,2,0,B|102:90|102:90|74:48|74:48|-18:17,1,200,10|2,0:2|1:2,0:0:0:0:
196,0,91496,1,10,0:2:0:0:
35,174,91663,1,2,1:2:0:0:
241,339,91830,6,0,P|291:315|354:298,1,100,14|0,2:2|0:2,0:0:0:0:
260,108,92163,1,2,1:2:0:0:
19,196,92330,2,0,B|70:174|130:211|109:231|160:263|231:232,1,200,10|0,0:2|1:2,0:0:0:0:
158,133,92830,5,10,0:2:0:0:
78,305,92996,1,2,1:2:0:0:
89,76,93163,5,10,1:2:0:0:
174,350,93330,1,2,1:2:0:0:
204,57,93496,5,10,1:2:0:0:
0,271,93663,1,2,1:2:0:0:
290,226,93830,5,10,1:2:0:0:
1,129,93996,1,2,1:2:0:0:
158,378,94163,2,0,P|166:346|181:313,1,50,10|0,1:2|0:2,0:0:0:0:
294,133,94330,6,0,B|269:68|211:66|211:66|173:106|222:172,1,179.999994506836,6|0,1:2|0:2,0:0:0:0:
336,222,94663,6,0,B|404:232|435:183|435:183|419:130|338:140,1,179.999994506836,6|0,1:2|0:2,0:0:0:0:
243,216,94996,6,0,B|199:270|226:321|226:321|280:334|312:258,1,179.999994506836,6|0,1:2|0:2,0:0:0:0:
336,222,95330,5,6,1:2:0:0:
83,137,95496,1,0,1:2:0:0:
99,130,95580,1,0,1:2:0:0:
115,123,95663,1,0,1:2:0:0:
131,116,95746,1,0,1:2:0:0:
147,109,95830,5,8,1:2:0:0:
86,238,95996,1,0,2:2:0:0:
162,103,96163,5,8,1:2:0:0:
244,261,96330,1,0,2:2:0:0:
352,92,96496,5,8,1:2:0:0:
245,281,96663,1,0,1:2:0:0:
355,72,96830,5,8,1:2:0:0:
443,321,96996,1,0,1:2:0:0:
135,199,97163,5,8,1:3:0:0:
93,264,97274,6,0,L|172:234,1,79.9999975585938,0|0,1:2|1:2,0:0:0:0:
419,135,97496,5,4,1:3:0:0:
443,170,97607,6,0,L|362:142,1,73.3333355712891,0|0,1:2|1:2,0:0:0:0:
184,17,97830,5,8,1:2:0:0:
289,355,97996,1,0,1:2:0:0:
311,81,98163,5,8,1:2:0:0:
176,292,98330,1,0,1:2:0:0:
176,292,98413,1,0,1:2:0:0:
176,292,98496,5,6,1:1:0:0:
88,145,98663,1,2,2:2:0:0:
376,22,98830,1,10,0:2:0:0:
321,210,98996,1,2,0:2:0:0:
171,53,99163,2,0,P|231:77|313:104,1,119.999996337891,2|0,1:2|1:2,0:0:0:0:
461,311,99496,2,0,P|387:372|302:333,1,179.999994506836,10|0,0:2|0:2,0:0:0:0:
182,291,99830,6,0,B|264:297|298:237|265:225|302:161|386:174,1,239.999992675781,6|8,1:2|0:2,0:0:0:0:
338,18,100330,1,2,0:2:0:0:
500,192,100496,2,0,P|478:248|468:320,1,119.999996337891,2|0,1:2|1:2,0:0:0:0:
290,95,100830,1,8,0:2:0:0:
202,207,100996,1,2,1:2:0:0:
202,207,101080,1,2,1:2:0:0:
202,207,101163,6,0,B|254:218|254:218|271:239|271:239|330:254,1,119.999996337891,6|0,1:2|0:2,0:0:0:0:
459,107,101496,2,0,B|414:118|414:118|401:136|401:136|332:156,1,119.999996337891,10|0,0:2|0:2,0:0:0:0:
176,310,101830,5,2,1:2:0:0:
43,187,101996,1,2,1:2:0:0:
43,187,102080,1,2,1:2:0:0:
43,187,102163,2,0,P|32:253|5:323,1,119.999996337891,10|0,0:2|0:2,0:0:0:0:
212,18,102496,6,0,P|166:117|42:67,1,239.999992675781,6|8,1:2|0:2,0:0:0:0:
233,237,102996,1,2,1:2:0:0:
233,237,103080,1,2,1:2:0:0:
233,237,103163,2,0,P|296:210|354:197,1,119.999996337891,2|0,1:2|1:2,0:0:0:0:
473,70,103496,2,0,P|415:55|361:31,1,119.999996337891,8|2,0:2|0:2,0:0:0:0:
197,115,103830,5,2,1:2:0:0:
418,253,103996,1,2,1:2:0:0:
199,333,104163,1,10,0:2:0:0:
403,384,104330,6,0,P|342:353|283:335,1,119.999996337891,2|0,1:2|2:2,0:0:0:0:
123,185,104663,2,0,B|185:165|185:165|199:131|199:131|312:94,1,179.999994506836,2|0,1:2|0:2,0:0:0:0:
349,140,104996,5,2,0:2:0:0:
176,37,105163,1,2,1:2:0:0:
394,0,105330,1,2,1:2:0:0:
310,254,105496,1,10,0:2:0:0:
113,94,105663,6,0,P|56:70|-12:54,1,119.999996337891,2|0,1:2|2:2,0:0:0:0:
19,304,105996,2,0,P|80:287|148:254,1,119.999996337891,2|8,1:2|0:2,0:0:0:0:
272,379,106330,1,2,1:2:0:0:
272,379,106413,1,2,1:2:0:0:
272,379,106496,5,14,1:2:0:0:
366,94,106663,1,0,1:2:0:0:
412,335,106830,5,10,1:2:0:0:
289,31,106996,1,0,1:2:0:0:
209,258,107163,5,10,1:2:0:0:
449,89,107330,1,0,1:2:0:0:
504,355,107496,5,10,1:2:0:0:
230,171,107663,1,0,1:2:0:0:
69,384,107830,5,14,1:2:0:0:
297,252,107996,1,10,2:2:0:0:
297,252,108080,1,10,2:2:0:0:
297,252,108163,2,0,L|329:126,1,119.999996337891,10|0,2:2|1:2,0:0:0:0:
254,72,108413,1,0,1:2:0:0:
230,59,108496,2,0,P|196:73|158:78,1,59.9999981689454,8|0,1:2|1:2,0:0:0:0:
57,256,108663,2,0,P|87:262|114:274,1,59.9999981689454,0|0,1:2|1:2,0:0:0:0:
275,384,108830,5,8,1:2:0:0:
304,345,108913,1,8,1:2:0:0:
344,317,108996,1,8,1:2:0:0:
392,309,109080,1,8,1:2:0:0:
441,317,109163,5,6,1:1:0:0:
383,159,109330,1,2,1:2:0:0:
205,338,109496,5,10,1:2:0:0:
269,130,109663,1,2,1:2:0:0:
361,278,109830,5,10,1:2:0:0:
163,137,109996,1,0,1:2:0:0:
405,48,110163,5,10,1:2:0:0:
193,247,110330,1,2,1:2:0:0:
193,247,110413,1,2,1:2:0:0:
193,247,110496,6,0,P|136:224|66:209,1,119.999996337891,14|0,1:2|1:2,0:0:0:0:
386,158,110830,2,0,P|439:148|527:120,1,119.999996337891,8|2,0:2|1:2,0:0:0:0:
241,354,111163,5,10,1:2:0:0:
168,140,111330,1,0,1:2:0:0:
400,276,111496,5,8,1:2:0:0:
466,94,111663,1,2,1:2:0:0:
263,101,111830,5,14,1:2:0:0:
492,227,111996,1,0,1:2:0:0:
263,355,112163,5,10,1:2:0:0:
468,236,112330,1,0,1:2:0:0:
227,229,112496,5,10,1:2:0:0:
426,349,112663,1,0,1:2:0:0:
197,216,112830,5,10,1:2:0:0:
464,92,112996,1,0,1:2:0:0:
330,305,113163,5,14,1:2:0:0:
211,13,113330,1,0,1:2:0:0:
85,313,113496,5,10,1:2:0:0:
181,100,113663,1,0,1:2:0:0:
229,253,113830,5,10,1:2:0:0:
33,158,113996,1,0,1:2:0:0:
254,242,114163,5,10,1:2:0:0:
13,355,114330,1,0,1:2:0:0:
13,355,114413,1,0,1:2:0:0:
13,355,114496,6,0,P|35:284|185:301,1,239.999992675781,14|10,1:2|1:2,0:0:0:0:
368,170,114996,1,0,1:2:0:0:
259,27,115163,2,0,P|215:79|212:159,1,119.999996337891,14|0,1:2|1:2,0:0:0:0:
500,312,115496,2,0,P|493:253|450:207,1,119.999996337891,8|2,1:2|1:2,0:0:0:0:
373,167,115746,1,2,1:2:0:0:
373,167,115830,6,0,P|323:191|253:208,1,119.999996337891,14|0,1:2|1:2,0:0:0:0:
65,284,116163,1,10,1:2:0:0:
262,384,116330,1,0,1:2:0:0:
65,284,116496,2,0,P|86:218|98:154,1,119.999996337891,14|0,1:2|0:2,0:0:0:0:
228,74,116830,5,10,1:2:0:0:
339,235,116996,1,2,1:2:0:0:
128,378,117163,1,14,1:2:0:0:
128,378,117496,5,8,1:2:0:0:
204,162,117663,1,8,1:2:0:0:
352,268,117830,5,8,1:2:0:0:
222,75,117996,1,8,1:2:0:0:
110,272,118163,5,8,1:2:0:0:
319,76,118330,1,8,1:2:0:0:
27,106,118496,5,6,1:2:0:0:
259,365,118663,1,10,0:2:0:0:
259,365,118746,1,10,0:2:0:0:
259,365,118830,1,10,0:2:0:0:
223,153,118996,2,0,P|209:188|197:243,1,59.9999981689454,6|0,1:2|0:2,0:0:0:0:
110,272,119163,5,8,1:3:0:0:
312,211,119330,1,8,1:3:0:0:
122,129,119496,1,4,1:3:0:0:
332,207,119663,1,4,1:3:0:0:
72,317,119830,5,4,1:1:0:0:
72,317,120163,2,0,P|83:345|83:379,2,53.3333333333333,10|10|10,0:2|0:2|0:2,0:0:0:0:
0,275,120496,6,0,P|47:238|107:239,1,106.666666666667,10|0,0:2|0:2,0:0:0:0:
252,100,120830,5,10,0:2:0:0:
242,67,120941,5,10,0:2:0:0:
217,52,121052,5,10,0:2:0:0:
166,133,121163,6,0,P|207:181|314:172,1,160,6|0,1:2|1:2,0:0:0:0:
417,55,121663,5,2,1:2:0:0:
417,55,121746,1,2,1:2:0:0:
417,55,121830,2,0,P|431:133|465:228,1,160,10|0,2:2|1:2,0:0:0:0:
282,295,122496,6,0,P|299:238|312:183,1,106.666666666667,6|0,1:2|0:2,0:0:0:0:
221,79,122830,5,10,0:2:0:0:
214,44,122941,5,10,0:2:0:0:
238,13,123052,5,10,0:2:0:0:
301,65,123163,6,0,B|238:81|238:81|219:106|219:106|144:127,1,160,10|2,0:2|1:2,0:0:0:0:
34,175,123663,5,2,1:2:0:0:
34,175,123746,1,2,1:2:0:0:
34,175,123830,2,0,P|70:205|115:209,1,80,6|0,1:2|0:2,0:0:0:0:
126,9,124163,2,0,P|82:25|56:62,1,80,2|0,1:2|0:2,0:0:0:0:
212,162,124496,5,12,0:2:0:0:
284,163,124608,5,8,1:3:0:0:
327,112,124719,5,8,1:3:0:0:
356,66,124830,5,4,1:3:0:0:
396,58,124941,5,4,1:3:0:0:
424,72,125052,5,4,1:3:0:0:
475,127,125163,6,0,P|470:178|439:212,1,80,6|0,1:2|0:2,0:0:0:0:
297,45,125496,2,0,P|328:77|337:131,1,80,2|0,1:2|0:2,0:0:0:0:
192,187,125830,2,0,P|241:188|276:232,1,80,10|0,0:2|0:2,0:0:0:0:
206,325,126163,5,10,0:2:0:0:
188,294,126274,5,10,0:2:0:0:
201,264,126385,5,10,0:2:0:0:
288,324,126496,6,0,B|236:312|202:343|218:353|188:382|118:375,1,160,6|0,1:2|0:2,0:0:0:0:
0,205,126996,1,2,1:2:0:0:
188,127,127163,2,0,P|156:214|140:300,1,160,10|0,0:2|0:2,0:0:0:0:
48,71,127663,5,0,1:2:0:0:
48,71,127746,1,0,1:2:0:0:
48,71,127830,1,6,1:2:0:0:
156,0,127996,1,0,1:2:0:0:
291,176,128163,5,10,1:2:0:0:
169,121,128330,1,8,1:2:0:0:
91,365,128496,5,10,1:2:0:0:
344,260,128663,1,8,1:2:0:0:
36,190,128830,5,10,1:2:0:0:
240,354,128996,1,8,1:2:0:0:
354,50,129163,5,6,1:2:0:0:
110,40,130330,5,0,1:2:0:0:
110,40,130413,1,0,1:2:0:0:
110,40,130496,2,0,P|140:100|164:160,1,119.999996337891,4|0,1:1|0:2,0:0:0:0:
175,344,130830,1,0,1:2:0:0:
394,227,130996,2,0,B|348:142|248:157|248:157|248:196|201:231,1,239.999992675781,8|0,0:2|1:2,0:0:0:0:
306,355,131496,2,0,P|354:320|423:312,1,119.999996337891,8|0,0:2|1:2,0:0:0:0:
490,172,131830,5,12,2:2:0:0:
299,28,131996,1,0,1:2:0:0:
512,152,132163,1,0,1:2:0:0:
292,279,132330,6,0,B|235:285|199:242|223:237|184:192|114:202,1,179.999994506836,8|0,2:2|0:2,0:0:0:0:
77,261,132663,2,0,L|40:183,1,59.9999981689454,0|0,1:2|0:2,0:0:0:0:
313,64,132830,2,0,P|294:126|285:193,1,119.999996337891,8|0,2:2|1:2,0:0:0:0:
285,180,133080,1,0,1:2:0:0:
285,180,133163,5,12,1:2:0:0:
85,88,133330,1,8,1:3:0:0:
254,0,133496,1,4,1:3:0:0:
95,178,133663,6,0,P|23:157|18:34,1,179.999994506836,8|0,0:2|0:2,0:0:0:0:
65,8,133996,1,0,1:2:0:0:
234,138,134163,2,0,P|283:107|357:90,1,119.999996337891,12|0,0:2|0:2,0:0:0:0:
390,101,134413,2,0,P|398:69|415:34,1,59.9999981689454,0|0,1:2|1:2,0:0:0:0:
309,253,134663,6,0,B|357:306|358:376|358:376|404:334|487:334,1,239.999992675781,12|0,0:2|1:2,0:0:0:0:
438,167,135163,1,0,1:2:0:0:
203,332,135330,5,8,0:2:0:0:
151,343,135413,1,8,0:2:0:0:
113,308,135496,2,0,P|105:279|120:227,1,59.9999981689454,8|8,0:3|2:3,0:0:0:0:
280,71,135663,5,4,1:3:0:0:
298,109,135746,1,4,1:3:0:0:
277,140,135830,2,0,P|182:139|151:-7,1,239.999992675781,4|8,1:2|0:2,0:0:0:0:
0,141,136330,1,0,0:2:0:0:
96,212,136496,2,0,P|131:194|227:168,1,100,0|0,1:2|1:2,0:0:0:0:
302,20,136830,1,8,0:2:0:0:
451,178,136996,1,0,1:2:0:0:
451,178,137080,1,0,1:2:0:0:
451,178,137163,6,0,B|413:191|367:199|367:199|348:235|348:235|304:246|256:275,1,200,4|8,1:2|0:2,0:0:0:0:
83,208,137663,1,0,0:2:0:0:
226,329,137830,1,0,1:2:0:0:
73,384,137996,1,0,1:2:0:0:
219,173,138163,1,8,0:2:0:0:
13,69,138330,1,0,1:2:0:0:
13,69,138413,1,0,1:2:0:0:
13,69,138496,6,0,P|36:144|53:239,1,150,12|0,0:2|0:2,0:0:0:0:
16,285,138830,2,0,P|65:264|125:258,1,100,8|0,0:2|1:2,0:0:0:0:
296,173,139163,1,8,0:2:0:0:
144,108,139330,1,0,1:2:0:0:
268,347,139496,2,0,P|333:322|375:318,1,100,8|0,0:2|1:2,0:0:0:0:
508,134,139830,5,12,0:2:0:0:
252,0,139996,1,0,1:2:0:0:
276,259,140163,1,0,1:2:0:0:
488,108,140330,5,12,0:2:0:0:
179,111,140496,1,0,1:2:0:0:
271,384,140663,1,0,1:2:0:0:
493,277,140830,5,0,1:2:0:0:
351,215,140996,1,0,1:2:0:0:
72,47,142496,6,0,P|49:85|76:157,2,119.999996337891,2|2|2,0:2|0:2|0:2,0:0:0:0:
173,27,143330,1,2,0:2:0:0:
202,118,143496,1,2,0:2:0:0:
202,118,143663,1,2,0:2:0:0:
310,24,143830,5,2,0:2:0:0:
381,92,143996,2,0,B|452:85|425:55|496:45,1,119.999996337891,2|2,0:2|0:2,0:0:0:0:
211,1,144663,1,2,0:2:0:0:
211,1,144996,1,2,0:2:0:0:
179,153,145163,2,0,P|193:186|205:234,1,59.9999981689454,2|0,0:2|0:2,0:0:0:0:
376,348,145496,6,0,P|395:315|395:286,1,59.9999981689454,2|0,0:2|0:2,0:0:0:0:
306,256,145830,2,0,P|287:289|287:318,1,59.9999981689454,2|0,0:2|0:2,0:0:0:0:
209,375,146163,1,2,0:2:0:0:
209,375,146330,1,2,0:2:0:0:
59,289,146496,5,2,0:2:0:0:
127,227,146663,2,0,P|153:238|194:249,1,59.9999981689454,2|0,0:2|0:2,0:0:0:0:
285,310,146996,2,0,P|263:228|255:173,2,119.999996337891,2|2|2,0:2|0:2|0:2,0:0:0:0:
314,340,147746,1,2,0:2:0:0:
314,340,147830,2,0,P|358:323|396:324,1,59.9999981689454,2|0,0:2|0:2,0:0:0:0:
475,360,148163,5,2,0:2:0:0:
512,284,148330,1,2,0:2:0:0:
456,220,148496,1,2,0:2:0:0:
243,173,148830,6,0,P|277:181|318:199,1,59.9999981689454,2|0,0:2|0:2,0:0:0:0:
372,245,149163,1,2,0:2:0:0:
135,264,149496,5,2,0:2:0:0:
70,224,149663,1,2,0:2:0:0:
91,152,149830,1,2,0:2:0:0:
245,2,149996,5,2,0:2:0:0:
312,55,150163,1,2,0:2:0:0:
190,110,150330,1,2,0:2:0:0:
319,187,150496,6,0,P|256:176|207:234,1,119.999996337891,2|0,0:2|0:2,0:0:0:0:
353,349,150996,1,2,0:2:0:0:
364,350,151163,2,0,P|405:300|379:229,1,119.999996337891,2|0,0:2|0:2,0:0:0:0:
187,229,151663,1,0,1:2:0:0:
187,229,151746,1,0,1:2:0:0:
187,229,151830,5,8,2:2:0:0:
265,350,151996,1,8,1:3:0:0:
240,126,152163,1,4,1:3:0:0:
53,238,152330,1,8,2:2:0:0:
53,238,152663,6,0,P|81:243|116:271,1,50,8|0,0:2|0:2,0:0:0:0:
195,336,152830,1,0,1:2:0:0:
243,322,152913,1,0,1:2:0:0:
291,308,152996,1,0,1:2:0:0:
339,294,153080,1,0,1:2:0:0:
387,281,153163,6,0,P|391:256|405:216,1,50,12|0,0:2|0:2,0:0:0:0:
465,82,153330,1,8,0:2:0:0:
220,133,153663,6,0,P|246:195|249:207,1,59.9999981689454,2|2,1:2|0:2,0:0:0:0:
219,0,153996,2,0,P|173:51|118:45,1,119.999996337891,2|2,1:2|1:2,0:0:0:0:
56,218,154496,6,0,P|80:203|135:189,1,50,14|0,0:2|0:2,0:0:0:0:
296,199,154663,1,10,0:2:0:0:
296,199,154996,5,8,1:3:0:0:
296,199,155330,1,4,1:3:0:0:
237,321,155496,2,0,P|250:350|258:375,1,59.9999981689454,0|0,1:2|0:2,0:0:0:0:
451,226,155830,6,0,P|423:220|379:200,1,50,14|0,0:2|0:2,0:0:0:0:
196,103,155996,1,10,0:2:0:0:
196,103,156330,5,0,1:2:0:0:
196,103,156413,1,0,1:2:0:0:
196,103,156496,2,0,P|184:167|51:180,1,200,12|0,2:2|1:2,0:0:0:0:
131,43,156996,1,0,1:2:0:0:
303,186,157163,6,0,P|326:175|364:168,1,50,12|0,0:2|0:2,0:0:0:0:
495,115,157330,2,0,B|449:118|426:88|439:81|408:44|354:49,1,150,0|0,1:2|0:2,0:0:0:0:
285,95,157663,6,0,P|271:43|245:-27,1,100,12|0,0:2|0:2,0:0:0:0:
491,9,157996,1,8,0:2:0:0:
468,53,158079,1,8,0:2:0:0:
447,99,158162,1,8,0:2:0:0:
430,145,158246,1,8,0:2:0:0:
414,193,158329,1,8,0:2:0:0:
402,241,158412,1,8,0:2:0:0:
391,290,158496,6,0,P|339:299|285:321,1,80,6|0,1:2|0:2,0:0:0:0:
173,179,158830,2,0,P|211:190|250:196,1,80,10|0,0:2|0:2,0:0:0:0:
338,144,159163,6,0,P|356:88|337:54,1,80,2|0,1:2|1:2,0:0:0:0:
84,190,159496,2,0,P|77:228|95:263,1,80,10|0,0:2|0:2,0:0:0:0:
246,370,159830,6,0,P|189:307|95:306,1,160,6|8,1:2|0:2,0:0:0:0:
1,384,160330,1,2,0:2:0:0:
107,262,160496,2,0,P|91:228|70:157,1,80,2|0,1:2|1:2,0:0:0:0:
44,54,160830,1,8,0:2:0:0:
5,252,160996,1,0,1:2:0:0:
5,252,161080,1,0,1:2:0:0:
5,252,161163,5,6,1:2:0:0:
131,100,161330,1,0,0:2:0:0:
216,360,161496,5,10,1:2:0:0:
157,206,161663,1,0,1:2:0:0:
457,108,161830,5,10,1:2:0:0:
403,271,161996,1,0,1:2:0:0:
235,63,162163,5,10,1:2:0:0:
309,318,162330,1,0,1:2:0:0:
333,17,162496,5,14,1:2:0:0:
122,195,162663,1,8,1:3:0:0:
363,264,162830,1,4,1:3:0:0:
271,139,162996,1,8,0:2:0:0:
155,313,163163,5,8,1:3:0:0:
277,261,163330,1,4,1:3:0:0:
357,182,163496,5,0,1:2:0:0:
462,206,163663,1,0,1:2:0:0:
504,355,163830,6,0,P|474:332|430:329,1,79.9999975585938,4|0,0:2|0:2,0:0:0:0:
352,286,164163,2,0,P|342:267|330:226,2,39.9999987792969,2|2|2,3:2|3:2|3:2,0:0:0:0:
314,368,164496,2,0,P|263:363|237:328,1,79.9999975585938,2|0,3:2|0:2,0:0:0:0:
214,258,164830,2,0,P|226:237|231:216,1,39.9999987792969,2|2,3:2|3:2,0:0:0:0:
134,311,165052,1,2,3:2:0:0:
147,325,165163,2,0,P|97:335|65:379,1,79.9999975585938,2|0,3:2|0:2,0:0:0:0:
0,310,165496,2,0,P|-3:288|10:253,2,39.9999987792969,2|2|2,3:2|3:2|3:2,0:0:0:0:
76,236,165830,5,2,3:2:0:0:
75,216,165941,1,2,3:2:0:0:
85,198,166052,1,2,3:2:0:0:
31,143,166163,5,2,3:2:0:0:
24,113,166274,1,2,3:2:0:0:
8,90,166385,1,2,3:2:0:0:
48,25,166496,6,0,P|103:32|135:71,1,79.9999975585938,4|0,3:2|0:2,0:0:0:0:
176,125,166830,2,0,P|170:150|172:182,2,39.9999987792969,2|2|2,3:2|3:2|3:2,0:0:0:0:
227,49,167163,2,0,P|262:41|319:17,1,79.9999975585938,2|0,3:2|0:2,0:0:0:0:
378,77,167496,2,0,P|411:77|441:92,1,39.9999987792969,2|2,3:2|3:2,0:0:0:0:
466,2,167719,1,2,3:2:0:0:
480,8,167830,2,0,P|506:43|512:90,1,79.9999975585938,2|0,3:2|0:2,0:0:0:0:
458,157,168163,2,0,P|469:174|479:210,2,39.9999987792969,2|2|2,3:2|3:2|3:2,0:0:0:0:
379,226,168496,6,0,P|357:218|311:212,1,39.9999987792969,2|2,3:2|3:2,0:0:0:0:
265,331,168719,1,2,3:2:0:0:
291,339,168830,2,0,P|316:328|340:313,1,39.9999987792969,2|2,3:2|3:2,0:0:0:0:
190,211,169052,5,2,3:2:0:0:
155,232,169163,2,0,P|100:206|21:191,2,129.999994049073,6|0|0,3:2|3:2|3:2,0:0:0:0:
155,232,170163,2,0,P|186:216|221:205,1,64.9999970245363,2|0,3:2|0:2,0:0:0:0:
392,310,170496,6,0,P|387:356|365:386,1,64.9999970245363,2|0,3:2|0:2,0:0:0:0:
283,344,170830,2,0,P|287:306|305:281,1,55.0000016784668,2|0,3:2|0:2,0:0:0:0:
505,117,171163,6,0,P|500:71|478:41,1,69.9999978637696,2|0,3:2|0:2,0:0:0:0:
391,79,171497,2,0,P|396:125|418:155,1,59.9999981689454,2|0,3:2|0:2,0:0:0:0:
489,268,171830,5,6,3:2:0:0:
118,179,172163,2,0,L|48:160,2,53.3333333333333,2|2|2,3:2|3:2|3:2,0:0:0:0:
199,200,172496,5,2,3:2:0:0:
294,332,172830,1,0,3:2:0:0:
294,332,173163,5,12,0:2:0:0:
459,179,173330,2,0,B|468:114|497:61|497:61|478:80|432:90,1,179.999994506836,8|0,1:3|0:2,0:0:0:0:
331,149,173663,2,0,P|291:130|194:102,1,119.999996337891,4|0,1:3|0:2,0:0:0:0:
0,68,173996,5,8,2:2:0:0:
35,61,174080,1,8,2:2:0:0:
69,82,174163,1,8,0:2:0:0:
84,128,174246,1,8,0:2:0:0:
61,173,174330,1,8,0:2:0:0:
77,224,174413,1,8,0:2:0:0:
131,244,174496,6,0,P|244:191|338:171,1,200,6|8,1:2|0:2,0:0:0:0:
381,0,174996,1,2,0:2:0:0:
241,82,175163,2,0,P|192:61|119:47,1,100,2|2,1:2|1:2,0:0:0:0:
378,248,175496,2,0,P|402:217|398:133,1,100,10|2,0:2|0:2,0:0:0:0:
279,0,175830,5,2,1:2:0:0:
212,190,175996,1,2,0:2:0:0:
370,139,176163,1,10,0:2:0:0:
354,132,176330,1,2,0:2:0:0:
460,82,176496,5,2,1:2:0:0:
301,215,176663,1,0,1:2:0:0:
479,338,176830,1,10,0:2:0:0:
282,179,177163,6,0,B|217:180|183:128|183:128|110:157|146:243,1,220.000006713867,6|8,1:2|0:2,0:0:0:0:
227,382,177663,1,2,0:2:0:0:
286,255,177830,1,2,1:2:0:0:
118,363,177996,1,2,1:2:0:0:
2,236,178163,2,0,P|24:184|35:128,1,110.000003356934,10|2,0:2|0:2,0:0:0:0:
0,0,178496,5,2,1:2:0:0:
124,90,178663,1,2,0:2:0:0:
293,27,178830,1,8,0:2:0:0:
465,160,178996,2,0,P|384:131|413:14,1,220.000006713867,2|2,1:2|1:2,0:0:0:0:
275,181,179496,1,10,0:2:0:0:
275,181,179663,1,2,1:2:0:0:
445,320,179830,6,0,P|388:282|327:281,1,110.000003356934,6|0,1:2|0:2,0:0:0:0:
216,381,180163,1,10,0:2:0:0:
105,179,180330,2,0,B|125:153|127:115|127:115|131:198|208:249,1,220.000006713867,2|2,1:2|1:2,0:0:0:0:
29,232,180830,1,10,0:2:0:0:
236,129,180996,1,2,1:2:0:0:
17,44,181163,6,0,P|64:81|121:83,1,110.000003356934,6|0,1:2|0:2,0:0:0:0:
291,5,181496,1,10,0:2:0:0:
442,171,181663,2,0,B|475:158|485:119|485:119|401:67|340:152,1,220.000006713867,2|0,1:2|1:2,0:0:0:0:
217,366,182163,1,10,0:2:0:0:
268,204,182330,1,2,1:2:0:0:
133,317,182496,5,10,1:2:0:0:
313,381,182663,1,2,1:2:0:0:
98,239,182830,5,10,1:2:0:0:
361,157,182996,1,2,1:2:0:0:
85,105,183163,5,10,1:2:0:0:
395,280,183330,1,2,1:2:0:0:
278,32,183496,1,2,1:2:0:0:
23,221,183663,6,0,B|28:298|106:314|106:314|132:278|172:271,1,194.999991073609,6|0,1:2|0:2,0:0:0:0:
201,72,183996,6,0,B|131:37|78:97|78:97|97:137|83:176,1,194.999991073609,6|0,1:2|0:2,0:0:0:0:
243,300,184330,6,0,B|307:257|282:181|282:181|237:177|211:145,1,194.999991073609,6|0,1:2|0:2,0:0:0:0:
23,221,184663,6,0,P|65:233|116:255,1,64.9999970245363,14|0,1:2|0:2,0:0:0:0:
281,94,184830,1,2,1:2:0:0:
365,366,185163,5,8,1:2:0:0:
235,309,185330,1,0,0:2:0:0:
392,209,185496,5,8,1:2:0:0:
217,301,185663,1,0,0:2:0:0:
95,52,185830,5,8,1:2:0:0:
277,122,185996,1,0,0:2:0:0:
55,241,186163,5,8,1:2:0:0:
291,127,186330,1,0,0:2:0:0:
124,308,186496,5,8,1:3:0:0:
151,377,186608,6,0,L|185:275,1,86.6666626993817,0|0,1:2|1:2,0:0:0:0:
345,73,186830,5,4,1:3:0:0:
309,56,186942,6,0,L|342:148,1,73.3333355712891,0|0,1:2|1:2,0:0:0:0:
478,310,187163,5,0,1:2:0:0:
456,342,187246,1,0,1:2:0:0:
412,351,187329,1,0,1:2:0:0:
365,335,187413,1,0,1:2:0:0:
322,291,187496,1,8,0:2:0:0:
300,234,187579,1,8,0:2:0:0:
259,185,187663,1,8,0:2:0:0:
193,166,187746,1,8,0:2:0:0:
128,198,187829,5,6,1:1:0:0:
312,48,187996,1,2,1:2:0:0:
85,22,188163,1,10,0:2:0:0:
206,270,188330,1,2,0:2:0:0:
392,89,188496,2,0,L|526:53,1,119.999996337891,2|0,1:2|0:2,0:0:0:0:
375,187,188830,2,0,B|310:161|310:161|296:123|296:123|207:93,1,179.999994506836,10|0,0:2|0:2,0:0:0:0:
148,34,189163,6,0,P|136:113|-1:121,1,239.999992675781,6|8,1:2|0:2,0:0:0:0:
200,260,189663,1,2,0:2:0:0:
42,373,189830,2,0,P|58:313|81:244,1,119.999996337891,2|0,1:2|1:2,0:0:0:0:
64,62,190163,1,8,0:2:0:0:
256,188,190330,1,2,1:2:0:0:
256,188,190413,1,2,1:2:0:0:
256,188,190496,6,0,P|313:168|395:154,1,119.999996337891,6|0,1:2|0:2,0:0:0:0:
188,11,190830,2,0,P|141:65|166:137,1,119.999996337891,10|0,0:2|0:2,0:0:0:0:
338,259,191163,1,2,1:2:0:0:
485,82,191330,1,2,1:2:0:0:
485,82,191413,1,2,1:2:0:0:
485,82,191496,2,0,P|417:66|361:48,1,119.999996337891,10|0,0:2|0:2,0:0:0:0:
112,175,191830,6,0,B|114:240|178:248|178:248|221:173|317:178,1,239.999992675781,6|8,1:2|0:2,0:0:0:0:
465,344,192330,1,2,1:2:0:0:
465,344,192413,1,2,1:2:0:0:
465,344,192496,2,0,P|407:319|340:310,1,119.999996337891,2|0,1:2|1:2,0:0:0:0:
223,81,192830,1,8,0:2:0:0:
421,204,192996,1,2,0:2:0:0:
148,280,193163,5,2,1:2:0:0:
328,185,193330,1,2,1:2:0:0:
293,384,193496,1,10,0:2:0:0:
83,335,193663,6,0,P|62:247|22:150,1,179.999994506836,2|0,1:2|0:2,0:0:0:0:
82,89,193996,1,2,1:2:0:0:
237,193,194163,2,0,P|223:251|202:312,1,119.999996337891,8|2,0:2|0:2,0:0:0:0:
382,136,194496,5,2,1:2:0:0:
229,85,194663,1,2,1:2:0:0:
328,331,194830,1,10,0:2:0:0:
511,283,194996,6,0,B|469:267|443:264|443:264|426:232|426:232|391:227|325:207,1,179.999994506836,2|0,1:2|0:2,0:0:0:0:
300,145,195330,1,2,1:2:0:0:
131,202,195496,2,0,P|145:135|164:69,1,119.999996337891,8|2,0:2|1:2,0:0:0:0:
110,12,195746,1,2,1:2:0:0:
110,12,195830,5,14,1:2:0:0:
311,109,195996,1,0,1:2:0:0:
162,282,196163,5,10,1:2:0:0:
400,161,196330,1,0,1:2:0:0:
141,102,196496,5,10,1:2:0:0:
247,315,196663,1,0,1:2:0:0:
398,70,196830,5,10,1:2:0:0:
285,384,196996,1,0,1:2:0:0:
25,282,197163,5,14,1:2:0:0:
200,175,197330,1,2,1:2:0:0:
200,175,197413,1,2,1:2:0:0:
200,175,197496,2,0,P|263:196|341:215,1,119.999996337891,10|0,2:2|1:2,0:0:0:0:
456,384,197830,5,0,1:2:0:0:
409,357,197913,1,0,1:2:0:0:
386,308,197996,1,0,1:2:0:0:
392,253,198080,1,0,1:2:0:0:
429,214,198163,1,8,0:2:0:0:
475,177,198246,1,8,0:2:0:0:
481,116,198330,1,8,0:2:0:0:
453,62,198413,1,8,0:2:0:0:
395,44,198496,6,0,P|322:73|268:89,1,119.999996337891,6|2,1:1|0:2,0:0:0:0:
64,0,198830,1,10,1:2:0:0:
229,155,198996,1,2,1:2:0:0:
81,286,199163,2,0,P|100:219|120:137,1,119.999996337891,10|2,1:2|1:2,0:0:0:0:
55,90,199413,1,2,1:2:0:0:
55,90,199496,2,0,B|109:101|151:67|130:51|169:18|242:32,1,179.999994506836,10|0,1:2|0:2,0:0:0:0:
321,160,199830,6,0,P|273:136|186:109,1,119.999996337891,14|0,1:2|1:2,0:0:0:0:
88,372,200163,2,0,P|144:353|198:326,1,119.999996337891,8|2,1:2|1:2,0:0:0:0:
29,95,200496,5,10,1:2:0:0:
121,268,200663,1,0,1:2:0:0:
182,21,200830,1,8,1:2:0:0:
0,199,200996,1,2,1:2:0:0:
242,334,201163,5,14,1:2:0:0:
143,182,201330,1,0,1:2:0:0:
255,349,201496,5,10,1:2:0:0:
339,101,201663,1,0,1:2:0:0:
482,306,201830,5,10,1:2:0:0:
259,205,201996,1,0,1:2:0:0:
512,50,202163,5,10,1:2:0:0:
238,198,202330,1,0,1:2:0:0:
348,21,202496,5,14,1:2:0:0:
512,281,202663,1,0,1:2:0:0:
240,82,202830,5,10,1:2:0:0:
245,343,202996,1,0,1:2:0:0:
124,59,203163,5,10,1:2:0:0:
0,254,203330,1,0,1:2:0:0:
257,169,203496,6,0,P|313:199|389:209,1,119.999996337891,10|2,1:2|1:2,0:0:0:0:
450,263,203746,1,2,1:2:0:0:
465,278,203830,2,0,B|463:191|505:120|505:120|471:153|414:150,1,239.999992675781,14|10,1:2|0:2,0:0:0:0:
226,380,204330,5,2,1:2:0:0:
226,380,204413,1,2,1:2:0:0:
226,380,204496,2,0,P|210:311|190:248,1,119.999996337891,14|0,1:2|1:2,0:0:0:0:
43,50,204830,5,10,1:2:0:0:
10,84,204913,1,2,1:2:0:0:
10,131,204996,1,2,1:2:0:0:
42,166,205080,1,2,1:2:0:0:
89,172,205163,2,0,P|173:131|296:90,1,179.999994506836,14|0,1:2|0:2,0:0:0:0:
317,50,205496,6,0,P|357:72|394:82,1,59.9999981689454,10|0,1:2|0:2,0:0:0:0:
472,250,205663,1,2,1:2:0:0:
472,250,205746,1,2,1:2:0:0:
472,250,205830,2,0,P|381:241|382:140,1,179.999994506836,14|0,1:2|0:2,0:0:0:0:
443,120,206163,5,10,1:2:0:0:
279,234,206329,1,2,1:2:0:0:
400,380,206496,1,14,1:2:0:0:
400,380,206830,5,8,1:2:0:0:
153,294,206996,1,8,1:2:0:0:
386,122,207163,5,8,1:2:0:0:
307,384,207330,1,8,1:2:0:0:
150,123,207496,5,8,1:2:0:0:
479,248,207663,1,8,1:2:0:0:
153,384,207830,5,14,0:2:0:0:
293,38,207996,1,2,1:2:0:0:
293,38,208080,1,2,1:2:0:0:
293,38,208163,2,0,L|319:114,1,59.9999981689454,10|0,1:2|0:2,0:0:0:0:
383,333,208330,6,0,P|345:218|212:228,1,239.999992675781,12|8,1:2|1:3,0:0:0:0:
41,380,208830,1,4,1:3:0:0:
190,328,208996,1,0,1:2:0:0:
31,115,209163,6,0,P|63:192|89:300,1,179.999994506836,6|10,1:1|0:2,0:0:0:0:
144,186,209608,5,10,0:2:0:0:
219,189,209719,5,10,0:2:0:0:
273,247,209830,6,0,B|323:208|390:210|390:210|362:198|337:157,1,179.999994506836,10|10,0:2|0:2,0:0:0:0:
281,107,210274,6,0,P|294:75|293:37,1,59.9999981689454,10|10,0:2|0:2,0:0:0:0:
374,2,210496,6,0,P|446:22|401:121,1,179.999994506836,6|0,1:2|1:2,0:0:0:0:
287,25,210996,1,2,1:2:0:0:
287,25,211080,1,2,1:2:0:0:
287,25,211163,2,0,P|245:35|153:85,1,119.999996337891,10|0,0:2|0:2,0:0:0:0:
32,65,211496,5,10,0:2:0:0:
4,131,211608,5,10,0:2:0:0:
45,188,211719,5,10,0:2:0:0:
116,185,211830,6,0,P|235:222|317:268,1,209.999993591309,6|0,1:2|0:2,0:0:0:0:
115,283,212496,6,0,B|189:282|230:225|204:206|250:153|326:163,1,240,6|0,1:2|0:2,0:0:0:0:
387,205,213163,6,0,P|406:225|389:200,1,79.9999975585938,6|0,1:2|1:2,0:0:0:0:
309,262,213496,6,0,L|327:325,2,39.9999987792969,8|8|8,0:2|0:2|0:2,0:0:0:0:
406,379,213830,5,8,1:3:0:0:
332,329,213941,5,8,1:3:0:0:
251,335,214052,5,8,1:3:0:0:
180,356,214163,5,4,1:3:0:0:
120,338,214274,5,4,1:3:0:0:
96,309,214385,5,4,1:3:0:0:
99,290,214496,5,4,1:1:0:0:
0,106,214830,5,10,0:2:0:0:
74,121,214941,5,10,0:2:0:0:
106,53,215052,5,10,0:2:0:0:
33,34,215163,6,0,P|73:165|84:227,1,179.999994506836,10|10,0:2|0:2,0:0:0:0:
184,149,215608,6,0,P|221:163|255:168,1,59.9999981689454,10|10,0:2|0:2,0:0:0:0:
306,235,215830,5,10,2:2:0:0:
512,313,216163,5,10,0:2:0:0:
434,290,216274,5,10,0:2:0:0:
390,360,216385,5,10,0:2:0:0:
472,380,216496,6,0,P|449:292|411:200,1,179.999994506836,6|10,1:2|0:2,0:0:0:0:
328,165,216941,5,10,0:2:0:0:
238,192,217052,5,10,0:2:0:0:
205,276,217163,5,14,0:2:0:0:
205,276,217830,6,0,P|221:195|247:110,1,134.999995880127,10|0,0:2|0:2,0:0:0:0:
257,111,218163,2,0,P|231:103|194:89,1,44.999998626709,8|0,0:3|0:2,0:0:0:0:
70,280,218330,2,0,P|91:272|112:266,1,44.999998626709,4|0,0:3|0:2,0:0:0:0:
217,380,218496,6,0,B|276:376|302:338|284:330|309:283|382:294,1,179.999994506836,6|10,1:2|0:2,0:0:0:0:
446,362,218941,5,10,0:2:0:0:
491,364,219052,5,10,0:2:0:0:
503,331,219163,6,0,L|492:297,6,22.4999993133545,6|2|2|2|2|2|2,1:2|0:2|0:2|0:2|0:2|0:2|0:2,0:0:0:0:
440,242,219496,5,10,0:2:0:0:
435,196,219580,1,10,0:2:0:0:
442,151,219663,1,10,0:2:0:0:
457,108,219746,1,10,0:2:0:0:
487,74,219830,2,0,P|428:14|370:27,1,134.999995880127,6|0,1:1|0:2,0:0:0:0:
320,92,220163,1,8,0:2:0:0:
121,5,220330,5,2,1:2:0:0:
121,5,220413,1,2,1:2:0:0:
121,5,220496,2,0,P|145:73|165:164,1,134.999995880127,2|0,1:2|0:2,0:0:0:0:
107,191,220830,5,10,0:2:0:0:
111,265,220941,5,2,1:2:0:0:
176,303,221052,5,2,1:2:0:0:
248,283,221163,5,2,1:2:0:0:
462,380,221385,6,0,P|490:363|521:302,1,66.6666666666667,2|8,0:2|0:2,0:0:0:0:
409,175,221608,6,0,P|425:149|429:119,1,59.9999981689454,2|0,0:2|0:2,0:0:0:0:
285,84,221830,6,0,P|281:48|267:23,1,53.3333333333333,2|0,1:2|0:2,0:0:0:0:
138,87,222052,6,0,P|125:67|108:51,1,46.6666652425131,2|8,0:2|0:2,0:0:0:0:
37,165,222274,6,0,P|20:157|-9:154,1,39.9999987792969,2|0,0:2|0:2,0:0:0:0:
74,312,222496,5,2,1:2:0:0:
179,376,222663,1,2,1:2:0:0:
172,353,222746,1,2,1:2:0:0:
164,329,222830,1,10,0:2:0:0:
303,192,222996,5,2,1:2:0:0:
227,98,223163,1,2,1:2:0:0:
216,130,223247,1,10,0:2:0:0:
205,161,223330,1,2,1:2:0:0:
453,251,223496,5,10,0:2:0:0:
364,384,223663,1,2,1:2:0:0:
349,343,223747,1,2,1:2:0:0:
336,305,223830,1,2,1:2:0:0:
507,107,223996,6,0,P|498:133|490:164,1,40,2|0,1:2|0:2,0:0:0:0:
406,119,224163,2,0,P|415:93|423:62,1,55.0000016784668,10|0,0:2|0:2,0:0:0:0:
327,0,224330,5,2,1:2:0:0:
252,13,224413,1,2,1:2:0:0:
218,70,224496,1,10,0:2:0:0:
222,130,224580,1,10,0:2:0:0:
259,166,224663,1,10,0:2:0:0:
299,187,224746,1,10,0:2:0:0:
328,220,224830,1,8,1:3:0:0:
333,254,224913,1,8,1:3:0:0:
322,280,224996,1,4,1:3:0:0:
305,290,225080,1,4,1:3:0:0:
290,289,225163,6,0,P|209:247|90:211,1,165.000005035401,6|0,1:2|0:2,0:0:0:0:
49,218,225496,1,10,0:2:0:0:
260,40,225663,6,0,B|219:30|186:-1|186:-1|223:59|225:152,1,220.000006713867,2|0,1:2|1:2,0:0:0:0:
122,354,226163,5,10,0:2:0:0:
318,199,226330,1,10,0:2:0:0:
318,199,226413,1,10,0:2:0:0:
318,199,226496,6,0,P|381:178|400:175,2,73.3333355712891,2|2|2,1:2|1:2|1:2,0:0:0:0:
216,137,226830,6,0,P|200:129|175:123,5,36.6666677856446,10|2|2|2|2|2,2:2|2:2|2:2|2:2|2:2|2:2,0:0:0:0:
262,70,227163,5,2,1:2:0:0:
334,54,227274,1,2,1:2:0:0:
390,103,227385,1,2,1:2:0:0:
388,177,227496,5,10,2:2:0:0:
449,218,227608,1,2,1:2:0:0:
512,175,227719,1,2,1:2:0:0:
507,166,227830,5,6,1:2:0:0:
389,326,227996,1,2,1:2:0:0:
389,326,228080,1,2,1:2:0:0:
389,326,228163,2,0,P|406:358|409:388,1,55.0000016784668,10|0,0:2|0:2,0:0:0:0:
201,307,228330,6,0,B|241:285|279:276|279:276|301:233|301:233|341:224|397:199,1,220.000006713867,6|2,1:2|1:2,0:0:0:0:
84,114,228830,1,10,0:2:0:0:
155,17,228996,1,2,1:2:0:0:
155,17,229080,1,2,1:2:0:0:
155,17,229163,5,6,1:2:0:0:
212,140,229330,1,2,0:2:0:0:
145,229,229496,1,2,0:2:0:0:
52,226,229663,1,2,0:2:0:0:
8,361,229996,5,2,0:2:0:0:
102,370,230163,2,0,P|100:331|51:276,1,100,2|4,0:2|1:2,0:0:0:0:
8,361,230830,5,0,1:2:0:0:
174,290,231830,5,0,1:2:0:0:
174,290,232163,1,0,1:2:0:0:
306,361,233163,5,0,1:2:0:0:
306,361,233496,1,0,1:2:0:0:
486,271,234496,5,0,1:2:0:0:
486,271,234829,1,0,1:2:0:0:
60,61,235830,5,0,1:2:0:0:
60,61,236163,1,0,1:2:0:0:
390,169,236830,2,0,L|405:221,2,33.3333333333333,0|0|0,1:2|1:2|1:2,0:0:0:0:
426,83,237163,5,0,1:2:0:0:
426,83,237496,1,0,1:2:0:0:
102,170,238496,5,0,1:2:0:0:
102,170,238830,1,0,1:2:0:0:
441,56,239496,2,0,L|456:4,2,33.3333333333333,0|0|0,1:2|1:2|1:2,0:0:0:0:
477,142,239829,5,4,1:2:0:0:
477,142,240162,1,0,1:2:0:0:
291,43,240496,5,8,0:2:0:0:
291,43,240830,2,0,P|310:97|314:109,1,50,0|0,1:2|0:2,0:0:0:0:
331,182,241163,1,4,1:2:0:0:
59,284,241496,6,0,P|46:260|66:272,2,66.6666666666667,10|10|10,0:2|0:2|0:2,0:0:0:0:
54,371,241830,2,0,B|117:370|148:327|131:318|159:272|220:276,1,200,10|10,0:2|0:2,0:0:0:0:
310,255,242274,5,10,0:2:0:0:
353,327,242385,5,10,0:2:0:0:
288,384,242496,6,0,P|318:279|359:169,1,200,6|10,1:2|0:2,0:0:0:0:
218,119,242941,6,0,P|235:154|250:200,1,66.6666666666667,10|10,0:2|0:2,0:0:0:0:
271,40,243163,6,0,P|196:24|127:127,1,200,10|10,0:2|0:2,0:0:0:0:
151,193,243608,5,10,0:2:0:0:
94,253,243719,5,10,0:2:0:0:
20,225,243830,5,6,1:2:0:0:
437,269,244163,6,0,P|469:249|538:244,2,66.6666666666667,10|10|10,0:2|0:2|0:2,0:0:0:0:
384,349,244496,2,0,B|325:295|251:311|251:311|241:276|205:257,1,200,10|10,0:2|0:2,0:0:0:0:
81,239,244941,5,10,0:2:0:0:
34,307,245052,5,10,0:2:0:0:
89,371,245163,6,0,P|126:345|191:331,1,89.9999972534181,6|2,1:2|0:2,0:0:0:0:
293,220,245496,2,0,P|243:209|196:172,1,89.9999972534181,0|2,1:2|0:2,0:0:0:0:
10,68,245830,2,0,P|43:157|134:135,1,179.999994506836,8|8,0:2|0:2,0:0:0:0:
187,99,246274,5,8,0:0:0:0:
169,21,246385,5,8,0:0:0:0:
90,7,246496,5,6,1:2:0:0:
217,228,246830,2,0,P|198:267|188:317,2,66.6666666666667,10|10|10,0:2|0:2|0:2,0:0:0:0:
51,175,247163,2,0,P|27:239|118:320,1,200,10|10,0:2|0:2,0:0:0:0:
238,222,247663,1,2,1:2:0:0:
356,370,247830,5,6,1:2:0:0:
207,298,247996,1,2,0:2:0:0:
253,384,248163,1,2,1:2:0:0:
400,251,248330,1,2,0:2:0:0:
239,134,248496,2,0,P|175:146|139:165,1,100,8|2,0:2|0:2,0:0:0:0:
328,0,248830,5,8,0:2:0:0:
356,71,248941,5,8,0:2:0:0:
431,110,249052,5,8,0:2:0:0:
511,65,249163,5,6,1:2:0:0:
345,267,249496,5,8,1:2:0:0:
448,220,249663,1,8,1:2:0:0:
255,116,249830,5,8,1:2:0:0:
369,177,249996,1,8,1:2:0:0:
89,268,250163,5,8,1:2:0:0:
251,207,250330,1,8,1:2:0:0:
0,75,250496,5,8,1:3:0:0:
24,44,250608,6,0,P|37:83|55:127,1,66.6666666666667,0|0,1:2|1:2,0:0:0:0:
188,208,250830,5,4,1:3:0:0:
173,188,250942,6,0,P|160:227|142:271,1,53.3333333333333,0|0,1:2|1:2,0:0:0:0:
60,343,251163,6,0,P|37:334|8:329,3,50,0|0|0|0,1:2|1:2|1:2|1:2,0:0:0:0:
131,384,251496,5,8,0:2:0:0:
163,345,251580,1,8,0:2:0:0:
208,324,251663,1,8,0:2:0:0:
257,320,251746,1,8,0:2:0:0:
302,338,251830,6,0,P|342:314|373:305,1,50,14|0,0:2|0:2,0:0:0:0:
417,293,251996,1,2,1:2:0:0:
222,102,252163,6,0,P|274:126|291:130,1,50,10|0,0:2|0:2,0:0:0:0:
356,132,252330,1,2,1:2:0:0:
63,240,252496,5,10,0:2:0:0:
180,351,252663,2,0,P|191:289|215:220,1,119.999996337891,2|2,1:2|1:2,0:0:0:0:
63,240,253163,6,0,P|47:189|31:154,1,50,8|0,0:2|0:2,0:0:0:0:
10,123,253330,1,2,1:2:0:0:
285,257,253496,6,0,P|273:283|269:307,1,50,10|0,0:2|0:2,0:0:0:0:
244,377,253663,1,2,1:2:0:0:
503,218,253830,5,10,0:2:0:0:
352,145,253996,1,2,1:2:0:0:
352,145,254163,2,0,P|340:102|328:77,1,50,2|2,1:2|1:2,0:0:0:0:
430,83,254496,5,10,0:2:0:0:
296,12,254663,1,2,1:2:0:0:
230,235,254830,1,10,0:2:0:0:
374,177,254996,1,2,1:2:0:0:
180,115,255163,5,8,0:2:0:0:
305,281,255330,1,2,1:2:0:0:
290,129,255496,1,8,0:2:0:0:
187,318,255663,1,2,1:2:0:0:
13,159,255830,5,12,0:2:0:0:
134,380,255996,1,2,1:2:0:0:
310,50,256163,5,10,0:2:0:0:
266,315,256330,1,2,1:2:0:0:
512,205,256496,6,0,P|459:187|397:169,1,100,10|0,0:2|1:2,0:0:0:0:
332,239,256746,1,0,1:2:0:0:
318,287,256830,1,8,0:2:0:0:
330,335,256913,1,8,0:2:0:0:
367,367,256996,1,8,0:2:0:0:
416,377,257080,1,8,0:2:0:0:
461,356,257163,6,0,P|481:283|511:212,1,139.999995727539,12|2,2:2|1:2,0:0:0:0:
338,92,257413,5,2,1:2:0:0:
313,122,257496,2,0,P|339:186|357:254,1,139.999995727539,14|2,1:2|1:2,0:0:0:0:
226,384,257746,5,2,1:2:0:0:
174,323,257830,2,0,P|200:258|218:190,1,139.999995727539,14|0,1:2|0:2,0:0:0:0:
67,14,258163,5,0,1:2:0:0:
20,30,258246,1,0,1:2:0:0:
0,75,258330,1,0,1:2:0:0:
10,122,258413,1,0,1:2:0:0:
48,152,258496,2,0,B|129:139|86:92|182:80,1,139.999995727539,14|2,0:2|1:2,0:0:0:0:
319,228,258746,5,2,1:2:0:0:
306,251,258830,2,0,B|225:238|268:191|172:179,1,139.999995727539,14|2,1:2|1:2,0:0:0:0:
1,292,259079,5,2,1:2:0:0:
48,354,259163,2,0,B|129:341|86:294|182:282,1,139.999995727539,14|0,0:2|0:2,0:0:0:0:
350,384,259496,5,8,0:2:0:0:
350,384,259580,1,8,0:2:0:0:
350,384,259663,1,8,0:2:0:0:
350,384,259746,1,8,0:2:0:0:
350,384,259830,5,8,1:2:0:0:
171,266,259996,1,8,1:3:0:0:
432,144,260163,1,4,1:3:0:0:
127,13,260330,6,0,B|114:84|165:123|175:92|221:128|217:212,1,209.999993591309,12|0,1:2|0:2,0:0:0:0:
66,269,260663,6,0,B|30:242|-7:242|-7:242|71:227|155:165,1,209.999993591309,12|0,1:2|0:2,0:0:0:0:
295,335,260996,6,0,P|230:301|137:272,1,139.999995727539,12|0,1:2|0:2,0:0:0:0:
0,328,261330,5,10,1:2:0:0:
94,80,261496,1,2,1:2:0:0:
393,351,261663,5,10,1:2:0:0:
289,32,261830,1,14,1:2:0:0:
177,197,262496,6,0,P|170:165|147:137,1,59.9999981689454,12|0,1:2|0:2,0:0:0:0:
77,178,262830,2,0,P|84:210|107:238,1,59.9999981689454,8|0,1:2|0:2,0:0:0:0:
237,251,263163,6,0,P|253:213|250:167,1,80,8|0,1:2|0:2,0:0:0:0:
15,125,263497,2,0,P|-1:162|1:208,1,80,8|0,1:2|0:2,0:0:0:0:
105,384,263830,5,8,1:3:0:0:
167,313,263941,5,8,1:3:0:0:
249,294,264052,5,8,1:3:0:0:
315,325,264163,5,4,1:3:0:0:
361,342,264274,5,4,1:3:0:0:
395,326,264385,5,4,1:3:0:0:
404,303,264496,6,0,P|411:267|425:243,1,59.9999981689454,8|0,1:2|0:2,0:0:0:0:
197,20,264830,6,0,P|219:52|234:112,1,80,8|0,1:2|0:2,0:0:0:0:
31,245,265163,5,2,1:2:0:0:
31,245,265496,2,0,B|105:171|216:206|216:206|175:190|139:132,1,279.999991455078,14|2,1:2|1:2,0:0:0:0:
155,155,266163,6,0,P|142:239|131:333,1,139.999995727539,14|0,1:2|0:2,0:0:0:0:
340,66,266496,6,0,P|307:142|429:210,1,239.999992675781,14|0,1:2|0:2,0:0:0:0:
512,157,266996,1,2,1:2:0:0:
512,157,267080,1,2,1:2:0:0:
512,157,267163,6,0,P|387:119|154:8,1,359.999989013672,14|2,1:2|1:2,0:0:0:0:
32,130,267830,5,14,2:2:0:0:
32,130,268163,2,0,P|50:90|65:47,1,80,0|0,1:2|0:2,0:0:0:0:
236,264,268496,2,0,P|228:221|211:160,1,80,0|0,1:2|0:2,0:0:0:0:
66,315,268830,2,0,P|84:275|99:232,1,80,0|0,1:2|0:2,0:0:0:0:
212,16,269163,5,8,1:3:0:0:
283,71,269274,1,8,1:3:0:0:
284,150,269385,1,8,1:3:0:0:
231,200,269496,5,4,1:3:0:0:
198,248,269608,1,4,1:3:0:0:
210,297,269719,1,4,1:3:0:0:
240,319,269830,5,8,0:2:0:0:
280,256,269941,5,8,0:2:0:0:
235,196,270052,5,8,0:2:0:0:
160,197,270163,5,8,0:2:0:0:
120,260,270274,5,8,0:2:0:0:
138,332,270385,5,8,0:2:0:0:
214,369,270496,6,0,P|267:339|350:326,1,119.999996337891,6|2,1:2|0:2,0:0:0:0:
462,217,270830,1,10,0:2:0:0:
252,47,270996,2,0,B|175:35|151:108|151:108|178:132|186:175,1,179.999994506836,2|0,1:2|0:2,0:0:0:0:
74,72,271330,1,2,1:2:0:0:
257,209,271496,2,0,P|314:172|403:162,1,119.999996337891,8|2,0:2|0:2,0:0:0:0:
0,255,271830,5,2,1:2:0:0:
134,373,271996,1,2,1:2:0:0:
198,148,272163,1,10,0:2:0:0:
360,347,272330,6,0,P|308:320|248:304,1,119.999996337891,2|0,1:2|0:2,0:0:0:0:
429,114,272663,2,0,P|375:142|305:156,1,119.999996337891,2|8,1:2|0:2,0:0:0:0:
133,51,272996,1,2,1:2:0:0:
133,51,273080,1,2,1:2:0:0:
133,51,273163,5,14,1:2:0:0:
232,273,273330,1,0,0:2:0:0:
269,51,273496,1,10,0:2:0:0:
71,211,273663,1,0,1:2:0:0:
341,287,273830,6,0,P|347:252|372:210,1,59.9999981689454,10|0,0:2|0:2,0:0:0:0:
133,51,273996,2,0,P|144:78|149:108,1,59.9999981689454,2|0,1:2|1:2,0:0:0:0:
19,368,274163,2,0,B|58:287|135:298|135:298|146:337|201:364,1,209.999993591309,14|0,2:2|0:2,0:0:0:0:
246,378,274496,5,8,2:2:0:0:
213,182,274663,1,0,1:2:0:0:
227,149,274746,1,0,1:2:0:0:
241,115,274830,2,0,P|283:107|316:88,1,59.9999981689454,0|0,1:2|0:2,0:0:0:0:
78,216,274996,2,0,P|50:204|20:200,1,59.9999981689454,0|0,1:2|0:2,0:0:0:0:
216,380,275163,5,0,1:2:0:0:
257,356,275246,1,0,1:2:0:0:
277,311,275330,1,0,1:2:0:0:
271,263,275413,1,0,1:2:0:0:
238,228,275496,1,8,0:2:0:0:
187,194,275580,1,8,0:2:0:0:
153,144,275663,1,8,0:2:0:0:
155,84,275746,1,8,0:2:0:0:
193,37,275830,5,14,1:2:0:0:
94,236,275996,1,2,1:2:0:0:
398,299,276163,1,10,1:2:0:0:
317,131,276330,1,2,1:2:0:0:
129,378,276496,2,0,P|188:345|263:334,1,119.999996337891,10|2,1:2|1:2,0:0:0:0:
307,376,276746,1,2,1:2:0:0:
307,376,276830,2,0,P|339:338|322:247,1,119.999996337891,10|0,1:2|0:2,0:0:0:0:
409,68,277163,5,14,1:2:0:0:
499,295,277330,1,0,1:2:0:0:
475,25,277496,5,8,1:2:0:0:
239,186,277663,1,2,1:2:0:0:
441,212,277830,5,10,1:2:0:0:
216,77,277996,1,0,1:2:0:0:
250,355,278163,5,8,1:2:0:0:
306,229,278330,1,2,1:2:0:0:
18,140,278496,5,14,1:2:0:0:
84,281,278663,1,0,1:2:0:0:
171,142,278830,5,10,1:2:0:0:
1,234,278996,1,0,1:2:0:0:
165,312,279163,5,10,1:2:0:0:
74,105,279330,1,0,1:2:0:0:
306,352,279496,5,10,1:2:0:0:
380,50,279663,1,0,1:2:0:0:
150,100,279830,5,14,1:2:0:0:
461,260,279996,1,0,1:2:0:0:
217,233,280163,5,10,1:2:0:0:
493,118,280330,1,0,1:2:0:0:
277,31,280496,5,10,1:2:0:0:
398,206,280663,1,0,1:2:0:0:
170,331,280830,5,10,1:2:0:0:
251,159,280996,1,2,1:2:0:0:
251,159,281080,1,2,1:2:0:0:
251,159,281163,6,0,B|175:165|132:106|132:106|63:129|89:202,1,239.999992675781,14|10,1:2|1:2,0:0:0:0:
188,342,281663,1,0,1:2:0:0:
16,310,281830,2,0,P|74:296|134:261,1,119.999996337891,14|0,1:2|1:2,0:0:0:0:
378,213,282163,5,10,1:2:0:0:
302,368,282330,1,0,1:2:0:0:
218,85,282496,2,0,P|237:183|252:291,1,179.999994506836,14|0,1:2|0:2,0:0:0:0:
194,336,282830,2,0,P|155:330|131:307,1,59.9999981689454,10|0,1:2|0:2,0:0:0:0:
414,211,282996,2,0,P|433:213|474:236,1,59.9999981689454,0|0,1:2|0:2,0:0:0:0:
276,27,283163,6,0,P|371:27|402:119,1,179.999994506836,14|0,1:2|0:2,0:0:0:0:
467,172,283496,1,10,1:2:0:0:
267,222,283663,1,2,1:2:0:0:
492,362,283830,1,6,1:2:0:0:
492,362,284163,5,8,1:2:0:0:
412,119,284330,1,8,1:2:0:0:
285,288,284496,5,8,1:2:0:0:
369,40,284663,1,8,1:2:0:0:
214,341,284830,5,8,0:2:0:0:
120,70,284996,1,8,0:2:0:0:
41,332,285163,5,12,1:2:0:0:
314,180,285330,1,8,1:3:0:0:
101,55,285496,1,8,1:3:0:0:
356,0,285663,5,12,0:2:0:0:
141,174,285830,1,4,1:3:0:0:
401,343,285996,1,4,1:3:0:0:
280,86,286163,5,8,0:2:0:0:
268,150,286246,1,8,0:2:0:0:
256,215,286330,1,8,0:2:0:0:
245,279,286413,1,8,0:2:0:0:
234,343,286496,1,4,1:1:0:0:
14,166,286830,5,10,0:2:0:0:
40,132,286941,5,10,0:2:0:0:
82,133,287052,5,10,0:2:0:0:
76,219,287163,6,0,P|38:99|2:23,1,179.999994506836,10|10,0:2|0:2,0:0:0:0:
166,5,287608,6,0,P|148:48|136:93,1,59.9999981689454,10|10,0:2|0:2,0:0:0:0:
273,168,287830,6,0,B|322:145|386:136|386:136|346:126|313:103,1,179.999994506836,6|0,1:2|1:2,0:0:0:0:
176,248,288330,5,2,1:2:0:0:
176,248,288413,1,2,1:2:0:0:
176,248,288496,2,0,B|238:245|263:290|245:298|278:345|346:343,1,179.999994506836,10|8,0:2|0:2,0:0:0:0:
411,291,288941,5,8,0:2:0:0:
453,286,289052,5,8,0:2:0:0:
487,314,289163,5,6,1:2:0:0:
348,68,289496,6,0,P|314:59|288:44,2,59.9999981689454,10|10|10,0:2|0:2|0:2,0:0:0:0:
493,76,289830,6,0,B|466:94|436:100|436:100|420:140|420:140|379:152|344:173,1,179.999994506836,10|10,0:2|0:2,0:0:0:0:
272,214,290274,6,0,P|242:197|201:188,1,59.9999981689454,10|10,0:2|0:2,0:0:0:0:
90,103,290496,1,6,1:2:0:0:
90,103,290830,6,0,P|110:156|127:229,1,119.999996337891,8|0,0:2|2:2,0:0:0:0:
69,309,291163,5,8,1:3:0:0:
141,357,291274,5,8,1:3:0:0:
211,337,291385,5,8,1:3:0:0:
246,289,291496,5,4,1:3:0:0:
279,266,291608,5,4,1:3:0:0:
308,269,291719,5,4,1:3:0:0:
320,282,291830,5,4,1:2:0:0:
460,69,292163,6,0,P|475:103|517:138,2,59.9999981689454,10|10|10,0:2|0:2|0:2,0:0:0:0:
377,19,292496,2,0,B|299:27|266:84,1,119.999996337891,10|0,0:2|0:2,0:0:0:0:
320,247,292830,5,10,0:2:0:0:
345,217,292941,5,10,0:2:0:0:
342,182,293052,5,10,0:2:0:0:
260,192,293163,6,0,P|181:157|74:137,1,179.999994506836,6|10,1:2|0:2,0:0:0:0:
76,43,293608,6,0,P|107:55|155:63,1,59.9999981689454,10|10,0:2|0:2,0:0:0:0:
100,228,293830,6,0,P|26:207|6:105,1,179.999994506836,10|2,2:2|1:2,0:0:0:0:
149,48,294330,1,2,2:2:0:0:
255,174,294496,2,0,L|282:281,1,89.9999972534181,10|0,0:2|0:2,0:0:0:0:
144,159,294830,5,2,1:2:0:0:
287,96,294996,1,2,1:2:0:0:
188,278,295163,2,0,P|119:258|82:234,1,100,10|0,2:2|0:2,0:0:0:0:
338,309,295496,5,2,1:2:0:0:
211,201,295663,1,2,0:2:0:0:
428,169,295830,2,0,P|484:182|538:203,1,110.000003356934,10|0,0:2|0:2,0:0:0:0:
169,82,296163,6,0,P|144:56|137:-3,2,73.3333355712891,0|0|0,1:2|1:2|1:2,0:0:0:0:
254,92,296496,5,8,2:2:0:0:
281,160,296608,5,8,2:2:0:0:
227,209,296719,5,8,2:2:0:0:
153,205,296830,5,8,2:2:0:0:
97,252,296941,5,8,2:2:0:0:
107,324,297052,5,8,2:2:0:0:
171,358,297163,6,0,P|256:318|351:302,1,179.999994506836,6|0,1:1|0:2,0:0:0:0:
356,321,297496,2,0,P|277:286|272:247,1,119.999996337891,10|0,0:2|0:2,0:0:0:0:
409,83,297830,1,2,1:2:0:0:
467,247,297996,1,0,1:2:0:0:
222,171,298163,2,0,P|159:184|106:209,1,119.999996337891,10|0,0:2|0:2,0:0:0:0:
346,0,298496,6,0,P|391:112|504:92,1,239.999992675781,6|8,1:2|0:2,0:0:0:0:
349,270,298996,1,2,1:2:0:0:
349,270,299080,1,2,1:2:0:0:
349,270,299163,2,0,P|373:329|384:390,1,119.999996337891,2|0,1:2|1:2,0:0:0:0:
245,79,299496,5,10,0:2:0:0:
425,219,299663,1,2,1:2:0:0:
157,219,299830,2,0,P|223:191|282:174,1,119.999996337891,6|0,1:2|0:2,0:0:0:0:
77,278,300163,5,10,0:2:0:0:
200,0,300330,1,2,2:2:0:0:
11,89,300496,2,0,P|73:108|135:136,1,119.999996337891,2|0,1:2|0:2,0:0:0:0:
349,282,300830,5,10,0:2:0:0:
224,344,300996,1,2,0:2:0:0:
379,201,301163,2,0,P|428:257|429:308,1,119.999996337891,6|0,1:2|0:2,0:0:0:0:
134,209,301496,2,0,P|143:150|185:110,1,119.999996337891,10|0,0:2|0:2,0:0:0:0:
494,147,301830,6,0,P|430:162|357:186,1,119.999996337891,2|0,1:2|1:2,0:0:0:0:
52,59,302163,2,0,P|116:74|189:98,1,119.999996337891,10|0,0:2|1:2,0:0:0:0:
349,0,302496,5,14,1:2:0:0:
194,233,302663,1,0,1:2:0:0:
241,21,302830,5,10,1:2:0:0:
338,298,302996,1,0,1:2:0:0:
78,46,303163,5,10,1:2:0:0:
321,159,303330,1,0,1:2:0:0:
52,313,303496,5,10,1:2:0:0:
347,172,303663,1,0,1:2:0:0:
208,371,303830,5,14,1:2:0:0:
84,139,303996,1,0,1:2:0:0:
384,300,304163,5,10,1:2:0:0:
458,27,304330,1,0,1:2:0:0:
134,29,304496,5,10,1:2:0:0:
433,177,304663,1,0,1:2:0:0:
88,268,304830,5,10,1:2:0:0:
298,148,304996,1,0,1:2:0:0:
459,301,305163,5,10,1:2:0:0:
459,322,305246,1,10,1:2:0:0:
445,337,305330,2,0,P|415:344|388:359,1,59.9999981689454,2|0,1:2|1:2,0:0:0:0:
80,130,305496,5,10,1:2:0:0:
80,174,305579,1,10,1:2:0:0:
117,200,305663,2,0,P|147:194|176:182,1,59.9999981689454,2|0,1:2|1:2,0:0:0:0:
360,0,305830,5,10,0:2:0:0:
241,313,305996,1,10,0:2:0:0:
414,130,306163,5,10,0:2:0:0:
139,45,306330,1,10,0:2:0:0:
89,384,306496,5,10,1:2:0:0:
453,262,306663,1,10,1:2:0:0:
256,192,307830,5,4,2:1:0:0:
256,192,307913,12,0,310496,0:2:0:0:
