osu file format v14

[General]
AudioFilename: KOWAREYASUKI.mp3
AudioLeadIn: 0
PreviewTime: 58839
Countdown: 0
SampleSet: None
StackLeniency: 0.7
Mode: 3
LetterboxInBreaks: 0
SpecialStyle: 0
WidescreenStoryboard: 1

[Editor]
Bookmarks: 62747,141391
DistanceSpacing: 1.5
BeatDivisor: 4
GridSize: 8
TimelineZoom: 4.099998

[Metadata]
Title:INDONESIAN LN Packs
TitleUnicode:INDONESIAN LN Packs
Artist:Various Artists
ArtistUnicode:Various Artists
Creator:Xyzeria-sama
Version:KOWAREYASUKI [Maneh]
Source:Love Live! Sunshine!!
Tags:Maneh
BeatmapID:1959253
BeatmapSetID:937968

[Difficulty]
HPDrainRate:8
CircleSize:4
OverallDifficulty:8
ApproachRate:5
SliderMultiplier:1.4
SliderTickRate:1

[Events]
//Background and Video events
0,0,"Tsushima.Yoshiko.full.2024903.jpg",0,0
//Break Periods
//Storyboard Layer 0 (Background)
//Storyboard Layer 1 (Fail)
//Storyboard Layer 2 (Pass)
//Storyboard Layer 3 (Foreground)
//Storyboard Sound Samples

[TimingPoints]
1448,326.086956521739,4,2,11,0,1,0
6992,326.086956521739,4,2,11,0,1,0
15959,-54.3478260869565,4,2,11,0,0,0
16000,-108.695652173913,4,2,11,0,0,0
16040,-100,4,2,11,0,0,0
16122,-10000,4,2,11,0,0,0
16203,-100,4,2,11,0,0,0
16285,-54.3478260869565,4,2,11,0,0,0
16326,-108.695652173913,4,2,11,0,0,0
16366,-100,4,2,11,0,0,0
16448,-10000,4,2,11,0,0,0
16529,-100,4,2,11,0,0,0
16611,-54.3478260869565,4,2,11,0,0,0
16652,-108.695652173913,4,2,11,0,0,0
16693,-100,4,2,11,0,0,0
16713,-10000,4,2,11,0,0,0
16754,-100,4,2,11,0,0,0
16774,-54.3478260869565,4,2,11,0,0,0
16814,-108.695652173913,4,2,11,0,0,0
16855,-100,4,2,11,0,0,0
16937,-54.3478260869565,4,2,11,0,0,0
16977,-108.695652173913,4,2,11,0,0,0
17018,-100,4,2,11,0,0,0
17100,-54.3478260869565,4,2,11,0,0,0
17140,-108.695652173913,4,2,11,0,0,0
17181,-100,4,2,11,0,0,0
17263,-54.3478260869565,4,2,11,0,0,0
17303,-108.695652173913,4,2,11,0,0,0
17344,-100,4,2,11,0,0,0
38296,-108.695652173913,4,2,11,0,0,0
47426,-54.3478260869565,4,2,11,0,0,0
47508,-108.695652173913,4,2,11,0,0,0
47589,-100,4,2,11,0,0,0
47752,-54.3478260869565,4,2,11,0,0,0
47834,-108.695652173913,4,2,11,0,0,0
48405,-54.3478260869565,4,2,11,0,0,0
48487,-108.695652173913,4,2,11,0,0,0
48568,-100,4,2,11,0,0,0
49383,-54.3478260869565,4,2,11,0,0,0
49465,-108.695652173913,4,2,11,0,0,0
49546,-100,4,2,11,0,0,0
50687,-54.3478260869565,4,2,11,0,0,0
50769,-108.695652173913,4,2,11,0,0,0
50850,-100,4,2,11,0,0,0
51339,-54.3478260869565,4,2,11,0,0,0
51421,-108.695652173913,4,2,11,0,0,0
51502,-100,4,2,11,0,0,0
53948,-54.3478260869565,4,2,11,0,0,0
54030,-108.695652173913,4,2,11,0,0,0
54111,-100,4,2,11,0,0,0
58595,-27.6243093922652,4,2,11,0,0,0
58839,-10000,4,2,11,0,0,0
59165,-100,4,2,11,0,0,0
89002,-54.3478260869565,4,2,11,0,0,0
89043,-108.695652173913,4,2,11,0,0,0
89083,-100,4,2,11,0,0,0
89165,-10000,4,2,11,0,0,0
89246,-100,4,2,11,0,0,0
89328,-54.3478260869565,4,2,11,0,0,0
89369,-108.695652173913,4,2,11,0,0,0
89409,-100,4,2,11,0,0,0
89491,-10000,4,2,11,0,0,0
89572,-100,4,2,11,0,0,0
89654,-54.3478260869565,4,2,11,0,0,0
89695,-108.695652173913,4,2,11,0,0,0
89736,-100,4,2,11,0,0,0
89756,-10000,4,2,11,0,0,0
89797,-100,4,2,11,0,0,0
89818,-54.3478260869565,4,2,11,0,0,0
89858,-108.695652173913,4,2,11,0,0,0
89899,-100,4,2,11,0,0,0
89981,-54.3478260869565,4,2,11,0,0,0
90021,-108.695652173913,4,2,11,0,0,0
90062,-100,4,2,11,0,0,0
90144,-54.3478260869565,4,2,11,0,0,0
90184,-108.695652173913,4,2,11,0,0,0
90225,-100,4,2,11,0,0,0
90307,-54.3478260869565,4,2,11,0,0,0
90347,-108.695652173913,4,2,11,0,0,0
90388,-100,4,2,11,0,0,0
99437,-54.3478260869565,4,2,11,0,0,0
99478,-108.695652173913,4,2,11,0,0,0
99518,-100,4,2,11,0,0,0
99600,-10000,4,2,11,0,0,0
99681,-100,4,2,11,0,0,0
99763,-54.3478260869565,4,2,11,0,0,0
99804,-108.695652173913,4,2,11,0,0,0
99844,-100,4,2,11,0,0,0
99926,-10000,4,2,11,0,0,0
100007,-100,4,2,11,0,0,0
100089,-54.3478260869565,4,2,11,0,0,0
100130,-108.695652173913,4,2,11,0,0,0
100171,-100,4,2,11,0,0,0
100191,-10000,4,2,11,0,0,0
100232,-100,4,2,11,0,0,0
100415,-54.3478260869565,4,2,11,0,0,0
100455,-108.695652173913,4,2,11,0,0,0
100496,-100,4,2,11,0,0,0
100578,-54.3478260869565,4,2,11,0,0,0
100618,-108.695652173913,4,2,11,0,0,0
100659,-100,4,2,11,0,0,0
100741,-54.3478260869565,4,2,11,0,0,0
100781,-108.695652173913,4,2,11,0,0,0
100822,-100,4,2,11,0,0,0

[HitObjects]
64,192,3078,128,0,6991:0:0:0:0:
320,192,6991,1,0,0:0:0:0:
448,192,6991,1,0,0:0:0:0:
448,192,7155,1,0,0:0:0:0:
320,192,7155,1,0,0:0:0:0:
320,192,7318,128,0,7562:0:0:0:0:
448,192,7318,128,0,7562:0:0:0:0:
448,192,7644,1,0,0:0:0:0:
64,192,7644,128,0,7725:0:0:0:0:
64,192,7970,128,0,8133:0:0:0:0:
192,192,8133,1,0,0:0:0:0:
320,192,8133,1,0,0:0:0:0:
448,192,8296,128,0,8377:0:0:0:0:
192,192,8459,1,0,0:0:0:0:
320,192,8459,1,0,0:0:0:0:
64,192,8622,128,0,8785:0:0:0:0:
448,192,8622,128,0,8785:0:0:0:0:
192,192,8785,128,0,8948:0:0:0:0:
64,192,8948,1,0,0:0:0:0:
448,192,8948,1,0,0:0:0:0:
320,192,9111,128,0,9193:0:0:0:0:
64,192,9274,128,0,9356:0:0:0:0:
320,192,9437,1,0,0:0:0:0:
448,192,9437,1,0,0:0:0:0:
64,192,9519,1,0,0:0:0:0:
448,192,9600,128,0,9763:0:0:0:0:
320,192,9600,1,0,0:0:0:0:
192,192,9600,1,0,0:0:0:0:
64,192,9763,128,0,9926:0:0:0:0:
192,192,9763,1,0,0:0:0:0:
320,192,9926,1,0,0:0:0:0:
448,192,9926,1,0,0:0:0:0:
64,192,10252,128,0,10334:0:0:0:0:
448,192,10252,128,0,10334:0:0:0:0:
64,192,10578,128,0,10741:0:0:0:0:
448,192,10578,128,0,10660:0:0:0:0:
192,192,10741,1,0,0:0:0:0:
320,192,10741,1,0,0:0:0:0:
448,192,10905,1,0,0:0:0:0:
64,192,10905,128,0,11068:0:0:0:0:
192,192,11068,1,0,0:0:0:0:
320,192,11068,1,0,0:0:0:0:
448,192,11231,128,0,11883:0:0:0:0:
64,192,11394,1,0,0:0:0:0:
192,192,11394,1,0,0:0:0:0:
64,192,11557,1,0,0:0:0:0:
320,192,11557,1,0,0:0:0:0:
64,192,11720,1,0,0:0:0:0:
192,192,11720,1,0,0:0:0:0:
64,192,11883,1,0,0:0:0:0:
192,192,11964,1,0,0:0:0:0:
320,192,12046,1,0,0:0:0:0:
448,192,12046,1,0,0:0:0:0:
448,192,12209,1,0,0:0:0:0:
320,192,12209,128,0,12290:0:0:0:0:
64,192,12209,128,0,12616:0:0:0:0:
320,192,12372,1,0,0:0:0:0:
448,192,12372,1,0,0:0:0:0:
320,192,12535,1,0,0:0:0:0:
448,192,12535,1,0,0:0:0:0:
64,192,12861,128,0,12943:0:0:0:0:
448,192,12861,128,0,13187:0:0:0:0:
320,192,13187,1,0,0:0:0:0:
64,192,13187,1,0,0:0:0:0:
192,192,13350,1,0,0:0:0:0:
64,192,13350,128,0,13513:0:0:0:0:
320,192,13513,1,0,0:0:0:0:
448,192,13513,1,0,0:0:0:0:
192,192,13676,128,0,13839:0:0:0:0:
64,192,13676,1,0,0:0:0:0:
448,192,13839,1,0,0:0:0:0:
320,192,13839,1,0,0:0:0:0:
192,192,14002,1,0,0:0:0:0:
64,192,14002,128,0,14165:0:0:0:0:
192,192,14165,1,0,0:0:0:0:
448,192,14165,1,0,0:0:0:0:
192,192,14328,1,0,0:0:0:0:
64,192,14328,1,0,0:0:0:0:
448,192,14491,1,0,0:0:0:0:
64,192,14491,1,0,0:0:0:0:
320,192,14573,1,0,0:0:0:0:
448,192,14655,1,0,0:0:0:0:
64,192,14655,1,0,0:0:0:0:
320,192,14736,1,0,0:0:0:0:
192,192,14818,1,0,0:0:0:0:
448,192,14818,1,0,0:0:0:0:
64,192,14818,128,0,14981:0:0:0:0:
448,192,14981,1,0,0:0:0:0:
192,192,14981,128,0,15225:0:0:0:0:
320,192,15144,1,0,0:0:0:0:
448,192,15144,1,0,0:0:0:0:
64,192,15307,1,0,0:0:0:0:
192,192,15307,1,0,0:0:0:0:
192,192,15470,1,0,0:0:0:0:
320,192,15470,1,0,0:0:0:0:
448,192,15470,1,0,0:0:0:0:
64,192,15633,1,0,0:0:0:0:
448,192,15633,1,0,0:0:0:0:
320,192,15633,1,0,0:0:0:0:
192,192,15796,1,0,0:0:0:0:
320,192,15796,1,0,0:0:0:0:
64,192,15959,128,0,16040:0:0:0:0:
320,192,15959,128,0,16040:0:0:0:0:
192,192,15959,128,0,16040:0:0:0:0:
192,192,16285,128,0,16366:0:0:0:0:
320,192,16285,128,0,16366:0:0:0:0:
448,192,16285,128,0,16366:0:0:0:0:
64,192,16611,128,0,16693:0:0:0:0:
320,192,16611,128,0,16693:0:0:0:0:
448,192,16611,128,0,16693:0:0:0:0:
64,192,16774,1,0,0:0:0:0:
448,192,16774,1,0,0:0:0:0:
320,192,16937,1,0,0:0:0:0:
448,192,16937,1,0,0:0:0:0:
320,192,17100,1,0,0:0:0:0:
448,192,17100,1,0,0:0:0:0:
320,192,17263,1,0,0:0:0:0:
448,192,17263,1,0,0:0:0:0:
64,192,17426,128,0,17671:0:0:0:0:
192,192,17426,128,0,17589:0:0:0:0:
448,192,17589,128,0,17671:0:0:0:0:
64,192,17915,128,0,18078:0:0:0:0:
192,192,18078,1,0,0:0:0:0:
448,192,18078,1,0,0:0:0:0:
64,192,18405,128,0,18486:0:0:0:0:
192,192,18405,128,0,18486:0:0:0:0:
64,192,18568,128,0,18649:0:0:0:0:
192,192,18568,128,0,18649:0:0:0:0:
448,192,18731,128,0,18894:0:0:0:0:
64,192,18894,128,0,19138:0:0:0:0:
192,192,18894,1,0,0:0:0:0:
320,192,19057,1,0,0:0:0:0:
448,192,19057,1,0,0:0:0:0:
320,192,19220,1,0,0:0:0:0:
448,192,19220,1,0,0:0:0:0:
64,192,19383,128,0,19546:0:0:0:0:
448,192,19383,128,0,19546:0:0:0:0:
320,192,19546,128,0,19709:0:0:0:0:
192,192,19709,128,0,19872:0:0:0:0:
64,192,19872,128,0,20035:0:0:0:0:
320,192,20035,128,0,20116:0:0:0:0:
448,192,20035,128,0,20116:0:0:0:0:
320,192,20198,128,0,20280:0:0:0:0:
448,192,20198,128,0,20280:0:0:0:0:
64,192,20524,1,0,0:0:0:0:
448,192,20524,1,0,0:0:0:0:
64,192,21013,128,0,21095:0:0:0:0:
192,192,21013,128,0,21095:0:0:0:0:
64,192,21176,128,0,21258:0:0:0:0:
192,192,21176,128,0,21258:0:0:0:0:
448,192,21339,128,0,21502:0:0:0:0:
192,192,21502,1,0,0:0:0:0:
320,192,21502,1,0,0:0:0:0:
64,192,21665,128,0,21828:0:0:0:0:
192,192,21828,1,0,0:0:0:0:
448,192,21828,1,0,0:0:0:0:
64,192,21991,128,0,22155:0:0:0:0:
448,192,21991,128,0,22155:0:0:0:0:
192,192,22155,128,0,22318:0:0:0:0:
320,192,22318,128,0,22481:0:0:0:0:
448,192,22481,128,0,22644:0:0:0:0:
64,192,22644,128,0,22725:0:0:0:0:
192,192,22644,128,0,22725:0:0:0:0:
64,192,22807,128,0,22888:0:0:0:0:
192,192,22807,128,0,22888:0:0:0:0:
64,192,23133,1,0,0:0:0:0:
192,192,23133,1,0,0:0:0:0:
448,192,23133,1,0,0:0:0:0:
64,192,23459,1,0,0:0:0:0:
192,192,23540,1,0,0:0:0:0:
320,192,23622,1,0,0:0:0:0:
448,192,23622,128,0,23785:0:0:0:0:
64,192,23622,128,0,23703:0:0:0:0:
192,192,23785,128,0,23866:0:0:0:0:
320,192,23785,128,0,23866:0:0:0:0:
64,192,23948,128,0,24274:0:0:0:0:
448,192,23948,128,0,24030:0:0:0:0:
320,192,24111,128,0,24193:0:0:0:0:
192,192,24274,128,0,24356:0:0:0:0:
64,192,24437,1,0,0:0:0:0:
192,192,24437,1,0,0:0:0:0:
64,192,24600,128,0,24763:0:0:0:0:
320,192,24600,128,0,24763:0:0:0:0:
448,192,24763,128,0,24926:0:0:0:0:
320,192,24926,128,0,25089:0:0:0:0:
64,192,24926,1,0,0:0:0:0:
192,192,24926,1,0,0:0:0:0:
192,192,25089,128,0,25252:0:0:0:0:
320,192,25252,128,0,25334:0:0:0:0:
448,192,25252,128,0,25334:0:0:0:0:
320,192,25415,128,0,25497:0:0:0:0:
448,192,25415,128,0,25497:0:0:0:0:
64,192,25741,128,0,25823:0:0:0:0:
320,192,25741,128,0,25823:0:0:0:0:
64,192,26231,128,0,26312:0:0:0:0:
192,192,26231,128,0,26312:0:0:0:0:
64,192,26394,128,0,26475:0:0:0:0:
192,192,26394,128,0,26475:0:0:0:0:
64,192,26720,128,0,26801:0:0:0:0:
192,192,26720,128,0,26801:0:0:0:0:
64,192,27046,128,0,27209:0:0:0:0:
448,192,27209,128,0,27372:0:0:0:0:
192,192,27209,128,0,27372:0:0:0:0:
320,192,27372,128,0,27535:0:0:0:0:
192,192,27535,128,0,27698:0:0:0:0:
448,192,27698,1,0,0:0:0:0:
320,192,27780,1,0,0:0:0:0:
192,192,27861,128,0,27943:0:0:0:0:
64,192,27861,128,0,27943:0:0:0:0:
64,192,28024,128,0,28106:0:0:0:0:
192,192,28024,128,0,28106:0:0:0:0:
192,192,28350,128,0,28595:0:0:0:0:
64,192,28350,128,0,28595:0:0:0:0:
64,192,28839,128,0,29002:0:0:0:0:
320,192,29002,128,0,29084:0:0:0:0:
448,192,29002,128,0,29084:0:0:0:0:
320,192,29328,128,0,29410:0:0:0:0:
448,192,29328,128,0,29410:0:0:0:0:
64,192,29655,128,0,29818:0:0:0:0:
192,192,29818,128,0,29981:0:0:0:0:
448,192,29818,128,0,29981:0:0:0:0:
64,192,29981,1,0,0:0:0:0:
320,192,30062,1,0,0:0:0:0:
192,192,30144,1,0,0:0:0:0:
64,192,30144,1,0,0:0:0:0:
192,192,30307,1,0,0:0:0:0:
320,192,30307,1,0,0:0:0:0:
64,192,30470,128,0,30551:0:0:0:0:
320,192,30470,128,0,30551:0:0:0:0:
448,192,30470,128,0,30551:0:0:0:0:
320,192,30633,128,0,30714:0:0:0:0:
448,192,30633,128,0,30714:0:0:0:0:
64,192,30959,128,0,31040:0:0:0:0:
448,192,30959,128,0,31040:0:0:0:0:
64,192,31448,128,0,31530:0:0:0:0:
192,192,31448,128,0,31530:0:0:0:0:
64,192,31611,128,0,31693:0:0:0:0:
192,192,31611,128,0,31693:0:0:0:0:
64,192,31937,128,0,32426:0:0:0:0:
192,192,32263,128,0,32426:0:0:0:0:
320,192,32426,1,0,0:0:0:0:
448,192,32426,128,0,32589:0:0:0:0:
320,192,32589,128,0,32752:0:0:0:0:
64,192,32752,128,0,32915:0:0:0:0:
192,192,32915,128,0,33078:0:0:0:0:
320,192,33078,128,0,33160:0:0:0:0:
448,192,33078,128,0,33160:0:0:0:0:
320,192,33241,128,0,33323:0:0:0:0:
448,192,33241,128,0,33323:0:0:0:0:
64,192,33568,128,0,33649:0:0:0:0:
448,192,33568,128,0,33649:0:0:0:0:
320,192,33568,128,0,33649:0:0:0:0:
320,192,34057,128,0,34138:0:0:0:0:
448,192,34057,128,0,34138:0:0:0:0:
320,192,34220,128,0,34301:0:0:0:0:
448,192,34220,128,0,34301:0:0:0:0:
320,192,34546,128,0,34627:0:0:0:0:
448,192,34546,128,0,34627:0:0:0:0:
64,192,34872,128,0,35035:0:0:0:0:
192,192,35035,128,0,35198:0:0:0:0:
448,192,35035,128,0,35198:0:0:0:0:
320,192,35198,128,0,35361:0:0:0:0:
192,192,35361,128,0,35524:0:0:0:0:
448,192,35524,1,0,0:0:0:0:
320,192,35606,1,0,0:0:0:0:
448,192,35687,1,0,0:0:0:0:
64,192,35687,128,0,35769:0:0:0:0:
192,192,35687,128,0,35769:0:0:0:0:
64,192,35850,128,0,35932:0:0:0:0:
192,192,35850,128,0,35932:0:0:0:0:
64,192,36176,128,0,36258:0:0:0:0:
448,192,36176,128,0,36258:0:0:0:0:
320,192,36176,128,0,36258:0:0:0:0:
192,192,36502,128,0,36665:0:0:0:0:
320,192,36665,1,0,0:0:0:0:
64,192,36665,128,0,36828:0:0:0:0:
192,192,36828,128,0,36991:0:0:0:0:
448,192,36828,128,0,36991:0:0:0:0:
320,192,36991,128,0,37155:0:0:0:0:
448,192,37155,128,0,37318:0:0:0:0:
64,192,37318,128,0,37399:0:0:0:0:
192,192,37318,128,0,37399:0:0:0:0:
320,192,37318,128,0,37399:0:0:0:0:
192,192,37481,128,0,37562:0:0:0:0:
320,192,37481,128,0,37562:0:0:0:0:
448,192,37481,128,0,37562:0:0:0:0:
64,192,37644,128,0,37725:0:0:0:0:
320,192,37644,128,0,37725:0:0:0:0:
448,192,37644,128,0,37725:0:0:0:0:
64,192,37807,128,0,37888:0:0:0:0:
192,192,37807,128,0,37888:0:0:0:0:
448,192,37807,128,0,37888:0:0:0:0:
64,192,37970,128,0,38051:0:0:0:0:
448,192,37970,128,0,38051:0:0:0:0:
192,192,38133,128,0,38214:0:0:0:0:
320,192,38133,128,0,38214:0:0:0:0:
64,192,38296,128,0,39519:0:0:0:0:
192,192,38296,128,0,40008:0:0:0:0:
320,192,38296,128,0,38703:0:0:0:0:
448,192,38296,128,0,39193:0:0:0:0:
320,192,38785,128,0,40334:0:0:0:0:
448,192,39274,128,0,40823:0:0:0:0:
64,192,39600,128,0,40823:0:0:0:0:
192,192,40089,128,0,40497:0:0:0:0:
320,192,40415,128,0,41312:0:0:0:0:
192,192,40578,128,0,41801:0:0:0:0:
448,192,40905,128,0,43432:0:0:0:0:
64,192,40905,128,0,42127:0:0:0:0:
320,192,41394,128,0,43106:0:0:0:0:
192,192,41883,128,0,42616:0:0:0:0:
64,192,42209,128,0,43432:0:0:0:0:
192,192,42698,128,0,43187:0:0:0:0:
320,192,43187,128,0,43269:0:0:0:0:
192,192,43269,128,0,44573:0:0:0:0:
320,192,43350,128,0,44736:0:0:0:0:
64,192,43513,128,0,44410:0:0:0:0:
448,192,43513,128,0,44736:0:0:0:0:
64,192,44491,128,0,45714:0:0:0:0:
192,192,44655,128,0,45062:0:0:0:0:
320,192,44818,128,0,45062:0:0:0:0:
448,192,44818,128,0,45388:0:0:0:0:
192,192,45144,128,0,45714:0:0:0:0:
320,192,45144,128,0,45388:0:0:0:0:
320,192,45470,128,0,46040:0:0:0:0:
448,192,45470,128,0,46040:0:0:0:0:
192,192,45796,128,0,46530:0:0:0:0:
64,192,45796,128,0,46040:0:0:0:0:
64,192,46122,128,0,47019:0:0:0:0:
320,192,46122,128,0,47182:0:0:0:0:
448,192,46122,128,0,47182:0:0:0:0:
192,192,46611,128,0,47182:0:0:0:0:
64,192,47100,128,0,47182:0:0:0:0:
64,192,47263,1,0,0:0:0:0:
192,192,47345,1,0,0:0:0:0:
320,192,47426,1,0,0:0:0:0:
448,192,47426,1,0,0:0:0:0:
64,192,47426,1,0,0:0:0:0:
64,192,47752,1,0,0:0:0:0:
320,192,47752,1,0,0:0:0:0:
448,192,47752,1,0,0:0:0:0:
448,192,48078,128,0,48241:0:0:0:0:
64,192,48241,1,0,0:0:0:0:
192,192,48241,1,0,0:0:0:0:
64,192,48405,1,0,0:0:0:0:
192,192,48405,1,0,0:0:0:0:
192,192,48731,1,0,0:0:0:0:
320,192,48731,1,0,0:0:0:0:
64,192,48731,128,0,49383:0:0:0:0:
192,192,49220,1,0,0:0:0:0:
320,192,49220,1,0,0:0:0:0:
192,192,49383,1,0,0:0:0:0:
448,192,49383,1,0,0:0:0:0:
64,192,49709,1,0,0:0:0:0:
192,192,49709,1,0,0:0:0:0:
192,192,50035,128,0,50524:0:0:0:0:
64,192,50524,128,0,51013:0:0:0:0:
448,192,50524,1,0,0:0:0:0:
320,192,50524,1,0,0:0:0:0:
192,192,50687,1,0,0:0:0:0:
448,192,50687,1,0,0:0:0:0:
192,192,51013,128,0,51339:0:0:0:0:
320,192,51339,1,0,0:0:0:0:
448,192,51339,1,0,0:0:0:0:
64,192,51665,128,0,51828:0:0:0:0:
192,192,51828,1,0,0:0:0:0:
448,192,51828,1,0,0:0:0:0:
320,192,51991,1,0,0:0:0:0:
64,192,51991,1,0,0:0:0:0:
448,192,51991,1,0,0:0:0:0:
320,192,52318,1,0,0:0:0:0:
448,192,52318,1,0,0:0:0:0:
64,192,52644,128,0,52888:0:0:0:0:
192,192,52807,1,0,0:0:0:0:
320,192,52807,1,0,0:0:0:0:
320,192,52970,1,0,0:0:0:0:
448,192,52970,1,0,0:0:0:0:
64,192,53133,1,0,0:0:0:0:
192,192,53174,1,0,0:0:0:0:
320,192,53214,1,0,0:0:0:0:
448,192,53255,1,0,0:0:0:0:
64,192,53622,128,0,53785:0:0:0:0:
192,192,53785,128,0,53948:0:0:0:0:
448,192,53948,1,0,0:0:0:0:
64,192,53948,1,0,0:0:0:0:
64,192,54437,128,0,54600:0:0:0:0:
320,192,54600,1,0,0:0:0:0:
448,192,54600,1,0,0:0:0:0:
64,192,54926,128,0,55252:0:0:0:0:
192,192,55252,128,0,55578:0:0:0:0:
320,192,55415,1,0,0:0:0:0:
448,192,55415,128,0,55497:0:0:0:0:
320,192,55578,1,0,0:0:0:0:
448,192,55578,1,0,0:0:0:0:
192,192,55741,1,0,0:0:0:0:
64,192,55741,1,0,0:0:0:0:
448,192,55741,1,0,0:0:0:0:
192,192,55905,1,0,0:0:0:0:
320,192,55905,1,0,0:0:0:0:
64,192,56231,1,0,0:0:0:0:
192,192,56312,1,0,0:0:0:0:
320,192,56394,1,0,0:0:0:0:
448,192,56475,1,0,0:0:0:0:
64,192,56557,128,0,56883:0:0:0:0:
192,192,56557,128,0,56801:0:0:0:0:
320,192,56557,128,0,56720:0:0:0:0:
64,192,57046,1,0,0:0:0:0:
192,192,57046,1,0,0:0:0:0:
64,192,57209,1,0,0:0:0:0:
448,192,57209,1,0,0:0:0:0:
320,192,57209,1,0,0:0:0:0:
192,192,57535,128,0,57861:0:0:0:0:
64,192,57861,1,0,0:0:0:0:
448,192,57861,1,0,0:0:0:0:
64,192,58024,5,0,0:0:0:0:
192,192,58106,1,0,0:0:0:0:
320,192,58187,1,0,0:0:0:0:
448,192,58187,1,0,0:0:0:0:
192,192,58350,1,0,0:0:0:0:
320,192,58350,1,0,0:0:0:0:
64,192,58513,128,0,58595:0:0:0:0:
448,192,58513,128,0,58595:0:0:0:0:
64,192,59165,128,0,59491:0:0:0:0:
320,192,59165,1,0,0:0:0:0:
192,192,59165,128,0,59247:0:0:0:0:
320,192,59328,128,0,59410:0:0:0:0:
448,192,59328,1,0,0:0:0:0:
192,192,59491,1,0,0:0:0:0:
448,192,59491,128,0,59573:0:0:0:0:
448,192,59655,1,0,0:0:0:0:
320,192,59655,128,0,59736:0:0:0:0:
64,192,59736,128,0,59818:0:0:0:0:
320,192,59818,1,0,0:0:0:0:
192,192,59818,128,0,59899:0:0:0:0:
448,192,59899,128,0,59981:0:0:0:0:
64,192,59981,128,0,60144:0:0:0:0:
320,192,59981,128,0,60062:0:0:0:0:
192,192,60062,128,0,60144:0:0:0:0:
448,192,60144,128,0,60225:0:0:0:0:
192,192,60225,128,0,60307:0:0:0:0:
448,192,60307,1,0,0:0:0:0:
320,192,60307,128,0,60388:0:0:0:0:
448,192,60470,1,0,0:0:0:0:
320,192,60470,1,0,0:0:0:0:
64,192,60470,128,0,60551:0:0:0:0:
448,192,60633,128,0,60714:0:0:0:0:
64,192,60633,128,0,60714:0:0:0:0:
192,192,60714,128,0,60796:0:0:0:0:
448,192,60796,1,0,0:0:0:0:
320,192,60796,128,0,60877:0:0:0:0:
448,192,60959,1,0,0:0:0:0:
192,192,60959,1,0,0:0:0:0:
64,192,60959,128,0,61040:0:0:0:0:
320,192,61040,128,0,61122:0:0:0:0:
64,192,61122,128,0,61203:0:0:0:0:
448,192,61122,128,0,61203:0:0:0:0:
448,192,61285,128,0,61448:0:0:0:0:
192,192,61285,1,0,0:0:0:0:
320,192,61285,1,0,0:0:0:0:
64,192,61448,128,0,61530:0:0:0:0:
320,192,61530,128,0,61611:0:0:0:0:
64,192,61611,1,0,0:0:0:0:
192,192,61611,128,0,61693:0:0:0:0:
448,192,61693,1,0,0:0:0:0:
64,192,61774,1,0,0:0:0:0:
192,192,61774,1,0,0:0:0:0:
320,192,61774,128,0,61856:0:0:0:0:
64,192,61937,128,0,62100:0:0:0:0:
448,192,61937,128,0,62019:0:0:0:0:
320,192,62019,128,0,62100:0:0:0:0:
192,192,62100,128,0,62182:0:0:0:0:
448,192,62100,128,0,62182:0:0:0:0:
64,192,62263,128,0,62345:0:0:0:0:
320,192,62263,128,0,62345:0:0:0:0:
448,192,62263,128,0,62345:0:0:0:0:
192,192,62345,128,0,62426:0:0:0:0:
64,192,62426,128,0,62508:0:0:0:0:
192,192,62508,128,0,62589:0:0:0:0:
448,192,62589,128,0,62671:0:0:0:0:
320,192,62589,1,0,0:0:0:0:
64,192,62752,128,0,62915:0:0:0:0:
448,192,62752,128,0,62915:0:0:0:0:
320,192,62752,128,0,62834:0:0:0:0:
192,192,62915,128,0,63078:0:0:0:0:
320,192,62997,128,0,63078:0:0:0:0:
64,192,63078,128,0,63405:0:0:0:0:
448,192,63078,128,0,63160:0:0:0:0:
320,192,63160,128,0,63241:0:0:0:0:
192,192,63241,128,0,63323:0:0:0:0:
448,192,63323,128,0,63405:0:0:0:0:
192,192,63405,128,0,63731:0:0:0:0:
320,192,63405,128,0,63486:0:0:0:0:
64,192,63486,128,0,63568:0:0:0:0:
448,192,63568,128,0,63649:0:0:0:0:
64,192,63649,128,0,63731:0:0:0:0:
448,192,63731,128,0,64057:0:0:0:0:
320,192,63731,128,0,63812:0:0:0:0:
192,192,63812,128,0,63894:0:0:0:0:
64,192,63894,128,0,63975:0:0:0:0:
192,192,63975,128,0,64057:0:0:0:0:
320,192,64057,128,0,64383:0:0:0:0:
64,192,64057,128,0,64138:0:0:0:0:
192,192,64138,128,0,64220:0:0:0:0:
448,192,64220,128,0,64301:0:0:0:0:
64,192,64301,128,0,64383:0:0:0:0:
192,192,64383,128,0,64464:0:0:0:0:
448,192,64383,128,0,64464:0:0:0:0:
64,192,64546,1,0,0:0:0:0:
192,192,64546,1,0,0:0:0:0:
64,192,64709,1,0,0:0:0:0:
192,192,64709,1,0,0:0:0:0:
448,192,64709,1,0,0:0:0:0:
192,192,64872,128,0,64953:0:0:0:0:
320,192,64953,128,0,65035:0:0:0:0:
448,192,65035,1,0,0:0:0:0:
64,192,65035,128,0,65116:0:0:0:0:
192,192,65116,1,0,0:0:0:0:
320,192,65198,1,0,0:0:0:0:
448,192,65198,128,0,65687:0:0:0:0:
192,192,65361,1,0,0:0:0:0:
320,192,65361,1,0,0:0:0:0:
64,192,65524,1,0,0:0:0:0:
192,192,65524,1,0,0:0:0:0:
320,192,65687,1,0,0:0:0:0:
64,192,65687,128,0,66013:0:0:0:0:
320,192,65850,1,0,0:0:0:0:
192,192,65850,1,0,0:0:0:0:
192,192,66013,1,0,0:0:0:0:
448,192,66013,1,0,0:0:0:0:
448,192,66176,128,0,66258:0:0:0:0:
64,192,66176,128,0,66258:0:0:0:0:
320,192,66258,128,0,66339:0:0:0:0:
448,192,66339,128,0,66421:0:0:0:0:
64,192,66339,128,0,66421:0:0:0:0:
192,192,66339,128,0,66421:0:0:0:0:
320,192,66421,128,0,66502:0:0:0:0:
192,192,66502,128,0,66584:0:0:0:0:
64,192,66502,128,0,66584:0:0:0:0:
448,192,66584,128,0,66665:0:0:0:0:
320,192,66665,128,0,66747:0:0:0:0:
192,192,66665,128,0,66747:0:0:0:0:
64,192,66665,128,0,66747:0:0:0:0:
448,192,66747,128,0,66828:0:0:0:0:
320,192,66828,128,0,66910:0:0:0:0:
192,192,66828,128,0,66910:0:0:0:0:
64,192,66910,128,0,66991:0:0:0:0:
320,192,66991,1,0,0:0:0:0:
448,192,66991,128,0,67318:0:0:0:0:
192,192,66991,128,0,67073:0:0:0:0:
320,192,67073,128,0,67155:0:0:0:0:
64,192,67155,128,0,67236:0:0:0:0:
192,192,67236,128,0,67318:0:0:0:0:
320,192,67318,128,0,67399:0:0:0:0:
64,192,67318,128,0,67399:0:0:0:0:
448,192,67399,128,0,67481:0:0:0:0:
64,192,67481,128,0,67644:0:0:0:0:
320,192,67481,128,0,67644:0:0:0:0:
448,192,67562,128,0,67644:0:0:0:0:
192,192,67644,128,0,67807:0:0:0:0:
64,192,67725,128,0,67807:0:0:0:0:
448,192,67807,128,0,67970:0:0:0:0:
320,192,67807,128,0,67888:0:0:0:0:
192,192,67888,128,0,67970:0:0:0:0:
64,192,67970,128,0,68296:0:0:0:0:
320,192,67970,128,0,68133:0:0:0:0:
448,192,68051,128,0,68133:0:0:0:0:
192,192,68133,128,0,68296:0:0:0:0:
448,192,68214,128,0,68296:0:0:0:0:
320,192,68296,1,0,0:0:0:0:
320,192,68459,128,0,68540:0:0:0:0:
448,192,68459,128,0,68540:0:0:0:0:
192,192,68540,128,0,68622:0:0:0:0:
448,192,68622,1,0,0:0:0:0:
64,192,68622,1,0,0:0:0:0:
320,192,68703,1,0,0:0:0:0:
448,192,68785,1,0,0:0:0:0:
192,192,68866,1,0,0:0:0:0:
64,192,68948,1,0,0:0:0:0:
320,192,68948,1,0,0:0:0:0:
448,192,68948,1,0,0:0:0:0:
192,192,69111,1,0,0:0:0:0:
320,192,69111,1,0,0:0:0:0:
320,192,69274,1,0,0:0:0:0:
448,192,69274,1,0,0:0:0:0:
64,192,69356,1,0,0:0:0:0:
192,192,69356,1,0,0:0:0:0:
320,192,69437,1,0,0:0:0:0:
448,192,69437,1,0,0:0:0:0:
192,192,69519,1,0,0:0:0:0:
64,192,69519,1,0,0:0:0:0:
448,192,69600,128,0,69763:0:0:0:0:
320,192,69600,128,0,69682:0:0:0:0:
64,192,69600,128,0,69682:0:0:0:0:
192,192,69682,128,0,69763:0:0:0:0:
320,192,69763,128,0,69845:0:0:0:0:
192,192,69845,128,0,69926:0:0:0:0:
320,192,69926,1,0,0:0:0:0:
448,192,69926,1,0,0:0:0:0:
320,192,70089,1,0,0:0:0:0:
448,192,70089,1,0,0:0:0:0:
192,192,70171,1,0,0:0:0:0:
320,192,70252,1,0,0:0:0:0:
448,192,70252,1,0,0:0:0:0:
64,192,70252,1,0,0:0:0:0:
192,192,70334,1,0,0:0:0:0:
320,192,70415,1,0,0:0:0:0:
448,192,70415,1,0,0:0:0:0:
192,192,70497,1,0,0:0:0:0:
64,192,70578,1,0,0:0:0:0:
320,192,70578,1,0,0:0:0:0:
448,192,70578,128,0,70905:0:0:0:0:
192,192,70741,1,0,0:0:0:0:
320,192,70741,1,0,0:0:0:0:
64,192,70905,128,0,71231:0:0:0:0:
192,192,70905,128,0,70986:0:0:0:0:
448,192,70986,128,0,71068:0:0:0:0:
192,192,71068,128,0,71149:0:0:0:0:
320,192,71068,128,0,71149:0:0:0:0:
448,192,71149,128,0,71231:0:0:0:0:
192,192,71231,128,0,71557:0:0:0:0:
320,192,71231,128,0,71312:0:0:0:0:
448,192,71312,128,0,71394:0:0:0:0:
320,192,71394,128,0,71475:0:0:0:0:
64,192,71394,128,0,71475:0:0:0:0:
448,192,71475,128,0,71557:0:0:0:0:
320,192,71557,128,0,71883:0:0:0:0:
64,192,71557,128,0,71638:0:0:0:0:
448,192,71638,128,0,71720:0:0:0:0:
192,192,71720,128,0,71801:0:0:0:0:
64,192,71801,128,0,71883:0:0:0:0:
448,192,71883,128,0,72209:0:0:0:0:
192,192,71883,128,0,71964:0:0:0:0:
64,192,71964,128,0,72046:0:0:0:0:
192,192,72046,128,0,72127:0:0:0:0:
320,192,72046,128,0,72127:0:0:0:0:
64,192,72127,128,0,72209:0:0:0:0:
320,192,72209,128,0,72290:0:0:0:0:
192,192,72209,128,0,72290:0:0:0:0:
64,192,72372,128,0,72453:0:0:0:0:
192,192,72372,128,0,72453:0:0:0:0:
320,192,72453,128,0,72535:0:0:0:0:
448,192,72535,1,0,0:0:0:0:
64,192,72535,1,0,0:0:0:0:
192,192,72616,128,0,72698:0:0:0:0:
64,192,72698,1,0,0:0:0:0:
320,192,72698,1,0,0:0:0:0:
448,192,72780,1,0,0:0:0:0:
64,192,72861,1,0,0:0:0:0:
320,192,72861,128,0,72943:0:0:0:0:
192,192,72943,1,0,0:0:0:0:
320,192,73024,1,0,0:0:0:0:
448,192,73024,1,0,0:0:0:0:
64,192,73024,128,0,73106:0:0:0:0:
192,192,73106,1,0,0:0:0:0:
320,192,73187,1,0,0:0:0:0:
448,192,73187,128,0,73269:0:0:0:0:
64,192,73269,1,0,0:0:0:0:
192,192,73350,1,0,0:0:0:0:
448,192,73350,1,0,0:0:0:0:
320,192,73350,128,0,73432:0:0:0:0:
64,192,73432,1,0,0:0:0:0:
448,192,73513,128,0,73839:0:0:0:0:
192,192,73513,128,0,73595:0:0:0:0:
320,192,73513,128,0,73595:0:0:0:0:
64,192,73595,128,0,73676:0:0:0:0:
192,192,73676,128,0,73758:0:0:0:0:
320,192,73758,128,0,73839:0:0:0:0:
64,192,73839,128,0,74165:0:0:0:0:
192,192,73839,128,0,73921:0:0:0:0:
320,192,73921,128,0,74002:0:0:0:0:
192,192,74002,128,0,74084:0:0:0:0:
448,192,74002,128,0,74084:0:0:0:0:
320,192,74084,128,0,74165:0:0:0:0:
192,192,74165,128,0,74491:0:0:0:0:
448,192,74165,128,0,74247:0:0:0:0:
64,192,74247,128,0,74328:0:0:0:0:
320,192,74328,128,0,74410:0:0:0:0:
448,192,74328,128,0,74410:0:0:0:0:
64,192,74491,1,0,0:0:0:0:
320,192,74491,128,0,74573:0:0:0:0:
448,192,74491,128,0,74573:0:0:0:0:
320,192,74655,128,0,74736:0:0:0:0:
448,192,74655,128,0,74736:0:0:0:0:
64,192,74818,128,0,75062:0:0:0:0:
192,192,74818,128,0,75388:0:0:0:0:
320,192,74818,128,0,75388:0:0:0:0:
448,192,74818,128,0,75388:0:0:0:0:
64,192,75144,128,0,75714:0:0:0:0:
192,192,75470,128,0,75877:0:0:0:0:
320,192,75470,128,0,76040:0:0:0:0:
448,192,75470,128,0,76693:0:0:0:0:
64,192,75796,128,0,76366:0:0:0:0:
192,192,75959,128,0,76203:0:0:0:0:
320,192,76122,128,0,77182:0:0:0:0:
192,192,76285,128,0,76693:0:0:0:0:
64,192,76448,128,0,76693:0:0:0:0:
64,192,76774,128,0,77182:0:0:0:0:
192,192,76774,128,0,77182:0:0:0:0:
448,192,76774,128,0,77182:0:0:0:0:
320,192,77263,128,0,77345:0:0:0:0:
448,192,77263,128,0,77345:0:0:0:0:
192,192,77345,128,0,77426:0:0:0:0:
64,192,77345,128,0,77426:0:0:0:0:
320,192,77426,128,0,77752:0:0:0:0:
448,192,77426,128,0,77752:0:0:0:0:
192,192,77589,1,0,0:0:0:0:
64,192,77752,1,0,0:0:0:0:
192,192,77752,1,0,0:0:0:0:
64,192,78078,128,0,78160:0:0:0:0:
448,192,78078,128,0,78160:0:0:0:0:
192,192,78078,128,0,78160:0:0:0:0:
448,192,78405,1,0,0:0:0:0:
64,192,78405,128,0,78568:0:0:0:0:
192,192,78568,5,0,0:0:0:0:
320,192,78568,1,0,0:0:0:0:
64,192,78894,128,0,79057:0:0:0:0:
320,192,78894,1,0,0:0:0:0:
192,192,79057,1,0,0:0:0:0:
320,192,79057,1,0,0:0:0:0:
64,192,79220,1,0,0:0:0:0:
192,192,79301,1,0,0:0:0:0:
320,192,79383,1,0,0:0:0:0:
448,192,79383,1,0,0:0:0:0:
64,192,79383,1,0,0:0:0:0:
192,192,79546,1,0,0:0:0:0:
320,192,79546,1,0,0:0:0:0:
64,192,79709,5,0,0:0:0:0:
192,192,79750,1,0,0:0:0:0:
320,192,79790,1,0,0:0:0:0:
448,192,79831,1,0,0:0:0:0:
64,192,79872,1,0,0:0:0:0:
192,192,79913,1,0,0:0:0:0:
320,192,79953,1,0,0:0:0:0:
448,192,79994,1,0,0:0:0:0:
64,192,80035,1,0,0:0:0:0:
192,192,80035,1,0,0:0:0:0:
64,192,80198,1,0,0:0:0:0:
192,192,80198,1,0,0:0:0:0:
192,192,80361,128,0,80606:0:0:0:0:
64,192,80361,128,0,80606:0:0:0:0:
64,192,80687,1,0,0:0:0:0:
448,192,80687,128,0,80769:0:0:0:0:
448,192,81013,128,0,81176:0:0:0:0:
320,192,81176,1,0,0:0:0:0:
192,192,81176,1,0,0:0:0:0:
320,192,81502,1,0,0:0:0:0:
192,192,81502,1,0,0:0:0:0:
448,192,81665,128,0,81828:0:0:0:0:
64,192,81665,128,0,81828:0:0:0:0:
320,192,81828,128,0,81991:0:0:0:0:
448,192,81991,1,0,0:0:0:0:
64,192,81991,1,0,0:0:0:0:
448,192,82318,128,0,82399:0:0:0:0:
320,192,82481,1,0,0:0:0:0:
192,192,82481,1,0,0:0:0:0:
64,192,82644,128,0,82807:0:0:0:0:
192,192,82644,1,0,0:0:0:0:
320,192,82644,1,0,0:0:0:0:
448,192,82807,128,0,82970:0:0:0:0:
320,192,82807,1,0,0:0:0:0:
192,192,82970,1,0,0:0:0:0:
64,192,82970,1,0,0:0:0:0:
64,192,83296,128,0,83377:0:0:0:0:
448,192,83296,128,0,83377:0:0:0:0:
448,192,83622,128,0,83785:0:0:0:0:
320,192,83785,1,0,0:0:0:0:
192,192,83785,1,0,0:0:0:0:
192,192,83948,1,0,0:0:0:0:
64,192,83948,1,0,0:0:0:0:
64,192,84111,128,0,84274:0:0:0:0:
320,192,84274,1,0,0:0:0:0:
192,192,84274,1,0,0:0:0:0:
448,192,84437,1,0,0:0:0:0:
320,192,84437,1,0,0:0:0:0:
448,192,84600,1,0,0:0:0:0:
192,192,84600,1,0,0:0:0:0:
64,192,84600,1,0,0:0:0:0:
448,192,84763,1,0,0:0:0:0:
320,192,84763,1,0,0:0:0:0:
448,192,84926,1,0,0:0:0:0:
320,192,85008,1,0,0:0:0:0:
192,192,85089,1,0,0:0:0:0:
64,192,85089,1,0,0:0:0:0:
448,192,85252,1,0,0:0:0:0:
64,192,85252,1,0,0:0:0:0:
192,192,85415,1,0,0:0:0:0:
64,192,85415,1,0,0:0:0:0:
192,192,85578,1,0,0:0:0:0:
64,192,85578,1,0,0:0:0:0:
448,192,85905,128,0,85986:0:0:0:0:
64,192,85905,128,0,86231:0:0:0:0:
192,192,86231,1,0,0:0:0:0:
448,192,86231,128,0,86394:0:0:0:0:
320,192,86394,1,0,0:0:0:0:
192,192,86394,1,0,0:0:0:0:
192,192,86557,1,0,0:0:0:0:
64,192,86557,1,0,0:0:0:0:
192,192,86720,1,0,0:0:0:0:
320,192,86720,1,0,0:0:0:0:
64,192,86883,1,0,0:0:0:0:
192,192,86883,1,0,0:0:0:0:
448,192,86883,1,0,0:0:0:0:
320,192,87046,1,0,0:0:0:0:
448,192,87046,128,0,87209:0:0:0:0:
320,192,87209,1,0,0:0:0:0:
64,192,87209,1,0,0:0:0:0:
320,192,87535,1,0,0:0:0:0:
64,192,87535,1,0,0:0:0:0:
192,192,87616,1,0,0:0:0:0:
320,192,87698,1,0,0:0:0:0:
64,192,87698,1,0,0:0:0:0:
192,192,87780,1,0,0:0:0:0:
320,192,87861,1,0,0:0:0:0:
64,192,87861,1,0,0:0:0:0:
448,192,87861,128,0,88024:0:0:0:0:
64,192,88024,1,0,0:0:0:0:
320,192,88024,128,0,88269:0:0:0:0:
192,192,88187,1,0,0:0:0:0:
64,192,88187,1,0,0:0:0:0:
448,192,88350,1,0,0:0:0:0:
320,192,88350,1,0,0:0:0:0:
320,192,88513,1,0,0:0:0:0:
192,192,88513,1,0,0:0:0:0:
64,192,88513,1,0,0:0:0:0:
448,192,88676,1,0,0:0:0:0:
64,192,88676,1,0,0:0:0:0:
192,192,88676,1,0,0:0:0:0:
320,192,88839,1,0,0:0:0:0:
192,192,88839,1,0,0:0:0:0:
448,192,89002,128,0,89084:0:0:0:0:
192,192,89002,128,0,89084:0:0:0:0:
320,192,89002,128,0,89084:0:0:0:0:
320,192,89328,128,0,89410:0:0:0:0:
192,192,89328,128,0,89410:0:0:0:0:
64,192,89328,128,0,89410:0:0:0:0:
448,192,89655,128,0,89736:0:0:0:0:
192,192,89655,128,0,89736:0:0:0:0:
64,192,89655,128,0,89736:0:0:0:0:
448,192,89818,1,0,0:0:0:0:
64,192,89818,1,0,0:0:0:0:
192,192,89981,1,0,0:0:0:0:
64,192,89981,1,0,0:0:0:0:
192,192,90144,1,0,0:0:0:0:
64,192,90144,1,0,0:0:0:0:
192,192,90307,1,0,0:0:0:0:
64,192,90307,1,0,0:0:0:0:
320,192,90470,1,0,0:0:0:0:
448,192,90470,1,0,0:0:0:0:
320,192,90633,1,0,0:0:0:0:
448,192,90633,1,0,0:0:0:0:
448,192,90796,128,0,91040:0:0:0:0:
320,192,90796,128,0,91040:0:0:0:0:
64,192,91122,128,0,91203:0:0:0:0:
448,192,91122,1,0,0:0:0:0:
64,192,91448,128,0,91611:0:0:0:0:
320,192,91611,1,0,0:0:0:0:
192,192,91611,1,0,0:0:0:0:
320,192,91937,1,0,0:0:0:0:
192,192,91937,1,0,0:0:0:0:
448,192,92100,128,0,92263:0:0:0:0:
64,192,92100,128,0,92263:0:0:0:0:
192,192,92263,128,0,92426:0:0:0:0:
448,192,92426,1,0,0:0:0:0:
64,192,92426,1,0,0:0:0:0:
64,192,92752,128,0,92834:0:0:0:0:
320,192,92915,1,0,0:0:0:0:
192,192,92915,1,0,0:0:0:0:
192,192,93078,1,0,0:0:0:0:
320,192,93078,1,0,0:0:0:0:
448,192,93078,128,0,93241:0:0:0:0:
192,192,93241,1,0,0:0:0:0:
64,192,93241,128,0,93405:0:0:0:0:
448,192,93405,1,0,0:0:0:0:
320,192,93405,1,0,0:0:0:0:
448,192,93731,1,0,0:0:0:0:
64,192,93731,1,0,0:0:0:0:
64,192,94057,128,0,94220:0:0:0:0:
320,192,94220,1,0,0:0:0:0:
192,192,94220,1,0,0:0:0:0:
448,192,94383,1,0,0:0:0:0:
320,192,94383,1,0,0:0:0:0:
448,192,94546,1,0,0:0:0:0:
192,192,94546,1,0,0:0:0:0:
320,192,94709,1,0,0:0:0:0:
192,192,94709,1,0,0:0:0:0:
192,192,94872,1,0,0:0:0:0:
64,192,94872,1,0,0:0:0:0:
448,192,95035,1,0,0:0:0:0:
320,192,95035,1,0,0:0:0:0:
64,192,95035,1,0,0:0:0:0:
192,192,95198,1,0,0:0:0:0:
64,192,95198,1,0,0:0:0:0:
320,192,95361,1,0,0:0:0:0:
192,192,95361,1,0,0:0:0:0:
64,192,95361,1,0,0:0:0:0:
448,192,95524,1,0,0:0:0:0:
320,192,95524,1,0,0:0:0:0:
448,192,95687,1,0,0:0:0:0:
64,192,95687,1,0,0:0:0:0:
448,192,95850,1,0,0:0:0:0:
320,192,95850,1,0,0:0:0:0:
448,192,96013,1,0,0:0:0:0:
320,192,96013,1,0,0:0:0:0:
320,192,96176,1,0,0:0:0:0:
192,192,96176,1,0,0:0:0:0:
64,192,96176,1,0,0:0:0:0:
448,192,96339,128,0,96665:0:0:0:0:
64,192,96339,128,0,96421:0:0:0:0:
64,192,96665,1,0,0:0:0:0:
320,192,96665,1,0,0:0:0:0:
64,192,96828,1,0,0:0:0:0:
192,192,96828,1,0,0:0:0:0:
448,192,96991,1,0,0:0:0:0:
320,192,96991,1,0,0:0:0:0:
192,192,97155,1,0,0:0:0:0:
64,192,97155,1,0,0:0:0:0:
320,192,97318,1,0,0:0:0:0:
448,192,97318,1,0,0:0:0:0:
64,192,97481,128,0,97644:0:0:0:0:
192,192,97481,1,0,0:0:0:0:
448,192,97644,128,0,98296:0:0:0:0:
192,192,97644,1,0,0:0:0:0:
192,192,97970,1,0,0:0:0:0:
64,192,97970,1,0,0:0:0:0:
64,192,98133,1,0,0:0:0:0:
192,192,98133,1,0,0:0:0:0:
64,192,98296,128,0,98459:0:0:0:0:
192,192,98296,1,0,0:0:0:0:
320,192,98296,1,0,0:0:0:0:
192,192,98459,128,0,98703:0:0:0:0:
448,192,98459,1,0,0:0:0:0:
448,192,98622,1,0,0:0:0:0:
320,192,98622,1,0,0:0:0:0:
192,192,98785,1,0,0:0:0:0:
64,192,98785,1,0,0:0:0:0:
448,192,98948,1,0,0:0:0:0:
320,192,98948,1,0,0:0:0:0:
192,192,98948,1,0,0:0:0:0:
320,192,99111,1,0,0:0:0:0:
448,192,99111,1,0,0:0:0:0:
64,192,99111,1,0,0:0:0:0:
320,192,99274,1,0,0:0:0:0:
192,192,99274,1,0,0:0:0:0:
192,192,99437,128,0,99519:0:0:0:0:
320,192,99437,128,0,99519:0:0:0:0:
64,192,99437,128,0,99519:0:0:0:0:
448,192,99763,128,0,99845:0:0:0:0:
320,192,99763,128,0,99845:0:0:0:0:
192,192,99763,128,0,99845:0:0:0:0:
448,192,100089,128,0,100171:0:0:0:0:
320,192,100089,128,0,100171:0:0:0:0:
64,192,100089,128,0,100171:0:0:0:0:
448,192,100252,1,0,0:0:0:0:
64,192,100252,1,0,0:0:0:0:
192,192,100415,128,0,100497:0:0:0:0:
64,192,100415,128,0,100497:0:0:0:0:
64,192,100578,128,0,100660:0:0:0:0:
192,192,100578,128,0,100660:0:0:0:0:
64,192,100741,128,0,100823:0:0:0:0:
192,192,100741,128,0,100823:0:0:0:0:
320,192,100741,128,0,100823:0:0:0:0:
448,192,100741,128,0,100823:0:0:0:0:
