osu file format v14

[General]
AudioFilename: audio.mp3
AudioLeadIn: 0
PreviewTime: 26862
Countdown: 0
SampleSet: None
StackLeniency: 0.7
Mode: 2
LetterboxInBreaks: 0
WidescreenStoryboard: 1

[Editor]
Bookmarks: 12745,24039,38156,49450,60745,83333,94627,128509,139803,151098,160627,162392,173686,184980,207568,230156
DistanceSpacing: 1.9
BeatDivisor: 16
GridSize: 8
TimelineZoom: 8

[Metadata]
Title:IKISUGI TRAP
TitleUnicode:IKISUGI TRAP
Artist:Various Artists
ArtistUnicode:Various Artists
Creator:Furely
Version:DYNAMO
Source:
Tags:furely
BeatmapID:1037040
BeatmapSetID:463542

[Difficulty]
HPDrainRate:1.1
CircleSize:4
OverallDifficulty:9.6
ApproachRate:9.6
SliderMultiplier:3.59999990463257
SliderTickRate:2

[Events]
//Background and Video events
0,0,"ikidugitrap.jpg",0,0
//Break Periods
//Storyboard Layer 0 (Background)
//Storyboard Layer 1 (Fail)
//Storyboard Layer 2 (Pass)
//Storyboard Layer 3 (Foreground)
//Storyboard Sound Samples

[TimingPoints]
1451,352.941176470588,4,2,0,63,1,0
1451,-200,4,2,0,63,0,0
12745,-100,4,2,0,63,0,0
23333,-100,4,2,0,33,0,0
26862,-200,4,2,0,63,0,0
38156,-200,4,2,0,63,0,1
38509,-100,4,2,0,63,0,1
38686,-200,4,2,0,63,0,1
39568,-50,4,2,0,63,0,1
39745,-200,4,2,0,63,0,1
40627,-200,4,2,0,33,0,1
40980,-50,4,2,0,33,0,1
41333,-200,4,2,0,63,0,1
41686,-200,4,2,0,33,0,1
42127,-66.6666666666667,4,2,0,63,0,1
42303,-200,4,2,0,63,0,1
42745,-200,4,2,0,33,0,1
42921,-200,4,2,0,63,0,1
43803,-66.6666666666667,4,2,0,63,0,1
44156,-200,4,2,0,33,0,1
44509,-66.6666666666667,4,2,0,63,0,1
45215,-200,4,2,0,63,0,1
45568,-57.1428571428571,4,2,0,63,0,1
45921,-200,4,2,0,63,0,1
46627,-57.1428571428571,4,2,0,63,0,1
47333,-200,4,2,0,63,0,1
49450,-200,4,2,0,63,0,0
60039,-80,4,2,0,63,0,0
60745,-200,4,2,0,63,0,0
71333,-100,4,2,0,63,0,0
72039,-200,4,2,0,63,0,0
77686,-57.1428571428571,4,2,0,63,0,0
82627,-200,4,2,0,63,0,0
93568,-100,4,2,0,63,0,0
93921,-100,4,2,0,33,0,0
94627,-100,4,2,0,63,0,0
99568,-100,4,2,0,33,0,0
100274,-100,4,2,0,63,0,0
111568,-57.1428571428571,4,2,0,63,0,0
116509,-100,4,2,0,33,0,0
117215,-100,4,2,0,63,0,0
122156,-100,4,2,0,33,0,0
122862,-100,4,2,0,63,0,0
128509,-100,4,2,0,63,0,1
139098,-100,4,2,0,33,0,1
139803,-100,4,2,0,63,0,1
142274,-100,4,2,0,33,0,1
142627,-100,4,2,0,63,0,1
144039,-57.1428571428571,4,2,0,63,0,1
144745,-50,4,2,0,33,0,1
145098,-100,4,2,0,63,0,1
145450,-133.333333333333,4,2,0,63,0,1
147921,-100,4,2,0,33,0,1
148098,-100,4,2,0,63,0,1
149686,-133.333333333333,4,2,0,63,0,1
150745,-100,4,2,0,63,0,1
153568,-100,4,2,0,33,0,1
153745,-100,4,2,0,63,0,1
155333,-57.1428571428571,4,2,0,63,0,1
156039,-50,4,2,0,33,0,1
156392,-100,4,2,0,63,0,1
157450,-100,4,2,0,33,0,1
157627,-100,4,2,0,63,0,1
157803,-100,4,2,0,33,0,1
157980,-100,4,2,0,63,0,1
158333,-100,4,2,0,33,0,1
158509,-100,4,2,0,63,0,1
158686,-100,4,2,0,33,0,1
158862,-100,4,2,0,63,0,1
159039,-100,4,2,0,33,0,1
159568,-100,4,2,0,63,0,1
161686,-100,4,2,0,33,0,1
162392,-133.333333333333,4,2,0,63,0,0
177215,-133.333333333333,4,2,0,33,0,0
177921,-133.333333333333,4,2,0,63,0,0
179333,-57.1428571428571,4,2,0,63,0,0
179686,-200,4,2,0,33,0,0
180039,-66.6666666666667,4,2,0,63,0,0
182156,-133.333333333333,4,2,0,63,0,0
184274,-100,4,2,0,33,0,0
184980,-100,4,2,0,63,0,0
185686,-66.6666666666667,4,2,0,63,0,0
186392,-133.333333333333,4,2,0,63,0,0
195568,-100,4,2,0,63,0,0
196274,-133.333333333333,4,2,0,63,0,0
206862,-133.333333333333,4,2,0,33,0,0
207568,-66.6666666666667,4,2,0,63,0,1
212509,-100,4,2,0,33,0,1
213215,-66.6666666666667,4,2,0,63,0,1
216039,-100,4,2,0,63,0,1
221686,-66.6666666666667,4,2,0,63,0,1
223098,-100,4,2,0,63,0,1
223803,-50,4,2,0,63,0,1
224509,-66.6666666666667,4,2,0,63,0,1
229450,-100,4,2,0,33,0,1
230156,-133.333333333333,4,2,0,63,0,0
241450,-100,4,2,0,63,0,0
244274,-95.2380952380952,4,2,0,63,0,0
247098,-90.9090909090909,4,2,0,63,0,0
249921,-57.8034682080925,4,2,0,63,0,0
252039,-133.333333333333,4,2,0,63,0,0

[HitObjects]
320,240,139803,5,0,0:0:0:0:
344,160,139892,1,0,0:0:0:0:
368,80,139980,1,0,0:0:0:0:
392,160,140068,1,0,0:0:0:0:
120,192,140333,5,0,0:0:0:0:
96,120,140421,1,0,0:0:0:0:
392,192,140686,1,0,0:0:0:0:
416,120,140774,1,0,0:0:0:0:
192,240,140862,5,0,0:0:0:0:
168,160,140951,1,0,0:0:0:0:
144,80,141039,1,0,0:0:0:0:
120,160,141127,1,0,0:0:0:0:
320,240,141215,5,0,0:0:0:0:
344,160,141304,1,0,0:0:0:0:
368,80,141392,1,0,0:0:0:0:
392,160,141480,1,0,0:0:0:0:
160,192,141745,5,0,0:0:0:0:
96,120,141833,1,0,0:0:0:0:
352,192,142098,1,0,0:0:0:0:
416,120,142186,1,0,0:0:0:0:
120,192,142274,6,0,L|96:192,1,22.4999994039536
97,192,142318,2,0,L|73:192,5,22.4999994039536
97,192,142450,6,0,L|120:192,3,22.4999994039536
128,192,142539,2,0,L|152:192,1,22.4999994039536
150,192,142583,2,0,L|174:192,1,22.4999994039536
464,272,142627,5,0,0:0:0:0:
424,216,142715,1,0,0:0:0:0:
496,304,142803,1,0,0:0:0:0:
448,248,142892,1,0,0:0:0:0:
48,272,143156,5,0,0:0:0:0:
88,216,143244,1,0,0:0:0:0:
464,272,143509,1,0,0:0:0:0:
424,216,143597,1,0,0:0:0:0:
48,272,143686,5,0,0:0:0:0:
88,216,143774,1,0,0:0:0:0:
16,304,143862,1,0,0:0:0:0:
64,248,143950,1,0,0:0:0:0:
360,288,144039,6,0,B|496:288|496:40|496:40|336:40,1,472.499991989136
152,288,144392,6,0,B|16:288|16:40|16:40|176:40,1,472.499991989136
512,192,144745,6,0,L|448:192,15,44.9999988079071
24,368,145098,6,0,L|24:88,1,269.999992847443
376,272,145450,6,0,L|456:272,1,67.5000007867814
296,112,145627,2,0,L|368:112,1,67.5000007867814
216,192,145980,6,0,L|288:192,1,67.5000007867814
136,112,146333,2,0,L|64:112,1,67.5000007867814
376,272,146509,6,0,L|448:272,1,67.5000007867814
296,112,146686,2,0,L|368:112,1,67.5000007867814
136,272,146862,6,0,L|64:272,1,67.5000007867814
216,112,147039,2,0,L|144:112,1,67.5000007867814
363,112,147392,6,0,L|435:112,1,67.5000007867814
148,112,147745,2,0,L|76:112,1,67.5000007867814
312,192,147921,6,0,L|312:168,6,22.4999994039536
144,192,148098,6,0,L|112:192,1,22.4999994039536
368,192,148186,2,0,L|400:192,1,22.4999994039536
48,192,148274,6,0,L|3:192,1,44.9999988079071
3,192,148362,2,0,L|48:192,1,44.9999988079071
256,192,148450,2,0,L|312:192,1,44.9999988079071
256,192,148539,2,0,L|208:192,1,44.9999988079071
464,192,148627,6,0,L|512:192,1,44.9999988079071
509,192,148715,2,0,L|464:192,1,44.9999988079071
48,192,148803,2,0,L|16:160,1,44.9999988079071
16,160,148892,2,0,L|48:192,1,44.9999988079071
384,112,148980,6,0,L|416:80,1,44.9999988079071
447,48,149068,2,0,L|415:80,1,44.9999988079071
128,272,149156,6,0,L|96:304,1,44.9999988079071
65,336,149244,2,0,L|97:304,1,44.9999988079071
384,272,149333,6,0,L|416:304,1,44.9999988079071
447,336,149421,2,0,L|415:304,1,44.9999988079071
128,112,149509,6,0,L|96:80,1,44.9999988079071
65,48,149597,2,0,L|97:80,1,44.9999988079071
384,272,149686,6,0,L|416:72,1,202.500002360344
128,272,150039,2,0,L|96:72,1,202.500002360344
384,272,150392,2,0,P|256:272|128:272,1,253.12500295043
0,224,150745,6,0,P|32:224|96:144,1,134.999996423721
360,184,150921,6,0,L|408:168,1,44.9999988079071
192,136,151009,2,0,L|136:120,1,44.9999988079071
384,272,151098,5,0,0:0:0:0:
422,250,151142,1,0,0:0:0:0:
448,213,151186,1,0,0:0:0:0:
454,169,151230,1,0,0:0:0:0:
440,126,151274,1,0,0:0:0:0:
409,94,151318,1,0,0:0:0:0:
367,79,151362,1,0,0:0:0:0:
120,192,151450,6,0,L|56:128,1,89.9999976158143
392,192,151627,2,0,L|456:128,1,89.9999976158143
256,192,151803,2,0,L|320:128,1,89.9999976158143
56,255,151980,2,0,L|120:191,1,89.9999976158143
319,255,152156,2,0,L|255:191,1,89.9999976158143
456,255,152333,2,0,L|392:191,1,89.9999976158143
119,191,152509,6,0,L|183:127,1,89.9999976158143
24,256,152686,2,0,L|88:192,1,89.9999976158143
456,255,153039,6,0,L|392:191,1,89.9999976158143
119,191,153392,2,0,L|55:127,1,89.9999976158143
456,256,153568,6,0,L|480:256,6,22.4999994039536
256,192,153745,6,0,L|208:192,1,44.9999988079071
456,256,153833,2,0,L|496:216,1,44.9999988079071
128,272,153921,5,0,0:0:0:0:
90,250,153965,1,0,0:0:0:0:
64,213,154009,1,0,0:0:0:0:
58,169,154053,1,0,0:0:0:0:
72,126,154097,1,0,0:0:0:0:
103,94,154141,1,0,0:0:0:0:
145,79,154185,1,0,0:0:0:0:
464,192,154274,6,0,L|496:160,1,44.9999988079071
256,192,154362,2,0,L|224:160,1,44.9999988079071
374,192,154450,2,0,L|464:192,1,89.9999976158143
138,192,154803,6,0,L|74:255,1,89.9999976158143
504,328,154980,2,0,L|481:328,1,22.4999994039536
344,328,155068,2,0,L|312:328,1,22.4999994039536
184,328,155156,2,0,L|160:328,1,22.4999994039536
24,328,155244,2,0,L|47:328,1,22.4999994039536
360,288,155333,6,0,B|496:288|496:40|496:40|336:40,1,472.499991989136
152,288,155686,6,0,B|16:288|16:40|16:40|176:40,1,472.499991989136
512,192,156039,6,0,L|448:192,15,44.9999988079071
256,192,156392,6,0,L|232:192,1,22.4999994039536
16,192,156480,2,0,L|48:192,1,22.4999994039536
256,192,156568,2,0,L|288:160,1,44.9999988079071
256,120,156656,2,0,L|204:83,1,44.9999988079071
432,272,156745,5,0,0:0:0:0:
470,250,156789,1,0,0:0:0:0:
496,213,156833,1,0,0:0:0:0:
502,169,156877,1,0,0:0:0:0:
488,126,156921,1,0,0:0:0:0:
457,94,156965,1,0,0:0:0:0:
208,88,157009,2,0,L|152:88,1,44.9999988079071
384,272,157098,5,0,0:0:0:0:
424,200,157186,1,0,0:0:0:0:
392,128,157274,1,0,0:0:0:0:
312,96,157362,1,0,0:0:0:0:
26,192,157450,6,0,L|50:192,6,22.4999994039536
256,192,157627,2,0,L|288:192,1,22.4999994039536
481,192,157715,2,0,L|504:192,1,22.4999994039536
26,192,157803,6,0,L|50:192,6,22.4999994039536
256,192,157980,2,0,L|288:192,1,22.4999994039536
481,192,158068,2,0,L|504:192,1,22.4999994039536
256,192,158156,6,0,L|232:192,1,22.4999994039536
31,192,158245,2,0,L|8:192,1,22.4999994039536
486,192,158333,2,0,L|462:192,5,22.4999994039536
344,104,158509,6,0,L|321:104,1,22.4999994039536
488,104,158598,2,0,L|465:104,1,22.4999994039536
26,191,158686,2,0,L|50:191,5,22.4999994039536
168,104,158862,6,0,L|191:104,1,22.4999994039536
24,104,158951,2,0,L|47:104,1,22.4999994039536
343,192,159039,2,0,L|366:192,1,22.4999994039536
400,192,159083,2,0,L|377:192,1,22.4999994039536
168,192,159127,2,0,L|146:192,1,22.4999994039536
112,192,159171,2,0,L|134:192,1,22.4999994039536
486,192,159215,6,0,L|462:192,5,22.4999994039536
472,208,159348,2,0,L|449:208,1,22.4999994039536
26,191,159392,6,0,L|50:191,5,22.4999994039536
40,208,159524,2,0,L|72:209,1,22.4999994039536
344,192,159568,6,0,L|424:152,1,89.9999976158143
464,72,159745,2,0,L|376:56,1,89.9999976158143
168,192,159921,6,0,L|88:152,1,89.9999976158143
48,72,160098,2,0,L|136:56,1,89.9999976158143
344,192,160274,2,0,L|408:128,1,89.9999976158143
168,192,160450,2,0,L|104:128,1,89.9999976158143
344,192,160627,6,0,L|424:152,1,89.9999976158143
168,192,160803,6,0,L|88:152,1,89.9999976158143
344,192,160980,6,0,P|384:176|288:64,1,269.999992847443
16,184,161333,2,0,P|56:224|144:256,1,134.999996423721
512,304,161509,2,0,P|504:272|416:232,1,134.999996423721
24,348,161686,5,0,0:0:0:0:
14,327,161708,1,0,0:0:0:0:
9,305,161730,1,0,0:0:0:0:
8,283,161752,1,0,0:0:0:0:
13,261,161774,1,0,0:0:0:0:
21,240,161796,1,0,0:0:0:0:
34,222,161818,1,0,0:0:0:0:
51,207,161840,1,0,0:0:0:0:
488,348,161862,5,0,0:0:0:0:
498,327,161884,1,0,0:0:0:0:
503,305,161906,1,0,0:0:0:0:
504,283,161928,1,0,0:0:0:0:
499,261,161950,1,0,0:0:0:0:
491,240,161972,1,0,0:0:0:0:
478,222,161994,1,0,0:0:0:0:
461,207,162016,1,0,0:0:0:0:
16,160,162039,6,0,L|44:160,13,22.4999994039536
39,160,162348,2,0,L|67:160,1,22.4999994039536
496,152,162392,5,0,0:0:0:0:
