osu file format v14

[General]
AudioFilename: audio.mp3
AudioLeadIn: 0
PreviewTime: 26862
Countdown: 0
SampleSet: None
StackLeniency: 0.7
Mode: 2
LetterboxInBreaks: 0
WidescreenStoryboard: 1

[Editor]
Bookmarks: 12745,24039,38156,49450,60745,83333,94627,128509,139803,151098,160627,162392,173686,184980,207568,230156
DistanceSpacing: 1.9
BeatDivisor: 16
GridSize: 8
TimelineZoom: 8

[Metadata]
Title:IKISUGI TRAP
TitleUnicode:IKISUGI TRAP
Artist:Various Artists
ArtistUnicode:Various Artists
Creator:Furely
Version:1.9
Source:
Tags:furely
BeatmapID:1031398
BeatmapSetID:463542

[Difficulty]
HPDrainRate:1.1
CircleSize:4
OverallDifficulty:1.9
ApproachRate:1.9
SliderMultiplier:3.59999990463257
SliderTickRate:2

[Events]
//Background and Video events
0,0,"ikidugitrap.jpg",0,0
//Break Periods
2,162592,172019
//Storyboard Layer 0 (Background)
//Storyboard Layer 1 (Fail)
//Storyboard Layer 2 (Pass)
//Storyboard Layer 3 (Foreground)
//Storyboard Sound Samples

[TimingPoints]
1451,352.941176470588,4,2,0,63,1,0
1451,-200,4,2,0,63,0,0
12745,-100,4,2,0,63,0,0
23333,-100,4,2,0,33,0,0
26862,-200,4,2,0,63,0,0
38156,-200,4,2,0,63,0,1
38509,-100,4,2,0,63,0,1
38686,-200,4,2,0,63,0,1
39568,-50,4,2,0,63,0,1
39745,-200,4,2,0,63,0,1
40627,-200,4,2,0,33,0,1
40980,-50,4,2,0,33,0,1
41333,-200,4,2,0,63,0,1
41686,-200,4,2,0,33,0,1
42127,-66.6666666666667,4,2,0,63,0,1
42303,-200,4,2,0,63,0,1
42745,-200,4,2,0,33,0,1
42921,-200,4,2,0,63,0,1
43803,-66.6666666666667,4,2,0,63,0,1
44156,-200,4,2,0,33,0,1
44509,-66.6666666666667,4,2,0,63,0,1
45215,-200,4,2,0,63,0,1
45568,-57.1428571428571,4,2,0,63,0,1
45921,-200,4,2,0,63,0,1
46627,-57.1428571428571,4,2,0,63,0,1
47333,-200,4,2,0,63,0,1
49450,-200,4,2,0,63,0,0
60039,-80,4,2,0,63,0,0
60745,-200,4,2,0,63,0,0
71333,-100,4,2,0,63,0,0
72039,-200,4,2,0,63,0,0
77686,-57.1428571428571,4,2,0,63,0,0
82627,-200,4,2,0,63,0,0
93568,-100,4,2,0,63,0,0
93921,-100,4,2,0,33,0,0
94627,-100,4,2,0,63,0,0
99568,-100,4,2,0,33,0,0
100274,-100,4,2,0,63,0,0
111568,-57.1428571428571,4,2,0,63,0,0
116509,-100,4,2,0,33,0,0
117215,-100,4,2,0,63,0,0
122156,-100,4,2,0,33,0,0
122862,-100,4,2,0,63,0,0
128509,-100,4,2,0,63,0,1
139098,-100,4,2,0,33,0,1
139803,-100,4,2,0,63,0,1
142274,-100,4,2,0,33,0,1
142627,-100,4,2,0,63,0,1
144039,-57.1428571428571,4,2,0,63,0,1
144745,-50,4,2,0,33,0,1
145098,-100,4,2,0,63,0,1
145450,-133.333333333333,4,2,0,63,0,1
147921,-100,4,2,0,33,0,1
148098,-100,4,2,0,63,0,1
149686,-133.333333333333,4,2,0,63,0,1
150745,-100,4,2,0,63,0,1
153568,-100,4,2,0,33,0,1
153745,-100,4,2,0,63,0,1
155333,-57.1428571428571,4,2,0,63,0,1
156039,-50,4,2,0,33,0,1
156392,-100,4,2,0,63,0,1
157450,-100,4,2,0,33,0,1
157627,-100,4,2,0,63,0,1
157803,-100,4,2,0,33,0,1
157980,-100,4,2,0,63,0,1
158333,-100,4,2,0,33,0,1
158509,-100,4,2,0,63,0,1
158686,-100,4,2,0,33,0,1
158862,-100,4,2,0,63,0,1
159039,-100,4,2,0,33,0,1
159568,-100,4,2,0,63,0,1
161686,-100,4,2,0,33,0,1
162392,-133.333333333333,4,2,0,63,0,0
177215,-133.333333333333,4,2,0,33,0,0
177921,-133.333333333333,4,2,0,63,0,0
179333,-57.1428571428571,4,2,0,63,0,0
179686,-200,4,2,0,33,0,0
180039,-66.6666666666667,4,2,0,63,0,0
182156,-133.333333333333,4,2,0,63,0,0
184274,-100,4,2,0,33,0,0
184980,-100,4,2,0,63,0,0
185686,-66.6666666666667,4,2,0,63,0,0
186392,-133.333333333333,4,2,0,63,0,0
195568,-100,4,2,0,63,0,0
196274,-133.333333333333,4,2,0,63,0,0
206862,-133.333333333333,4,2,0,33,0,0
207568,-66.6666666666667,4,2,0,63,0,1
212509,-100,4,2,0,33,0,1
213215,-66.6666666666667,4,2,0,63,0,1
216039,-100,4,2,0,63,0,1
221686,-66.6666666666667,4,2,0,63,0,1
223098,-100,4,2,0,63,0,1
223803,-50,4,2,0,63,0,1
224509,-66.6666666666667,4,2,0,63,0,1
229450,-100,4,2,0,33,0,1
230156,-133.333333333333,4,2,0,63,0,0
241450,-100,4,2,0,63,0,0
244274,-95.2380952380952,4,2,0,63,0,0
247098,-90.9090909090909,4,2,0,63,0,0
249921,-57.8034682080925,4,2,0,63,0,0
252039,-133.333333333333,4,2,0,63,0,0

[HitObjects]
352,192,1451,6,0,L|456:192,1,89.9999976158143
160,192,1803,2,0,L|56:192,1,89.9999976158143
442,192,2156,2,0,L|304:192,1,134.999996423721
70,192,2509,2,0,L|166:192,1,89.9999976158143
442,192,2862,6,0,L|352:192,1,89.9999976158143
70,192,3215,2,0,L|160:192,1,89.9999976158143
448,192,3568,2,0,L|312:192,1,134.999996423721
160,128,3921,2,0,L|256:128,1,89.9999976158143
8,192,4274,6,0,L|112:192,1,89.9999976158143
336,280,4627,2,0,L|240:280,1,89.9999976158143
8,192,4980,2,0,L|144:192,1,134.999996423721
504,192,5333,2,0,L|408:192,1,89.9999976158143
176,192,5686,6,0,L|312:192,1,134.999996423721
96,192,6039,2,0,L|192:144,1,89.9999976158143
416,192,6392,1,0,0:0:0:0:
96,192,6568,1,0,0:0:0:0:
504,192,6745,2,0,L|504:56,1,134.999996423721
358,192,7098,6,0,L|454:192,1,89.9999976158143
268,192,7450,2,0,L|364:192,1,89.9999976158143
118,192,7803,2,0,L|262:192,1,134.999996423721
8,192,8156,2,0,L|8:96,1,89.9999976158143
154,192,8509,6,0,L|58:192,1,89.9999976158143
244,192,8862,2,0,L|148:192,1,89.9999976158143
394,192,9215,2,0,L|250:192,1,134.999996423721
504,192,9568,2,0,L|504:96,1,89.9999976158143
256,192,9921,6,0,L|352:192,1,89.9999976158143
9,192,10274,2,0,L|105:192,1,89.9999976158143
368,192,10627,2,0,L|502:192,1,134.999996423721
256,192,10980,2,0,L|160:192,1,89.9999976158143
400,192,11333,5,0,0:0:0:0:
112,192,11509,2,0,L|56:192,2,44.9999988079071
400,192,11862,2,0,L|448:192,1,44.9999988079071
280,192,12039,2,0,L|336:192,1,44.9999988079071
160,192,12215,2,0,L|208:192,1,44.9999988079071
48,192,12392,6,0,L|48:56,1,134.999996423721
256,280,12745,6,0,B|352:280|352:280|88:280|88:280|448:280|448:280|88:280|88:280|448:280|448:280|88:280|88:280|448:280,1,2159.99994277954
80,192,15039,2,0,L|64:176,1,22.4999994039536
184,192,15215,1,0,0:0:0:0:
16,192,15392,1,0,0:0:0:0:
256,280,15568,6,0,B|424:136|424:136|424:280|424:280|64:280|64:280|424:280|424:280|64:280|64:280|424:280|424:280|64:280,1,2159.99994277954
472,192,17862,2,0,L|488:176,1,22.4999994039536
256,192,18039,2,0,L|256:168,1,22.4999994039536
40,192,18215,2,0,L|24:176,1,22.4999994039536
496,192,18392,6,0,B|496:376|496:376|496:184|496:184|328:184|328:184|504:184|504:184|504:8|504:8|504:192|504:192|320:192|320:192|496:192|496:192|496:376|496:376|496:200|496:200|136:200|136:200,1,2159.99994277954
432,192,20686,2,0,L|448:176,1,22.4999994039536
328,192,20862,1,0,0:0:0:0:
488,192,21039,1,0,0:0:0:0:
8,376,21215,6,0,B|264:120|264:120|80:120|80:120|272:120|272:120|24:368|24:368|200:368|200:368|24:368|24:368|384:368|384:368|200:368|200:368|384:368|384:368,1,2159.99994277954
488,348,23355,5,0,0:0:0:0:
497,327,23377,1,0,0:0:0:0:
502,305,23399,1,0,0:0:0:0:
501,283,23421,1,0,0:0:0:0:
494,261,23443,1,0,0:0:0:0:
482,242,23465,1,0,0:0:0:0:
466,227,23487,1,0,0:0:0:0:
24,348,23509,5,0,0:0:0:0:
14,327,23531,1,0,0:0:0:0:
9,305,23553,1,0,0:0:0:0:
8,283,23575,1,0,0:0:0:0:
13,261,23597,1,0,0:0:0:0:
21,240,23619,1,0,0:0:0:0:
34,222,23641,1,0,0:0:0:0:
51,207,23663,1,0,0:0:0:0:
496,160,23686,6,0,L|468:160,15,22.4999994039536
46,156,24039,5,0,0:0:0:0:
256,192,24061,12,0,26509,0:0:0:0:
376,192,26862,5,0,0:0:0:0:
136,192,27039,2,0,L|88:192,2,44.9999988079071
376,192,27392,1,0,0:0:0:0:
136,192,27568,1,0,0:0:0:0:
376,192,27745,2,0,B|376:96|376:96|440:32,1,179.999995231629
256,80,28274,6,0,L|160:80,1,89.9999976158143
352,80,28627,1,0,0:0:0:0:
192,128,28803,1,0,0:0:0:0:
376,192,28980,1,0,0:0:0:0:
136,192,29156,1,0,0:0:0:0:
376,192,29333,2,0,L|488:192,1,89.9999976158143
136,192,29686,5,0,0:0:0:0:
376,192,29863,2,0,L|424:192,2,44.9999988079071
136,192,30216,1,0,0:0:0:0:
376,192,30392,1,0,0:0:0:0:
136,192,30569,2,0,B|136:96|136:96|72:32,1,179.999995231629
256,80,31098,6,0,L|352:80,1,89.9999976158143
160,80,31451,2,0,L|56:80,1,89.9999976158143
376,192,31803,2,0,L|320:192,1,44.9999988079071
488,192,31980,1,0,0:0:0:0:
331,192,32068,2,0,L|376:192,1,44.9999988079071
136,192,32333,1,0,0:0:0:0:
376,192,32509,5,0,0:0:0:0:
136,192,32686,2,0,L|88:192,2,44.9999988079071
376,192,33039,1,0,0:0:0:0:
136,192,33215,1,0,0:0:0:0:
376,192,33392,2,0,B|440:192|440:192|440:72,1,179.999995231629
256,80,33921,6,0,L|160:80,1,89.9999976158143
352,80,34274,1,0,0:0:0:0:
192,128,34450,1,0,0:0:0:0:
376,192,34627,1,0,0:0:0:0:
136,192,34803,1,0,0:0:0:0:
466,192,34980,1,0,0:0:0:0:
46,192,35156,1,0,0:0:0:0:
376,192,35333,5,0,0:0:0:0:
136,192,35510,2,0,L|88:192,2,44.9999988079071
376,192,35863,1,0,0:0:0:0:
136,192,36039,1,0,0:0:0:0:
376,192,36216,2,0,B|192:192,1,179.999995231629
440,192,36745,5,0,0:0:0:0:
488,168,36833,1,0,0:0:0:0:
512,104,36921,2,0,L|456:104,3,44.9999988079071
512,104,37274,1,0,0:0:0:0:
472,144,37362,1,0,0:0:0:0:
136,192,37450,6,0,L|192:192,1,44.9999988079071
376,192,37627,2,0,L|320:192,1,44.9999988079071
136,192,37803,2,0,L|88:192,1,44.9999988079071
376,192,37980,2,0,L|424:192,1,44.9999988079071
16,192,38156,6,0,L|48:192,7,22.4999994039536
181,192,38509,6,0,B|272:120|272:120|272:192,1,179.999995231629
224,192,38774,1,0,0:0:0:0:
376,192,38862,2,0,L|328:192,1,44.9999988079071
32,224,39039,2,0,L|48:224,1,11.2499997019768
256,232,39127,2,0,L|267:232,1,11.2499997019768
32,224,39215,6,0,L|32:176,1,44.9999988079071
144,192,39348,1,0,0:0:0:0:
256,192,39392,1,0,0:0:0:0:
352,192,39480,1,0,0:0:0:0:
8,192,39568,6,0,B|-8:96|-8:96|152:96|152:264,1,359.999990463257
480,192,39833,2,0,L|480:120,1,67.4999982118607
408,192,40009,2,0,L|408:144,1,44.9999988079071
256,192,40164,1,0,0:0:0:0:
32,192,40274,6,0,L|32:96,1,89.9999976158143
256,192,40539,1,0,0:0:0:0:
24,348,40627,5,0,0:0:0:0:
14,327,40649,1,0,0:0:0:0:
9,305,40671,1,0,0:0:0:0:
8,283,40693,1,0,0:0:0:0:
13,261,40715,1,0,0:0:0:0:
21,240,40737,1,0,0:0:0:0:
0,368,40759,1,0,0:0:0:0:
17,353,40781,1,0,0:0:0:0:
24,348,40803,5,0,0:0:0:0:
14,327,40825,1,0,0:0:0:0:
9,305,40847,1,0,0:0:0:0:
8,283,40869,1,0,0:0:0:0:
13,261,40891,1,0,0:0:0:0:
21,240,40913,1,0,0:0:0:0:
34,222,40935,1,0,0:0:0:0:
51,207,40957,1,0,0:0:0:0:
464,192,40980,6,0,L|512:192,7,44.9999988079071
509,192,41156,6,0,L|461:192,5,44.9999988079071
480,240,41289,2,0,L|432:240,1,44.9999988079071
152,192,41333,6,0,L|136:192,1,11.2499997019768
64,160,41421,2,0,L|48:160,1,11.2499997019768
24,80,41509,2,0,L|32:72,1,11.2499997019768
72,24,41598,2,0,L|88:24,1,11.2499997019768
488,120,41686,6,0,L|472:120,5,11.2499997019768
476,120,41818,2,0,L|460:120,1,11.2499997019768
352,192,41862,2,0,L|320:192,1,22.4999994039536
488,120,41950,6,0,L|472:120,5,11.2499997019768
476,120,42083,2,0,L|460:120,1,11.2499997019768
256,192,42127,2,0,L|24:192,1,202.500002360344
0,192,42303,2,0,L|32:192,1,22.4999994039536
480,192,42392,6,0,L|480:112,1,78.7499979138375
400,192,42568,1,0,0:0:0:0:
288,192,42634,1,0,0:0:0:0:
200,192,42656,1,0,0:0:0:0:
88,192,42723,1,0,0:0:0:0:
8,120,42745,6,0,L|24:120,5,11.2499997019768
19,120,42877,2,0,L|35:120,1,11.2499997019768
256,120,42921,5,0,0:0:0:0:
352,120,43009,1,0,0:0:0:0:
160,120,43098,6,0,L|112:120,1,44.9999988079071
352,120,43274,2,0,L|400:120,1,44.9999988079071
16,192,43450,6,0,L|32:192,1,11.2499997019768
168,192,43539,2,0,L|184:192,1,11.2499997019768
333,192,43627,2,0,L|349:192,1,11.2499997019768
496,192,43715,2,0,L|512:192,1,11.2499997019768
152,312,43803,6,0,B|40:272|40:272|96:272|96:272|152:216|152:216|96:272|96:272|216:360,1,472.50000550747
24,136,44156,6,0,L|32:144,13,11.2499997019768
31,143,44465,2,0,L|47:143,1,11.2499997019768
384,240,44509,6,0,B|480:144|480:144|376:40|376:40|112:40|112:40|376:40,1,810.000009441377
16,192,45215,6,0,L|16:240,1,44.9999988079071
176,192,45392,2,0,L|176:144,1,44.9999988079071
512,192,45568,2,0,B|360:40|360:40|96:40,1,472.499991989136
0,192,45921,6,0,L|0:176,1,11.2499997019768
72,192,46009,2,0,L|72:176,1,11.2499997019768
0,192,46098,2,0,L|0:176,1,11.2499997019768
72,192,46186,2,0,L|72:176,1,11.2499997019768
0,192,46274,2,0,L|16:192,1,11.2499997019768
512,192,46450,2,0,L|496:192,1,11.2499997019768
64,192,46627,6,0,B|64:8|64:8|352:8,1,472.499991989136
504,8,46980,2,0,B|336:264|336:264|152:264,1,472.499991989136
24,192,47333,6,0,L|16:184,1,11.2499997019768
256,160,47421,2,0,L|264:152,1,11.2499997019768
224,104,47509,2,0,L|232:112,1,11.2499997019768
400,88,47598,2,0,L|416:80,1,11.2499997019768
344,48,47686,1,0,0:0:0:0:
64,64,47708,2,0,P|32:88|48:184,1,146.249996125698
504,192,48039,6,0,L|480:192,7,22.4999994039536
256,192,48392,6,0,L|232:192,7,22.4999994039536
8,192,48745,6,0,L|32:192,7,22.4999994039536
56,192,49098,5,0,0:0:0:0:
480,248,49120,2,0,L|480:112,1,134.999996423721
192,192,49450,6,0,L|144:192,1,44.9999988079071
104,192,49627,2,0,L|56:190,1,44.9999988079071
360,192,49803,2,0,L|408:192,1,44.9999988079071
448,192,49980,2,0,L|496:192,1,44.9999988079071
112,192,50156,6,0,L|135:230,1,44.9999988079071
160,270,50333,2,0,L|183:308,1,44.9999988079071
400,192,50509,2,0,L|377:154,1,44.9999988079071
352,114,50686,2,0,L|329:76,1,44.9999988079071
144,192,50862,6,0,L|112:160,1,44.9999988079071
80,128,51039,2,0,L|48:96,1,44.9999988079071
368,192,51215,2,0,L|400:160,1,44.9999988079071
432,128,51392,2,0,L|464:96,1,44.9999988079071
48,288,51568,6,0,L|80:256,1,44.9999988079071
112,224,51745,2,0,L|144:192,1,44.9999988079071
464,288,51921,2,0,L|432:256,1,44.9999988079071
400,224,52098,2,0,L|368:192,1,44.9999988079071
184,192,52274,6,0,L|144:168,1,44.9999988079071
106,144,52450,2,0,L|66:120,1,44.9999988079071
328,192,52627,2,0,L|368:168,1,44.9999988079071
406,144,52803,2,0,L|446:120,1,44.9999988079071
67,263,52980,6,0,L|106:240,1,44.9999988079071
145,215,53156,2,0,L|184:192,1,44.9999988079071
444,263,53333,2,0,L|406:240,1,44.9999988079071
366,215,53509,2,0,L|328:192,1,44.9999988079071
138,192,53686,6,0,L|194:192,1,44.9999988079071
329,192,53862,2,0,L|374:192,1,44.9999988079071
93,192,54039,2,0,L|149:192,1,44.9999988079071
374,192,54215,2,0,L|419:192,1,44.9999988079071
48,192,54392,6,0,L|96:192,1,44.9999988079071
280,192,54568,2,0,L|232:192,1,44.9999988079071
464,192,54745,2,0,L|368:192,1,89.9999976158143
136,192,55098,6,0,L|160:152,1,44.9999988079071
184,114,55275,2,0,L|208:74,1,44.9999988079071
24,192,55450,2,0,L|48:152,1,44.9999988079071
72,114,55627,2,0,L|96:74,1,44.9999988079071
376,192,55803,6,0,L|352:152,1,44.9999988079071
328,114,55980,2,0,L|304:74,1,44.9999988079071
488,192,56156,2,0,L|464:152,1,44.9999988079071
440,114,56333,2,0,L|416:74,1,44.9999988079071
152,192,56509,6,0,L|184:160,1,44.9999988079071
216,128,56686,2,0,L|248:96,1,44.9999988079071
24,192,56862,2,0,L|56:160,1,44.9999988079071
88,128,57039,2,0,L|120:96,1,44.9999988079071
360,192,57215,6,0,L|328:160,1,44.9999988079071
296,128,57392,2,0,L|264:96,1,44.9999988079071
488,192,57568,2,0,L|456:160,1,44.9999988079071
424,128,57745,2,0,L|392:96,1,44.9999988079071
152,192,57921,6,0,L|112:168,1,44.9999988079071
360,192,58098,2,0,L|320:168,1,44.9999988079071
113,168,58274,2,0,L|73:144,1,44.9999988079071
360,192,58450,2,0,L|400:168,1,44.9999988079071
113,168,58627,6,0,L|153:144,1,44.9999988079071
398,168,58803,2,0,L|438:144,1,44.9999988079071
74,144,58980,2,0,L|34:120,1,44.9999988079071
438,144,59156,2,0,L|478:120,1,44.9999988079071
32,264,59333,6,0,L|48:248,1,22.4999994039536
80,264,59421,2,0,L|104:264,1,22.4999994039536
480,264,59509,6,0,L|464:248,1,22.4999994039536
432,264,59597,2,0,L|408:264,1,22.4999994039536
0,192,59686,6,0,L|16:176,1,22.4999994039536
48,192,59774,2,0,L|72:192,1,22.4999994039536
512,192,59862,6,0,L|496:176,1,22.4999994039536
464,192,59950,2,0,L|440:192,1,22.4999994039536
256,192,60039,6,0,B|152:120|152:120|352:224|352:224|256:192,1,449.999988079071
136,192,60745,6,0,L|0:192,1,134.999996423721
226,192,61098,2,0,L|130:192,1,89.9999976158143
376,192,61450,6,0,L|512:192,1,134.999996423721
286,192,61803,2,0,L|382:192,1,89.9999976158143
136,192,62156,6,0,L|0:192,1,134.999996423721
226,192,62509,2,0,L|130:192,1,89.9999976158143
376,192,62862,6,0,L|424:192,1,44.9999988079071
256,192,63039,2,0,L|240:192,1,11.2499997019768
456,192,63215,1,0,0:0:0:0:
296,264,63392,2,0,L|280:264,1,11.2499997019768
1,192,63568,6,0,L|136:192,1,134.999996423721
1,192,63921,2,0,L|97:192,1,89.9999976158143
511,192,64274,6,0,L|376:192,1,134.999996423721
511,192,64627,2,0,L|415:192,1,89.9999976158143
1,192,64980,6,0,L|136:192,1,134.999996423721
1,192,65333,2,0,L|97:192,1,89.9999976158143
511,192,65686,1,0,0:0:0:0:
208,192,65862,6,0,L|192:192,1,11.2499997019768
304,192,66039,2,0,L|320:192,1,11.2499997019768
96,192,66215,2,0,L|80:192,1,11.2499997019768
511,192,66392,6,0,L|376:192,1,134.999996423721
224,192,66745,2,0,L|224:96,1,89.9999976158143
511,192,67098,6,0,L|376:192,1,134.999996423721
152,192,67450,2,0,L|152:96,1,89.9999976158143
511,192,67803,6,0,L|376:192,1,134.999996423721
72,192,68156,2,0,L|72:96,1,89.9999976158143
512,192,68509,2,0,L|456:192,1,44.9999988079071
256,192,68686,2,0,L|240:192,1,11.2499997019768
512,192,68862,1,0,0:0:0:0:
256,192,69039,2,0,L|240:192,1,11.2499997019768
1,192,69215,6,0,L|136:192,1,134.999996423721
288,192,69568,2,0,L|288:96,1,89.9999976158143
1,192,69921,6,0,L|136:192,1,134.999996423721
360,192,70273,2,0,L|360:96,1,89.9999976158143
1,192,70627,6,0,L|136:192,1,134.999996423721
440,192,70979,2,0,L|440:96,1,89.9999976158143
136,192,71333,6,0,L|88:192,3,44.9999988079071
136,192,71509,6,0,L|184:192,3,44.9999988079071
216,192,71686,6,0,L|261:192,3,44.9999988079071
296,192,71862,6,0,L|344:192,3,44.9999988079071
88,192,72039,6,0,P|64:144|136:144,1,134.999996423721
256,128,72392,2,0,L|160:128,1,89.9999976158143
424,192,72745,6,0,P|448:144|376:144,1,134.999996423721
256,128,73098,2,0,L|352:128,1,89.9999976158143
88,192,73450,6,0,B|56:240|56:240|136:240,1,134.999996423721
256,256,73803,2,0,L|160:256,1,89.9999976158143
400,192,74156,1,0,0:0:0:0:
112,192,74333,2,0,L|96:192,1,11.2499997019768
400,192,74509,1,0,0:0:0:0:
112,192,74686,2,0,L|128:192,1,11.2499997019768
376,128,74862,6,0,P|434:136|414:192,1,134.999996423721
256,128,75215,2,0,L|346:128,1,89.9999976158143
136,128,75568,6,0,P|78:136|99:192,1,134.999996423721
256,128,75921,2,0,L|160:128,1,89.9999976158143
378,240,76274,6,0,B|456:240|456:240|424:192,1,134.999996423721
256,256,76626,2,0,L|360:256,1,89.9999976158143
104,192,76980,1,0,0:0:0:0:
416,192,77156,2,0,L|432:192,1,11.2499997019768
115,192,77333,2,0,L|101:192,1,11.2499997019768
430,192,77509,2,0,L|416:192,1,11.2499997019768
128,192,77686,6,0,B|72:136|72:136|72:56|72:56|136:8|136:8|136:88|136:88|296:88,1,472.499991989136
128,192,78039,2,0,B|96:288|96:288|128:384|128:384|176:360|176:360|232:384,1,314.999994659424
384,192,78392,6,0,B|440:136|440:136|440:56|440:56|376:8|376:8|376:88|376:88|216:88,1,472.499991989136
384,192,78745,2,0,B|416:288|416:288|384:384|384:384|336:360|336:360|280:384,1,314.999994659424
128,192,79098,6,0,B|72:136|72:136|72:56|72:56|136:8|136:8|136:88|136:88|296:88,1,472.499991989136
504,192,79450,2,0,L|184:192,1,314.999994659424
8,192,79803,1,0,0:0:0:0:
256,192,79980,2,0,L|272:152,1,39.374999332428
96,192,80156,1,0,0:0:0:0:
240,192,80333,2,0,L|256:232,1,39.374999332428
8,192,80509,6,0,B|8:112|8:112|64:56|64:56|144:56|144:56|144:136|144:136|304:136,1,472.499991989136
8,192,80862,2,0,B|8:256|8:256|104:144|104:144|136:256,1,314.999994659424
504,192,81215,6,0,B|504:112|504:112|448:56|448:56|368:56|368:56|368:136|368:136|208:136,1,472.499991989136
504,192,81568,2,0,B|504:256|504:256|408:144|408:144|376:256,1,314.999994659424
8,192,81921,6,0,B|8:112|8:112|64:56|64:56|144:56|144:56|144:136|144:136|304:136,1,472.499991989136
504,192,82274,2,0,L|184:192,1,314.999994659424
8,192,82627,6,0,L|32:192,1,22.4999994039536
30,192,82715,2,0,L|56:192,1,22.4999994039536
40,192,82803,2,0,L|64:192,1,22.4999994039536
64,192,82892,2,0,L|88:192,1,22.4999994039536
504,192,82980,6,0,L|480:192,1,22.4999994039536
482,192,83068,2,0,L|456:192,1,22.4999994039536
472,192,83156,2,0,L|448:192,1,22.4999994039536
448,192,83245,2,0,L|424:192,1,22.4999994039536
216,192,83333,5,0,0:0:0:0:
104,192,83509,1,0,0:0:0:0:
8,104,83686,1,0,0:0:0:0:
96,32,83862,1,0,0:0:0:0:
296,192,84039,5,0,0:0:0:0:
408,192,84215,1,0,0:0:0:0:
504,280,84392,1,0,0:0:0:0:
416,352,84568,1,0,0:0:0:0:
176,192,84745,5,0,0:0:0:0:
56,192,84921,1,0,0:0:0:0:
336,192,85098,1,0,0:0:0:0:
456,192,85274,1,0,0:0:0:0:
176,192,85450,1,0,0:0:0:0:
472,192,85627,6,0,L|456:192,1,11.2499997019768
176,192,85803,1,0,0:0:0:0:
472,192,85980,2,0,L|456:192,1,11.2499997019768
176,192,86156,6,0,B|176:8,1,179.999995231629
352,192,86686,1,0,0:0:0:0:
112,192,86862,2,0,B|112:56,1,134.999996423721
216,48,87193,1,0,0:0:0:0:
504,192,87215,6,0,B|504:328,1,134.999996423721
176,192,87568,6,0,B|176:8,1,179.999995231629
352,192,88098,1,0,0:0:0:0:
8,192,88274,1,0,0:0:0:0:
129,192,88450,6,0,L|144:192,1,11.2499997019768
352,192,88627,2,0,L|368:192,1,11.2499997019768
152,192,88803,2,0,L|136:192,1,11.2499997019768
504,192,88980,6,0,L|408:192,1,89.9999976158143
256,192,89333,2,0,L|352:192,1,89.9999976158143
184,192,89686,2,0,L|94:192,1,89.9999976158143
256,192,90039,2,0,L|346:192,1,89.9999976158143
8,192,90392,6,0,L|104:192,1,89.9999976158143
256,192,90745,2,0,L|160:192,1,89.9999976158143
400,192,91098,1,0,0:0:0:0:
166,192,91274,1,0,0:0:0:0:
400,192,91450,2,0,L|496:192,1,89.9999976158143
136,192,91803,6,0,B|88:192|88:192|176:192|176:192|128:192,1,179.999995231629
376,192,92333,1,0,0:0:0:0:
136,192,92509,1,0,0:0:0:0:
488,192,92686,6,0,L|472:192,1,11.2499997019768
256,192,92862,2,0,L|256:176,1,11.2499997019768
48,192,93039,2,0,L|32:192,1,11.2499997019768
336,192,93215,6,0,L|384:192,1,44.9999988079071
176,192,93392,2,0,L|128:192,1,44.9999988079071
304,88,93568,5,0,0:0:0:0:
208,88,93656,1,0,0:0:0:0:
304,88,93745,1,0,0:0:0:0:
208,88,93833,1,0,0:0:0:0:
488,348,93921,5,0,0:0:0:0:
498,327,93943,1,0,0:0:0:0:
503,305,93965,1,0,0:0:0:0:
504,283,93987,1,0,0:0:0:0:
499,261,94009,1,0,0:0:0:0:
491,240,94031,1,0,0:0:0:0:
478,222,94053,1,0,0:0:0:0:
461,207,94075,1,0,0:0:0:0:
24,348,94097,5,0,0:0:0:0:
14,327,94119,1,0,0:0:0:0:
9,305,94141,1,0,0:0:0:0:
8,283,94163,1,0,0:0:0:0:
13,261,94185,1,0,0:0:0:0:
21,240,94207,1,0,0:0:0:0:
34,222,94229,1,0,0:0:0:0:
51,207,94251,1,0,0:0:0:0:
496,160,94274,6,0,L|468:160,13,22.4999994039536
473,160,94583,2,0,L|445:160,1,22.4999994039536
176,192,94627,6,0,P|112:192|8:32,1,269.999992847443
160,272,94980,6,0,P|224:272|296:104,1,269.999992847443
144,192,95333,6,0,P|80:192|8:24,1,269.999992847443
168,248,95686,6,0,P|232:248|304:80,1,269.999992847443
144,192,96039,6,0,P|80:192|8:24,1,269.999992847443
168,248,96392,6,0,P|232:248|304:80,1,269.999992847443
72,64,96745,6,0,L|208:184,1,179.999995231629
488,64,96965,1,0,0:0:0:0:
440,64,97098,6,0,L|280:160,1,179.999995231629
24,64,97318,1,0,0:0:0:0:
336,192,97450,6,0,P|400:192|504:32,1,269.999992847443
352,272,97803,6,0,P|288:272|216:104,1,269.999992847443
368,192,98156,6,0,P|432:192|504:24,1,269.999992847443
344,248,98509,6,0,P|280:248|208:80,1,269.999992847443
368,192,98862,6,0,P|432:192|504:24,1,269.999992847443
344,248,99215,6,0,P|280:248|208:80,1,269.999992847443
488,348,99568,5,0,0:0:0:0:
498,327,99590,1,0,0:0:0:0:
503,305,99612,1,0,0:0:0:0:
504,283,99634,1,0,0:0:0:0:
499,261,99656,1,0,0:0:0:0:
491,240,99678,1,0,0:0:0:0:
478,222,99700,1,0,0:0:0:0:
461,207,99722,1,0,0:0:0:0:
24,348,99744,5,0,0:0:0:0:
14,327,99766,1,0,0:0:0:0:
9,305,99788,1,0,0:0:0:0:
8,283,99810,1,0,0:0:0:0:
13,261,99832,1,0,0:0:0:0:
21,240,99854,1,0,0:0:0:0:
34,222,99876,1,0,0:0:0:0:
51,207,99898,1,0,0:0:0:0:
496,160,99921,6,0,L|468:160,13,22.4999994039536
473,160,100230,6,0,L|445:160,1,22.4999994039536
216,136,100274,6,0,P|86:114|10:8,1,269.999992847443
240,264,100627,6,0,P|216:136|120:40,1,269.999992847443
296,136,100980,6,0,P|426:114|502:8,1,269.999992847443
272,264,101333,6,0,P|296:136|392:40,1,269.999992847443
9,376,101686,6,0,P|86:269|216:248,1,269.999992847443
502,376,102039,6,0,P|425:269|296:248,1,269.999992847443
16,192,102392,5,0,0:0:0:0:
256,192,102568,2,0,L|256:168,1,22.4999994039536
496,192,102745,5,0,0:0:0:0:
256,192,102921,2,0,L|256:168,1,22.4999994039536
16,192,103098,6,0,B|80:128|80:128|16:192|16:192|112:192|112:192,1,269.999992847443
496,192,103450,6,0,B|432:128|432:128|496:192|496:192|400:192|400:192,1,269.999992847443
16,192,103803,6,0,B|80:256|80:256|16:192|16:192|112:192|112:192,1,269.999992847443
496,192,104156,6,0,B|432:256|432:256|496:192|496:192|400:192|400:192,1,269.999992847443
104,192,104509,5,0,0:0:0:0:
376,192,104686,2,0,L|408:192,1,22.4999994039536
160,192,104862,2,0,L|128:192,1,22.4999994039536
392,136,105039,2,0,L|424:136,1,22.4999994039536
40,192,105215,6,0,L|16:192,1,22.4999994039536
256,192,105392,2,0,L|256:216,1,22.4999994039536
472,192,105568,2,0,L|496:192,1,22.4999994039536
256,192,105745,2,0,L|256:168,1,22.4999994039536
40,192,105921,6,0,B|-152:120|232:64|232:64|64:64|64:64|168:64,1,629.9999833107
384,320,106627,6,0,B|576:248|192:192|192:192|360:192|360:192|256:192,1,629.9999833107
96,312,107333,6,0,B|32:232|32:232|112:232|112:232|48:160|48:160|112:232|112:232|48:160|48:160|216:160,1,629.9999833107
488,192,108039,5,0,0:0:0:0:
398,192,108215,2,0,L|376:192,1,22.4999994039536
114,192,108392,1,0,0:0:0:0:
46,192,108568,2,0,L|24:192,1,22.4999994039536
472,192,108745,6,0,B|664:264|280:320|280:320|448:320|448:320|344:320,1,629.9999833107
144,64,109451,6,0,B|-48:136|336:192|336:192|168:192|168:192|272:192,1,629.9999833107
80,192,110157,6,0,B|16:272|16:272|96:272|96:272|32:344|32:344|96:272|96:272|32:344|32:344|192:344,1,629.9999833107
496,192,110862,5,0,0:0:0:0:
256,192,111039,2,0,L|232:192,1,22.4999994039536
376,192,111215,2,0,L|400:192,1,22.4999994039536
136,192,111392,2,0,L|112:192,1,22.4999994039536
408,328,111568,6,0,B|440:320|440:320|480:304|480:304|464:304|464:304|496:304|496:304|464:288|424:272|424:272|464:272|464:272|472:248|472:248|504:224|504:224|504:208|504:208|448:168|192:200|192:200|496:152|496:152|328:152,1,1102.49998130798
104,328,112274,6,0,B|72:320|72:320|24:320|24:320|40:304|40:304|16:304|16:304|48:288|88:272|88:272|48:272|48:272|40:248|40:248|8:224|8:224|8:208|8:208|64:168|320:200|320:200|24:152|24:152|184:152,1,1102.49998130798
408,328,112980,6,0,B|440:320|440:320|488:336|488:336|512:320|512:320|520:304|520:304|512:272|448:264|448:264|464:272|464:272|472:248|472:248|504:224|504:224|504:208|504:208|448:168|192:200|192:200|496:152|496:152|328:152,1,1102.49998130798
24,192,113686,5,0,0:0:0:0:
128,192,113862,2,0,L|168:160,1,39.374999332428
488,192,114039,5,0,0:0:0:0:
384,192,114215,2,0,L|344:160,1,39.374999332428
104,328,114392,6,0,B|72:320|72:320|32:336|32:336|16:328|16:328|0:304|0:304|0:272|72:272|72:272|48:272|48:272|40:248|40:248|8:224|8:224|8:208|8:208|64:168|320:200|320:200|16:152|16:152|184:152,1,1102.49998130798
408,328,115098,6,0,B|440:320|440:320|480:304|480:304|464:304|464:304|496:304|496:304|464:288|424:272|424:272|464:272|464:272|472:248|472:248|504:224|504:224|504:208|504:208|448:168|192:200|192:200|496:152|496:152|328:152,1,1102.49998130798
136,192,115803,5,0,0:0:0:0:
376,192,115980,2,0,L|440:48,2,157.499997329712
136,192,116333,1,0,0:0:0:0:
488,348,116509,5,0,0:0:0:0:
498,327,116531,1,0,0:0:0:0:
503,305,116553,1,0,0:0:0:0:
504,283,116575,1,0,0:0:0:0:
499,261,116597,1,0,0:0:0:0:
491,240,116619,1,0,0:0:0:0:
478,222,116641,1,0,0:0:0:0:
461,207,116663,1,0,0:0:0:0:
24,348,116685,5,0,0:0:0:0:
14,327,116707,1,0,0:0:0:0:
9,305,116729,1,0,0:0:0:0:
8,283,116751,1,0,0:0:0:0:
13,261,116773,1,0,0:0:0:0:
21,240,116795,1,0,0:0:0:0:
34,222,116817,1,0,0:0:0:0:
51,207,116839,1,0,0:0:0:0:
496,160,116862,6,0,L|468:160,13,22.4999994039536
473,160,117171,2,0,L|445:160,1,22.4999994039536
16,192,117215,6,0,B|8:136|-17:62|53:17,1,179.999995231629
133,33,117480,1,0,0:0:0:0:
221,41,117568,2,0,P|245:81|157:169,1,179.999995231629
96,176,117833,1,0,0:0:0:0:
256,296,117921,6,0,P|280:264|240:144,1,179.999995231629
160,136,118186,1,0,0:0:0:0:
424,296,118274,2,0,P|448:272|376:168,1,179.999995231629
312,168,118539,1,0,0:0:0:0:
472,72,118627,6,0,P|488:136|472:248,1,179.999995231629
376,264,118892,1,0,0:0:0:0:
280,256,118980,2,0,P|272:224|336:96,1,179.999995231629
408,120,119245,1,0,0:0:0:0:
120,192,119333,5,0,0:0:0:0:
232,192,119509,2,0,L|256:192,1,22.4999994039536
25,192,119686,2,0,L|48:192,1,22.4999994039536
256,192,119862,2,0,L|288:192,1,22.4999994039536
496,192,120039,6,0,B|504:248|529:322|459:367,1,179.999995231629
379,351,120304,1,0,0:0:0:0:
291,343,120392,2,0,P|267:303|355:215,1,179.999995231629
416,208,120657,1,0,0:0:0:0:
256,88,120745,6,0,P|232:120|272:240,1,179.999995231629
352,248,121010,1,0,0:0:0:0:
88,88,121098,2,0,P|64:112|144:200,1,179.999995231629
200,232,121363,1,0,0:0:0:0:
40,312,121451,6,0,P|24:248|40:136,1,179.999995231629
136,120,121716,1,0,0:0:0:0:
232,128,121804,2,0,P|216:208|136:272,1,179.999995231629
64,264,122069,1,0,0:0:0:0:
488,348,122156,5,0,0:0:0:0:
498,327,122178,1,0,0:0:0:0:
503,305,122200,1,0,0:0:0:0:
504,283,122222,1,0,0:0:0:0:
499,261,122244,1,0,0:0:0:0:
491,240,122266,1,0,0:0:0:0:
478,222,122288,1,0,0:0:0:0:
461,207,122310,1,0,0:0:0:0:
24,348,122332,5,0,0:0:0:0:
14,327,122354,1,0,0:0:0:0:
9,305,122376,1,0,0:0:0:0:
8,283,122398,1,0,0:0:0:0:
13,261,122420,1,0,0:0:0:0:
21,240,122442,1,0,0:0:0:0:
34,222,122464,1,0,0:0:0:0:
51,207,122486,1,0,0:0:0:0:
496,160,122509,6,0,L|468:160,13,22.4999994039536
473,160,122818,2,0,L|445:160,1,22.4999994039536
120,192,122862,5,0,0:0:0:0:
24,192,122950,1,0,0:0:0:0:
120,192,123039,1,0,0:0:0:0:
120,192,123127,1,0,0:0:0:0:
216,192,123215,5,0,0:0:0:0:
312,192,123303,1,0,0:0:0:0:
216,192,123392,1,0,0:0:0:0:
216,192,123480,1,0,0:0:0:0:
312,192,123568,5,0,0:0:0:0:
216,192,123656,1,0,0:0:0:0:
312,192,123745,1,0,0:0:0:0:
312,192,123833,1,0,0:0:0:0:
408,192,123921,5,0,0:0:0:0:
504,192,124009,1,0,0:0:0:0:
408,192,124098,1,0,0:0:0:0:
408,192,124186,1,0,0:0:0:0:
312,192,124274,5,0,0:0:0:0:
408,192,124362,1,0,0:0:0:0:
312,192,124450,1,0,0:0:0:0:
408,192,124539,1,0,0:0:0:0:
312,192,124627,1,0,0:0:0:0:
216,192,124715,1,0,0:0:0:0:
120,192,124803,1,0,0:0:0:0:
216,192,124892,1,0,0:0:0:0:
408,192,124980,6,0,P|456:176|424:72,1,179.999995231629
104,192,125333,6,0,P|56:176|88:72,1,179.999995231629
392,192,125686,5,0,0:0:0:0:
488,192,125774,1,0,0:0:0:0:
392,192,125863,1,0,0:0:0:0:
392,192,125951,1,0,0:0:0:0:
296,192,126039,5,0,0:0:0:0:
200,192,126127,1,0,0:0:0:0:
296,192,126216,1,0,0:0:0:0:
296,192,126304,1,0,0:0:0:0:
200,192,126392,5,0,0:0:0:0:
296,192,126480,1,0,0:0:0:0:
200,192,126569,1,0,0:0:0:0:
200,192,126657,1,0,0:0:0:0:
104,192,126745,5,0,0:0:0:0:
8,192,126833,1,0,0:0:0:0:
104,192,126922,1,0,0:0:0:0:
104,192,127010,1,0,0:0:0:0:
200,120,127098,5,0,0:0:0:0:
112,120,127186,1,0,0:0:0:0:
192,120,127274,1,0,0:0:0:0:
120,120,127362,1,0,0:0:0:0:
312,120,127450,5,0,0:0:0:0:
400,120,127538,1,0,0:0:0:0:
320,120,127627,1,0,0:0:0:0:
392,120,127715,1,0,0:0:0:0:
104,120,127803,5,0,0:0:0:0:
16,120,127891,1,0,0:0:0:0:
96,120,127980,1,0,0:0:0:0:
24,120,128068,1,0,0:0:0:0:
408,120,128156,5,0,0:0:0:0:
496,120,128245,1,0,0:0:0:0:
416,120,128333,1,0,0:0:0:0:
488,120,128421,1,0,0:0:0:0:
208,192,128509,6,0,B|112:192|112:192|376:192|376:192|16:192|16:192|376:192|376:192|16:192|16:192|376:192|376:192|16:192,1,2159.99994277954
448,192,130803,6,0,L|472:192,1,22.4999994039536
256,192,130979,1,0,0:0:0:0:
496,192,131156,1,0,0:0:0:0:
256,192,131333,6,0,B|424:48|424:48|424:192|424:192|64:192|64:192|424:192|424:192|64:192|64:192|424:192|424:192|64:192,1,2159.99994277954
496,192,133627,6,0,L|496:168,1,22.4999994039536
256,192,133803,2,0,L|256:216,1,22.4999994039536
16,192,133980,2,0,L|16:168,1,22.4999994039536
448,344,134156,6,0,B|192:88|192:88|376:88|376:88|184:88|184:88|432:336|432:336|256:336|256:336|432:336|432:336|72:336|72:336|256:336|256:336|72:336|72:336,1,2159.99994277954
504,192,136450,6,0,L|504:168,1,22.4999994039536
256,192,136627,1,0,0:0:0:0:
392,192,136803,2,0,L|392:168,1,22.4999994039536
104,192,136980,6,0,L|8:192,3,89.9999976158143
200,192,137333,6,0,L|296:192,3,89.9999976158143
200,192,137686,6,0,L|104:192,1,89.9999976158143
200,192,137862,1,0,0:0:0:0:
120,192,137950,1,0,0:0:0:0:
464,192,138039,6,0,L|509:192,3,44.9999988079071
48,192,138215,6,0,L|3:192,3,44.9999988079071
464,192,138392,5,0,0:0:0:0:
464,192,138568,1,0,0:0:0:0:
256,192,138656,1,0,0:0:0:0:
8,56,138745,6,0,L|31:56,1,22.4999994039536
168,56,138833,2,0,L|200:56,1,22.4999994039536
328,56,138921,2,0,L|352:56,1,22.4999994039536
488,56,139009,2,0,L|465:56,1,22.4999994039536
24,348,139098,5,0,0:0:0:0:
14,327,139120,1,0,0:0:0:0:
9,305,139142,1,0,0:0:0:0:
8,283,139164,1,0,0:0:0:0:
13,261,139186,1,0,0:0:0:0:
21,240,139208,1,0,0:0:0:0:
34,222,139230,1,0,0:0:0:0:
51,207,139252,1,0,0:0:0:0:
488,348,139274,5,0,0:0:0:0:
498,327,139296,1,0,0:0:0:0:
503,305,139318,1,0,0:0:0:0:
504,283,139340,1,0,0:0:0:0:
499,261,139362,1,0,0:0:0:0:
491,240,139384,1,0,0:0:0:0:
478,222,139406,1,0,0:0:0:0:
461,207,139428,1,0,0:0:0:0:
16,160,139451,6,0,L|44:160,13,22.4999994039536
39,160,139760,2,0,L|67:160,1,22.4999994039536
320,240,139803,5,0,0:0:0:0:
344,160,139892,1,0,0:0:0:0:
368,80,139980,1,0,0:0:0:0:
392,160,140068,1,0,0:0:0:0:
120,192,140333,5,0,0:0:0:0:
96,120,140421,1,0,0:0:0:0:
392,192,140686,1,0,0:0:0:0:
416,120,140774,1,0,0:0:0:0:
192,240,140862,5,0,0:0:0:0:
168,160,140951,1,0,0:0:0:0:
144,80,141039,1,0,0:0:0:0:
120,160,141127,1,0,0:0:0:0:
320,240,141215,5,0,0:0:0:0:
344,160,141304,1,0,0:0:0:0:
368,80,141392,1,0,0:0:0:0:
392,160,141480,1,0,0:0:0:0:
160,192,141745,5,0,0:0:0:0:
96,120,141833,1,0,0:0:0:0:
352,192,142098,1,0,0:0:0:0:
416,120,142186,1,0,0:0:0:0:
120,192,142274,6,0,L|96:192,1,22.4999994039536
97,192,142318,2,0,L|73:192,5,22.4999994039536
97,192,142450,6,0,L|120:192,3,22.4999994039536
128,192,142539,2,0,L|152:192,1,22.4999994039536
150,192,142583,2,0,L|174:192,1,22.4999994039536
464,272,142627,5,0,0:0:0:0:
424,216,142715,1,0,0:0:0:0:
496,304,142803,1,0,0:0:0:0:
448,248,142892,1,0,0:0:0:0:
48,272,143156,5,0,0:0:0:0:
88,216,143244,1,0,0:0:0:0:
464,272,143509,1,0,0:0:0:0:
424,216,143597,1,0,0:0:0:0:
48,272,143686,5,0,0:0:0:0:
88,216,143774,1,0,0:0:0:0:
16,304,143862,1,0,0:0:0:0:
64,248,143950,1,0,0:0:0:0:
360,288,144039,6,0,B|496:288|496:40|496:40|336:40,1,472.499991989136
152,288,144392,6,0,B|16:288|16:40|16:40|176:40,1,472.499991989136
512,192,144745,6,0,L|448:192,15,44.9999988079071
24,368,145098,6,0,L|24:88,1,269.999992847443
376,272,145450,6,0,L|456:272,1,67.5000007867814
296,112,145627,2,0,L|368:112,1,67.5000007867814
216,192,145980,6,0,L|288:192,1,67.5000007867814
136,112,146333,2,0,L|64:112,1,67.5000007867814
376,272,146509,6,0,L|448:272,1,67.5000007867814
296,112,146686,2,0,L|368:112,1,67.5000007867814
136,272,146862,6,0,L|64:272,1,67.5000007867814
216,112,147039,2,0,L|144:112,1,67.5000007867814
363,112,147392,6,0,L|435:112,1,67.5000007867814
148,112,147745,2,0,L|76:112,1,67.5000007867814
312,192,147921,6,0,L|312:168,6,22.4999994039536
144,192,148098,6,0,L|112:192,1,22.4999994039536
368,192,148186,2,0,L|400:192,1,22.4999994039536
48,192,148274,6,0,L|3:192,1,44.9999988079071
3,192,148362,2,0,L|48:192,1,44.9999988079071
256,192,148450,2,0,L|312:192,1,44.9999988079071
256,192,148539,2,0,L|208:192,1,44.9999988079071
464,192,148627,6,0,L|512:192,1,44.9999988079071
509,192,148715,2,0,L|464:192,1,44.9999988079071
48,192,148803,2,0,L|16:160,1,44.9999988079071
16,160,148892,2,0,L|48:192,1,44.9999988079071
384,112,148980,6,0,L|416:80,1,44.9999988079071
447,48,149068,2,0,L|415:80,1,44.9999988079071
128,272,149156,6,0,L|96:304,1,44.9999988079071
65,336,149244,2,0,L|97:304,1,44.9999988079071
384,272,149333,6,0,L|416:304,1,44.9999988079071
447,336,149421,2,0,L|415:304,1,44.9999988079071
128,112,149509,6,0,L|96:80,1,44.9999988079071
65,48,149597,2,0,L|97:80,1,44.9999988079071
384,272,149686,6,0,L|416:72,1,202.500002360344
128,272,150039,2,0,L|96:72,1,202.500002360344
384,272,150392,2,0,P|256:272|128:272,1,253.12500295043
0,224,150745,6,0,P|32:224|96:144,1,134.999996423721
360,184,150921,6,0,L|408:168,1,44.9999988079071
192,136,151009,2,0,L|136:120,1,44.9999988079071
384,272,151098,5,0,0:0:0:0:
422,250,151142,1,0,0:0:0:0:
448,213,151186,1,0,0:0:0:0:
454,169,151230,1,0,0:0:0:0:
440,126,151274,1,0,0:0:0:0:
409,94,151318,1,0,0:0:0:0:
367,79,151362,1,0,0:0:0:0:
120,192,151450,6,0,L|56:128,1,89.9999976158143
392,192,151627,2,0,L|456:128,1,89.9999976158143
256,192,151803,2,0,L|320:128,1,89.9999976158143
56,255,151980,2,0,L|120:191,1,89.9999976158143
319,255,152156,2,0,L|255:191,1,89.9999976158143
456,255,152333,2,0,L|392:191,1,89.9999976158143
119,191,152509,6,0,L|183:127,1,89.9999976158143
24,256,152686,2,0,L|88:192,1,89.9999976158143
456,255,153039,6,0,L|392:191,1,89.9999976158143
119,191,153392,2,0,L|55:127,1,89.9999976158143
456,256,153568,6,0,L|480:256,6,22.4999994039536
256,192,153745,6,0,L|208:192,1,44.9999988079071
456,256,153833,2,0,L|496:216,1,44.9999988079071
128,272,153921,5,0,0:0:0:0:
90,250,153965,1,0,0:0:0:0:
64,213,154009,1,0,0:0:0:0:
58,169,154053,1,0,0:0:0:0:
72,126,154097,1,0,0:0:0:0:
103,94,154141,1,0,0:0:0:0:
145,79,154185,1,0,0:0:0:0:
464,192,154274,6,0,L|496:160,1,44.9999988079071
256,192,154362,2,0,L|224:160,1,44.9999988079071
374,192,154450,2,0,L|464:192,1,89.9999976158143
138,192,154803,6,0,L|74:255,1,89.9999976158143
504,328,154980,2,0,L|481:328,1,22.4999994039536
344,328,155068,2,0,L|312:328,1,22.4999994039536
184,328,155156,2,0,L|160:328,1,22.4999994039536
24,328,155244,2,0,L|47:328,1,22.4999994039536
360,288,155333,6,0,B|496:288|496:40|496:40|336:40,1,472.499991989136
152,288,155686,6,0,B|16:288|16:40|16:40|176:40,1,472.499991989136
512,192,156039,6,0,L|448:192,15,44.9999988079071
256,192,156392,6,0,L|232:192,1,22.4999994039536
16,192,156480,2,0,L|48:192,1,22.4999994039536
256,192,156568,2,0,L|288:160,1,44.9999988079071
256,120,156656,2,0,L|204:83,1,44.9999988079071
432,272,156745,5,0,0:0:0:0:
470,250,156789,1,0,0:0:0:0:
496,213,156833,1,0,0:0:0:0:
502,169,156877,1,0,0:0:0:0:
488,126,156921,1,0,0:0:0:0:
457,94,156965,1,0,0:0:0:0:
208,88,157009,2,0,L|152:88,1,44.9999988079071
384,272,157098,5,0,0:0:0:0:
424,200,157186,1,0,0:0:0:0:
392,128,157274,1,0,0:0:0:0:
312,96,157362,1,0,0:0:0:0:
26,192,157450,6,0,L|50:192,6,22.4999994039536
256,192,157627,2,0,L|288:192,1,22.4999994039536
481,192,157715,2,0,L|504:192,1,22.4999994039536
26,192,157803,6,0,L|50:192,6,22.4999994039536
256,192,157980,2,0,L|288:192,1,22.4999994039536
481,192,158068,2,0,L|504:192,1,22.4999994039536
256,192,158156,6,0,L|232:192,1,22.4999994039536
31,192,158245,2,0,L|8:192,1,22.4999994039536
486,192,158333,2,0,L|462:192,5,22.4999994039536
344,104,158509,6,0,L|321:104,1,22.4999994039536
488,104,158598,2,0,L|465:104,1,22.4999994039536
26,191,158686,2,0,L|50:191,5,22.4999994039536
168,104,158862,6,0,L|191:104,1,22.4999994039536
24,104,158951,2,0,L|47:104,1,22.4999994039536
343,192,159039,2,0,L|366:192,1,22.4999994039536
400,192,159083,2,0,L|377:192,1,22.4999994039536
168,192,159127,2,0,L|146:192,1,22.4999994039536
112,192,159171,2,0,L|134:192,1,22.4999994039536
486,192,159215,6,0,L|462:192,5,22.4999994039536
472,208,159348,2,0,L|449:208,1,22.4999994039536
26,191,159392,6,0,L|50:191,5,22.4999994039536
40,208,159524,2,0,L|72:209,1,22.4999994039536
344,192,159568,6,0,L|424:152,1,89.9999976158143
464,72,159745,2,0,L|376:56,1,89.9999976158143
168,192,159921,6,0,L|88:152,1,89.9999976158143
48,72,160098,2,0,L|136:56,1,89.9999976158143
344,192,160274,2,0,L|408:128,1,89.9999976158143
168,192,160450,2,0,L|104:128,1,89.9999976158143
344,192,160627,6,0,L|424:152,1,89.9999976158143
168,192,160803,6,0,L|88:152,1,89.9999976158143
344,192,160980,6,0,P|384:176|288:64,1,269.999992847443
16,184,161333,2,0,P|56:224|144:256,1,134.999996423721
512,304,161509,2,0,P|504:272|416:232,1,134.999996423721
24,348,161686,5,0,0:0:0:0:
14,327,161708,1,0,0:0:0:0:
9,305,161730,1,0,0:0:0:0:
8,283,161752,1,0,0:0:0:0:
13,261,161774,1,0,0:0:0:0:
21,240,161796,1,0,0:0:0:0:
34,222,161818,1,0,0:0:0:0:
51,207,161840,1,0,0:0:0:0:
488,348,161862,5,0,0:0:0:0:
498,327,161884,1,0,0:0:0:0:
503,305,161906,1,0,0:0:0:0:
504,283,161928,1,0,0:0:0:0:
499,261,161950,1,0,0:0:0:0:
491,240,161972,1,0,0:0:0:0:
478,222,161994,1,0,0:0:0:0:
461,207,162016,1,0,0:0:0:0:
16,160,162039,6,0,L|44:160,13,22.4999994039536
39,160,162348,2,0,L|67:160,1,22.4999994039536
496,152,162392,5,0,0:0:0:0:
336,104,173686,6,0,L|302:104,1,33.7500003933907
336,104,173774,6,0,L|296:104,1,33.7500003933907
312,136,173862,6,0,L|278:136,1,33.7500003933907
312,136,173950,6,0,L|272:136,1,33.7500003933907
438,120,174039,6,0,L|472:120,1,33.7500003933907
464,160,174127,6,0,L|430:160,1,33.7500003933907
418,192,174215,6,0,L|384:192,1,33.7500003933907
376,232,174303,6,0,L|343:232,1,33.7500003933907
32,192,174392,6,0,L|8:168,1,33.7500003933907
176,192,174480,1,0,0:0:0:0:
224,120,174568,1,0,0:0:0:0:
82,192,174745,6,0,L|32:192,1,50.625000590086
412,192,174921,2,0,L|480:192,1,67.5000007867814
8,192,175098,6,0,B|144:192,1,135.000001573563
480,192,175363,2,0,L|480:88,1,101.250001180172
408,192,175539,2,0,L|408:120,1,67.5000007867814
312,192,175694,1,0,0:0:0:0:
132,192,175803,6,0,L|92:192,3,33.7500003933907
130,192,175980,2,0,L|164:192,3,33.7500003933907
312,192,176156,6,0,L|384:192,1,67.5000007867814
200,192,176333,2,0,L|128:192,1,67.5000007867814
496,280,176509,5,0,0:0:0:0:
440,280,176598,1,0,0:0:0:0:
288,280,176620,1,0,0:0:0:0:
192,280,176686,1,0,0:0:0:0:
16,280,176708,1,0,0:0:0:0:
48,104,176862,5,0,0:0:0:0:
128,104,176884,1,0,0:0:0:0:
168,104,176950,1,0,0:0:0:0:
248,104,176973,1,0,0:0:0:0:
288,104,177039,1,0,0:0:0:0:
367,104,177062,1,0,0:0:0:0:
408,104,177127,1,0,0:0:0:0:
512,104,177149,1,0,0:0:0:0:
488,104,177215,5,0,0:0:0:0:
32,192,177237,6,0,L|16:192,11,16.8750001966953
32,192,177502,2,0,L|48:192,1,16.8750001966953
216,192,177568,2,0,L|256:192,1,33.7500003933907
480,192,177656,6,0,L|496:192,6,16.8750001966953
128,192,177833,2,0,L|88:192,1,33.7500003933907
480,192,177921,6,0,L|440:288,1,101.250001180172
256,192,178098,2,0,L|216:192,1,33.7500003933907
0,192,178186,2,0,L|48:192,1,33.7500003933907
480,192,178274,6,0,L|440:288,1,101.250001180172
256,192,178450,2,0,L|216:192,1,33.7500003933907
0,192,178538,2,0,L|48:192,1,33.7500003933907
512,192,178627,6,0,L|496:160,1,33.7500003933907
464,192,178715,2,0,L|432:168,1,33.7500003933907
0,192,178803,6,0,L|16:160,1,33.7500003933907
48,192,178891,2,0,L|80:168,1,33.7500003933907
496,280,178980,5,0,0:0:0:0:
456,280,179068,1,0,0:0:0:0:
376,280,179090,1,0,0:0:0:0:
336,280,179157,1,0,0:0:0:0:
257,280,179178,1,0,0:0:0:0:
216,280,179245,1,0,0:0:0:0:
112,280,179267,1,0,0:0:0:0:
16,280,179333,6,0,B|16:120|16:120|48:72|48:72|88:120|88:120|280:120,1,472.499991989136
488,136,179686,6,0,L|480:144,13,11.2499997019768
481,143,179995,2,0,L|465:143,1,11.2499997019768
128,240,180039,6,0,B|32:144|32:144|136:40|136:40|400:40|400:40|136:40,1,810.000009441377
384,192,180745,5,0,0:0:0:0:
496,192,180833,1,0,0:0:0:0:
392,192,180921,1,0,0:0:0:0:
488,192,181009,1,0,0:0:0:0:
144,312,181098,6,0,P|128:288|312:48,1,405.000004720688
512,192,181450,6,0,L|512:152,1,33.7500003933907
440,192,181538,2,0,L|440:152,1,33.7500003933907
512,192,181627,2,0,L|512:248,1,33.7500003933907
440,192,181715,2,0,L|440:240,1,33.7500003933907
512,192,181803,6,0,L|496:136,1,33.7500003933907
0,192,181979,2,0,L|16:136,1,33.7500003933907
344,192,182156,6,0,L|392:144,1,67.5000007867814
168,192,182333,2,0,L|120:144,1,67.5000007867814
344,192,182509,2,0,L|392:240,1,67.5000007867814
168,192,182686,2,0,L|120:240,1,67.5000007867814
488,192,182862,6,0,L|488:176,1,16.8750001966953
352,192,182950,2,0,L|352:176,1,16.8750001966953
200,192,183039,2,0,L|200:176,1,16.8750001966953
48,192,183127,2,0,L|48:176,1,16.8750001966953
432,312,183215,6,0,P|464:296|432:160,1,202.500002360344
32,352,183568,5,0,0:0:0:0:
480,32,183921,1,0,0:0:0:0:
24,348,184274,5,0,0:0:0:0:
14,327,184296,1,0,0:0:0:0:
9,305,184318,1,0,0:0:0:0:
8,283,184340,1,0,0:0:0:0:
13,261,184362,1,0,0:0:0:0:
21,240,184384,1,0,0:0:0:0:
34,222,184406,1,0,0:0:0:0:
51,207,184428,1,0,0:0:0:0:
488,348,184450,5,0,0:0:0:0:
498,327,184472,1,0,0:0:0:0:
503,305,184494,1,0,0:0:0:0:
504,283,184516,1,0,0:0:0:0:
499,261,184538,1,0,0:0:0:0:
491,240,184560,1,0,0:0:0:0:
478,222,184582,1,0,0:0:0:0:
461,207,184604,1,0,0:0:0:0:
16,160,184627,6,0,L|44:160,13,22.4999994039536
39,160,184936,2,0,L|67:160,1,22.4999994039536
504,152,184980,6,0,L|504:128,1,22.4999994039536
472,120,185068,2,0,L|472:96,1,22.4999994039536
504,72,185156,2,0,L|504:48,1,22.4999994039536
456,48,185245,2,0,L|456:24,1,22.4999994039536
256,288,185333,2,0,L|256:96,1,179.999995231629
8,192,185686,6,0,L|416:192,1,405.000004720688
408,328,186039,2,0,B|112:328|112:328|56:232,1,405.000004720688
296,192,186392,6,0,L|504:192,1,202.500002360344
296,328,186745,2,0,L|296:192,1,135.000001573563
88,192,187098,6,0,L|208:256,1,135.000001573563
88,192,187296,1,0,0:0:0:0:
144,192,187450,2,0,L|80:72,1,135.000001573563
200,192,187649,1,0,0:0:0:0:
464,192,187803,6,0,L|256:192,1,202.500002360344
48,192,188156,2,0,L|184:192,1,135.000001573563
472,192,188509,6,0,L|264:192,1,202.500002360344
24,192,188862,2,0,L|160:192,1,135.000001573563
504,192,189215,6,0,L|296:192,1,202.500002360344
8,192,189568,2,0,L|144:192,1,135.000001573563
504,192,189921,5,0,0:0:0:0:
336,192,190098,1,0,0:0:0:0:
176,192,190120,2,0,P|128:192|120:128,1,118.125001376867
392,128,190296,2,0,P|440:128|448:64,1,118.125001376867
64,64,190473,1,0,0:0:0:0:
40,192,190627,6,0,B|24:192|24:192|40:208|40:208|24:208|24:208|40:224|40:224|24:224|24:224|40:240|40:240|24:240|24:240|40:256|40:256|24:256|24:256|40:272|40:272|24:272,1,202.500002360344
128,192,190980,2,0,L|128:328,1,135.000001573563
240,192,191333,6,0,B|224:192|224:192|240:208|240:208|224:208|224:208|240:224|240:224|224:224|224:224|240:240|240:240|224:240|224:240|240:256|240:256|224:256|224:256|240:272|240:272|224:272,1,202.500002360344
328,192,191686,2,0,L|328:336,1,135.000001573563
472,192,192039,6,0,B|488:192|488:192|472:208|472:208|488:208|488:208|472:224|472:224|488:224|488:224|472:240|472:240|488:240|488:240|472:256|472:256|488:256|488:256|472:272|472:272|488:272,1,202.500002360344
40,192,192392,2,0,L|40:328,1,135.000001573563
424,192,192745,6,0,L|304:256,1,135.000001573563
424,192,192943,1,0,0:0:0:0:
376,192,193097,2,0,P|432:136|432:80,1,135.000001573563
312,192,193296,1,0,0:0:0:0:
88,192,193450,6,0,P|120:144|256:136,1,202.500002360344
424,192,193803,2,0,P|392:144|256:136,1,202.500002360344
88,192,194156,6,0,P|120:240|256:248,1,202.500002360344
424,192,194509,2,0,P|392:240|256:248,1,202.500002360344
48,320,194862,6,0,L|48:112,1,202.500002360344
464,320,195215,2,0,L|464:184,1,135.000001573563
224,192,195568,6,0,L|272:192,3,44.9999988079071
224,192,195744,6,0,L|176:192,3,44.9999988079071
144,192,195921,6,0,L|99:192,3,44.9999988079071
64,192,196097,6,0,L|16:192,3,44.9999988079071
456,320,196274,6,0,L|456:112,1,202.500002360344
304,56,196627,2,0,L|304:192,1,135.000001573563
64,320,196980,6,0,L|64:112,1,202.500002360344
232,56,197333,2,0,L|232:192,1,135.000001573563
488,320,197686,6,0,L|488:112,1,202.500002360344
288,56,198039,2,0,L|288:192,1,135.000001573563
24,320,198392,1,0,0:0:0:0:
160,56,198568,2,0,L|192:56,1,16.8750001966953
24,320,198745,1,0,0:0:0:0:
200,112,198921,2,0,L|232:112,1,16.8750001966953
472,192,199098,6,0,L|256:192,1,202.500002360344
432,256,199450,2,0,L|296:256,1,135.000001573563
40,192,199803,6,0,L|256:192,1,202.500002360344
80,256,200156,2,0,L|216:256,1,135.000001573563
472,192,200509,6,0,L|256:192,1,202.500002360344
40,192,200862,2,0,L|176:192,1,135.000001573563
472,320,201215,1,0,0:0:0:0:
128,272,201392,2,0,L|128:256,1,16.8750001966953
464,200,201568,2,0,L|464:176,1,16.8750001966953
56,96,201745,2,0,L|56:112,1,16.8750001966953
416,288,201921,5,0,0:0:0:0:
392,240,202098,1,0,0:0:0:0:
368,200,202274,1,0,0:0:0:0:
344,160,202450,1,0,0:0:0:0:
96,288,202627,5,0,0:0:0:0:
120,240,202804,1,0,0:0:0:0:
144,200,202980,1,0,0:0:0:0:
168,160,203156,1,0,0:0:0:0:
416,288,203333,5,0,0:0:0:0:
392,240,203510,1,0,0:0:0:0:
368,200,203686,1,0,0:0:0:0:
344,160,203862,1,0,0:0:0:0:
96,288,204039,5,0,0:0:0:0:
416,288,204215,2,0,L|432:288,1,16.8750001966953
96,288,204392,1,0,0:0:0:0:
416,288,204568,2,0,L|392:288,1,16.8750001966953
96,288,204745,6,0,P|64:264|152:192,1,202.500002360344
112,232,205098,2,0,P|128:240|256:240,1,135.000001573563
496,192,205450,1,0,0:0:0:0:
200,192,205627,6,0,L|184:192,1,16.8750001966953
312,192,205715,2,0,L|328:192,1,16.8750001966953
200,192,205803,2,0,L|200:176,1,16.8750001966953
464,192,205980,2,0,L|480:200,1,16.8750001966953
200,192,206156,5,0,0:0:0:0:
166,193,206200,1,0,0:0:0:0:
134,183,206244,1,0,0:0:0:0:
109,161,206288,1,0,0:0:0:0:
93,132,206332,1,0,0:0:0:0:
89,98,206376,1,0,0:0:0:0:
98,66,206420,1,0,0:0:0:0:
118,39,206464,1,0,0:0:0:0:
312,192,206509,5,0,0:0:0:0:
346,193,206553,1,0,0:0:0:0:
378,183,206597,1,0,0:0:0:0:
403,161,206641,1,0,0:0:0:0:
419,132,206685,1,0,0:0:0:0:
423,98,206729,1,0,0:0:0:0:
414,66,206773,1,0,0:0:0:0:
394,39,206817,1,0,0:0:0:0:
24,348,206862,5,0,0:0:0:0:
14,327,206884,1,0,0:0:0:0:
9,305,206906,1,0,0:0:0:0:
8,283,206928,1,0,0:0:0:0:
13,261,206950,1,0,0:0:0:0:
21,240,206972,1,0,0:0:0:0:
13,261,206995,1,0,0:0:0:0:
21,240,207017,1,0,0:0:0:0:
13,261,207039,1,0,0:0:0:0:
21,240,207061,1,0,0:0:0:0:
13,261,207083,1,0,0:0:0:0:
21,240,207105,1,0,0:0:0:0:
13,261,207127,1,0,0:0:0:0:
21,240,207149,1,0,0:0:0:0:
34,222,207171,1,0,0:0:0:0:
51,207,207193,1,0,0:0:0:0:
496,192,207215,5,0,0:0:0:0:
232,336,207568,6,0,B|56:128|56:128|240:328|240:328|48:144|48:144|248:328|248:328|48:144|48:144|248:320|248:320|40:144|40:144,1,1890.00002202988
280,336,208980,6,0,B|456:128|456:128|272:328|272:328|464:144|464:144|264:328|264:328|464:144|464:144|264:320|264:320|472:144|472:144,1,1890.00002202988
80,344,210392,6,0,B|248:128|248:128|72:328|72:328|256:128|256:128|432:344|432:344|264:144|264:144|440:352|440:352|256:160|256:160|8:48|8:48|192:248|192:248|8:56|8:56|256:168|256:168|504:64|504:64,1,3240.00003776551
498,327,212532,1,0,0:0:0:0:
503,305,212554,1,0,0:0:0:0:
504,283,212576,1,0,0:0:0:0:
499,261,212598,1,0,0:0:0:0:
491,240,212620,1,0,0:0:0:0:
478,222,212642,1,0,0:0:0:0:
461,207,212664,1,0,0:0:0:0:
24,348,212686,5,0,0:0:0:0:
14,327,212708,1,0,0:0:0:0:
9,305,212730,1,0,0:0:0:0:
8,283,212752,1,0,0:0:0:0:
13,261,212774,1,0,0:0:0:0:
21,240,212796,1,0,0:0:0:0:
34,222,212818,1,0,0:0:0:0:
51,207,212840,1,0,0:0:0:0:
496,160,212863,6,0,L|468:160,13,22.4999994039536
473,160,213171,2,0,L|445:160,1,22.4999994039536
4,0,213215,6,0,B|4:384|4:384|4:228|4:228|256:132|256:132|256:368|256:368|256:332|256:332|512:252|512:252|512:8|512:8|512:36|512:36|4:216|4:216|512:36|512:36|4:216|4:216|256:116,1,3510.00004091263
256,115,215531,1,0,0:0:0:0:
512,192,215686,1,0,0:0:0:0:
256,192,215862,2,0,L|256:232,1,33.7500003933907
76,304,216039,6,0,B|76:124|76:124|256:124|256:124|256:304|256:304|436:304|436:304|436:124|436:124,1,899.999976158143
76,124,216215,2,0,B|256:124|256:124|256:304|256:304|440:304|440:304|440:128|440:128|260:128,1,899.999976158143
80,128,217274,1,0,0:0:0:0:
256,260,217450,5,0,0:0:0:0:
296,192,217627,1,0,0:0:0:0:
216,192,217649,1,0,0:0:0:0:
216,192,217803,1,0,0:0:0:0:
296,192,217825,1,0,0:0:0:0:
296,192,217980,1,0,0:0:0:0:
216,192,218002,1,0,0:0:0:0:
216,192,218156,5,0,0:0:0:0:
296,192,218178,1,0,0:0:0:0:
296,192,218333,1,0,0:0:0:0:
216,192,218355,1,0,0:0:0:0:
216,192,218509,1,0,0:0:0:0:
296,192,218531,1,0,0:0:0:0:
296,192,218686,1,0,0:0:0:0:
216,192,218708,1,0,0:0:0:0:
256,280,218862,6,0,B|424:136|424:136|424:280|424:280|64:280|64:280|424:280|424:280|64:280|64:280|424:280|424:280|64:280,1,2159.99994277954
496,288,221156,2,0,L|496:256,1,22.4999994039536
368,192,221333,1,0,0:0:0:0:
32,224,221509,2,0,L|32:200,1,22.4999994039536
448,352,221686,6,0,B|480:328|488:224|488:224|488:40|488:40|488:264|488:264|224:264|224:264|496:264|496:264|224:264,1,1350.00001573563
496,264,222745,2,0,L|224:264,1,270.000003147125
32,336,223098,6,0,P|56:112|80:64,1,269.999992847443
472,56,223450,2,0,P|496:192|432:312,1,269.999992847443
0,192,223803,6,0,L|44:192,15,44.9999988079071
512,192,224156,5,0,0:0:0:0:
480,192,224333,1,0,0:0:0:0:
456,192,224355,1,0,0:0:0:0:
24,344,224509,6,0,B|80:208|80:208|136:208|136:208|80:208|80:208|136:72,1,405.000004720688
488,344,224862,6,0,B|432:208|432:208|376:208|376:208|432:208|432:208|376:72,1,405.000004720688
24,344,225215,6,0,B|88:320|88:320|24:272|24:272|72:224|72:224|120:184|120:184|176:152|176:152|208:96,1,405.000004720688
488,344,225568,6,0,B|424:320|424:320|488:272|488:272|440:224|440:224|392:184|392:184|336:152|336:152|304:96,1,405.000004720688
56,56,225921,6,0,B|16:184|16:184|56:184|56:184|16:272|16:272|56:272|56:272|128:336,1,405.000004720688
456,56,226274,6,0,B|496:184|496:184|456:184|456:184|496:272|496:272|456:272|456:272|384:336,1,405.000004720688
40,192,226627,5,0,0:0:0:0:
176,192,226803,2,0,L|216:192,1,33.7500003933907
336,192,226892,2,0,L|296:192,1,33.7500003933907
8,192,226980,2,0,B|8:152|8:152|40:152|40:152|168:328,1,270.000003147125
256,336,227245,1,0,0:0:0:0:
504,312,227333,6,0,L|504:176,1,135.000001573563
416,240,227509,2,0,L|360:112,1,135.000001573563
112,288,227686,6,0,L|176:152,1,135.000001573563
384,328,227862,2,0,L|448:200,1,135.000001573563
48,224,228039,6,0,L|112:88,1,135.000001573563
360,304,228215,2,0,L|448:184,1,135.000001573563
160,112,228392,6,0,L|24:112,1,135.000001573563
25,112,228414,1,0,0:0:0:0:
25,112,228502,1,0,0:0:0:0:
352,112,228568,6,0,L|488:112,1,135.000001573563
487,112,228590,1,0,0:0:0:0:
487,112,228678,1,0,0:0:0:0:
360,192,228745,6,0,L|344:224,1,33.7500003933907
216,216,228833,2,0,L|200:248,1,33.7500003933907
336,256,228921,6,0,L|352:288,1,33.7500003933907
480,288,229009,2,0,L|496:320,1,33.7500003933907
264,288,229098,6,0,L|248:320,1,33.7500003933907
120,312,229186,2,0,L|104:344,1,33.7500003933907
436,72,229274,1,0,0:0:0:0:
487,112,229318,1,0,0:0:0:0:
489,177,229362,1,0,0:0:0:0:
441,222,229406,1,0,0:0:0:0:
24,348,229450,5,0,0:0:0:0:
14,327,229472,1,0,0:0:0:0:
9,305,229494,1,0,0:0:0:0:
8,283,229516,1,0,0:0:0:0:
13,261,229538,1,0,0:0:0:0:
21,240,229560,1,0,0:0:0:0:
34,222,229582,1,0,0:0:0:0:
51,207,229604,1,0,0:0:0:0:
488,348,229626,5,0,0:0:0:0:
498,327,229648,1,0,0:0:0:0:
503,305,229670,1,0,0:0:0:0:
504,283,229692,1,0,0:0:0:0:
499,261,229714,1,0,0:0:0:0:
491,240,229736,1,0,0:0:0:0:
478,222,229758,1,0,0:0:0:0:
461,207,229780,1,0,0:0:0:0:
16,160,229803,6,0,L|44:160,13,22.4999994039536
39,160,230112,2,0,L|67:160,1,22.4999994039536
448,240,230156,6,0,L|488:112,1,135.000001573563
64,240,230509,2,0,L|24:112,1,135.000001573563
448,240,230862,2,0,P|408:112|360:112,1,202.500002360344
64,240,231215,2,0,L|104:112,1,135.000001573563
488,272,231568,6,0,L|448:144,1,135.000001573563
24,272,231921,2,0,L|64:144,1,135.000001573563
364,273,232274,2,0,P|453:238|448:144,1,202.500002360344
104,272,232627,2,0,L|64:144,1,135.000001573563
496,56,232980,6,0,L|496:192,1,135.000001573563
256,328,233333,2,0,L|256:192,1,135.000001573563
16,56,233686,2,0,P|16:192|80:256,1,202.500002360344
256,56,234039,2,0,L|256:192,1,135.000001573563
496,328,234392,6,0,P|496:192|432:128,1,202.500002360344
256,328,234745,2,0,L|256:192,1,135.000001573563
16,328,235098,2,0,L|56:200,1,135.000001573563
224,128,235450,5,0,0:0:0:0:
456,96,235473,2,0,P|480:128|456:264,1,185.625002163649
8,192,235803,6,0,L|144:192,1,135.000001573563
384,192,236156,2,0,L|240:192,1,135.000001573563
504,192,236509,2,0,L|296:192,1,202.500002360344
8,192,236862,2,0,L|144:192,1,135.000001573563
504,192,237215,6,0,L|368:192,1,135.000001573563
128,192,237568,2,0,L|272:192,1,135.000001573563
8,192,237921,2,0,L|216:192,1,202.500002360344
504,192,238274,2,0,L|368:192,1,135.000001573563
8,192,238627,6,0,L|144:192,1,135.000001573563
504,192,238980,2,0,L|368:192,1,135.000001573563
8,192,239333,2,0,L|216:192,1,202.500002360344
504,192,239686,2,0,L|368:192,1,135.000001573563
8,192,240039,5,0,0:0:0:0:
328,192,240215,1,0,0:0:0:0:
256,192,240303,1,0,0:0:0:0:
184,192,240392,1,0,0:0:0:0:
432,192,240568,5,0,0:0:0:0:
466,192,240612,1,0,0:0:0:0:
500,192,240656,1,0,0:0:0:0:
184,192,240745,2,0,L|112:192,1,67.5000007867814
328,192,240921,2,0,L|400:192,1,67.5000007867814
184,192,241098,1,0,0:0:0:0:
424,296,241450,6,0,B|64:296|64:296|424:296|424:296|64:296|64:296|424:296|424:296|64:296|64:296|424:296,1,2159.99994277954
88,192,243745,2,0,L|64:192,1,22.4999994039536
416,192,243921,1,0,0:0:0:0:
255,192,244098,2,0,L|232:192,1,22.4999994039536
96,88,244274,6,0,B|480:88|480:88|104:88|104:88|488:88|488:88|120:88|120:88|512:88|512:88|136:88,1,2267.99987070466
448,192,246568,2,0,L|472:192,1,24.750000099659
136,192,246745,1,0,0:0:0:0:
456,288,247098,6,0,B|72:240|72:240|464:272|464:272|72:232|72:232|464:280|464:280|72:224|72:224|480:288,1,2376.00000956726
24,192,249392,2,0,L|24:152,1,33.7500003933907
256,192,249568,1,0,0:0:0:0:
488,192,249745,2,0,L|488:152,1,33.7500003933907
8,384,249921,6,0,B|504:0|504:0|8:376|8:376|504:0|504:0|8:368|8:368|512:0|512:0,1,3113.99999353256
80,192,252039,6,0,L|40:192,3,33.7500003933907
104,152,252215,6,0,L|64:152,3,33.7500003933907
128,104,252392,6,0,L|88:104,3,33.7500003933907
152,56,252568,6,0,L|112:56,3,33.7500003933907
498,192,252745,6,0,L|464:192,3,33.7500003933907
490,144,252921,6,0,L|456:144,3,33.7500003933907
48,216,253098,6,0,L|15:216,3,33.7500003933907
23,264,253274,6,0,L|56:264,3,33.7500003933907
424,192,253450,5,0,0:0:0:0:
