osu file format v14

[General]
AudioFilename: hololive songs compilation.mp3
AudioLeadIn: 0
PreviewTime: 1610888
Countdown: 0
SampleSet: Soft
StackLeniency: 0.4
Mode: 0
LetterboxInBreaks: 0
EpilepsyWarning: 1
WidescreenStoryboard: 1

[Editor]
DistanceSpacing: 0.8
BeatDivisor: 4
GridSize: 16
TimelineZoom: 5.600002

[Metadata]
Title:Hololive Songs Compilation
TitleUnicode:Hololive Songs Compilation
Artist:Various Artists
ArtistUnicode:Various Artists
Creator:Bokamin
Version:Nonstop Story
Source:
Tags:-Atri- Akitoshi Segula Spinity syoutoku1 too Captain Yasaija 714 Japanese Virtual Youtuber Vtuber IDOL PROJECT COVER Shiny Smily Story さくらみこ Sakura Miko My name is elite* 角巻わため Tsunomaki Watame Ai-mai Chocolate 赤井はあと Akai Haato ECHO 常闇トワ Tokoyami Towa Brilliant 湊あくあ Minato Aqua One Room Sugar Life ロボ子さん Robocosan Manjusyage ときのそら Tokino Sora Kotobakaze おちゃめ機能 Ochame Kinou 夜空メル Yozora Mel Wakusei Loop 大神ミオ Ookami Mio Rin to Shite Saku Hana no Gotoku 兎田ぺこら Usada Pekora Discommunication Alien 百鬼あやめ Nakiri Ayame Kaishin no Ichigeki! 宝鐘マリン Houshou Marine Ahoy!! Warera Kaizokudan* 猫又おかゆ Nekomata Okayu Umiyuri Kaiteitan 紫咲シオン Murasaki Shion Yoru ni Kakeru 戌神ころね Inugami Korone Love Trial 大空スバル Oozora Subaru Do my best! Yumemiru Sora e 白上フブキ Shirakami Fubuki Say! Fanfare! 夏色まつり Natsuiro Matsuri Marigold アキロゼ Aki Rosenthal Rinneru Sekai to Tsumi no Kajitsu 不知火フレア Shiranui Flare Kotoba III 天音かなた Amane Kanata Ghost Rule 星街すいせい Hoshimachi Suisei NEXT COLOR PLANET AZKi without U Kirameki Rider*
BeatmapID:2597284
BeatmapSetID:1249679

[Difficulty]
HPDrainRate:4
CircleSize:4
OverallDifficulty:8
ApproachRate:9.5
SliderMultiplier:1.8
SliderTickRate:1

[Events]
//Background and Video events
0,0,"BG.png",0,0
//Break Periods
2,25766,35055
2,67934,75995
2,119176,130796
2,165807,173207
2,227121,232476
2,280563,286328
2,330582,336207
2,383687,392475
2,492429,498781
2,539064,550617
2,594070,603381
2,653547,658871
2,700303,709907
2,757250,766306
2,802560,814741
2,858850,868677
2,912163,919100
2,969043,971184
2,1121986,1135073
2,1181081,1192841
2,1230272,1237143
2,1294394,1304256
2,1346153,1354417
2,1404915,1421555
2,1481934,1487142
2,1582181,1588191
//Storyboard Layer 0 (Background)
//Storyboard Layer 1 (Fail)
//Storyboard Layer 2 (Pass)
//Storyboard Layer 3 (Foreground)
//Storyboard Layer 4 (Overlay)
//Storyboard Sound Samples

[TimingPoints]
-148,357.142857142857,4,1,0,100,1,0
1280,-250.000000000001,4,2,30,40,0,0
4137,-333.333333333334,4,2,30,40,0,0
5566,-250.000000000001,4,2,30,40,0,0
6637,-250.000000000001,4,2,30,70,0,0
6905,-250.000000000001,4,2,30,5,0,0
6994,-250.000000000001,4,2,30,70,0,0
7709,-166.666666666667,4,2,30,50,0,0
8423,-166.666666666667,4,2,30,60,0,0
9494,-125,4,2,30,70,0,0
9762,-125,4,2,30,5,0,0
9851,-125,4,2,30,80,0,0
12709,-125,4,2,30,80,0,1
13066,-100,4,2,30,80,0,1
16191,-100,4,2,30,5,0,1
16280,-100,4,2,30,80,0,1
17262,-100,4,2,30,5,0,1
17351,-100,4,2,30,80,0,1
18334,-100,4,2,30,5,0,1
18423,-100,4,2,30,80,0,1
25566,-100,4,2,30,80,0,0
31603,331.491712707182,4,1,0,100,1,0
35580,-100,4,2,10,70,0,0
36574,-125,4,2,10,70,0,0
36906,-100,4,2,10,70,0,0
39019,-100,4,2,10,5,0,0
39061,-100,4,2,10,70,0,0
39185,-100,4,2,10,5,0,0
39226,-100,4,2,10,70,0,0
39351,-100,4,2,10,5,0,0
39392,-100,4,2,10,70,0,0
39558,-50,4,2,10,70,0,0
39889,-43.4782608695652,4,2,10,70,0,0
40221,-38.4615384615385,4,2,10,70,0,0
40552,-33.3333333333333,4,2,10,70,0,0
40884,-100,4,2,10,70,0,0
43536,-76.9230769230769,4,2,10,70,0,1
44530,-100,4,2,10,70,0,1
45525,-66.6666666666667,4,2,10,70,0,1
46188,-76.9230769230769,4,2,10,70,0,1
47514,-133.333333333333,4,2,10,70,0,1
47762,-76.9230769230769,4,2,10,70,0,1
48177,-133.333333333333,4,2,10,70,0,1
48342,-66.6666666666667,4,2,10,70,0,1
48840,-76.9230769230769,4,2,10,70,0,1
49834,-100,4,2,10,70,0,1
50829,-66.6666666666667,4,2,10,70,0,1
51491,-58.8235294117647,4,2,10,70,0,1
52817,-80,4,2,10,70,0,1
53646,-100,4,2,10,70,0,0
54143,-76.9230769230769,4,2,10,70,0,1
55138,-100,4,2,10,70,0,1
56132,-66.6666666666667,4,2,10,70,0,1
56795,-76.9230769230769,4,2,10,70,0,1
58121,-133.333333333333,4,2,10,70,0,1
58370,-76.9230769230769,4,2,10,70,0,1
58784,-133.333333333333,4,2,10,70,0,1
58950,-66.6666666666667,4,2,10,70,0,1
59447,-76.9230769230769,4,2,10,70,0,1
60442,-100,4,2,10,70,0,1
61436,-66.6666666666667,4,2,10,70,0,1
62099,-58.8235294117647,4,2,10,70,0,1
63425,-133.333333333333,4,2,10,70,0,1
63591,-66.6666666666667,4,2,10,70,0,1
63757,-45.4545454545455,4,2,10,70,0,1
63922,-66.6666666666667,4,2,10,70,0,1
64088,-45.4545454545455,4,2,10,70,0,1
64420,-66.6666666666667,4,2,10,70,0,1
64751,-133.333333333333,4,2,10,70,0,1
65083,-76.9230769230769,4,2,10,70,0,1
65414,-100,4,2,10,70,0,1
65746,-47.6190476190476,4,2,10,70,0,1
66740,-133.333333333333,4,2,10,70,0,1
67072,-58.8235294117647,4,2,10,70,0,1
67404,-50,4,2,10,70,0,0
67735,-50,4,2,10,5,0,0
76532,444.444444444444,4,1,0,100,1,0
76532,-200,4,2,1,40,0,0
83087,-200,4,2,1,60,0,0
83643,-142.857142857143,4,2,1,60,0,0
85420,-111.111111111111,4,2,1,65,0,0
87198,-111.111111111111,4,2,1,70,0,0
88087,-83.3333333333333,4,2,1,80,0,0
90754,-83.3333333333333,4,2,1,80,0,1
91087,-83.3333333333333,4,2,1,5,0,1
91198,-83.3333333333333,4,2,1,80,0,1
92865,-83.3333333333333,4,2,1,5,0,1
92976,-83.3333333333333,4,2,1,80,0,1
94198,-83.3333333333333,4,2,1,5,0,1
94309,-83.3333333333333,4,2,1,80,0,1
94643,-83.3333333333333,4,2,1,5,0,1
94754,-83.3333333333333,4,2,1,80,0,1
95531,-83.3333333333333,4,2,1,5,0,1
95642,-83.3333333333333,4,2,1,80,0,1
98198,-83.3333333333333,4,2,1,5,0,1
98309,-83.3333333333333,4,2,1,80,0,1
99976,-83.3333333333333,4,2,1,5,0,1
100087,-83.3333333333333,4,2,1,80,0,1
101309,-83.3333333333333,4,2,1,5,0,1
101420,-83.3333333333333,4,2,1,80,0,1
103087,-83.3333333333333,4,2,1,5,0,1
103198,-83.3333333333333,4,2,1,80,0,1
103531,-83.3333333333333,4,2,1,5,0,1
103642,-83.3333333333333,4,2,1,80,0,1
104531,-66.6666666666667,4,2,1,80,0,0
104865,-66.6666666666667,4,2,1,5,0,0
104976,-83.3333333333333,4,2,1,80,0,1
112420,-83.3333333333333,4,2,1,5,0,1
112531,-83.3333333333333,4,2,1,80,0,1
114198,-83.3333333333333,4,2,1,5,0,1
114309,-83.3333333333333,4,2,1,80,0,1
115643,-66.6666666666667,4,2,1,90,0,1
115865,-66.6666666666667,4,2,1,5,0,1
115976,-66.6666666666667,4,2,1,90,0,1
117643,-66.6666666666667,4,2,1,60,0,0
126179,428.571428571428,4,2,2,100,1,0
131321,-100,4,2,2,100,0,0
131750,-50,4,2,2,80,0,0
132607,-43.4782608695652,4,2,2,80,0,0
133036,-66.6666666666667,4,2,2,80,0,0
133892,-33.3333333333333,4,2,2,80,0,0
134322,-25,4,2,2,80,0,0
134750,-50,4,2,2,80,0,0
137321,-133.333333333333,4,2,2,80,0,0
137750,-28.5714285714286,4,2,2,80,0,0
138393,-50,4,2,2,80,0,0
139036,-200,4,2,2,80,0,0
139464,-33.3333333333333,4,2,2,80,0,0
139893,-25,4,2,2,80,0,0
140750,-166.666666666667,4,2,2,80,0,0
141178,-33.3333333333333,4,2,2,80,0,0
141607,-50,4,2,2,80,0,0
141821,-40,4,2,2,80,0,0
142036,-33.3333333333333,4,2,2,80,0,0
142250,-28.5714285714285,4,2,2,80,0,0
142464,-25,4,2,2,80,0,0
142678,-33.3333333333333,4,2,2,80,0,0
142893,-50,4,2,2,80,0,0
143107,-100,4,2,2,80,0,0
143321,-50,4,2,2,80,0,0
144179,-33.3333333333333,4,2,2,80,0,0
144607,-25,4,2,2,80,0,0
145036,-40,4,2,2,80,0,0
146321,-25,4,2,2,80,0,0
146750,-50,4,2,2,80,0,0
147608,-33.3333333333333,4,2,2,80,0,0
148036,-25,4,2,2,80,0,0
148464,-66.6666666666667,4,2,2,80,0,0
151036,-40,4,2,2,80,0,0
151464,-25,4,2,2,80,0,0
151678,-66.6666666666667,4,2,2,80,0,0
151893,-66.6666666666667,4,2,2,80,0,1
153178,-33.3333333333333,4,2,2,80,0,1
153607,-66.6666666666667,4,2,2,80,0,1
154250,-200,4,2,2,80,0,1
154678,-33.3333333333333,4,2,2,80,0,1
155321,-50,4,2,2,80,0,1
156178,-100,4,2,2,80,0,1
156821,-50,4,2,2,80,0,1
162340,-50,4,2,2,5,0,1
162394,-50,4,2,2,80,0,1
162554,-50,4,2,2,5,0,1
162608,-50,4,2,2,80,0,1
162769,-50,4,2,2,5,0,1
162822,-50,4,2,2,80,0,1
164751,-20,4,2,2,80,0,1
164964,-133.333333333333,4,2,2,80,0,1
165607,-133.333333333333,4,2,2,80,0,0
173732,324.324324324324,4,1,0,100,1,0
173732,-125,4,2,0,60,0,0
186704,-142.857142857143,4,2,0,65,0,0
189218,-142.857142857143,4,2,0,5,0,0
189299,-142.857142857143,4,2,0,65,0,0
190596,-111.111111111111,4,2,0,65,0,0
190840,-111.111111111111,4,2,0,5,0,0
190921,-111.111111111111,4,2,0,65,0,0
191164,-111.111111111111,4,2,0,5,0,0
191245,-111.111111111111,4,2,0,70,0,0
191569,-200,4,2,0,70,0,0
191813,-200,4,2,0,5,0,0
191894,-74.0740740740741,4,2,0,80,0,1
212650,-100,4,2,0,70,0,1
223029,-100,4,2,0,70,0,0
223677,-105.263157894737,4,2,0,50,0,0
224975,-105.263157894737,4,2,0,30,0,0
226272,-105.263157894737,4,2,0,10,0,0
226921,-105.263157894737,4,2,0,5,0,0
230257,324.324324324324,4,2,0,5,1,0
231030,333.333333333333,4,1,0,100,1,0
233030,-100,4,2,50,75,0,0
233363,-80,4,2,50,75,0,0
233613,-80,4,2,50,5,0,0
233696,-100,4,2,50,75,0,0
237113,-100,4,2,50,5,0,0
237196,-100,4,2,50,75,0,0
238613,-100,4,2,50,5,0,0
238696,-100,4,2,50,75,0,0
238780,-100,4,2,50,5,0,0
238863,-100,4,2,50,75,0,0
238946,-100,4,2,50,5,0,0
239030,-80,4,2,50,75,0,0
249029,-100,4,2,50,75,0,0
249279,-100,4,2,50,5,0,0
249363,-133.333333333333,4,2,50,75,0,0
249613,-133.333333333333,4,2,50,5,0,0
249696,-100,4,2,50,75,0,0
251279,-100,4,2,50,5,0,0
251363,-100,4,2,50,75,0,0
252279,-100,4,2,50,5,0,0
252363,-100,4,2,50,75,0,0
252529,-100,4,2,50,5,0,0
253696,-100,4,2,50,75,0,0
255029,-66.6666666666667,4,2,50,85,0,1
259113,-66.6666666666667,4,2,50,5,0,1
259196,-66.6666666666667,4,2,50,85,0,1
260029,-100,4,2,50,85,0,1
260363,-66.6666666666667,4,2,50,85,0,1
263279,-66.6666666666667,4,2,50,5,0,1
263363,-66.6666666666667,4,2,50,85,0,1
265196,-100,4,2,50,85,0,1
265696,-66.6666666666667,4,2,50,85,0,1
265946,-66.6666666666667,4,2,50,5,0,1
266029,-66.6666666666667,4,2,50,85,0,1
266613,-66.6666666666667,4,2,50,5,0,1
266696,-66.6666666666667,4,2,50,85,0,1
267113,-66.6666666666667,4,2,50,5,0,1
267196,-66.6666666666667,4,2,50,85,0,1
267946,-66.6666666666667,4,2,50,5,0,1
268029,-66.6666666666667,4,2,50,85,0,1
268446,-66.6666666666667,4,2,50,5,0,1
268529,-66.6666666666667,4,2,50,85,0,1
270696,-100,4,2,50,85,0,1
271029,-66.6666666666667,4,2,50,85,0,1
271279,-66.6666666666667,4,2,50,5,0,1
271363,-66.6666666666667,4,2,50,85,0,1
271946,-66.6666666666667,4,2,50,5,0,1
272029,-66.6666666666667,4,2,50,85,0,1
272446,-66.6666666666667,4,2,50,5,0,1
272529,-66.6666666666667,4,2,50,85,0,1
273279,-66.6666666666667,4,2,50,5,0,1
273363,-66.6666666666667,4,2,50,85,0,1
273779,-66.6666666666667,4,2,50,5,0,1
273863,-66.6666666666667,4,2,50,85,0,1
274196,-100,4,2,50,85,0,1
274446,-100,4,2,50,5,0,1
274529,-100,4,2,50,85,0,1
275029,-100,4,2,50,85,0,0
276363,-100,4,2,50,5,0,0
284097,428.571428571428,4,1,0,100,1,0
286882,-100,4,2,51,75,0,0
287525,-66.6666666666667,4,2,51,75,0,0
289239,-50,4,2,51,75,0,0
289454,-50,4,2,51,5,0,0
289668,-66.6666666666667,4,2,51,75,0,0
297811,-400,4,2,51,75,0,0
298668,-400,4,2,51,5,0,0
298882,-100,4,2,51,75,0,0
299097,-50,4,2,51,75,0,0
299418,-50,4,2,51,5,0,0
299525,-66.6666666666667,4,2,51,85,0,1
300704,-66.6666666666667,4,2,51,5,0,1
300811,-66.6666666666667,4,2,51,85,0,1
301347,-66.6666666666667,4,2,51,5,0,1
301454,-66.6666666666667,4,2,51,85,0,1
302954,-133.333333333333,4,2,51,85,0,1
303597,-66.6666666666667,4,2,51,85,0,1
304132,-66.6666666666667,4,2,51,5,0,1
304239,-66.6666666666667,4,2,51,85,0,1
304775,-66.6666666666667,4,2,51,5,0,1
304882,-66.6666666666667,4,2,51,85,0,1
306382,-133.333333333333,4,2,51,85,0,1
307025,-66.6666666666667,4,2,51,85,0,1
307346,-66.6666666666667,4,2,51,5,0,1
307454,-66.6666666666667,4,2,51,85,0,1
311525,-50,4,2,51,85,0,1
311846,-66.6666666666667,4,2,51,85,0,1
312061,-66.6666666666667,4,2,51,5,0,1
312168,-66.6666666666667,4,2,51,85,0,1
312275,-66.6666666666667,4,2,51,5,0,1
312382,-66.6666666666667,4,2,51,85,0,1
313239,-133.333333333333,4,2,51,85,0,1
313882,-66.6666666666667,4,2,51,85,0,1
314204,-66.6666666666667,4,2,51,5,0,1
314311,-66.6666666666667,4,2,51,85,0,1
314954,-66.6666666666667,4,2,51,85,0,1
315275,-66.6666666666667,4,2,51,5,0,1
315382,-66.6666666666667,4,2,51,85,0,1
316668,-133.333333333333,4,2,51,85,0,1
317311,-66.6666666666667,4,2,51,85,0,1
317954,-50,4,2,51,85,0,1
318275,-50,4,2,51,5,0,1
318382,-100,4,2,51,85,0,1
319239,-66.6666666666667,4,2,51,85,0,1
321811,-133.333333333333,4,2,51,85,0,1
322454,-66.6666666666667,4,2,51,85,0,1
322561,-66.6666666666667,4,2,51,5,0,1
322668,-66.6666666666667,4,2,51,85,0,1
323525,-133.333333333333,4,2,51,85,0,1
324168,-66.6666666666667,4,2,51,85,0,1
325239,-50,4,2,51,85,0,1
325454,-50,4,2,51,5,0,1
325668,-50,4,2,51,85,0,1
325882,-50,4,2,51,5,0,1
326096,-50,4,2,51,85,0,1
326204,-50,4,2,51,5,0,1
326311,-50,4,2,51,85,0,1
326418,-50,4,2,51,5,0,1
326739,-50,4,2,51,85,0,0
327168,-50,4,2,51,5,0,0
334638,530.973451327433,4,1,0,100,1,0
336761,-62.5,4,2,1,60,0,0
344195,-55.5555555555556,4,2,1,70,0,0
344394,-55.5555555555556,4,2,1,5,0,0
344461,-55.5555555555556,4,2,1,70,0,0
344660,-55.5555555555556,4,2,1,5,0,0
344726,-126.582278481013,4,2,1,70,0,0
345191,-126.582278481013,4,2,1,5,0,0
345257,-50,4,2,1,80,0,1
345456,-50,4,2,1,5,0,1
345522,-50,4,2,1,80,0,1
345722,-50,4,2,1,5,0,1
345788,-50,4,2,1,80,0,1
345987,-50,4,2,1,5,0,1
346053,-50,4,2,1,80,0,1
346253,-50,4,2,1,5,0,1
346319,-50,4,2,1,80,0,1
347049,-50,4,2,1,5,0,1
347115,-50,4,2,1,80,0,1
347314,-50,4,2,1,5,0,1
347381,-50,4,2,1,80,0,1
348111,-50,4,2,1,5,0,1
348177,-50,4,2,1,80,0,1
348376,-50,4,2,1,5,0,1
348443,-50,4,2,1,80,0,1
351828,-50,4,2,1,5,0,1
351894,-50,4,2,1,80,0,1
352093,-50,4,2,1,5,0,1
352160,-50,4,2,1,80,0,1
352890,-50,4,2,1,5,0,1
352956,-50,4,2,1,80,0,1
353155,-50,4,2,1,5,0,1
353222,-50,4,2,1,80,0,1
353421,-50,4,2,1,5,0,1
353487,-50,4,2,1,80,0,1
353952,-50,4,2,1,5,0,1
354018,-50,4,2,1,80,0,1
354217,-50,4,2,1,5,0,1
354284,-50,4,2,1,80,0,1
354483,-50,4,2,1,5,0,1
354549,-50,4,2,1,80,0,1
354748,-50,4,2,1,5,0,1
354814,-50,4,2,1,80,0,1
355545,-50,4,2,1,5,0,1
355611,-50,4,2,1,80,0,1
355810,-50,4,2,1,5,0,1
355876,-50,4,2,1,80,0,1
356607,-50,4,2,1,5,0,1
356673,-50,4,2,1,80,0,1
356872,-50,4,2,1,5,0,1
356938,-50,4,2,1,80,0,1
362248,-50,4,2,1,80,0,0
365899,-50,4,2,1,5,0,0
365965,-50,4,2,1,80,0,0
372602,-50,4,2,1,5,0,0
372668,-50,4,2,1,80,0,0
372801,-50,4,2,1,5,0,0
372868,-50,4,2,1,80,0,0
373000,-50,4,2,1,5,0,0
373133,-100,4,2,1,80,0,0
373266,-100,4,2,1,5,0,0
373399,-50,4,2,1,80,0,0
373531,-50,4,2,1,5,0,0
373664,-100,4,2,1,80,0,0
373797,-100,4,2,1,5,0,0
373930,-50,4,2,1,80,0,0
374062,-50,4,2,1,5,0,0
374195,-100,4,2,1,80,0,0
374328,-100,4,2,1,5,0,0
374461,-50,4,2,1,80,0,0
374593,-50,4,2,1,5,0,0
374726,-100,4,2,1,80,0,0
374859,-100,4,2,1,5,0,0
374991,-66.6666666666667,4,2,1,80,0,1
383487,-66.6666666666667,4,2,1,80,0,0
393029,400,4,2,0,60,1,0
397429,-83.3333333333333,4,2,0,60,0,0
397829,-66.6666666666667,4,2,0,60,0,0
398829,-100,4,2,0,60,0,0
399429,-58.8235294117647,4,2,28,80,0,1
400379,-58.8235294117647,4,2,28,5,0,1
400429,-58.8235294117647,4,2,28,80,0,1
401979,-58.8235294117647,4,2,28,5,0,1
402029,-58.8235294117647,4,2,28,80,0,1
403579,-58.8235294117647,4,2,28,5,0,1
403629,-58.8235294117647,4,2,28,80,0,1
406779,-58.8235294117647,4,2,28,5,0,1
406829,-58.8235294117647,4,2,28,80,0,1
408379,-58.8235294117647,4,2,28,5,0,1
408429,-58.8235294117647,4,2,28,80,0,1
409979,-58.8235294117647,4,2,28,5,0,1
410029,-58.8235294117647,4,2,28,80,0,1
412229,-71.4285714285714,4,2,28,80,0,0
417979,-71.4285714285714,4,2,28,5,0,0
418029,-71.4285714285714,4,2,28,80,0,0
425029,-125,4,2,28,60,0,0
450629,-76.9230769230769,4,2,28,70,0,0
450929,-76.9230769230769,4,2,28,5,0,0
451029,-76.9230769230769,4,2,28,70,0,0
451329,-76.9230769230769,4,2,28,5,0,0
451429,-76.9230769230769,4,2,28,70,0,0
452529,-76.9230769230769,4,2,28,5,0,0
452629,-76.9230769230769,4,2,28,70,0,0
452929,-76.9230769230769,4,2,28,5,0,0
453029,-76.9230769230769,4,2,28,70,0,0
457329,-76.9230769230769,4,2,28,5,0,0
457429,-76.9230769230769,4,2,28,70,0,0
457729,-76.9230769230769,4,2,28,5,0,0
457829,-76.9230769230769,4,2,28,70,0,0
458929,-76.9230769230769,4,2,28,5,0,0
459029,-76.9230769230769,4,2,28,70,0,0
459329,-76.9230769230769,4,2,28,5,0,0
459429,-76.9230769230769,4,2,28,70,0,0
461829,-66.6666666666667,4,2,28,70,0,0
462029,-66.6666666666667,4,2,28,5,0,0
462129,-66.6666666666667,4,2,28,70,0,0
462329,-66.6666666666667,4,2,28,5,0,0
462429,-66.6666666666667,4,2,28,70,0,0
463429,-58.8235294117647,4,2,28,80,0,1
464379,-58.8235294117647,4,2,28,5,0,1
464429,-58.8235294117647,4,2,28,80,0,1
465979,-58.8235294117647,4,2,28,5,0,1
466029,-58.8235294117647,4,2,28,80,0,1
467579,-58.8235294117647,4,2,28,5,0,1
467629,-58.8235294117647,4,2,28,80,0,1
470779,-58.8235294117647,4,2,28,5,0,1
470829,-58.8235294117647,4,2,28,80,0,1
472379,-58.8235294117647,4,2,28,5,0,1
472429,-58.8235294117647,4,2,28,80,0,1
473979,-58.8235294117647,4,2,28,5,0,1
474029,-58.8235294117647,4,2,28,80,0,1
477579,-58.8235294117647,4,2,28,5,0,1
477629,-58.8235294117647,4,2,28,80,0,1
483579,-58.8235294117647,4,2,28,5,0,1
483629,-58.8235294117647,4,2,28,80,0,1
487429,-71.4285714285714,4,2,28,60,0,0
489029,-83.3333333333333,4,2,28,60,0,0
490629,-83.3333333333333,4,2,28,50,0,0
491629,-66.6666666666667,4,2,28,40,0,0
492229,-66.6666666666667,4,2,28,25,0,0
496512,352.941176470588,4,1,0,100,1,0
499335,-100,4,2,69,60,0,0
504982,-90.9090909090909,4,2,69,80,0,1
527217,-90.9090909090909,4,2,69,80,0,0
527570,-90.9090909090909,4,2,69,80,0,1
538864,-90.9090909090909,4,2,69,80,0,0
546754,368.098159509202,4,1,0,100,1,0
551171,-100,4,2,1,60,0,0
551355,-100,4,2,1,30,0,0
551539,-100,4,2,1,60,0,0
551723,-100,4,2,1,30,0,0
551907,-200,4,2,1,60,0,0
552551,-200,4,2,1,5,0,0
552643,-100,4,2,1,60,0,0
552827,-100,4,2,1,30,0,0
553011,-100,4,2,1,60,0,0
553195,-100,4,2,1,30,0,0
553379,-200,4,2,1,60,0,0
554023,-200,4,2,1,5,0,0
554115,-100,4,2,1,60,0,0
555864,-142.857142857143,4,2,1,60,0,0
557060,-76.9230769230769,4,2,1,80,0,1
558073,-76.9230769230769,4,2,1,5,0,1
558165,-76.9230769230769,4,2,1,80,0,1
559637,-76.9230769230769,4,2,1,80,0,1
559729,-76.9230769230769,4,2,1,5,0,1
559821,-76.9230769230769,4,2,1,80,0,1
559913,-76.9230769230769,4,2,1,5,0,1
560005,-76.9230769230769,4,2,1,80,0,1
560281,-76.9230769230769,4,2,1,5,0,1
560373,-76.9230769230769,4,2,1,80,0,1
561017,-76.9230769230769,4,2,1,5,0,1
561109,-76.9230769230769,4,2,1,80,0,1
562490,-76.9230769230769,4,2,1,5,0,1
562582,-76.9230769230769,4,2,1,80,0,1
563226,-76.9230769230769,4,2,1,5,0,1
563318,-76.9230769230769,4,2,1,80,0,1
565527,-76.9230769230769,4,2,1,80,0,1
565619,-76.9230769230769,4,2,1,5,0,1
565711,-76.9230769230769,4,2,1,80,0,1
565803,-76.9230769230769,4,2,1,5,0,1
565895,-76.9230769230769,4,2,1,80,0,1
566907,-76.9230769230769,4,2,1,5,0,1
566999,-76.9230769230769,4,2,1,80,0,1
567275,-76.9230769230769,4,2,1,5,0,1
567367,-66.6666666666667,4,2,1,80,0,1
567735,-50,4,2,1,80,0,1
568103,-100,4,2,1,80,0,0
568471,-66.6666666666667,4,2,1,80,0,0
568840,-66.6666666666667,4,2,1,80,0,1
571508,-66.6666666666667,4,2,1,5,0,1
571600,-66.6666666666667,4,2,1,80,0,1
571692,-66.6666666666667,4,2,1,5,0,1
571784,-66.6666666666667,4,2,1,80,0,1
572060,-66.6666666666667,4,2,1,5,0,1
572152,-66.6666666666667,4,2,1,80,0,1
574269,-66.6666666666667,4,2,1,5,0,1
574361,-66.6666666666667,4,2,1,80,0,1
577950,-66.6666666666667,4,2,1,5,0,1
578042,-66.6666666666667,4,2,1,80,0,1
578686,-66.6666666666667,4,2,1,5,0,1
578778,-66.6666666666667,4,2,1,80,0,1
579514,-40,4,2,1,80,0,1
579882,-100,4,2,1,80,0,0
580619,-50,4,2,1,80,0,1
589361,-50,4,2,1,5,0,1
589453,-50,4,2,1,80,0,1
593870,-100,4,2,1,80,0,0
601112,352.941176470588,4,1,0,100,1,0
603935,-200,4,2,50,75,0,0
604376,-200,4,2,50,5,0,0
604464,-100,4,2,50,75,0,0
604641,-100,4,2,50,75,0,0
606317,-100,4,2,50,5,0,0
606406,-100,4,2,50,75,0,0
606759,-200,4,2,50,75,0,0
607200,-200,4,2,50,5,0,0
607288,-100,4,2,50,75,0,0
609141,-100,4,2,50,5,0,0
609229,-100,4,2,50,75,0,0
609582,-80,4,2,50,75,0,0
610553,-80,4,2,50,5,0,0
610641,-80,4,2,50,75,0,0
612759,-100,4,2,50,75,0,0
614612,-100,4,2,50,5,0,0
614700,-100,4,2,50,75,0,0
614876,-66.6666666666667,4,2,50,75,0,0
615141,-66.6666666666667,4,2,50,5,0,0
615229,-66.6666666666667,4,2,50,85,0,1
616729,-66.6666666666667,4,2,50,5,0,1
616817,-66.6666666666667,4,2,50,85,0,1
617259,-66.6666666666667,4,2,50,5,0,1
617347,-66.6666666666667,4,2,50,85,0,1
619023,-66.6666666666667,4,2,50,5,0,1
619112,-66.6666666666667,4,2,50,85,0,1
620082,-66.6666666666667,4,2,50,5,0,1
620170,-66.6666666666667,4,2,50,85,0,1
620523,-100,4,2,50,85,0,1
620876,-66.6666666666667,4,2,50,85,0,1
623700,-100,4,2,50,85,0,1
623964,-100,4,2,50,5,0,1
624053,-66.6666666666667,4,2,50,85,0,1
624317,-66.6666666666667,4,2,50,5,0,1
624406,-100,4,2,50,85,0,1
624670,-100,4,2,50,5,0,1
624759,-66.6666666666667,4,2,50,85,0,1
625023,-66.6666666666667,4,2,50,5,0,1
625112,-66.6666666666667,4,2,50,85,0,1
625994,-100,4,2,50,85,0,1
626523,-66.6666666666667,4,2,50,85,0,1
627494,-66.6666666666667,4,2,50,5,0,1
627582,-66.6666666666667,4,2,50,85,0,1
628023,-66.6666666666667,4,2,50,5,0,1
628112,-66.6666666666667,4,2,50,85,0,1
628376,-66.6666666666667,4,2,50,5,0,1
628464,-66.6666666666667,4,2,50,85,0,1
630317,-66.6666666666667,4,2,50,5,0,1
630406,-66.6666666666667,4,2,50,85,0,1
631376,-66.6666666666667,4,2,50,5,0,1
631464,-66.6666666666667,4,2,50,85,0,1
631817,-100,4,2,50,85,0,1
635259,-100,4,2,50,5,0,1
635347,-66.6666666666667,4,2,50,85,0,1
635612,-66.6666666666667,4,2,50,5,0,1
635700,-100,4,2,50,85,0,1
635964,-100,4,2,50,5,0,1
636053,-66.6666666666667,4,2,50,85,0,1
636317,-66.6666666666667,4,2,50,5,0,1
636406,-66.6666666666667,4,2,50,85,0,1
637288,-100,4,2,50,85,0,1
637464,-66.6666666666667,4,2,50,85,0,1
640288,-100,4,2,50,85,0,1
640817,-66.6666666666667,4,2,50,85,0,1
644082,-66.6666666666667,4,2,50,5,0,1
644170,-66.6666666666667,4,2,50,85,0,1
647876,-66.6666666666667,4,2,50,5,0,1
648053,-57.1428571428571,4,2,50,85,0,1
648229,-57.1428571428571,4,2,50,5,0,1
648406,-50,4,2,50,85,0,1
648582,-50,4,2,50,5,0,1
648759,-50,4,2,50,85,0,1
649023,-50,4,2,50,5,0,1
649112,-100,4,2,50,85,0,0
649288,-100,4,2,50,5,0,0
656375,254.237288135593,4,1,0,100,1,0
659425,-100,4,2,60,60,0,0
673663,-133.333333333333,4,2,60,70,0,0
675697,-100,4,2,60,80,0,1
700103,-100,4,2,60,80,0,0
709050,352.941176470588,4,1,0,100,1,0
709050,-200,4,2,33,100,0,0
710461,-200,4,2,33,50,0,0
714697,-142.857142857143,4,2,33,60,0,0
715402,-100,4,2,33,70,0,0
716814,-500,4,2,33,40,0,0
717432,-500,4,2,33,5,0,0
717520,-100,4,2,33,80,0,0
718226,-83.3333333333333,4,2,33,80,0,0
718402,-83.3333333333333,4,2,33,5,0,0
718491,-83.3333333333333,4,2,33,80,0,0
718932,-71.4285714285714,4,2,33,85,0,1
719197,-71.4285714285714,4,2,33,5,0,1
719285,-71.4285714285714,4,2,33,85,0,1
722020,-71.4285714285714,4,2,33,5,0,1
722108,-71.4285714285714,4,2,33,85,0,1
723432,-71.4285714285714,4,2,33,5,0,1
723520,-71.4285714285714,4,2,33,85,0,1
725373,-71.4285714285714,4,2,33,5,0,1
725461,-71.4285714285714,4,2,33,85,0,1
729873,-71.4285714285714,4,2,33,85,0,0
730226,-71.4285714285714,4,2,33,85,0,1
730491,-71.4285714285714,4,2,33,5,0,1
730579,-71.4285714285714,4,2,33,85,0,1
734726,-71.4285714285714,4,2,33,5,0,1
734814,-71.4285714285714,4,2,33,85,0,1
736050,-71.4285714285714,4,2,33,5,0,1
736138,-71.4285714285714,4,2,33,85,0,1
736667,-71.4285714285714,4,2,33,5,0,1
736755,-71.4285714285714,4,2,33,85,0,1
737461,-71.4285714285714,4,2,33,5,0,1
737549,-71.4285714285714,4,2,33,85,0,1
738079,-71.4285714285714,4,2,33,5,0,1
738167,-71.4285714285714,4,2,33,85,0,1
739667,-71.4285714285714,4,2,33,5,0,1
739755,-71.4285714285714,4,2,33,85,0,1
740373,-71.4285714285714,4,2,33,5,0,1
740461,-71.4285714285714,4,2,33,85,0,1
744344,-200,4,2,33,70,0,0
745844,-71.4285714285714,4,2,33,5,0,0
745932,-200,4,2,33,85,0,0
747167,-125,4,2,33,80,0,0
750344,-125,4,2,33,90,0,1
754138,-125,4,2,33,5,0,1
754226,-125,4,2,33,90,0,1
757050,-125,4,2,33,50,0,0
765359,-100,4,2,70,60,0,0
765360,250,4,1,0,100,1,0
766860,-100,4,2,70,60,0,0
767110,-90.9090909090909,4,2,70,60,0,0
767360,-100,4,2,70,60,0,0
768360,-125,4,2,70,50,0,0
770047,-125,4,2,70,5,0,0
770110,-125,4,2,70,50,0,0
774047,-125,4,2,70,5,0,0
774104,-125,4,2,70,50,0,0
776360,-111.111111111111,4,2,70,60,0,0
784360,-100,4,2,70,70,0,0
784610,-90.9090909090909,4,2,70,70,0,0
784860,-83.3333333333333,4,2,70,70,0,0
785110,-76.9230769230769,4,2,70,70,0,0
785360,-100,4,2,70,70,0,0
785860,-125,4,2,70,60,0,0
786360,-83.3333333333333,4,2,70,75,0,1
802360,-100,4,2,70,70,0,0
812497,461.538461538462,4,1,0,100,1,0
815266,-133.333333333333,4,2,11,70,0,0
815727,-100,4,2,11,70,0,0
822650,-66.6666666666667,4,2,11,70,0,0
822997,-80,4,2,11,70,0,0
823343,-100,4,2,11,70,0,0
823747,-100,4,2,11,5,0,0
823804,-66.6666666666667,4,2,11,70,0,0
824497,-100,4,2,11,70,0,0
824958,-66.6666666666667,4,2,11,70,0,0
825420,-58.8235294117647,4,2,11,70,0,0
825593,-58.8235294117647,4,2,11,5,0,0
825650,-52.6315789473684,4,2,11,70,0,0
825881,-66.6666666666667,4,2,11,70,0,0
826112,-100,4,2,11,70,0,0
827266,-83.3333333333333,4,2,11,70,0,0
827727,-71.4285714285714,4,2,11,70,0,0
828189,-83.3333333333333,4,2,11,70,0,0
829458,-66.6666666666667,4,2,11,70,0,0
830266,-250,4,2,11,70,0,0
830958,-45.4545454545455,4,2,11,70,0,1
831535,-58.8235294117647,4,2,11,70,0,1
832112,-100,4,2,11,70,0,1
832343,-45.4545454545455,4,2,11,70,0,1
832804,-52.6315789473684,4,2,11,70,0,1
833497,-66.6666666666667,4,2,11,70,0,1
833670,-66.6666666666667,4,2,11,5,0,1
833727,-45.4545454545455,4,2,11,70,0,1
834362,-45.4545454545455,4,2,11,5,0,1
834420,-40,4,2,11,70,0,1
834881,-43.4782608695652,4,2,11,70,0,1
835112,-47.6190476190476,4,2,11,70,0,1
835343,-55.5555555555556,4,2,11,70,0,1
835804,-47.6190476190476,4,2,11,70,0,1
836035,-43.4782608695652,4,2,11,70,0,1
836266,-40,4,2,11,70,0,1
836439,-40,4,2,11,5,0,1
836497,-43.4782608695652,4,2,11,70,0,1
837073,-52.6315789473684,4,2,11,70,0,1
837420,-66.6666666666667,4,2,11,70,0,1
838343,-52.6315789473684,4,2,11,70,0,1
839208,-52.6315789473684,4,2,11,5,0,1
839266,-100,4,2,11,70,0,1
839497,-55.5555555555556,4,2,11,70,0,1
840131,-55.5555555555556,4,2,11,5,0,1
840189,-100,4,2,11,70,0,1
840535,-55.5555555555556,4,2,11,70,0,1
842035,-100,4,2,11,70,0,1
842266,-83.3333333333333,4,2,11,70,0,1
842497,-71.4285714285714,4,2,11,70,0,1
842727,-62.5,4,2,11,70,0,1
842958,-43.4782608695652,4,2,11,70,0,1
843420,-50,4,2,11,70,0,1
843881,-55.5555555555556,4,2,11,70,0,1
844054,-55.5555555555556,4,2,11,5,0,1
844112,-55.5555555555556,4,2,11,70,0,1
844804,-55.5555555555556,4,2,11,70,0,0
845727,-45.4545454545455,4,2,11,70,0,1
846247,-45.4545454545455,4,2,11,5,0,1
846304,-58.8235294117647,4,2,11,70,0,1
846881,-100,4,2,11,70,0,1
847112,-45.4545454545455,4,2,11,70,0,1
847573,-52.6315789473684,4,2,11,70,0,1
847747,-52.6315789473684,4,2,11,5,0,1
847804,-52.6315789473684,4,2,11,70,0,1
848266,-66.6666666666667,4,2,11,70,0,1
848439,-66.6666666666667,4,2,11,5,0,1
848497,-45.4545454545455,4,2,11,70,0,1
849131,-45.4545454545455,4,2,11,5,0,1
849189,-40,4,2,11,70,0,1
849650,-43.4782608695652,4,2,11,70,0,1
849881,-47.6190476190476,4,2,11,70,0,1
850112,-55.5555555555556,4,2,11,70,0,1
850573,-47.6190476190476,4,2,11,70,0,1
850804,-43.4782608695652,4,2,11,70,0,1
851035,-40,4,2,11,70,0,1
851208,-40,4,2,11,5,0,1
851266,-40,4,2,11,70,0,1
851843,-66.6666666666667,4,2,11,70,0,1
852189,-45.4545454545455,4,2,11,70,0,1
852420,-41.6666666666667,4,2,11,70,0,1
852650,-38.4615384615385,4,2,11,70,0,1
852823,-38.4615384615385,4,2,11,5,0,1
852881,-133.333333333333,4,2,11,70,0,1
853112,-52.6315789473684,4,2,11,70,0,1
853977,-52.6315789473684,4,2,11,5,0,1
854035,-100,4,2,11,70,0,1
854266,-34.4827586206897,4,2,11,70,0,1
854497,-41.6666666666667,4,2,11,70,0,1
854727,-133.333333333333,4,2,11,70,0,1
854958,-50,4,2,11,70,0,1
855189,-45.4545454545455,4,2,11,70,0,1
855420,-41.6666666666667,4,2,11,70,0,1
855650,-38.4615384615385,4,2,11,70,0,1
856112,-66.6666666666667,4,2,11,70,0,1
858650,-66.6666666666667,4,2,11,70,0,0
867411,447.761194029851,4,2,1,100,1,0
874575,-40,4,2,1,80,0,0
878157,-28.5714285714286,4,2,1,80,0,1
878493,-200,4,2,1,80,0,1
878828,-33.3333333333333,4,2,1,80,0,1
879724,-200,4,2,1,80,0,1
879948,-33.3333333333333,4,2,1,80,0,1
880284,-100,4,2,1,80,0,1
880619,-25,4,2,1,80,0,1
881067,-200,4,2,1,80,0,1
881515,-200,4,2,1,80,0,0
881739,-28.5714285714286,4,2,1,80,0,0
882634,-25,4,2,1,80,0,0
883306,-200,4,2,1,80,0,0
883530,-33.3333333333333,4,2,1,80,0,0
884985,-66.6666666666667,4,2,1,80,0,0
885321,-28.5714285714286,4,2,1,80,0,1
885657,-20,4,2,1,80,0,1
885993,-133.333333333333,4,2,1,80,0,1
886440,-33.3333333333333,4,2,1,80,0,1
887112,-25,4,2,1,80,0,1
887784,-133.333333333333,4,2,1,80,0,1
888679,-133.333333333333,4,2,1,80,0,0
888903,-28.5714285714286,4,2,1,80,0,0
891366,-100,4,2,1,80,0,0
891590,-28.5714285714286,4,2,1,80,0,0
892261,-200,4,2,1,80,0,0
892485,-25,4,2,1,80,0,1
893157,-400,4,2,1,80,0,1
893605,-15,4,2,1,80,0,1
894052,-133.333333333333,4,2,1,80,0,1
894276,-20,4,2,1,80,0,1
894948,-133.333333333333,4,2,1,80,0,1
895396,-15,4,2,1,80,0,1
895843,-15,4,2,1,80,0,0
896067,-100,4,2,1,80,0,0
899090,-25,4,2,1,80,0,0
899313,-100,4,2,1,80,0,0
899649,-27.7777777777778,4,2,1,80,0,1
899985,-26.3157894736842,4,2,1,80,0,1
900321,-400,4,2,1,80,0,1
900769,-25,4,2,1,80,0,1
901440,-100,4,2,1,80,0,1
902112,-50,4,2,1,80,0,1
903008,-100,4,2,1,80,0,0
903903,-50,4,2,1,80,0,0
905022,-27.7777777777778,4,2,1,80,0,0
906813,-25,4,2,1,80,0,0
908605,-66.6666666666667,4,2,1,80,0,0
910396,-28.5714285714286,4,2,1,80,0,0
910731,-33.3333333333333,4,2,1,80,0,0
911067,-50,4,2,1,80,0,0
911515,-100,4,2,1,80,0,0
917750,234.375,4,1,0,100,1,0
919625,-100,4,2,50,45,0,0
919859,-100,4,2,50,5,0,0
920445,-100,4,2,50,75,0,0
920621,-100,4,2,50,5,0,0
920679,-100,4,2,50,75,0,0
921031,-66.6666666666667,4,2,50,75,0,0
921500,-100,4,2,50,75,0,0
922613,-100,4,2,50,5,0,0
922671,-100,4,2,50,75,0,0
923199,-100,4,2,50,5,0,0
923257,-100,4,2,50,75,0,0
924253,-100,4,2,50,5,0,0
924312,-100,4,2,50,75,0,0
924839,-100,4,2,50,5,0,0
924898,-100,4,2,50,75,0,0
925132,-100,4,2,50,55,0,0
925250,-100,4,2,50,75,0,0
926363,-100,4,2,50,5,0,0
926421,-100,4,2,50,75,0,0
927359,-66.6666666666667,4,2,50,75,0,0
927593,-66.6666666666667,4,2,50,5,0,0
927710,-80,4,2,50,75,0,0
927945,-80,4,2,50,5,0,0
928062,-100,4,2,50,75,0,0
930757,-100,4,2,50,55,0,0
930875,-100,4,2,50,75,0,0
932925,-100,4,2,50,5,0,0
932984,-100,4,2,50,75,0,0
933160,-100,4,2,50,5,0,0
933218,-100,4,2,50,75,0,0
933394,-100,4,2,50,5,0,0
933453,-100,4,2,50,75,0,0
937671,-200,4,2,50,75,0,0
938375,-80,4,2,50,85,0,1
938550,-80,4,2,50,5,0,1
938609,-80,4,2,50,85,0,1
938785,-80,4,2,50,5,0,1
938843,-80,4,2,50,85,0,1
939253,-80,4,2,50,5,0,1
939312,-80,4,2,50,85,0,1
939488,-80,4,2,50,5,0,1
939546,-80,4,2,50,85,0,1
939957,-80,4,2,50,5,0,1
940015,-80,4,2,50,85,0,1
940191,-80,4,2,50,5,0,1
940250,-80,4,2,50,85,0,1
940425,-80,4,2,50,5,0,1
940484,-80,4,2,50,85,0,1
942300,-80,4,2,50,5,0,1
942359,-80,4,2,50,85,0,1
942535,-80,4,2,50,5,0,1
942593,-80,4,2,50,85,0,1
943003,-80,4,2,50,5,0,1
943062,-80,4,2,50,85,0,1
943238,-80,4,2,50,5,0,1
943296,-80,4,2,50,85,0,1
944527,-80,4,2,50,5,0,1
944585,-66.6666666666667,4,2,50,85,0,1
944761,-80,4,2,50,5,0,1
944820,-80,4,2,50,85,0,1
944996,-80,4,2,50,5,0,1
945054,-80,4,2,50,85,0,1
945171,-80,4,2,50,82,0,1
945289,-80,4,2,50,80,0,1
945406,-80,4,2,50,77,0,1
945523,-80,4,2,50,75,0,1
945640,-80,4,2,50,72,0,1
945757,-80,4,2,50,70,0,1
945875,-80,4,2,50,85,0,1
946050,-80,4,2,50,5,0,1
946109,-80,4,2,50,85,0,1
946285,-80,4,2,50,5,0,1
946343,-80,4,2,50,85,0,1
946753,-80,4,2,50,5,0,1
946812,-80,4,2,50,85,0,1
946988,-80,4,2,50,5,0,1
947046,-80,4,2,50,85,0,1
947457,-80,4,2,50,5,0,1
947515,-80,4,2,50,85,0,1
947691,-80,4,2,50,5,0,1
947750,-80,4,2,50,85,0,1
949800,-80,4,2,50,5,0,1
949859,-80,4,2,50,85,0,1
950035,-80,4,2,50,5,0,1
950093,-80,4,2,50,85,0,1
950738,-80,4,2,50,5,0,1
950796,-80,4,2,50,85,0,1
953375,-80,4,2,50,65,0,1
956656,-100,4,2,50,65,0,1
956890,-133.333333333333,4,2,50,65,0,1
957242,-133.333333333333,4,2,50,5,0,1
957359,-100,4,2,50,70,0,1
957476,-100,4,2,50,5,0,1
957593,-80,4,2,50,75,0,1
957710,-80,4,2,50,5,0,1
957828,-66.6666666666667,4,2,50,80,0,1
957945,-66.6666666666667,4,2,50,5,0,1
958062,-80,4,2,50,85,0,1
959000,-100,4,2,50,75,0,0
959175,-100,4,2,50,5,0,0
959234,-100,4,2,50,75,0,0
960113,-100,4,2,50,5,0,0
960171,-100,4,2,50,75,0,0
961050,-100,4,2,50,5,0,0
961109,-100,4,2,50,75,0,0
961988,-100,4,2,50,5,0,0
962046,-100,4,2,50,75,0,0
962750,-80,4,2,50,75,0,0
962984,-80,4,2,50,5,0,0
964625,-200,4,2,50,70,0,0
964800,-200,4,2,50,5,0,0
964859,-133.333333333333,4,2,50,75,0,0
965035,-133.333333333333,4,2,50,5,0,0
965093,-100,4,2,50,80,0,0
965269,-100,4,2,50,5,0,0
965328,-80,4,2,50,85,0,0
965562,-80,4,2,50,5,0,0
965914,-100,4,2,50,75,0,0
966148,-100,4,2,50,5,0,0
968726,-100,4,2,50,35,0,0
971738,333.333333333334,4,1,0,100,1,0
971738,-142.857142857143,4,2,2,40,0,0
979738,-333.333333333333,4,2,2,50,0,0
980321,-333.333333333333,4,2,2,5,0,0
980404,-200,4,2,2,60,0,0
980988,-200,4,2,2,5,0,0
981071,-142.857142857143,4,2,2,70,0,0
981654,-142.857142857143,4,2,2,5,0,0
981738,-111.111111111111,4,2,2,80,0,0
982321,-111.111111111111,4,2,2,5,0,0
982404,-125,4,2,2,80,0,0
983154,-125,4,2,2,5,0,0
983238,-125,4,2,2,80,0,0
983988,-125,4,2,2,5,0,0
984072,-125,4,2,2,80,0,0
987154,-125,4,2,2,5,0,0
987238,-125,4,2,2,80,0,0
987654,-125,4,2,2,5,0,0
987738,-125,4,2,2,80,0,0
990404,-100,4,2,2,80,0,1
990654,-100,4,2,2,5,0,1
990738,-100,4,2,2,80,0,1
990904,-100,4,2,2,5,0,1
990988,-100,4,2,2,80,0,1
991821,-100,4,2,2,5,0,1
991905,-100,4,2,2,80,0,1
992488,-100,4,2,2,5,0,1
992572,-100,4,2,2,80,0,1
993321,-100,4,2,2,5,0,1
993405,-100,4,2,2,80,0,1
993571,-100,4,2,2,5,0,1
993655,-100,4,2,2,80,0,1
994488,-100,4,2,2,5,0,1
994572,-100,4,2,2,80,0,1
995071,-100,4,2,2,5,0,1
995155,-100,4,2,2,80,0,1
995988,-100,4,2,2,5,0,1
996072,-100,4,2,2,80,0,1
996238,-100,4,2,2,5,0,1
996322,-100,4,2,2,80,0,1
997154,-100,4,2,2,5,0,1
997238,-100,4,2,2,80,0,1
999821,-100,4,2,2,5,0,1
999905,-100,4,2,2,80,0,1
1000321,-100,4,2,2,5,0,1
1000405,-100,4,2,2,80,0,1
1000988,-100,4,2,2,5,0,1
1001071,-142.857142857143,4,2,2,50,0,0
1001321,-142.857142857143,4,2,2,5,0,0
1001404,-142.857142857143,4,2,2,50,0,0
1006404,-142.857142857143,4,2,2,60,0,0
1010238,-142.857142857143,4,2,2,80,0,0
1011238,-142.857142857143,4,2,2,70,0,0
1011738,-111.111111111111,4,2,2,70,0,0
1011988,-111.111111111111,4,2,2,5,0,0
1012071,-111.111111111111,4,2,2,70,0,0
1014321,-111.111111111111,4,2,2,5,0,0
1014404,-111.111111111111,4,2,2,70,0,0
1014904,-111.111111111111,4,2,2,5,0,0
1014987,-111.111111111111,4,2,2,70,0,0
1015821,-111.111111111111,4,2,2,5,0,0
1015904,-111.111111111111,4,2,2,70,0,0
1016238,-111.111111111111,4,2,2,5,0,0
1016321,-111.111111111111,4,2,2,70,0,0
1017321,-111.111111111111,4,2,2,5,0,0
1017404,-111.111111111111,4,2,2,70,0,0
1018488,-111.111111111111,4,2,2,5,0,0
1018571,-111.111111111111,4,2,2,70,0,0
1019654,-111.111111111111,4,2,2,5,0,0
1019737,-111.111111111111,4,2,2,70,0,0
1022404,-125,4,2,2,60,0,0
1025988,-125,4,2,2,5,0,0
1026071,-125,4,2,2,60,0,0
1030404,-111.111111111111,4,2,2,65,0,0
1030654,-111.111111111111,4,2,2,5,0,0
1030738,-111.111111111111,4,2,2,65,0,0
1031154,-111.111111111111,4,2,2,5,0,0
1031238,-111.111111111111,4,2,2,65,0,0
1031821,-111.111111111111,4,2,2,5,0,0
1031905,-111.111111111111,4,2,2,65,0,0
1032571,-111.111111111111,4,2,2,5,0,0
1032655,-111.111111111111,4,2,2,65,0,0
1032821,-111.111111111111,4,2,2,5,0,0
1032905,-111.111111111111,4,2,2,65,0,0
1033821,-111.111111111111,4,2,2,5,0,0
1033905,-111.111111111111,4,2,2,65,0,0
1034488,-111.111111111111,4,2,2,5,0,0
1034572,-111.111111111111,4,2,2,65,0,0
1038404,-111.111111111111,4,2,2,45,0,0
1039071,-111.111111111111,4,2,2,55,0,0
1039738,-111.111111111111,4,2,2,75,0,0
1040071,-111.111111111111,4,2,2,80,0,0
1042404,-66.6666666666667,4,2,2,80,0,0
1042654,-66.6666666666667,4,2,2,5,0,0
1042738,-66.6666666666667,4,2,2,80,0,0
1042988,-66.6666666666667,4,2,2,5,0,0
1043072,-66.6666666666667,4,2,2,80,0,0
1043321,-66.6666666666667,4,2,2,5,0,0
1043405,-66.6666666666667,4,2,2,80,0,0
1043738,-83.3333333333333,4,2,2,80,0,1
1043988,-83.3333333333333,4,2,2,5,0,1
1044071,-83.3333333333333,4,2,2,80,0,1
1045154,-83.3333333333333,4,2,2,5,0,1
1045237,-83.3333333333333,4,2,2,80,0,1
1046654,-83.3333333333333,4,2,2,5,0,1
1046737,-83.3333333333333,4,2,2,80,0,1
1047154,-83.3333333333333,4,2,2,5,0,1
1047237,-83.3333333333333,4,2,2,80,0,1
1048488,-83.3333333333333,4,2,2,5,0,1
1048571,-83.3333333333333,4,2,2,80,0,1
1049321,-83.3333333333333,4,2,2,5,0,1
1049404,-83.3333333333333,4,2,2,80,0,1
1050321,-83.3333333333333,4,2,2,5,0,1
1050404,-83.3333333333333,4,2,2,80,0,1
1051321,-83.3333333333333,4,2,2,5,0,1
1051404,-83.3333333333333,4,2,2,80,0,1
1051654,-83.3333333333333,4,2,2,5,0,1
1051737,-83.3333333333333,4,2,2,80,0,1
1052488,-83.3333333333333,4,2,2,5,0,1
1052571,-83.3333333333333,4,2,2,80,0,1
1053154,-83.3333333333333,4,2,2,5,0,1
1053237,-83.3333333333333,4,2,2,80,0,1
1054654,-83.3333333333333,4,2,2,5,0,1
1054737,-83.3333333333333,4,2,2,80,0,1
1055821,-83.3333333333333,4,2,2,5,0,1
1055904,-83.3333333333333,4,2,2,80,0,1
1056488,-83.3333333333333,4,2,2,5,0,1
1056571,-83.3333333333333,4,2,2,80,0,1
1057321,-83.3333333333333,4,2,2,5,0,1
1057404,-83.3333333333333,4,2,2,80,0,1
1062404,-83.3333333333333,4,2,2,80,0,0
1071669,352.941176470589,4,1,0,100,1,0
1071669,-125,4,2,70,25,0,0
1072021,-125,4,2,70,30,0,0
1072727,-125,4,2,70,35,0,0
1073433,-125,4,2,70,40,0,0
1074139,-125,4,2,70,45,0,0
1074845,-125,4,2,70,50,0,0
1076963,-166.666666666667,4,2,70,50,0,0
1077669,-111.111111111111,4,2,70,60,0,0
1078022,352.941176470589,4,2,70,100,1,0
1078022,-100,4,2,70,65,0,0
1083669,-111.111111111111,4,2,70,60,0,0
1089316,-333.333333333333,4,2,70,20,0,0
1089669,-83.3333333333333,4,2,70,70,0,0
1090022,-100,4,2,70,65,0,0
1094963,-100,4,2,70,60,0,0
1096022,-76.9230769230769,4,2,70,70,0,0
1096374,-90.9090909090909,4,2,70,75,0,1
1096727,-83.3333333333333,4,2,70,80,0,1
1097080,-90.9090909090909,4,2,70,75,0,1
1102022,-250,4,2,70,60,0,1
1102374,-90.9090909090909,4,2,70,75,0,1
1108022,-83.3333333333333,4,2,70,80,0,1
1108374,-90.9090909090909,4,2,70,75,0,1
1113316,-250,4,2,70,20,0,1
1113669,-90.9090909090909,4,2,70,80,0,1
1114022,-83.3333333333333,4,2,70,80,0,1
1114286,-76.9230769230769,4,2,70,80,0,1
1114551,-90.9090909090909,4,2,70,75,0,1
1119139,-90.9090909090909,4,2,70,85,0,1
1119492,-90.9090909090909,4,2,70,75,0,1
1119845,-90.9090909090909,4,2,70,85,0,1
1120198,-90.9090909090909,4,2,70,75,0,1
1121433,-76.9230769230769,4,2,70,80,0,1
1121786,-100,4,2,70,70,0,0
1131070,283.018867924528,4,1,0,40,1,0
1134466,-200,4,2,1,40,0,0
1137862,-185.185185185185,4,2,1,40,0,0
1144654,-50,4,2,1,40,0,0
1145220,-133.333333333333,4,2,1,40,0,0
1145786,-100,4,2,1,40,0,0
1146919,-200,4,2,1,40,0,0
1148334,-500,4,2,1,40,0,0
1149183,-133.333333333333,4,2,1,40,0,0
1150315,-200,4,2,1,40,0,0
1151447,-66.6666666666667,4,2,1,40,0,0
1153711,-100,4,2,1,40,0,0
1157956,-133.333333333333,4,2,1,40,0,0
1158239,-200,4,2,1,40,0,0
1162768,-161.290322580645,4,2,1,40,0,1
1167296,-133.333333333333,4,2,1,40,0,0
1178617,-400,4,2,1,40,0,0
1180881,-133.333333333333,4,2,1,40,0,0
1190543,352.941176470588,4,1,0,100,1,0
1190543,-100,4,2,2,60,0,0
1193366,-100,4,2,2,60,0,0
1193631,-100,4,2,2,5,0,0
1193719,-100,4,2,2,60,0,0
1196101,-100,4,2,2,5,0,0
1196189,-100,4,2,2,60,0,0
1196454,-100,4,2,2,5,0,0
1196542,-100,4,2,2,60,0,0
1198395,-100,4,2,2,5,0,0
1198483,-100,4,2,2,60,0,0
1199807,-100,4,2,2,5,0,0
1199895,-100,4,2,2,60,0,0
1200690,-100,4,2,2,5,0,0
1200778,-100,4,2,2,60,0,0
1201837,-100,4,2,2,70,0,0
1202543,-83.3333333333333,4,2,2,80,0,0
1202807,-83.3333333333333,4,2,2,5,0,0
1202895,-83.3333333333333,4,2,2,80,0,0
1203513,-83.3333333333333,4,2,2,5,0,0
1203601,-83.3333333333333,4,2,2,80,0,0
1203866,-83.3333333333333,4,2,2,5,0,0
1203954,-83.3333333333333,4,2,2,85,0,0
1204219,-83.3333333333333,4,2,2,5,0,0
1204307,-83.3333333333333,4,2,2,85,0,0
1204660,-100,4,2,2,85,0,1
1207748,-100,4,2,2,5,0,1
1207837,-100,4,2,2,85,0,1
1209160,-100,4,2,2,5,0,1
1209249,-100,4,2,2,85,0,1
1213395,-100,4,2,2,5,0,1
1213484,-100,4,2,2,85,0,1
1214631,-100,4,2,2,5,0,1
1214720,-100,4,2,2,85,0,1
1216219,-100,4,2,2,5,0,1
1216308,-100,4,2,2,85,0,1
1220454,-100,4,2,2,5,0,1
1220543,-100,4,2,2,85,0,1
1221601,-100,4,2,2,75,0,0
1221954,-100,4,2,2,75,0,0
1222219,-100,4,2,2,5,0,0
1222307,-100,4,2,2,75,0,0
1228660,-100,4,2,2,55,0,0
1229366,-100,4,2,2,25,0,0
1230072,-100,4,2,2,5,0,0
1234632,437.956204379561,4,1,0,100,1,0
1237697,-100,4,2,70,50,0,0
1238135,-100,4,2,70,55,0,0
1252150,-125,4,2,70,50,0,0
1259157,-111.111111111111,4,2,70,55,0,0
1262661,-100,4,2,70,60,0,0
1265726,-142.857142857143,4,2,70,40,0,0
1266055,-142.857142857143,4,2,70,5,0,0
1266164,-86.9565217391304,4,2,70,70,0,1
1279522,-86.9565217391304,4,2,70,70,0,0
1280179,-86.9565217391304,4,2,70,70,0,1
1294194,-86.9565217391304,4,2,70,70,0,0
1302525,285.714285714285,4,1,0,100,1,0
1304810,-142.857142857143,4,2,28,40,0,0
1305953,-142.857142857143,4,2,0,60,0,0
1307096,-111.111111111111,4,2,27,70,0,0
1307310,-111.111111111111,4,2,27,5,0,0
1307382,-111.111111111111,4,2,27,70,0,0
1316239,-125,4,2,28,70,0,0
1325382,-200,4,2,28,40,0,0
1325810,-181.818181818182,4,2,28,40,0,0
1326239,-166.666666666667,4,2,28,40,0,0
1326667,-153.846153846154,4,2,28,40,0,0
1327096,-142.857142857143,4,2,28,40,0,0
1327382,-100,4,2,28,60,0,0
1327596,-100,4,2,0,5,0,0
1327667,-90.9090909090909,4,2,28,80,0,1
1339882,-90.9090909090909,4,2,28,5,0,1
1339953,-90.9090909090909,4,2,28,80,0,1
1344453,-90.9090909090909,4,2,28,5,0,1
1344525,-90.9090909090909,4,2,28,80,0,1
1345953,-90.9090909090909,4,2,28,80,0,0
1353806,454.545454545453,4,1,0,100,1,0
1354942,-71.4285714285714,4,2,12,70,0,0
1355169,-55.5555555555556,4,2,12,70,0,0
1355624,-133.333333333333,4,2,12,70,0,0
1356306,-50,4,2,12,70,0,0
1356760,-133.333333333333,4,2,12,70,0,0
1356987,-62.5,4,2,12,70,0,0
1357442,-100,4,2,12,70,0,0
1362896,-83.3333333333333,4,2,12,70,0,0
1363237,-100,4,2,12,70,0,0
1363578,-83.3333333333333,4,2,12,70,0,0
1364715,-100,4,2,12,70,0,0
1365851,-100,4,2,12,70,0,0
1367896,-133.333333333333,4,2,12,70,0,0
1371987,-200,4,2,12,70,0,0
1374033,-133.333333333333,4,2,12,70,0,0
1375169,-50,4,2,12,70,0,0
1375624,-66.6666666666667,4,2,12,70,0,1
1380169,-58.8235294117647,4,2,12,70,0,1
1380624,-100,4,2,12,70,0,1
1381078,-66.6666666666667,4,2,12,70,0,1
1381987,-100,4,2,12,70,0,1
1382215,-58.8235294117647,4,2,12,70,0,1
1382669,-38.4615384615385,4,2,12,70,0,1
1382896,-66.6666666666667,4,2,12,70,0,1
1384715,-50,4,2,12,70,0,1
1385056,-66.6666666666667,4,2,12,70,0,1
1385624,-133.333333333333,4,2,12,70,0,1
1385851,-50,4,2,12,70,0,1
1386533,-66.6666666666667,4,2,12,70,0,1
1387783,-50,4,2,12,70,0,1
1388237,-66.6666666666667,4,2,12,70,0,1
1388692,-100,4,2,12,70,0,1
1389260,-66.6666666666667,4,2,12,70,0,1
1389715,-58.8235294117647,4,2,12,70,0,1
1390169,-100,4,2,12,70,0,1
1390624,-66.6666666666667,4,2,12,70,0,1
1391078,-100,4,2,12,70,0,1
1391305,-66.6666666666667,4,2,12,70,0,1
1392896,-100,4,2,12,70,0,1
1393351,-333.333333333333,4,2,12,70,0,1
1393805,-100,4,2,12,70,0,1
1394260,-66.6666666666667,4,2,12,70,0,1
1394715,-58.8235294117647,4,2,12,70,0,1
1394942,-100,4,2,12,70,0,1
1395624,-66.6666666666667,4,2,12,70,0,1
1395851,-50,4,2,12,70,0,1
1396078,-100,4,2,12,70,0,1
1397896,-66.6666666666667,4,2,12,70,0,1
1399942,-133.333333333333,4,2,12,70,0,1
1400169,-100,4,2,12,70,0,1
1400624,-66.6666666666667,4,2,12,70,0,1
1401533,-83.3333333333333,4,2,12,70,0,1
1401987,-66.6666666666667,4,2,12,70,0,1
1402669,-58.8235294117647,4,2,12,70,0,1
1402896,-76.9230769230769,4,2,12,70,0,1
1403805,-200,4,2,12,70,0,1
1404260,-66.6666666666667,4,2,12,70,0,1
1404715,-66.6666666666667,4,2,12,70,0,0
1412370,346.820809248554,4,1,0,100,1,0
1422080,-125,4,2,1,60,0,0
1430664,-125,4,2,1,5,0,0
1430751,-125,4,2,1,60,0,0
1431618,-100,4,2,1,60,0,0
1431878,-100,4,2,1,5,0,0
1431965,-66.6666666666667,4,2,1,60,0,0
1432052,-66.6666666666667,4,2,1,5,0,0
1432138,-66.6666666666667,4,2,1,60,0,0
1434566,-222.222222222221,4,2,1,60,0,0
1435173,-222.222222222221,4,2,1,5,0,0
1435260,-100,4,2,1,60,0,0
1435780,-66.6666666666667,4,2,1,60,0,0
1436040,-66.6666666666667,4,2,1,5,0,0
1436127,-50,4,2,1,60,0,0
1436387,-50,4,2,1,5,0,0
1436474,-45.4545454545455,4,2,1,60,0,0
1436560,-45.4545454545455,4,2,1,5,0,0
1436820,-45.4545454545455,4,2,1,60,0,0
1436907,-45.4545454545455,4,2,1,5,0,0
1436994,-100,4,2,1,60,0,0
1437254,-100,4,2,1,5,0,0
1437341,-66.6666666666667,4,2,1,80,0,1
1437601,-66.6666666666667,4,2,1,5,0,1
1437687,-66.6666666666667,4,2,1,80,0,1
1438815,-66.6666666666667,4,2,1,5,0,1
1438901,-66.6666666666667,4,2,1,80,0,1
1439682,-66.6666666666667,4,2,1,5,0,1
1439768,-66.6666666666667,4,2,1,80,0,1
1440375,-66.6666666666667,4,2,1,5,0,1
1440462,-66.6666666666667,4,2,1,80,0,1
1443150,-66.6666666666667,4,2,1,5,0,1
1443237,-66.6666666666667,4,2,1,80,0,1
1443323,-66.6666666666667,4,2,1,5,0,1
1443410,-66.6666666666667,4,2,1,80,0,1
1445924,-66.6666666666667,4,2,1,5,0,1
1446011,-66.6666666666667,4,2,1,80,0,1
1447312,-66.6666666666667,4,2,1,5,0,1
1447398,-66.6666666666667,4,2,1,80,0,1
1448699,-66.6666666666667,4,2,1,5,0,1
1448786,-66.6666666666667,4,2,1,80,0,1
1449913,-66.6666666666667,4,2,1,5,0,1
1450000,-66.6666666666667,4,2,1,80,0,1
1451474,-66.6666666666667,4,2,1,5,0,1
1451560,-66.6666666666667,4,2,1,80,0,1
1454248,-66.6666666666667,4,2,1,5,0,1
1454335,-66.6666666666667,4,2,1,80,0,1
1455462,-66.6666666666667,4,2,1,5,0,1
1455549,-66.6666666666667,4,2,1,80,0,1
1455809,-66.6666666666667,4,2,1,5,0,1
1455896,-66.6666666666667,4,2,1,80,0,1
1456156,-66.6666666666667,4,2,1,5,0,1
1456242,-66.6666666666667,4,2,1,80,0,1
1456763,-100,4,2,1,80,0,0
1462225,-100,4,2,1,5,0,0
1462312,-100,4,2,1,80,0,0
1463265,-100,4,2,1,5,0,0
1463352,-100,4,2,1,80,0,0
1466560,-100,4,2,1,5,0,0
1466647,-100,4,2,1,80,0,0
1468294,-100,4,2,1,5,0,0
1468381,-100,4,2,1,80,0,0
1468815,-100,4,2,1,5,0,0
1468901,-100,4,2,1,80,0,0
1469335,-100,4,2,1,5,0,0
1469422,-100,4,2,1,80,0,0
1469855,-100,4,2,1,5,0,0
1469942,-100,4,2,1,80,0,0
1471069,-100,4,2,1,5,0,0
1471156,-100,4,2,1,80,0,0
1471589,-100,4,2,1,5,0,0
1471676,-100,4,2,1,80,0,0
1472109,-100,4,2,1,5,0,0
1472196,-100,4,2,1,80,0,0
1472630,-100,4,2,1,5,0,0
1472716,-100,4,2,1,80,0,0
1481734,-100,4,2,1,5,0,0
1487696,329.670329670329,4,2,2,100,1,0
1488024,-125,4,2,2,50,0,0
1495608,-125,4,2,2,80,0,0
1495772,-100,4,2,2,80,0,0
1496020,-100,4,2,2,5,0,0
1496102,-100,4,2,2,60,0,0
1496597,-100,4,2,2,70,0,0
1497174,-100,4,2,2,5,0,0
1497256,-100,4,2,2,80,0,0
1497503,-100,4,2,2,5,0,0
1497586,-100,4,2,2,80,0,0
1497998,-100,4,2,2,5,0,0
1498081,-100,4,2,2,80,0,0
1498822,-100,4,2,2,5,0,0
1498904,-100,4,2,2,60,0,0
1499893,-83.3333333333333,4,2,2,80,0,1
1500141,-83.3333333333333,4,2,2,5,0,1
1500223,-83.3333333333333,4,2,2,80,0,1
1502778,-83.3333333333333,4,2,2,5,0,1
1502860,-83.3333333333333,4,2,2,80,0,1
1504756,-83.3333333333333,4,2,2,5,0,1
1504838,-83.3333333333333,4,2,2,80,0,1
1505415,-83.3333333333333,4,2,2,5,0,1
1505497,-83.3333333333333,4,2,2,80,0,1
1507723,-83.3333333333333,4,2,2,5,0,1
1507805,-83.3333333333333,4,2,2,80,0,1
1509783,-200,4,2,2,70,0,1
1510360,-200,4,2,2,5,0,1
1510443,-100,4,2,2,65,0,0
1512009,-100,4,2,2,5,0,0
1512091,-100,4,2,2,65,0,0
1515635,-100,4,2,2,5,0,0
1515717,-100,4,2,2,65,0,0
1516624,-100,4,2,2,5,0,0
1516706,-100,4,2,2,65,0,0
1518602,-100,4,2,2,5,0,0
1518684,-100,4,2,2,65,0,0
1520910,-100,4,2,2,5,0,0
1520992,-100,4,2,2,65,0,0
1522558,-100,4,2,2,5,0,0
1522640,-100,4,2,2,65,0,0
1523547,-100,4,2,2,5,0,0
1523629,-100,4,2,2,65,0,0
1527833,-100,4,2,2,5,0,0
1527915,-100,4,2,2,65,0,0
1528822,-100,4,2,2,5,0,0
1528904,-100,4,2,2,65,0,0
1531130,-100,4,2,2,5,0,0
1531212,-100,4,2,2,65,0,0
1531459,-100,4,2,2,5,0,0
1531542,-125,4,2,2,60,0,0
1535745,-125,4,2,2,5,0,0
1535827,-125,4,2,2,60,0,0
1536652,-83.3333333333333,4,2,2,70,0,0
1536899,-83.3333333333333,4,2,2,5,0,0
1536981,-83.3333333333333,4,2,2,70,0,0
1539536,-83.3333333333333,4,2,2,5,0,0
1539618,-83.3333333333333,4,2,2,70,0,0
1540278,-125,4,2,2,60,0,0
1540608,-83.3333333333333,4,2,2,80,0,0
1540855,-83.3333333333333,4,2,2,5,0,0
1540937,-83.3333333333333,4,2,2,80,0,0
1541185,-83.3333333333333,4,2,2,5,0,0
1541267,-83.3333333333333,4,2,2,80,0,0
1542091,-100,4,2,2,70,0,0
1543657,-100,4,2,2,5,0,0
1543739,-100,4,2,2,70,0,0
1544646,-100,4,2,2,5,0,0
1544728,-76.9230769230769,4,2,2,70,0,0
1547283,-76.9230769230769,4,2,2,5,0,0
1547366,-76.9230769230769,4,2,2,70,0,0
1549261,-76.9230769230769,4,2,2,5,0,0
1549344,-76.9230769230769,4,2,2,70,0,0
1549674,-166.666666666667,4,2,2,50,0,0
1549921,-166.666666666667,4,2,2,5,0,0
1550003,-76.9230769230769,4,2,2,80,0,1
1550250,-76.9230769230769,4,2,2,5,0,1
1550333,-76.9230769230769,4,2,2,80,0,1
1551569,-76.9230769230769,4,2,2,5,0,1
1551652,-76.9230769230769,4,2,2,80,0,1
1552888,-76.9230769230769,4,2,2,5,0,1
1552971,-76.9230769230769,4,2,2,80,0,1
1556185,-76.9230769230769,4,2,2,5,0,1
1556268,-76.9230769230769,4,2,2,80,0,1
1556844,-76.9230769230769,4,2,2,5,0,1
1556927,-76.9230769230769,4,2,2,80,0,1
1560223,-100,4,2,2,80,0,1
1560470,-100,4,2,2,5,0,1
1560553,-76.9230769230769,4,2,2,80,0,1
1560800,-76.9230769230769,4,2,2,5,0,1
1560883,-76.9230769230769,4,2,2,80,0,1
1562119,-76.9230769230769,4,2,2,5,0,1
1562202,-76.9230769230769,4,2,2,80,0,1
1564756,-76.9230769230769,4,2,2,5,0,1
1564839,-76.9230769230769,4,2,2,80,0,1
1565086,-76.9230769230769,4,2,2,5,0,1
1565169,-76.9230769230769,4,2,2,80,0,1
1565745,-76.9230769230769,4,2,2,5,0,1
1565827,-125,4,2,2,70,0,0
1569783,-100,4,2,2,70,0,0
1570031,-100,4,2,2,5,0,0
1570113,-100,4,2,2,70,0,0
1571102,-83.3333333333333,4,2,2,75,0,1
1572668,-83.3333333333333,4,2,2,5,0,1
1572750,-83.3333333333333,4,2,2,75,0,1
1574976,-83.3333333333333,4,2,2,5,0,1
1575058,-83.3333333333333,4,2,2,75,0,1
1575800,-83.3333333333333,4,2,2,5,0,1
1575882,-83.3333333333333,4,2,2,75,0,1
1576047,-125,4,2,2,70,0,1
1576624,-125,4,2,2,5,0,1
1576706,-125,4,2,2,70,0,1
1577695,-125,4,2,2,70,0,0
1578685,-125,4,2,2,60,0,0
1579344,-125,4,2,2,50,0,0
1580003,-125,4,2,2,40,0,0
1580663,-125,4,2,2,30,0,0
1581322,-125,4,2,2,20,0,0
1581981,-125,4,2,2,5,0,0
1585888,357.142857142856,4,1,0,100,1,0
1588745,-200,4,2,30,100,0,0
1588834,-200,4,2,30,30,0,0
1599638,-200,4,2,30,70,0,0
1600173,-142.857142857143,4,2,30,60,0,0
1601155,-142.857142857143,4,2,30,5,0,0
1601245,-142.857142857143,4,2,30,60,0,0
1603030,-142.857142857143,4,2,30,65,0,0
1604013,-142.857142857143,4,2,30,5,0,0
1604103,-142.857142857143,4,2,30,60,0,0
1605530,-76.9230769230769,4,2,30,100,0,0
1605798,-76.9230769230769,4,2,30,5,0,0
1605888,-100,4,2,30,80,0,0
1605977,-100,4,2,30,50,0,0
1606513,-100,4,2,30,5,0,0
1606602,-100,4,2,30,50,0,0
1607316,-100,4,2,30,70,0,0
1608388,-100,4,2,30,60,0,0
1608745,-100,4,2,30,80,0,0
1612941,-100,4,2,30,5,0,0
1613030,-71.4285714285714,4,2,30,90,0,1
1613298,-71.4285714285714,4,2,30,5,0,1
1613388,-71.4285714285714,4,2,30,90,0,1
1613655,-71.4285714285714,4,2,30,5,0,1
1613745,-71.4285714285714,4,2,30,90,0,1
1614013,-71.4285714285714,4,2,30,5,0,1
1614103,-71.4285714285714,4,2,30,90,0,1
1614548,-71.4285714285714,4,2,30,5,0,1
1614638,-71.4285714285714,4,2,30,90,0,1
1615530,-71.4285714285714,4,2,30,90,0,0
1615575,-71.4285714285714,4,2,30,70,0,0
1615888,-71.4285714285714,4,2,30,80,0,1
1616155,-71.4285714285714,4,2,30,5,0,1
1616245,-71.4285714285714,4,2,30,80,0,1
1616870,-71.4285714285714,4,2,30,5,0,1
1616960,-71.4285714285714,4,2,30,80,0,1
1619548,-71.4285714285714,4,2,30,5,0,1
1619638,-71.4285714285714,4,2,30,80,0,1
1620977,-71.4285714285714,4,2,30,5,0,1
1621067,-71.4285714285714,4,2,30,80,0,1
1621602,-71.4285714285714,4,2,30,80,0,1
1621870,-71.4285714285714,4,2,30,5,0,1
1621960,-71.4285714285714,4,2,30,80,0,1
1622227,-71.4285714285714,4,2,30,5,0,1
1622317,-71.4285714285714,4,2,30,80,0,1
1622584,-71.4285714285714,4,2,30,5,0,1
1622674,-71.4285714285714,4,2,30,80,0,1
1622941,-71.4285714285714,4,2,30,5,0,1
1623031,-71.4285714285714,4,2,30,80,0,1
1625084,-71.4285714285714,4,2,30,5,0,1
1625174,-71.4285714285714,4,2,30,80,0,1
1627048,-71.4285714285714,4,2,30,5,0,1
1627138,-71.4285714285714,4,2,30,80,0,1
1628298,-71.4285714285714,4,2,30,5,0,1
1628388,-71.4285714285714,4,2,30,80,0,1
1629548,-71.4285714285714,4,2,30,5,0,1
1629638,-71.4285714285714,4,2,30,80,0,1
1630977,-71.4285714285714,4,2,30,5,0,1
1631067,-71.4285714285714,4,2,30,80,0,1
1632405,-71.4285714285714,4,2,30,5,0,1
1632495,-71.4285714285714,4,2,30,80,0,1
1632852,-71.4285714285714,4,2,30,60,0,1
1633030,-71.4285714285714,4,2,30,60,0,0
1633387,-71.4285714285714,4,2,30,60,0,0
1633745,-71.4285714285714,4,2,30,80,0,0
1634459,-71.4285714285714,4,2,30,90,0,0
1635575,-71.4285714285714,4,2,30,60,0,0
1635887,-71.4285714285714,4,2,30,80,0,1
1636423,-71.4285714285714,4,2,30,75,0,1
1636959,-71.4285714285714,4,2,30,70,0,1
1637495,-71.4285714285714,4,2,30,65,0,1
1638030,-71.4285714285714,4,2,30,70,0,1
1638387,-71.4285714285714,4,2,30,80,0,1
1638745,-71.4285714285714,4,2,30,80,0,1
1639281,-71.4285714285714,4,2,30,75,0,1
1639817,-71.4285714285714,4,2,30,70,0,1
1640353,-71.4285714285714,4,2,30,65,0,1
1640888,-71.4285714285714,4,2,30,70,0,1
1641245,-71.4285714285714,4,2,30,80,0,1
1641602,-71.4285714285714,4,2,30,80,0,1
1642138,-71.4285714285714,4,2,30,75,0,1
1642674,-71.4285714285714,4,2,30,70,0,1
1643210,-71.4285714285714,4,2,30,65,0,1
1643745,-71.4285714285714,4,2,30,70,0,1
1644102,-71.4285714285714,4,2,30,80,0,1
1644459,-71.4285714285714,4,2,30,70,0,1
1644995,-71.4285714285714,4,2,30,75,0,1
1645530,-71.4285714285714,4,2,30,80,0,1
1646066,-71.4285714285714,4,2,30,85,0,1
1646602,-71.4285714285714,4,2,30,90,0,1
1650173,-71.4285714285714,4,2,30,5,0,0

[Colours]
Combo1 : 149,255,249
Combo2 : 157,149,255
Combo3 : 226,149,255
Combo4 : 255,149,162
Combo5 : 255,222,149
Combo6 : 171,255,149
Combo7 : 242,242,242
Combo8 : 103,103,103

[HitObjects]
0,235,1280,118,0,B|23:258|39:341|39:341|30:293|71:267|111:275|125:327,1,252,6|0,0:0|0:0,0:0:0:0:
228,275,2709,2,0,B|165:293|112:211|188:125|278:195|247:256,1,252,2|0,0:0|0:0,0:0:0:0:
248,57,4137,2,0,B|263:112|323:148|334:231,1,188.999994232178,2|0,0:0|0:0,0:0:0:0:
468,179,5566,2,0,B|495:142|464:79|364:113|396:188|440:194,1,180,2|0,0:0|0:0,0:0:0:0:
478,326,6637,6,0,P|479:284|468:253,1,53.9999983520508,0|0,3:0|0:0,0:0:0:0:
394,373,6994,5,4,0:0:0:0:
41,142,7709,6,0,L|34:207,1,53.9999983520508,0|0,3:0|3:0,0:0:0:0:
191,91,8066,2,0,L|207:163,1,53.9999983520508,0|0,3:0|3:0,0:0:0:0:
169,305,8423,5,8,0:0:0:0:
308,358,8601,1,8,0:0:0:0:
169,179,8780,1,8,0:0:0:0:
375,220,8959,1,8,0:0:0:0:
129,62,9137,5,8,0:0:0:0:
384,33,9316,1,0,3:0:0:0:
384,33,9405,1,0,3:0:0:0:
384,33,9494,2,0,L|413:168,1,108,12|0,0:0|0:0,0:0:0:0:
423,254,9851,38,0,L|516:268,1,72,8|0,0:0|3:0,0:0:0:0:
303,348,10209,1,0,3:0:0:0:
182,169,10387,6,0,L|113:192,1,72,8|0,0:0|3:0,0:0:0:0:
300,238,10744,1,0,3:0:0:0:
405,76,10923,6,0,L|477:88,1,72,8|0,0:0|3:0,0:0:0:0:
291,136,11280,1,0,3:0:0:0:
260,355,11459,6,0,L|271:262,1,72,8|0,0:0|0:0,0:0:0:0:
179,99,11816,1,0,3:0:0:0:
163,117,11905,1,0,3:0:0:0:
147,136,11994,2,0,P|84:132|63:138,1,72,8|8,0:0|0:0,0:0:0:0:
288,297,12351,5,0,3:0:0:0:
284,268,12441,1,0,3:0:0:0:
280,239,12530,1,0,3:0:0:0:
277,210,12619,1,0,3:0:0:0:
273,182,12709,6,0,L|357:198,1,72,4|0,0:0|0:0,0:0:0:0:
91,363,13066,2,0,P|86:321|69:265,1,90,10|0,0:0|0:0,0:0:0:0:
214,82,13423,2,0,P|207:141|186:186,1,90,2|0,3:2|0:0,0:0:0:0:
58,96,13780,1,10,0:0:0:0:
273,15,13959,1,0,0:0:0:0:
89,198,14137,38,0,L|-14:182,1,90,2|0,3:2|0:0,0:0:0:0:
192,335,14494,1,10,0:0:0:0:
199,177,14673,2,0,P|238:156|283:149,1,90,2|0,3:2|0:0,0:0:0:0:
411,367,15030,2,0,P|366:360|326:339,1,90,2|8,3:2|0:0,0:0:0:0:
419,137,15387,1,2,3:2:0:0:
496,306,15566,5,2,3:2:0:0:
244,173,15744,1,0,3:0:0:0:
222,202,15834,1,0,3:0:0:0:
220,241,15923,2,0,B|149:231|181:301|63:282,1,135,10|0,0:0|0:0,0:0:0:0:
59,263,16280,2,0,L|39:164,1,90,2|0,3:2|3:0,0:0:0:0:
137,93,16548,1,0,3:0:0:0:
137,93,16637,2,0,L|124:195,1,90,10|0,0:0|0:0,0:0:0:0:
259,362,16994,6,0,P|227:320|221:234,1,135,2|0,3:2|0:0,0:0:0:0:
242,210,17351,1,10,0:0:0:0:
431,281,17530,2,0,P|419:334|399:370,1,90,2|0,3:2|0:0,0:0:0:0:
336,160,17887,2,0,L|320:97,1,45,2|0,3:2|3:0,0:0:0:0:
348,94,18066,2,0,P|344:43|251:34,1,135,8|0,0:0|0:0,0:0:0:0:
209,80,18423,6,0,B|169:64|123:92|123:92|102:41|32:32,2,180,4|8|0,0:0|0:0|3:0,0:0:0:0:
131,253,19316,1,2,0:0:0:0:
53,208,19494,2,0,P|44:167|48:105,1,90,10|2,0:0|0:0,0:0:0:0:
242,297,19851,6,0,L|263:204,1,90,2|2,3:2|0:0,0:0:0:0:
394,245,20209,1,10,0:0:0:0:
512,131,20387,2,0,P|422:141|374:232,1,180,2|0,3:2|3:0,0:0:0:0:
389,242,20834,1,0,3:0:0:0:
389,242,20923,1,8,0:0:0:0:
327,100,21101,1,0,3:0:0:0:
296,252,21280,6,0,L|319:361,1,90,4|0,0:0|0:0,0:0:0:0:
498,125,21637,2,0,L|475:16,1,90,4|0,0:0|0:0,0:0:0:0:
282,251,21994,38,0,L|305:360,1,90,4|0,0:0|0:0,0:0:0:0:
512,124,22351,2,0,L|489:15,1,90,4|0,0:0|3:0,0:0:0:0:
512,0,22619,1,0,3:0:0:0:
512,0,22709,5,8,0:0:0:0:
405,164,22887,1,0,3:0:0:0:
401,190,22976,1,0,3:0:0:0:
395,219,23066,1,0,3:0:0:0:
291,60,23244,2,0,B|213:102|213:102|90:72,1,180,8|0,0:0|0:0,0:0:0:0:
197,14,23780,1,0,3:0:0:0:
197,14,23869,1,0,3:0:0:0:
197,14,23959,1,0,3:0:0:0:
12,203,24137,6,0,L|124:177,1,90,8|0,0:0|3:0,0:0:0:0:
119,204,24405,1,0,3:0:0:0:
138,225,24494,1,0,3:0:0:0:
342,185,24673,2,0,P|291:107|205:144,1,180,8|0,0:0|3:0,0:0:0:0:
417,294,25209,6,0,P|359:288|316:299,1,90,4|0,0:0|3:0,0:0:0:0:
147,384,25476,1,0,3:0:0:0:
147,384,25566,1,0,3:0:0:0:
17,150,35580,38,0,P|27:92|78:83,1,90,4|0,1:2|0:0,0:0:0:0:
277,98,35912,2,0,P|221:118|188:78,1,90,2|0,1:0|0:0,0:0:0:0:
122,7,36243,70,0,L|125:52,1,45,0|0,1:0|0:0,0:0:0:0:
129,127,36409,2,0,L|132:172,1,45,0|0,1:0|0:0,0:0:0:0:
93,270,36575,70,0,B|89:232|48:201|-17:243|41:261|55:233,1,108,8|0,0:0|0:0,0:0:0:0:
39,320,36906,86,0,P|102:292|174:288,1,135,0|0,1:0|0:0,0:0:0:0:
181,294,37238,1,0,1:0:0:0:
185,366,37404,2,0,B|214:365|235:372|235:372|235:350|249:326,1,90,0|0,0:0|1:0,0:0:0:0:
257,209,37735,2,0,L|249:272,1,45,0|0,1:0|0:0,0:0:0:0:
318,359,37901,70,0,B|362:343|376:319|376:319|390:348|431:368,1,135,2|0,0:1|0:0,0:0:0:0:
455,289,38232,70,0,L|503:283,3,45,2|2|2|2,1:2|0:0|0:0|0:0,0:0:0:0:
377,179,38564,2,0,L|329:173,3,45,2|2|2|0,1:2|0:0|0:0|0:0,0:0:0:0:
446,214,38895,86,0,P|484:179|487:160,1,67.5,2|0,1:2|0:0,0:0:0:0:
487,154,39061,70,0,P|465:107|448:98,1,67.5,2|0,0:0|0:0,0:0:0:0:
443,95,39227,70,0,L|362:104,1,67.5,2|0,1:2|0:0,0:0:0:0:
369,92,39393,86,0,L|297:84,1,45
262,33,39558,70,0,B|259:41|225:67|196:62|184:38|193:22|221:32|224:52,3,90,0|0|0|0,1:2|0:0|0:0|0:0,0:0:0:0:
123,81,39890,70,0,B|146:83|165:102|140:140|209:169|207:117|176:107|156:109,3,103.500001974106,0|0|0|0,1:2|0:0|0:0|0:0,0:0:0:0:
80,184,40221,86,0,B|110:179|109:150|98:132|52:173|61:215|85:236,3,116.999994644165,0|0|0|0,1:2|0:0|0:0|0:0,0:0:0:0:
122,291,40553,70,0,B|132:296|166:274|139:257|93:288|82:296|102:299|70:329|29:320|34:294|68:285|102:299,3,135.000005149842,0|0|0|0,1:2|0:0|0:0|0:0,0:0:0:0:
134,373,40884,69,0,0:1:0:0:
303,323,41216,85,2,0:0:0:0:
209,323,41382,1,2,0:0:0:0:
256,256,41547,69,2,0:1:0:0:
256,240,41879,1,2,0:1:0:0:
378,373,42210,69,2,0:0:0:0:
345,300,42376,1,0,3:3:0:0:
346,295,42542,1,0,3:3:0:0:
347,290,42707,1,0,3:3:0:0:
348,285,42873,1,0,3:3:0:0:
363,213,43039,86,0,P|358:203|329:180,1,45,2|0,0:0|0:0,0:0:0:0:
370,208,43205,2,0,L|389:149,1,45,2|0,0:0|0:0,0:0:0:0:
372,215,43370,2,0,P|382:210|419:211,1,45,2|0,0:0|0:0,0:0:0:0:
488,292,43536,70,0,L|404:282,1,58.4999973220826,4|0,1:0|0:0,0:0:0:0:
223,235,43702,2,0,L|281:241,1,58.4999973220826
493,296,43868,70,0,L|405:286,1,58.4999973220826,8|0,1:2|0:0,0:0:0:0:
217,230,44033,2,0,L|277:237,1,58.4999973220826
370,207,44199,86,0,B|342:192|341:168|341:168|356:79,1,116.999994644165,0|0,1:0|1:0,0:0:0:0:
316,38,44448,1,0,1:0:0:0:
331,27,44531,70,0,P|393:38|404:48,1,45,2|0,1:1|0:0,0:0:0:0:
469,98,44696,2,0,L|411:87,1,45,0|0,1:1|0:0,0:0:0:0:
124,115,44862,69,2,1:2:0:0:
155,103,44945,1,2,0:0:0:0:
125,121,45028,85,2,0:0:0:0:
156,109,45111,1,2,0:0:0:0:
139,121,45194,70,0,L|129:178,1,45,2|0,1:2|0:0,0:0:0:0:
149,44,45359,2,0,L|155:-2,1,45,2|0,0:0|0:0,0:0:0:0:
80,266,45525,70,0,B|148:218|210:260|161:289|135:265|136:232,1,135.000005149842,2|0,1:2|0:0,0:0:0:0:
27,321,45774,1,0,1:2:0:0:
16,306,45857,86,0,P|5:265|11:233,1,67.5000025749208,2|0,1:2|0:0,0:0:0:0:
241,262,46022,2,0,P|230:303|208:327,1,67.5000025749208,0|0,1:2|0:0,0:0:0:0:
140,366,46188,70,0,P|225:335|312:354,1,175.499991966248,2|0,1:2|0:0,0:0:0:0:
320,368,46520,1,8,1:2:0:0:
416,336,46685,1,10,0:0:0:0:
448,224,46851,69,0,1:0:0:0:
256,140,47017,1,0,0:0:0:0:
204,192,47100,1,0,0:0:0:0:
243,179,47183,1,8,1:2:0:0:
256,16,47349,1,0,1:0:0:0:
114,187,47515,86,0,L|109:220,1,33.7500012874604,0|0,1:0|0:0,0:0:0:0:
14,230,47680,1,0,0:0:0:0:
25,226,47763,70,0,P|43:245|52:278,1,58.4999973220826,0|10,1:0|0:0,0:0:0:0:
146,304,47928,1,0,0:0:0:0:
149,293,48011,2,0,P|163:267|187:252,1,58.4999973220826,0|0,1:0|0:0,0:0:0:0:
114,187,48177,70,0,L|109:220,1,33.7500012874604,0|0,1:0|0:0,0:0:0:0:
68,373,48343,1,0,0:0:0:0:
82,368,48426,86,0,P|123:373|165:398,1,67.5000025749208,0|10,1:0|0:0,0:0:0:0:
285,280,48591,1,0,0:0:0:0:
277,267,48674,2,0,P|274:225|290:179,1,67.5000025749208,0|0,1:0|0:0,0:0:0:0:
277,74,48840,70,0,L|193:84,1,58.4999973220826,0|0,1:0|0:0,0:0:0:0:
6,119,49006,2,0,L|64:113,1,58.4999973220826
282,70,49172,70,0,L|194:80,1,58.4999973220826,8|0,1:2|0:0,0:0:0:0:
0,124,49337,2,0,L|60:117,1,58.4999973220826
123,23,49503,86,0,B|139:45|139:45|153:99|138:179,1,116.999994644165,0|0,1:0|1:0,0:0:0:0:
85,186,49752,1,0,1:0:0:0:
94,193,49835,2,0,P|123:208|151:211,1,45,2|0,1:1|0:0,0:0:0:0:
244,152,50000,2,0,P|216:169|199:192,1,45,0|0,1:1|0:0,0:0:0:0:
132,352,50166,69,2,1:2:0:0:
138,319,50249,1,2,0:0:0:0:
137,358,50332,69,2,0:0:0:0:
144,324,50415,1,2,0:0:0:0:
153,341,50498,86,0,L|201:336,1,45,2|0,1:2|0:0,0:0:0:0:
19,315,50663,2,0,L|67:310,1,45,2|0,0:0|0:0,0:0:0:0:
278,298,50829,70,0,B|349:302|314:346|386:354|396:307|357:291|344:321,1,135.000005149842,2|0,1:2|0:0,0:0:0:0:
442,377,51078,1,0,1:2:0:0:
443,367,51161,70,0,B|447:345|454:338|454:338|451:322|455:288,1,67.5000025749208,2|0,1:2|0:0,0:0:0:0:
324,224,51326,2,0,B|320:202|313:195|313:195|316:179|312:145,1,67.5000025749208,0|0,1:2|0:0,0:0:0:0:
478,51,51492,86,0,B|460:28|483:8|526:-8|536:47|529:102|445:110|456:74|411:85|387:147,1,229.500004377365,2|0,1:2|0:0,0:0:0:0:
388,148,51823,1,8,1:2:0:0:
422,223,51989,1,10,0:0:0:0:
375,16,52155,70,0,B|403:8|396:-21|372:-60|331:-22|303:26|365:82|378:47|408:83|389:147,1,229.500004377365,0|0,1:0|0:0,0:0:0:0:
388,148,52486,1,8,1:2:0:0:
499,197,52652,1,0,1:0:0:0:
412,306,52818,70,0,P|382:296|352:267,1,56.25,4|0,1:2|0:0,0:0:0:0:
396,138,52984,86,0,P|410:114|433:98,1,56.25,2|0,1:1|0:0,0:0:0:0:
256,64,53149,70,0,L|256:0,1,56.25,2|0,1:1|0:0,0:0:0:0:
116,138,53315,70,0,P|101:114|78:98,1,56.25,2|0,1:1|0:0,0:0:0:0:
100,306,53481,86,0,P|130:296|160:267,1,56.25,2|0,1:1|0:0,0:0:0:0:
256,352,53647,70,0,L|256:288,1,45,2|0,1:2|1:2,0:0:0:0:
256,160,53812,69,2,1:2:0:0:
303,192,53895,1,0,0:0:0:0:
208,192,53978,1,2,1:2:0:0:
3,176,54144,86,0,L|86:184,1,58.4999973220826,4|0,1:3|0:0,0:0:0:0:
262,276,54310,2,0,L|203:270,1,58.4999973220826
0,169,54476,70,0,L|83:177,1,58.4999973220826,8|0,1:2|0:0,0:0:0:0:
256,271,54642,2,0,L|197:265,1,58.4999973220826
98,271,54807,70,0,B|80:250|111:214|135:264|84:350,1,116.999994644165,0|0,1:0|1:0,0:0:0:0:
39,371,55056,1,0,1:0:0:0:
29,357,55138,86,0,P|23:327|28:291,1,45,2|0,1:1|0:0,0:0:0:0:
156,376,55304,2,0,P|170:349|197:324,1,45,0|0,1:1|0:0,0:0:0:0:
354,108,55470,69,2,1:2:0:0:
321,101,55552,1,2,0:0:0:0:
360,102,55635,69,2,0:0:0:0:
327,96,55719,1,2,0:0:0:0:
343,95,55801,86,0,L|338:47,1,45,2|0,1:2|0:0,0:0:0:0:
346,182,55967,2,0,L|350:226,1,45,2|0,0:0|0:0,0:0:0:0:
279,333,56133,70,0,B|362:333|323:276|438:295,1,135.000005149842,2|0,1:2|0:0,0:0:0:0:
454,349,56382,1,0,1:2:0:0:
464,334,56464,70,0,P|477:291|464:253,1,67.5000025749208,2|0,1:2|0:0,0:0:0:0:
273,193,56630,2,0,P|269:226|281:257,1,67.5000025749208,0|0,1:2|0:0,0:0:0:0:
375,373,56796,86,0,P|295:338|210:353,1,175.499991966248,2|0,1:2|0:0,0:0:0:0:
192,368,57127,1,8,1:2:0:0:
96,336,57293,1,10,0:0:0:0:
64,224,57459,69,0,1:0:0:0:
256,140,57625,1,0,0:0:0:0:
307,192,57707,1,0,0:0:0:0:
268,179,57790,1,8,1:2:0:0:
256,16,57956,1,0,1:0:0:0:
398,187,58122,70,0,L|403:220,1,33.7500012874604,0|0,1:0|0:0,0:0:0:0:
508,233,58288,1,0,0:0:0:0:
500,250,58370,86,0,P|471:273|449:276,1,58.4999973220826,0|10,1:0|0:0,0:0:0:0:
293,280,58536,1,0,0:0:0:0:
302,290,58619,2,0,P|330:295|358:286,1,58.4999973220826,0|0,1:0|0:0,0:0:0:0:
398,187,58785,70,0,L|403:220,1,33.7500012874604,0|0,1:0|0:0,0:0:0:0:
421,372,58951,1,0,0:0:0:0:
401,381,59033,70,0,P|358:381|335:368,1,67.5000025749208,0|10,1:0|0:0,0:0:0:0:
166,241,59199,1,0,0:0:0:0:
167,258,59282,2,0,P|189:283|220:293,1,67.5000025749208,0|0,1:0|0:0,0:0:0:0:
285,156,59448,86,0,L|226:162,1,58.4999973220826,0|0,1:0|0:0,0:0:0:0:
26,256,59614,2,0,L|109:248,1,58.4999973220826
279,161,59779,70,0,L|220:167,1,58.4999973220826,8|0,1:2|0:0,0:0:0:0:
23,263,59945,2,0,L|106:255,1,58.4999973220826
173,338,60111,70,0,B|191:362|127:359|140:273|179:314|164:236,1,116.999994644165,0|0,1:0|1:0,0:0:0:0:
126,188,60359,1,0,1:0:0:0:
118,176,60442,86,0,P|115:148|122:130,1,45,2|0,1:1|0:0,0:0:0:0:
211,58,60608,2,0,P|196:75|191:97,1,45,0|0,1:1|0:0,0:0:0:0:
337,246,60774,69,2,1:2:0:0:
430,143,60940,1,2,0:0:0:0:
396,105,61022,1,2,0:0:0:0:
346,108,61105,1,2,1:2:0:0:
333,251,61271,2,0,L|341:310,1,45,2|0,0:0|0:0,0:0:0:0:
440,362,61437,70,0,B|453:365|466:307|408:314|385:344|410:361|370:378|311:371,1,135.000005149842,2|0,1:2|0:0,0:0:0:0:
281,350,61685,1,0,1:2:0:0:
272,339,61768,86,0,P|234:310|190:312,1,67.5000025749208,2|0,1:2|0:0,0:0:0:0:
419,257,61934,2,0,P|445:217|487:204,1,67.5000025749208,0|0,1:2|0:0,0:0:0:0:
285,40,62100,70,0,B|271:-21|192:10|184:46|208:136|245:78|279:113|257:192,1,229.500004377365,2|0,1:2|0:0,0:0:0:0:
256,192,62431,1,8,1:2:0:0:
185,158,62597,1,10,0:0:0:0:
355,85,62763,70,0,B|416:71|421:156|392:179|300:195|337:137|291:121|229:174,1,229.500004377365,0|0,1:0|0:0,0:0:0:0:
185,158,63094,1,8,1:2:0:0:
256,288,63260,1,0,1:0:0:0:
256,96,63426,86,0,L|256:48,1,33.7500012874604,4|0,1:2|0:0,0:0:0:0:
355,85,63591,70,0,P|403:85|441:110,1,67.5000025749208,2|0,1:1|0:0,0:0:0:0:
472,170,63757,2,0,P|386:163|354:136,1,99.0000030212403,2|0,1:1|0:0,0:0:0:0:
157,85,63923,70,0,P|109:85|71:110,1,67.5000025749208,2|0,1:1|0:0,0:0:0:0:
40,170,64089,2,0,P|126:163|158:136,1,99.0000030212403,2|0,1:1|0:0,0:0:0:0:
257,44,64254,1,2,1:2:0:0:
256,64,64337,1,0,1:2:0:0:
272,104,64420,86,0,B|302:66|256:12|256:12|211:66|241:104,1,202.500007724762,2|0,1:2|0:0,0:0:0:0:
306,249,64752,70,0,P|314:246|345:241,1,33.7500012874604,0|0,1:0|0:0,0:0:0:0:
401,119,64917,2,0,P|403:135|408:151,1,33.7500012874604,0|0,1:0|0:0,0:0:0:0:
334,166,65083,70,0,B|369:158|435:193|392:216|419:259|492:254,1,175.499991966248,8|0,0:0|0:0,0:0:0:0:
503,145,65415,86,0,P|480:173|472:194,1,45,0|0,1:0|0:0,0:0:0:0:
382,351,65580,2,0,L|379:277,1,45,0|0,1:0|0:0,0:0:0:0:
307,97,65746,70,0,B|278:63|186:58|172:166|251:162|264:153,1,188.999994232178,8|0,0:0|0:0,0:0:0:0:
409,24,66078,70,0,B|405:68|405:68|406:73|406:73|404:78|404:78|397:133,1,94.499997116089,2|0,3:0|0:0,0:0:0:0:
453,323,66243,1,2,3:0:0:0:
472,253,66326,2,0,B|444:223|444:223|357:229,1,94.499997116089,2|0,3:0|0:0,0:0:0:0:
221,310,66492,1,2,3:0:0:0:
269,373,66575,2,0,B|299:345|299:345|296:258,1,94.499997116089,2|0,3:0|0:0,0:0:0:0:
214,45,66741,86,0,P|204:91|173:112,1,67.5000025749208,2|0,3:0|1:0,0:0:0:0:
116,151,66989,1,0,1:0:0:0:
123,136,67072,70,0,B|104:96|135:55|135:55|34:75|42:158|42:158|203:109|329:173|329:173|285:143|274:117,1,612.000011672974,4|0,1:0|0:0,0:0:0:0:
437,114,76520,5,4,0:0:0:0:
424,101,76976,1,8,2:1:0:0:
437,88,77420,1,8,0:1:0:0:
449,101,77865,1,8,0:1:0:0:
340,224,78309,69,8,0:1:0:0:
327,237,78754,1,8,0:1:0:0:
340,250,79198,1,8,0:1:0:0:
352,237,79643,1,8,0:1:0:0:
165,179,80087,53,8,0:1:0:0:
152,166,80532,1,8,0:1:0:0:
165,153,80976,1,8,0:1:0:0:
177,166,81420,1,8,0:1:0:0:
68,289,81865,5,8,0:1:0:0:
55,302,82309,1,8,0:1:0:0:
68,315,82754,1,8,0:1:0:0:
80,302,83087,1,0,3:0:0:0:
102,309,83198,2,0,L|156:297,1,45,0|0,3:0|3:0,0:0:0:0:
361,295,83643,86,0,P|315:320|265:373,1,125.999996154785,8|8,3:1|3:1,0:1:0:0:
169,163,84531,2,0,P|203:224|222:289,1,125.999996154785,8|8,3:1|3:1,0:1:0:0:
512,192,85420,2,0,P|445:180|337:210,1,161.999995056153,8|8,3:1|3:1,0:1:0:0:
117,32,86309,2,0,P|217:64|278:127,1,161.999995056153,8|8,3:1|3:1,0:1:0:0:
330,43,86976,1,0,0:0:0:0:
85,199,87198,70,0,L|75:159,1,40.4999987640381,8|0,3:1|0:1,0:1:0:0:
157,166,87420,2,0,L|147:126,1,40.4999987640381,0|0,0:1|0:1,0:1:0:0:
198,245,87643,54,0,L|188:284,1,40.4999987640381,8|0,3:1|0:1,0:1:0:0:
270,278,87865,2,0,L|260:317,1,40.4999987640381,0|0,0:1|0:1,0:1:0:0:
297,133,88087,6,0,L|275:54,1,53.9999983520508,8|0,3:1|0:1,0:1:0:0:
372,103,88309,2,0,L|350:24,1,53.9999983520508,0|0,0:1|0:1,0:1:0:0:
390,302,88531,86,0,L|368:381,1,53.9999983520508,8|0,3:1|0:1,0:1:0:0:
465,332,88754,2,0,L|443:411,1,53.9999983520508,0|0,0:1|0:1,0:1:0:0:
512,192,88976,69,0,3:1:0:0:
512,192,90087,53,0,0:0:0:0:
261,317,90309,5,8,0:1:0:0:
301,243,90420,1,0,0:0:0:0:
344,351,90531,1,0,0:0:0:0:
344,351,90754,86,0,P|274:331|176:324,1,161.999995056153,4|0,0:2|0:2,0:2:0:0:
125,378,91198,2,0,P|109:348|97:294,1,53.9999983520508,10|0,0:2|0:2,0:2:0:0:
203,189,91420,2,0,P|193:214|180:237,1,53.9999983520508,2|0,0:2|0:2,0:2:0:0:
18,360,91643,2,0,P|12:283|22:246,1,107.999996704102,2|0,3:2|0:2,0:2:0:0:
21,138,91976,1,0,0:2:0:0:
122,132,92087,2,0,B|92:152|92:152|-10:132,1,107.999996704102,10|2,0:2|0:2,0:2:0:0:
260,61,92531,70,0,P|319:106|417:99,1,161.999995056153,2|0,3:2|0:2,0:2:0:0:
422,27,92976,1,10,0:2:0:0:
296,179,93198,2,0,L|310:270,1,53.9999983520508,2|0,0:2|0:2,0:2:0:0:
337,375,93420,1,2,3:2:0:0:
409,312,93531,1,0,0:2:0:0:
271,316,93643,2,0,L|211:333,1,53.9999983520508,0|0,0:2|0:2,0:2:0:0:
426,126,93865,2,0,P|462:177|388:223,1,161.999995056153,10|0,0:2|0:2,0:2:0:0:
296,179,94309,54,0,B|227:211|207:138|132:176,1,161.999995056153,0|0,3:2|0:2,0:2:0:0:
148,291,94754,2,0,P|169:261|177:225,1,53.9999983520508,10|0,0:2|0:2,0:2:0:0:
43,89,94976,2,0,P|52:114|69:135,1,53.9999983520508,2|0,0:2|0:2,0:2:0:0:
352,0,95198,2,0,P|264:80|263:130,1,161.999995056153,2|0,3:2|0:2,0:2:0:0:
395,225,95643,2,0,L|521:200,1,107.999996704102,10|2,0:2|0:2,0:2:0:0:
385,301,95976,5,0,0:2:0:0:
447,353,96087,2,0,P|458:328|461:302,1,53.9999983520508,2|0,3:2|0:2,0:2:0:0:
320,253,96309,2,0,P|309:278|307:305,1,53.9999983520508,2|0,0:2|0:2,0:2:0:0:
456,172,96531,2,0,L|526:156,1,53.9999983520508,10|0,0:0|0:2,0:2:0:0:
392,96,96754,2,0,L|316:112,1,53.9999983520508,2|0,0:2|0:2,0:2:0:0:
131,32,96976,85,0,3:2:0:0:
243,93,97087,1,0,0:2:0:0:
153,170,97198,2,0,L|156:111,1,53.9999983520508,0|0,0:2|0:2,0:2:0:0:
42,242,97420,2,0,P|95:231|125:230,1,53.9999983520508,10|0,0:2|0:2,0:2:0:0:
252,278,97643,2,0,P|221:259|188:248,1,53.9999983520508,2|0,0:2|0:2,0:2:0:0:
58,328,97865,70,0,B|144:295|143:377|265:346,1,161.999995056153,4|0,3:2|0:2,0:2:0:0:
302,307,98309,54,0,P|325:248|324:226,1,53.9999983520508,10|0,0:2|0:2,0:2:0:0:
330,123,98531,2,0,P|369:172|389:182,1,53.9999983520508,2|0,0:2|0:2,0:2:0:0:
485,234,98754,2,0,P|422:243|403:255,1,53.9999983520508,2|0,3:2|0:2,0:2:0:0:
214,173,98976,6,0,L|309:200,1,53.9999983520508,2|0,0:2|0:2,0:2:0:0:
487,114,99198,2,0,L|416:182,1,53.9999983520508,10|0,0:2|0:2,0:2:0:0:
411,375,99420,2,0,L|386:279,1,53.9999983520508,2|0,0:2|0:2,0:2:0:0:
436,30,99643,86,0,P|365:90|282:101,1,161.999995056153,2|0,3:2|0:2,0:2:0:0:
202,66,100087,1,10,0:2:0:0:
251,244,100309,2,0,P|244:279|232:327,1,53.9999983520508,2|0,0:2|0:2,0:2:0:0:
78,333,100531,1,0,3:2:0:0:
43,223,100643,1,0,0:2:0:0:
122,261,100754,2,0,L|194:252,1,53.9999983520508,0|0,0:2|0:2,0:2:0:0:
377,355,100976,2,0,B|410:377|410:377|269:351,1,161.999995056153,10|0,0:2|0:2,0:2:0:0:
206,357,101420,70,0,P|188:283|157:224,1,107.999996704102,0|2,3:2|0:2,0:2:0:0:
463,76,101865,2,0,P|439:142|428:192,1,107.999996704102,10|0,0:2|0:2,0:2:0:0:
461,248,102198,1,0,0:2:0:0:
461,248,102309,2,0,L|526:238,1,53.9999983520508,0|0,3:2|0:2,0:2:0:0:
281,82,102531,2,0,L|228:92,1,53.9999983520508,0|0,0:2|0:2,0:2:0:0:
181,211,102754,2,0,P|267:182|364:206,1,161.999995056153,8|0,0:2|0:2,0:2:0:0:
393,264,103198,54,0,B|367:303|367:303|331:177,1,161.999995056153,2|0,3:2|0:2,0:2:0:0:
424,121,103643,2,0,L|415:208,1,53.9999983520508,10|0,0:2|0:2,0:2:0:0:
286,330,103865,2,0,L|270:272,1,53.9999983520508,2|0,0:2|0:2,0:2:0:0:
213,83,104087,1,0,3:2:0:0:
332,101,104198,1,0,0:2:0:0:
207,100,104309,2,0,B|137:124,1,53.9999983520508,2|0,0:2|0:2,0:2:0:0:
16,227,104531,6,0,P|121:231|228:307,1,202.500007724762,8|0,0:2|0:2,0:2:0:0:
305,376,104976,86,0,L|279:238,1,107.999996704102,4|0,3:2|0:2,0:2:0:0:
399,182,105309,1,2,0:2:0:0:
421,201,105420,2,0,L|405:331,1,107.999996704102,8|0,0:2|0:2,0:2:0:0:
255,35,105865,70,0,B|300:81|300:81|293:146,1,107.999996704102,2|0,3:2|0:2,0:2:0:0:
237,186,106198,1,2,0:2:0:0:
114,136,106309,2,0,L|241:101,1,107.999996704102,8|2,0:2|0:2,0:2:0:0:
371,332,106754,2,0,L|290:325,1,53.9999983520508,0|0,3:2|0:2,0:2:0:0:
236,318,106976,2,0,L|155:311,1,53.9999983520508,0|0,0:2|0:2,0:2:0:0:
56,239,107198,53,8,0:2:0:0:
66,251,107309,1,0,0:2:0:0:
72,265,107420,1,0,0:2:0:0:
75,280,107531,1,0,0:2:0:0:
149,228,107643,5,0,3:2:0:0:
218,257,107754,1,0,0:2:0:0:
290,235,107865,1,0,0:2:0:0:
336,175,107976,1,0,0:2:0:0:
426,256,108087,85,8,0:2:0:0:
416,223,108198,1,0,0:2:0:0:
446,214,108309,1,0,0:2:0:0:
454,247,108420,1,0,0:2:0:0:
336,175,108531,70,0,P|312:129|340:46,1,107.999996704102,2|0,3:2|0:2,0:2:0:0:
480,86,108865,1,2,0:2:0:0:
500,127,108976,2,0,L|380:108,1,107.999996704102,8|0,0:2|0:2,0:2:0:0:
231,312,109420,54,0,L|358:284,1,107.999996704102,2|0,3:2|0:2,0:2:0:0:
451,293,109754,1,2,0:2:0:0:
418,317,109865,2,0,L|403:390,1,53.9999983520508,8|0,0:2|0:2,0:2:0:0:
293,181,110087,1,2,0:2:0:0:
208,270,110198,1,0,0:2:0:0:
179,119,110309,6,0,P|144:117|105:134,1,53.9999983520508,2|0,3:2|0:2,0:2:0:0:
93,200,110531,2,0,P|128:202|167:185,1,53.9999983520508,0|0,0:2|0:2,0:2:0:0:
247,68,110754,2,0,P|226:53|182:37,1,53.9999983520508,10|0,0:2|0:2,0:2:0:0:
32,251,110976,2,0,P|53:266|97:282,1,53.9999983520508,0|0,0:2|0:2,0:2:0:0:
298,257,111198,85,2,3:2:0:0:
236,185,111309,1,0,0:2:0:0:
206,275,111420,2,0,L|184:338,1,53.9999983520508,0|0,0:2|0:2,0:2:0:0:
38,130,111643,69,10,0:2:0:0:
100,58,111754,1,0,0:2:0:0:
130,148,111865,2,0,L|151:211,1,53.9999983520508,2|0,0:2|0:2,0:2:0:0:
18,330,112087,54,0,B|-2:278|-2:278|122:306,1,161.999995056153,4|0,3:2|0:2,0:2:0:0:
173,375,112531,2,0,B|205:348|205:348|198:270,1,107.999996704102,10|2,0:2|0:2,0:2:0:0:
239,163,112865,1,0,0:2:0:0:
323,245,112976,2,0,L|410:232,1,53.9999983520508,2|0,3:2|0:2,0:2:0:0:
229,151,113198,2,0,L|142:138,1,53.9999983520508,2|0,0:2|0:2,0:2:0:0:
426,32,113420,2,0,P|457:100|453:148,1,107.999996704102,10|2,0:2|0:2,0:2:0:0:
316,319,113865,6,0,B|228:317|259:246|171:247,1,161.999995056153,2|0,3:2|0:2,0:2:0:0:
105,298,114309,1,10,0:2:0:0:
313,229,114531,2,0,P|329:187|325:140,1,53.9999983520508,2|0,0:2|0:2,0:2:0:0:
235,53,114754,1,0,3:2:0:0:
133,116,114865,1,0,0:2:0:0:
235,53,114976,2,0,L|319:43,1,53.9999983520508,0|0,0:2|0:2,0:2:0:0:
123,122,115198,2,0,L|40:115,1,53.9999983520508,10|0,0:2|0:2,0:2:0:0:
252,180,115420,1,2,0:2:0:0:
14,310,115643,86,0,P|110:293|152:337,1,135.000005149842,8|0,3:2|0:2,0:2:0:0:
178,371,115976,2,0,P|177:260|198:214,1,135.000005149842,8|0,3:2|0:2,0:2:0:0:
252,180,116309,1,0,3:2:0:0:
15,110,116531,2,0,P|157:96|217:39,2,202.500007724762,8|8|8,3:2|3:2|3:2,0:2:0:0:
258,8,117643,69,2,0:2:0:0:
307,41,117754,1,2,0:2:0:0:
365,34,117865,1,2,0:2:0:0:
412,4,118087,1,2,0:2:0:0:
456,161,118309,53,2,3:2:0:0:
503,76,118531,1,2,3:2:0:0:
460,165,118754,1,2,3:2:0:0:
485,217,118865,1,2,0:2:0:0:
473,277,118976,1,2,0:2:0:0:
372,236,131321,21,2,3:2:0:0:
379,261,131429,1,2,0:0:0:0:
385,287,131536,1,2,0:0:0:0:
317,81,131750,102,0,B|307:143|307:143|280:179|280:179|272:285,1,180,12|0,0:0|0:0,0:0:0:0:
280,269,132071,1,0,0:0:0:0:
228,106,132179,6,0,B|183:82|183:82|118:91,1,90,2|2,3:2|0:0,0:0:0:0:
201,225,132393,2,0,B|160:230|160:230|116:207,1,90,2|0,0:0|0:0,0:0:0:0:
21,292,132607,102,0,B|-11:310|-11:310|63:316|63:316|79:312|79:312|165:318,1,207.000003948212,8|0,0:0|0:0,0:0:0:0:
397,92,133036,6,0,L|387:25,1,67.5000025749208,0|0,3:2|0:0,0:0:0:0:
479,79,133250,2,0,L|469:12,1,67.5000025749208,2|0,0:0|0:0,0:0:0:0:
384,246,133464,102,0,L|374:313,1,67.5000025749208,8|0,0:0|0:0,0:0:0:0:
302,233,133679,2,0,L|292:300,1,67.5000025749208,2|0,0:0|0:0,0:0:0:0:
147,56,133893,6,0,B|159:139|159:139|173:148|173:148|160:241|160:241|173:247|173:247|190:351,1,270.000010299683,0|0,3:2|0:0,0:0:0:0:
194,17,134321,2,0,L|137:383,1,360,12|0,0:0|0:0,0:0:0:0:
404,225,134750,102,0,B|447:215|447:215|450:209|450:209|517:193,1,90,2|0,3:2|0:0,0:0:0:0:
473,372,134964,2,0,B|463:327|463:327|457:324|457:324|441:257,1,90,2|0,0:0|0:0,0:0:0:0:
301,356,135179,2,0,B|344:346|344:346|347:340|347:340|414:324,1,90,10|0,0:0|0:0,0:0:0:0:
316,184,135393,2,0,B|324:227|324:227|330:230|330:230|346:297,1,90,2|0,0:0|0:0,0:0:0:0:
331,278,135607,6,0,B|321:239|321:239|316:235|316:235|306:192,1,90,2|0,3:2|0:0,0:0:0:0:
379,59,135821,2,0,B|340:67|340:67|336:72|336:72|293:82,1,90,2|0,0:0|0:0,0:0:0:0:
160,11,136036,2,0,B|168:48|168:48|174:52|174:52|183:95,1,90,10|0,0:0|0:0,0:0:0:0:
112,230,136250,2,0,B|149:220|149:220|153:214|153:214|196:205,1,90,2|0,0:0|0:0,0:0:0:0:
439,280,136464,102,0,L|321:261,1,90,2|0,3:2|0:0,0:0:0:0:
333,361,136679,2,0,L|421:375,1,90,2|0,0:0|0:0,0:0:0:0:
422,139,136893,2,0,L|442:36,1,90,10|0,0:0|0:0,0:0:0:0:
347,29,137107,2,0,L|329:117,1,90,2|0,0:0|0:0,0:0:0:0:
312,198,137321,6,0,L|206:196,1,101.250003862381,0|0,3:2|0:0,0:0:0:0:
176,332,137750,102,0,B|138:331|138:331|127:336|127:336|78:332|78:332|35:328|33:242|84:245|84:245|120:246|120:246|160:249|163:266|163:266|240:270|240:270|244:274|244:274|242:270|242:270|447:275,1,472.500004506111,12|0,0:0|0:0,0:0:0:0:
454,252,138178,1,2,3:2:0:0:
484,196,138286,1,2,0:0:0:0:
474,138,138393,1,2,0:0:0:0:
474,138,138607,6,0,L|346:123,1,90,8|0,0:0|0:0,0:0:0:0:
256,109,138821,2,0,L|166:98,1,90,2|2,0:0|0:0,0:0:0:0:
1,130,139036,102,0,L|16:53,1,67.5,2|0,3:2|0:0,0:0:0:0:
22,23,139464,6,0,B|-5:155|-5:155|-3:158|-3:158|-11:205|-11:205|-32:307|35:276|20:366|20:366|11:336|-17:313,1,405.000015449525,8|0,0:0|0:0,0:0:0:0:
125,197,139893,102,0,B|111:142|168:96|168:96|132:127|151:197,1,180,2|0,3:2|0:0,0:0:0:0:
232,150,140107,2,0,B|285:136|331:193|331:193|300:157|230:177,1,180,2|0,0:0|0:0,0:0:0:0:
279,257,140321,2,0,B|292:310|235:356|235:356|271:325|251:255,1,180,10|0,0:0|0:0,0:0:0:0:
171,304,140536,2,0,B|116:317|70:260|70:260|101:296|171:277,1,180,2|0,0:0|0:0,0:0:0:0:
343,346,140750,6,0,P|390:344|430:330,1,80.9999975280763,0|0,3:2|0:0,0:0:0:0:
343,346,141178,102,0,B|334:345|384:352|416:335|416:335|385:243|480:235|453:155,1,270.000010299683,12|0,0:0|0:0,0:0:0:0:
492,381,141607,6,0,P|502:343|489:278,1,90,2|0,3:2|0:0,0:0:0:0:
452,154,141821,2,0,P|389:121|296:151,1,112.5
254,92,142036,2,0,P|185:148|172:236,1,135.000005149842,10|2,0:0|0:0,0:0:0:0:
101,253,142250,2,0,P|126:343|225:401,1,157.500001502037,2|0,0:0|0:0,0:0:0:0:
308,384,142464,102,0,P|391:301|387:215,1,180,2|0,3:2|0:0,0:0:0:0:
452,154,142678,2,0,P|380:115|295:130,1,135.000005149842,2|0,0:0|0:0,0:0:0:0:
224,59,142893,2,0,P|201:107|210:192,1,90,10|0,0:0|0:0,0:0:0:0:
215,255,143107,2,0,P|236:249|257:239,1,45
224,59,143321,6,0,P|194:19|128:-4,1,90,2|0,3:2|0:0,0:0:0:0:
197,143,143536,2,0,P|191:93|145:40,1,90,2|0,0:0|0:0,0:0:0:0:
127,215,143750,2,0,P|146:169|133:100,1,90,10|0,0:0|0:0,0:0:0:0:
19,273,143964,2,0,P|59:243|82:176,1,90,2|0,0:0|0:0,0:0:0:0:
424,71,144178,102,0,B|404:171|404:171|354:212|354:212|329:312,1,270.000010299683,2|0,3:2|0:0,0:0:0:0:
317,24,144607,2,0,B|342:134|342:134|426:256|426:256|451:351,1,360,12|0,0:0|0:0,0:0:0:0:
512,245,144928,5,2,0:0:0:0:
509,143,145036,2,0,P|476:83|397:52,1,112.5,2|0,3:2|0:0,0:0:0:0:
201,104,145250,1,0,0:0:0:0:
201,104,145464,102,0,B|137:101|137:101|76:81,1,112.5,8|2,0:0|0:0,0:0:0:0:
440,60,145678,1,2,0:0:0:0:
311,315,145893,6,0,B|173:340|229:241|86:266,1,225,2|2,3:2|0:0,0:0:0:0:
374,304,146214,1,2,0:0:0:0:
374,304,146321,2,0,B|311:317|311:317|208:227|190:366|100:262|100:262|-110:313,1,360,10|0,0:0|0:0,0:0:0:0:
480,294,146750,102,0,L|503:388,1,90,2|0,3:2|0:0,0:0:0:0:
449,162,146964,2,0,L|515:231,1,90,2|2,0:0|0:0,0:0:0:0:
356,63,147178,2,0,L|448:90,1,90,10|0,0:0|0:0,0:0:0:0:
226,23,147393,2,0,L|320:0,1,90,2|0,0:0|0:0,0:0:0:0:
139,142,147607,6,0,P|185:249|275:175,1,270.000010299683,2|0,3:2|0:0,0:0:0:0:
115,123,148036,2,0,P|180:272|305:168,1,360,12|0,0:0|0:0,0:0:0:0:
94,204,148464,2,0,P|108:235|158:275,1,67.5000025749208,2|0,3:2|0:0,0:0:0:0:
217,125,148678,2,0,P|213:159|236:218,1,67.5000025749208,0|2,0:0|0:0,0:0:0:0:
403,184,148893,2,0,P|398:217|384:247,1,67.5000025749208,10|0,0:0|0:0,0:0:0:0:
210,384,149107,2,0,P|214:350|228:320,1,67.5000025749208,2|2,0:0|0:0,0:0:0:0:
358,384,149321,102,0,L|273:362,1,67.5000025749208,2|0,3:2|0:0,0:0:0:0:
56,285,149536,2,0,L|117:222,1,67.5000025749208,2|2,0:0|0:0,0:0:0:0:
292,72,149750,2,0,L|315:156,1,67.5000025749208,10|0,0:0|0:0,0:0:0:0:
234,247,149964,1,2,0:0:0:0:
384,29,150178,6,0,L|474:41,1,67.5000025749208,2|0,3:2|0:0,0:0:0:0:
104,57,150393,2,0,L|14:69,1,67.5000025749208,2|0,0:0|0:0,0:0:0:0:
353,137,150607,2,0,L|443:149,1,67.5000025749208,10|0,0:0|0:0,0:0:0:0:
140,173,150821,2,0,L|50:185,1,67.5000025749208,2|0,0:0|0:0,0:0:0:0:
356,32,151036,102,0,B|354:99|354:99|356:97|356:97|352:180|352:180|347:177|347:177|340:377,1,337.5,0|0,3:2|0:0,0:0:0:0:
95,120,151464,2,0,L|412:140,1,180,12|0,0:0|0:0,0:0:0:0:
432,143,151678,2,0,L|480:146,2,33.7500012874604
423,273,151893,6,0,L|449:371,1,67.5000025749208,2|0,3:2|0:0,0:0:0:0:
274,131,152107,2,0,L|248:229,1,67.5000025749208,2|0,0:2|0:0,0:0:0:0:
114,294,152321,2,0,L|140:392,1,67.5000025749208,10|0,0:2|0:0,0:0:0:0:
17,110,152536,2,0,L|-9:208,2,67.5000025749208,2|0|0,0:2|0:0|3:2,0:0:0:0:
478,62,152964,2,0,L|394:49,1,67.5000025749208,2|0,0:0|0:0,0:0:0:0:
171,32,153178,102,0,L|153:107,1,67.5000025749208,10|0,0:0|0:0,0:0:0:0:
180,70,153286,2,0,L|124:16,1,67.5000025749208,2|0,0:0|0:0,0:0:0:0:
145,60,153393,2,0,L|218:38,1,67.5000025749208,2|0,0:0|0:0,0:0:0:0:
257,193,153607,6,0,L|379:221,1,67.5000025749208,2|0,3:2|0:0,0:0:0:0:
481,319,153821,2,0,L|444:199,1,67.5000025749208
478,62,154036,2,0,L|392:153,1,67.5000025749208,10|0,0:0|0:0,0:0:0:0:
208,293,154250,102,0,L|191:355,1,45,2|0,0:0|3:2,0:0:0:0:
161,367,154678,6,0,P|168:289|207:241,1,135.000005149842,2|0,0:0|0:0,0:0:0:0:
426,196,154893,102,0,L|513:185,1,67.5000025749208,10|0,0:0|0:0,0:0:0:0:
435,206,155000,2,0,L|522:195,1,67.5000025749208,2|0,0:0|0:0,0:0:0:0:
446,217,155107,2,0,L|533:206,1,67.5000025749208,2|0,0:0|0:0,0:0:0:0:
429,26,155321,6,0,L|331:13,1,90,2|0,3:2|0:0,0:0:0:0:
387,53,155536,2,0,L|288:65,1,90,2|0,0:0|0:0,0:0:0:0:
300,214,155750,102,0,L|202:227,1,90,10|0,0:0|0:0,0:0:0:0:
258,187,155964,2,0,L|159:174,1,90,2|0,0:0|0:0,0:0:0:0:
151,20,156178,6,0,L|253:6,1,90,0|0,3:2|0:0,0:0:0:0:
0,47,156607,1,8,0:0:0:0:
136,264,156821,102,0,L|16:245,1,90
197,197,157036,2,0,L|253:190,1,45,2|0,3:2|0:0,0:0:0:0:
197,197,157143,2,0,L|253:190,1,45,2|0,0:0|0:0,0:0:0:0:
197,197,157250,2,0,L|304:184,1,90,2|0,0:0|0:0,0:0:0:0:
453,183,157464,1,8,0:0:0:0:
309,39,157678,1,0,0:0:0:0:
343,281,157893,6,0,L|349:340,1,45,2|0,3:2|0:0,0:0:0:0:
343,281,158000,2,0,L|349:340,1,45,2|0,0:0|0:0,0:0:0:0:
343,281,158107,2,0,B|238:282|275:354|154:358,2,180,2|8|0,0:0|0:0|0:0,0:0:0:0:
179,275,158750,102,0,P|113:312|102:352,1,90,4|0,3:2|0:0,0:0:0:0:
196,124,158964,2,0,P|207:80|192:39,1,90,2|0,0:0|0:0,0:0:0:0:
318,215,159178,2,0,P|351:246|394:254,1,90,8|0,0:0|0:0,0:0:0:0:
437,10,159393,6,0,P|386:107|388:193,1,180,2|2,0:0|3:2,0:0:0:0:
502,354,159821,1,2,0:0:0:0:
276,88,160036,102,0,L|258:-15,1,90,8|0,0:0|0:0,0:0:0:0:
67,143,160250,2,0,L|82:231,1,90
340,27,160464,6,0,B|408:39|408:39|472:108,1,90,4|0,3:2|0:0,0:0:0:0:
512,86,160678,2,0,B|467:138|467:138|447:143,1,90,2|0,0:0|0:0,0:0:0:0:
375,206,160893,2,0,B|351:141|351:141|357:121,1,90,8|0,0:0|0:0,0:0:0:0:
229,318,161107,102,0,P|136:365|57:340,1,180,2|2,0:0|3:2,0:0:0:0:
327,348,161536,1,2,0:0:0:0:
134,276,161750,6,0,L|80:267,1,45,10|0,0:0|0:0,0:0:0:0:
134,276,161857,2,0,L|168:233,1,45,2|0,0:0|0:0,0:0:0:0:
134,276,161964,2,0,L|153:327,1,45,2|0,0:0|0:0,0:0:0:0:
233,335,162178,102,0,P|297:259|364:260,1,135,2|0,3:2|0:0,0:0:0:0:
423,228,162393,2,0,P|366:166|286:166,1,135,2|0,0:0|0:0,0:0:0:0:
223,145,162607,2,0,P|270:76|338:67,1,135,10|0,0:0|0:0,0:0:0:0:
425,88,162821,1,2,0:0:0:0:
176,42,163036,6,0,B|-1:64|175:45|-1:70,1,180,2|0,3:2|0:0,0:0:0:0:
255,6,163464,1,10,0:0:0:0:
136,182,163678,102,0,P|257:240|310:68,1,360,2|2,0:0|0:0,0:0:0:0:
350,384,164536,1,2,0:0:0:0:
97,330,164750,6,0,L|221:313,1,112.5,2|0,0:0|0:0,0:0:0:0:
272,320,164964,102,0,L|94:342,1,168.750006437302,2|0,0:0|0:0,0:0:0:0:
400,144,165607,5,4,0:0:0:0:
49,168,173732,38,0,P|111:155|200:144,1,144,4|2,3:0|0:0,0:0:0:0:
291,199,174218,1,0,0:0:0:0:
182,303,174380,2,0,P|170:272|175:218,1,72,0|0,1:0|0:0,0:0:0:0:
278,117,174704,1,2,0:0:0:0:
315,279,174867,1,0,1:0:0:0:
190,144,175029,5,4,3:0:0:0:
318,190,175191,2,0,P|396:196|449:132,1,144,0|0,1:0|0:0,0:0:0:0:
326,25,175677,2,0,P|280:33|246:40,1,72,0|0,1:0|0:0,0:0:0:0:
105,126,176002,1,0,1:0:0:0:
105,126,176083,1,0,1:0:0:0:
105,126,176164,1,0,1:0:0:0:
105,126,176245,1,0,1:0:0:0:
105,126,176326,38,0,P|119:157|119:203,1,72,6|2,1:2|0:0,0:0:0:0:
216,244,176650,2,0,P|217:208|231:175,1,72,4|2,3:0|0:0,0:0:0:0:
320,113,176975,1,4,3:0:0:0:
394,190,177137,2,0,P|443:179|471:176,1,72,2|4,0:0|3:0,0:0:0:0:
384,287,177461,6,0,P|348:282|313:273,1,72,2|4,0:0|3:0,0:0:0:0:
216,244,177786,2,0,P|201:275|200:312,1,72,2|4,0:0|3:0,0:0:0:0:
96,340,178110,2,0,P|95:304|80:271,1,72,2|4,0:0|3:0,0:0:0:0:
21,181,178434,2,0,P|55:172|91:167,1,72,2|4,0:0|3:0,0:0:0:0:
201,73,178759,1,0,1:0:0:0:
201,73,178840,1,0,1:0:0:0:
201,73,178921,38,0,B|112:44|112:44|87:55|69:89,1,144,4|4,1:2|3:0,0:0:0:0:
194,158,179407,1,2,0:0:0:0:
280,25,179569,1,4,3:0:0:0:
327,153,179732,1,2,0:0:0:0:
201,73,179894,1,4,3:0:0:0:
366,65,180056,6,0,P|395:66|440:91,1,72,2|4,0:0|3:0,0:0:0:0:
497,205,180380,1,2,0:0:0:0:
341,223,180542,2,0,P|332:176|323:136,1,72,4|2,3:0|0:0,0:0:0:0:
211,78,180867,1,4,3:0:0:0:
195,213,181029,1,2,0:0:0:0:
74,145,181191,1,0,1:0:0:0:
74,145,181272,1,0,1:0:0:0:
74,145,181353,1,0,1:0:0:0:
74,145,181434,1,0,1:0:0:0:
74,145,181515,38,0,B|35:141|35:141|-6:161,1,72,6|0,1:2|0:0,0:0:0:0:
49,300,181840,2,0,P|83:293|136:286,1,72,4|2,3:0|0:0,0:0:0:0:
270,272,182164,1,4,3:0:0:0:
214,131,182326,2,0,P|214:87|234:55,1,72,2|4,0:0|3:0,0:0:0:0:
365,4,182650,6,0,P|379:36|377:72,1,72,2|4,0:0|3:0,0:0:0:0:
417,218,182975,2,0,P|474:201|509:193,1,72,2|4,0:0|3:0,0:0:0:0:
307,162,183299,2,0,P|272:152|237:142,1,72,2|4,0:0|3:0,0:0:0:0:
92,100,183623,2,0,P|77:132|79:168,1,72,2|4,0:0|3:0,0:0:0:0:
179,327,183948,1,0,1:0:0:0:
179,327,184029,1,0,1:0:0:0:
179,327,184110,38,0,B|267:303|267:303|286:324|328:331,1,144,4|4,1:2|3:0,0:0:0:0:
452,269,184596,1,2,0:0:0:0:
307,221,184759,1,4,3:0:0:0:
408,351,184921,1,2,0:0:0:0:
455,177,185083,1,4,3:0:0:0:
305,196,185245,6,0,P|263:195|225:172,1,72,2|4,0:0|3:0,0:0:0:0:
369,110,185569,1,2,0:0:0:0:
342,296,185732,2,0,P|337:329|332:370,1,72,4|2,3:0|0:0,0:0:0:0:
164,303,186056,37,4,3:0:0:0:
305,196,186218,1,2,0:0:0:0:
240,379,186380,1,0,1:0:0:0:
62,325,186542,1,0,1:0:0:0:
62,325,186623,1,0,1:0:0:0:
62,325,186704,6,0,B|53:281|53:281|33:252|33:252|24:187,1,125.999996154785,4|0,1:2|0:0,0:0:0:0:
88,103,187191,2,0,P|113:131|206:119,1,125.999996154785,0|0,1:0|0:0,0:0:0:0:
301,72,187677,2,0,P|284:112|285:133,1,62.9999980773926,0|0,1:0|0:0,0:0:0:0:
459,139,188002,38,0,B|366:122|366:122|380:136|389:147,1,125.999996154785,4|0,1:2|0:0,0:0:0:0:
449,246,188488,2,0,B|381:238|398:281|323:272,1,125.999996154785,0|0,1:0|0:0,0:0:0:0:
209,255,188975,2,0,P|219:278|195:353,1,94.499997116089,0|0,1:0|0:0,0:0:0:0:
144,296,189299,6,0,B|118:264|118:264|139:169,1,125.999996154785,4|0,1:2|0:0,0:0:0:0:
161,63,189786,2,0,B|80:86|87:83|19:103,1,125.999996154785,0|0,1:0|0:0,0:0:0:0:
215,136,190272,2,0,B|238:142|235:141|275:152,1,62.9999980773926,0|0,1:0|0:0,0:0:0:0:
447,242,190596,38,0,B|431:270|431:270|446:324|446:324|429:363,1,121.499996292114,4|0,1:2|0:0,0:0:0:0:
346,354,190921,2,0,B|332:323|332:323|347:269|347:269|331:241,1,121.499996292114,4|0,1:2|0:0,0:0:0:0:
283,171,191245,5,4,3:0:0:0:
196,317,191407,1,4,3:0:0:0:
74,202,191569,2,0,P|68:164|57:117,1,67.5,4|0,3:0|0:0,0:0:0:0:
55,111,191894,38,0,B|108:78|108:78|163:95|163:95|170:100|170:100|225:116|225:116|290:69,1,243.000000926971,6|2,1:2|0:0,0:0:0:0:
501,76,192380,2,0,P|465:118|462:185,1,121.500000463486,4|0,3:0|0:0,0:0:0:0:
340,378,192704,1,4,3:0:0:0:
175,213,192867,1,2,1:2:0:0:
392,290,193029,6,0,P|451:277|511:266,1,121.500000463486,4|0,3:0|0:0,0:0:0:0:
211,365,193353,2,0,P|151:354|91:341,1,121.500000463486,4|2,3:0|0:0,0:0:0:0:
195,135,193677,1,4,3:0:0:0:
318,359,193840,1,0,1:0:0:0:
382,150,194002,1,4,3:0:0:0:
152,229,194164,1,2,1:2:0:0:
122,223,194245,1,0,1:0:0:0:
92,218,194326,1,0,1:0:0:0:
62,212,194407,1,0,1:0:0:0:
32,206,194488,37,6,1:2:0:0:
261,184,194650,2,0,B|282:213|282:213|258:303,1,121.500000463486,4|2,3:0|0:0,0:0:0:0:
100,127,194975,2,0,B|77:44|77:44|98:15,1,121.500000463486,4|0,3:0|0:0,0:0:0:0:
314,96,195299,1,4,3:0:0:0:
120,227,195461,1,2,1:2:0:0:
354,291,195623,6,0,P|421:284|468:250,1,121.500000463486,4|0,3:0|0:0,0:0:0:0:
290,82,195948,1,4,3:0:0:0:
183,286,196110,1,2,0:0:0:0:
388,182,196272,1,4,3:0:0:0:
125,133,196434,37,0,1:0:0:0:
276,337,196596,1,4,3:0:0:0:
290,82,196759,1,4,3:0:0:0:
100,251,196921,1,8,3:0:0:0:
100,251,197002,1,8,3:0:0:0:
100,251,197083,6,0,B|61:280|21:268|21:268|0:216|0:153|47:112,1,243.000000926971,6|2,1:2|0:0,0:0:0:0:
273,220,197569,2,0,P|259:285|251:347,1,121.500000463486,4|0,3:0|0:0,0:0:0:0:
175,94,197894,1,4,3:0:0:0:
399,214,198056,1,2,1:2:0:0:
120,234,198218,38,0,B|98:264|98:264|121:360,1,121.500000463486,4|0,3:0|0:0,0:0:0:0:
303,122,198542,2,0,B|322:40|322:40|300:10,1,121.500000463486,4|2,3:0|0:0,0:0:0:0:
62,103,198867,1,4,3:0:0:0:
273,220,199029,1,2,1:2:0:0:
165,2,199191,1,4,3:0:0:0:
9,203,199353,1,0,1:0:0:0:
12,233,199434,1,0,1:0:0:0:
16,263,199515,1,0,1:0:0:0:
20,293,199596,1,0,1:0:0:0:
23,323,199677,5,6,1:2:0:0:
254,353,199840,2,0,P|272:293|245:233,1,121.500000463486,4|0,3:0|0:0,0:0:0:0:
62,103,200164,1,4,3:0:0:0:
136,321,200326,1,2,0:0:0:0:
277,108,200488,1,4,3:0:0:0:
34,220,200650,1,2,1:2:0:0:
254,353,200813,38,0,P|313:338|390:323,1,121.500000463486,4|0,3:0|0:0,0:0:0:0:
494,130,201137,2,0,P|434:117|375:102,1,121.500000463486,4|2,3:0|0:0,0:0:0:0:
155,33,201461,1,4,3:0:0:0:
270,232,201623,1,4,3:0:0:0:
288,0,201786,1,2,0:0:0:0:
128,198,201948,1,0,1:0:0:0:
134,228,202029,1,0,1:0:0:0:
140,258,202110,1,0,1:0:0:0:
146,287,202191,1,0,1:0:0:0:
152,317,202272,6,0,B|213:297|262:318|262:318|277:339|277:339|326:373|393:346,1,243.000000926971,6|2,1:2|0:0,0:0:0:0:
464,136,202759,2,0,P|400:123|338:111,1,121.500000463486,4|0,3:0|0:0,0:0:0:0:
128,198,203083,1,4,3:0:0:0:
346,251,203245,1,0,1:0:0:0:
253,39,203407,38,0,P|183:36|134:66,1,121.500000463486,4|0,3:0|0:0,0:0:0:0:
32,265,203731,2,0,P|85:291|145:286,1,121.500000463486,4|2,3:0|0:0,0:0:0:0:
341,141,204056,1,4,3:0:0:0:
108,179,204218,1,0,1:0:0:0:
276,336,204380,1,4,3:0:0:0:
454,189,204542,1,0,1:0:0:0:
449,159,204623,1,0,1:0:0:0:
444,129,204704,1,0,1:0:0:0:
439,99,204785,1,0,1:0:0:0:
434,69,204866,5,6,1:2:0:0:
211,4,205029,2,0,P|180:60|200:121,1,121.500000463486,4|0,3:0|0:0,0:0:0:0:
357,274,205353,1,4,3:0:0:0:
326,45,205515,1,2,0:0:0:0:
199,237,205677,1,4,3:0:0:0:
454,189,205840,1,0,1:2:0:0:
320,376,206002,38,0,P|244:375|197:349,1,121.500000463486,4|0,3:0|0:0,0:0:0:0:
95,151,206326,2,0,P|150:127|210:130,1,121.500000463486,4|2,3:0|0:0,0:0:0:0:
384,281,206650,1,4,3:0:0:0:
115,292,206813,1,0,1:2:0:0:
346,158,206975,1,0,0:0:0:0:
119,17,207137,2,0,L|46:31,1,60.7500002317429,8|4,3:0|3:0,0:0:0:0:
14,184,207299,1,8,3:0:0:0:
14,184,207380,1,8,3:0:0:0:
14,184,207461,6,0,B|97:202|97:202|131:258|131:258|242:286,1,243.000000926971,6|2,1:2|0:0,0:0:0:0:
411,148,207948,2,0,P|341:144|286:175,1,121.500000463486,4|0,3:0|0:0,0:0:0:0:
510,272,208272,1,4,3:0:0:0:
490,42,208434,1,2,1:2:0:0:
369,253,208596,38,0,P|379:311|389:372,1,121.500000463486,4|0,3:0|0:0,0:0:0:0:
210,188,208921,2,0,P|219:128|230:68,1,121.500000463486,4|2,3:0|0:0,0:0:0:0:
400,257,209245,1,4,3:0:0:0:
148,298,209407,1,0,1:0:0:0:
324,149,209569,1,4,3:0:0:0:
128,27,209731,1,0,1:0:0:0:
97,31,209812,1,0,1:0:0:0:
67,36,209893,1,0,1:0:0:0:
37,40,209974,1,0,1:0:0:0:
7,45,210056,5,6,1:2:0:0:
210,161,210218,2,0,P|275:172|331:142,1,121.500000463486,4|0,3:0|0:0,0:0:0:0:
512,40,210542,2,0,P|457:16|398:28,1,121.500000463486,4|0,3:0|0:0,0:0:0:0:
195,140,210867,1,4,3:0:0:0:
446,182,211029,1,2,1:2:0:0:
268,329,211191,38,0,P|211:317|134:304,1,121.500000463486,4|0,3:0|0:0,0:0:0:0:
104,79,211515,1,4,3:0:0:0:
324,149,211677,1,2,0:0:0:0:
97,200,211840,1,4,3:0:0:0:
288,13,212002,5,2,1:2:0:0:
356,271,212164,1,4,3:0:0:0:
128,89,212326,1,0,1:0:0:0:
98,93,212407,1,0,1:0:0:0:
68,98,212488,1,0,1:0:0:0:
38,103,212569,1,0,1:0:0:0:
8,108,212650,37,6,1:2:0:0:
118,215,212813,2,0,P|170:217|213:199,1,90,4|0,3:0|0:0,0:0:0:0:
320,104,213137,2,0,B|286:150|286:150|333:279,1,180,4|4,3:0|3:0,0:0:0:0:
439,160,213623,5,2,1:2:0:0:
363,25,213786,2,0,P|321:11|256:26,1,90,4|0,3:0|0:0,0:0:0:0:
133,91,214110,2,0,B|240:80|197:139|316:123,1,180,4|4,3:0|3:0,0:0:0:0:
435,247,214596,37,2,1:2:0:0:
303,279,214759,1,4,3:0:0:0:
476,350,214920,1,2,1:2:0:0:
344,382,215083,1,4,3:0:0:0:
353,200,215245,5,6,1:2:0:0:
202,259,215407,2,0,P|150:248|107:240,1,90,4|0,3:0|0:0,0:0:0:0:
7,119,215731,2,0,B|111:93|111:93|155:110|155:153,1,180,4|4,3:0|3:0,0:0:0:0:
110,340,216218,37,6,1:2:0:0:
257,378,216380,2,0,P|301:369|345:360,1,90,4|0,3:0|0:0,0:0:0:0:
423,229,216704,2,0,P|339:244|281:175,1,180,4|4,3:0|3:0,0:0:0:0:
479,153,217191,5,0,1:0:0:0:
440,328,217353,1,4,3:0:0:0:
368,160,217515,1,0,1:0:0:0:
370,128,217596,1,0,1:0:0:0:
373,97,217677,1,0,1:0:0:0:
376,65,217758,1,0,1:0:0:0:
379,34,217839,37,6,1:2:0:0:
220,1,218002,2,0,P|199:40|200:90,1,90,4|2,3:0|0:0,0:0:0:0:
291,206,218326,2,0,B|195:187|216:189|102:168,1,180,4|4,3:0|3:0,0:0:0:0:
13,320,218813,5,2,1:2:0:0:
157,370,218975,2,0,P|172:325|155:274,1,90,4|0,3:0|0:0,0:0:0:0:
291,206,219299,2,0,P|358:254|450:217,1,180,4|4,3:0|3:0,0:0:0:0:
442,43,219786,37,2,1:2:0:0:
374,158,219948,1,4,3:0:0:0:
283,2,220110,1,2,1:2:0:0:
215,117,220272,1,4,3:0:0:0:
392,142,220434,5,6,1:2:0:0:
279,231,220596,2,0,P|285:277|291:329,1,90,4|0,3:0|0:0,0:0:0:0:
153,369,220921,2,0,P|112:322|144:199,1,180,4|4,3:0|3:0,3:0:0:0:
257,114,221407,37,2,1:2:0:0:
117,51,221569,2,0,P|51:64|22:70,1,90,4|0,3:0|0:0,0:0:0:0:
148,191,221894,2,0,B|252:172|224:241|327:219,1,180,4|4,3:0|3:0,0:0:0:0:
484,146,222380,5,2,1:2:0:0:
484,146,222461,1,0,1:0:0:0:
484,146,222542,2,0,P|487:113|483:94,1,45,0|0,1:0|0:0,0:0:0:0:
386,22,222704,1,2,1:2:0:0:
355,28,222785,1,0,1:0:0:0:
324,34,222866,1,0,1:0:0:0:
293,40,222947,1,0,1:0:0:0:
262,46,223029,37,6,1:2:0:0:
256,192,223110,12,0,226921,0:0:0:0:
315,150,233030,53,0,3:0:0:0:
330,108,233113,1,0,3:0:0:0:
364,79,233196,1,0,3:0:0:0:
408,71,233280,1,0,3:0:0:0:
450,84,233363,2,0,B|416:115|372:100|372:100|329:86|292:118,1,168.75,12|0,0:0|0:0,0:0:0:0:
242,179,233696,5,4,3:2:0:0:
329,322,233863,1,2,0:3:0:0:
422,187,234030,1,8,0:0:0:0:
378,384,234196,2,0,P|355:338|363:273,1,90,2|0,0:3|3:0,0:0:0:0:
222,184,234530,2,0,P|219:228|198:267,1,90,2|8,0:3|0:0,0:0:0:0:
37,279,234863,85,2,0:3:0:0:
203,174,235030,1,0,3:0:0:0:
30,83,235196,1,2,0:3:0:0:
0,176,235363,2,0,P|41:198|97:199,1,90,8|2,0:0|0:3,0:0:0:0:
212,76,235696,2,0,P|132:104|104:196,1,180,0|8,3:0|0:0,0:0:0:0:
310,159,236196,5,2,0:3:0:0:
421,31,236363,2,0,P|448:73|452:131,1,90,0|2,3:0|0:3,0:0:0:0:
320,143,236696,1,8,0:0:0:0:
432,250,236863,2,0,P|466:195|470:109,1,135,2|0,0:3|0:0,0:0:0:0:
400,86,237196,5,2,0:3:0:0:
310,167,237363,1,8,0:0:0:0:
186,175,237530,2,0,P|196:221|232:263,1,90,2|0,0:3|3:0,0:0:0:0:
330,158,237863,1,2,0:3:0:0:
442,264,238030,2,0,L|352:273,1,90,8|2,0:0|0:3,0:0:0:0:
243,354,238363,1,0,3:0:0:0:
180,219,238530,86,0,L|186:172,1,45,0|0,3:0|0:0,0:0:0:0:
93,258,238696,2,0,L|98:213,1,45,0|0,3:0|0:0,0:0:0:0:
6,297,238863,2,0,L|11:252,1,45,0|0,3:0|0:0,0:0:0:0:
44,68,239030,6,0,P|107:63|153:97,1,112.5,6|2,3:2|0:3,0:0:0:0:
180,219,239280,1,2,0:0:0:0:
180,219,239363,2,0,P|202:163|247:131,1,112.5,10|2,0:0|0:3,0:0:0:0:
399,254,239696,2,0,B|421:273|421:273|334:264,1,112.5,2|2,3:2|0:3,0:0:0:0:
346,161,239946,1,2,0:0:0:0:
346,161,240030,2,0,B|345:117|345:117|356:99|356:99|355:47,1,112.5,10|2,0:0|0:3,0:0:0:0:
454,162,240363,6,0,P|438:215|398:253,1,112.5,2|2,3:2|0:3,0:0:0:0:
273,250,240613,1,2,0:0:0:0:
277,277,240696,1,10,0:0:0:0:
306,302,240780,1,2,0:0:0:0:
302,329,240863,1,2,0:3:0:0:
85,278,241030,86,0,P|104:205|161:251,2,168.75,2|2|2,3:2|0:0|0:3,0:0:0:0:
9,121,241696,6,0,P|43:178|97:166,1,112.5,2|2,3:2|0:3,0:0:0:0:
143,58,241946,1,2,0:0:0:0:
143,58,242030,2,0,P|205:64|266:81,1,112.5,10|2,0:0|0:3,0:0:0:0:
308,240,242363,2,0,P|315:208|328:182,1,56.25,2|0,3:2|0:0,0:0:0:0:
450,202,242530,2,0,P|461:227|466:255,1,56.25,2|2,0:3|0:0,0:0:0:0:
317,169,242696,2,0,L|438:158,1,112.5,8|2,0:0|0:3,0:0:0:0:
264,64,243030,5,0,3:0:0:0:
222,318,243196,1,0,3:0:0:0:
154,97,243363,1,0,3:0:0:0:
331,269,243530,1,0,3:0:0:0:
80,195,243696,1,0,3:0:0:0:
378,149,243863,85,0,3:0:0:0:
378,149,243946,1,0,3:0:0:0:
378,149,244030,2,0,P|414:193|413:251,1,112.5,0|2,3:0|0:0,0:0:0:0:
288,292,244363,5,6,3:2:0:0:
288,292,244446,1,2,0:0:0:0:
288,292,244530,2,0,L|159:277,1,112.5,2|8,0:3|0:0,0:0:0:0:
85,183,244863,1,2,0:3:0:0:
19,322,245030,2,0,B|126:315|126:315|181:275,2,168.75,2|2|2,3:2|0:0|0:3,0:0:0:0:
71,199,245696,6,0,L|65:142,1,56.25,2|2,3:2|0:0,0:0:0:0:
193,180,245863,2,0,L|187:235,1,56.25,2|2,0:3|0:0,0:0:0:0:
50,125,246029,2,0,P|93:94|159:88,1,112.5,8|2,0:0|0:3,0:0:0:0:
210,190,246363,2,0,L|275:184,1,56.25,2|2,3:2|0:0,0:0:0:0:
367,135,246529,2,0,L|478:150,2,112.5,2|8|2,0:3|0:0|0:3,0:0:0:0:
374,278,247029,85,2,3:2:0:0:
266,184,247196,2,0,P|256:123|280:66,1,112.5,2|8,0:3|0:0,0:0:0:0:
381,149,247529,1,2,0:3:0:0:
381,149,247613,1,2,0:0:0:0:
381,149,247696,2,0,L|388:266,1,112.5,2|2,3:2|0:3,0:0:0:0:
214,321,248029,2,0,L|221:204,1,112.5,10|2,0:0|0:3,0:0:0:0:
297,86,248363,5,0,3:0:0:0:
79,159,248529,1,0,3:0:0:0:
344,232,248696,1,0,3:0:0:0:
180,34,248863,1,0,3:0:0:0:
223,309,249029,6,0,P|272:273|287:199,1,135,0|0,3:0|0:0,0:0:0:0:
224,135,249363,2,0,P|206:84|166:53,1,101.250003862381,0|0,3:0|0:0,0:0:0:0:
81,112,249696,86,0,P|127:66|99:123,1,180,6|0,3:2|3:0,0:0:0:0:
25,237,250196,1,2,0:0:0:0:
47,234,250279,1,2,0:0:0:0:
69,231,250363,1,2,3:2:0:0:
152,325,250529,1,2,0:0:0:0:
215,158,250696,1,0,3:0:0:0:
371,299,250863,5,8,0:0:0:0:
349,296,250946,1,8,0:0:0:0:
327,293,251029,2,0,B|276:284|276:284|256:261|256:261|202:252,1,135,12|0,0:0|0:0,0:0:0:0:
128,288,251363,1,0,3:0:0:0:
88,124,251529,1,2,0:0:0:0:
36,352,251696,1,0,3:0:0:0:
0,81,251863,1,0,3:0:0:0:
0,81,252029,2,0,P|51:36|140:39,1,135,0|0,3:0|0:0,0:0:0:0:
157,108,252363,5,4,3:2:0:0:
256,192,252529,12,0,253529,0:0:0:0:
157,108,253696,85,0,3:0:0:0:
194,132,253779,1,0,3:0:0:0:
237,144,253863,1,0,3:0:0:0:
281,136,253946,1,0,3:0:0:0:
319,112,254029,1,0,3:0:0:0:
356,87,254113,1,0,3:0:0:0:
400,77,254196,1,0,3:0:0:0:
443,86,254279,1,0,3:0:0:0:
482,108,254363,5,0,3:0:0:0:
243,47,255029,5,6,3:2:0:0:
292,282,255196,1,2,0:3:0:0:
350,95,255363,1,10,0:0:0:0:
208,326,255529,2,0,P|159:283|154:214,1,135.000005149842,2|2,0:3|3:2,0:0:0:0:
390,282,255863,1,2,0:3:0:0:
174,231,256029,1,10,0:0:0:0:
337,164,256196,1,2,0:3:0:0:
147,72,256363,85,2,3:2:0:0:
217,309,256529,1,2,0:3:0:0:
284,91,256696,1,10,0:0:0:0:
426,201,256863,2,0,P|376:242|302:253,1,135.000005149842,2|2,0:3|3:2,0:0:0:0:
206,149,257196,1,2,0:3:0:0:
311,42,257363,2,0,B|341:69|341:69|336:171,2,135.000005149842,10|2|2,0:0|0:3|3:2,0:0:0:0:
206,149,257863,5,2,0:3:0:0:
426,201,258029,1,10,0:0:0:0:
144,297,258196,1,2,0:3:0:0:
295,279,258363,1,2,3:2:0:0:
205,79,258529,2,0,B|169:90|134:72|134:72|98:54|60:70,1,135.000005149842,2|10,0:3|0:0,0:0:0:0:
46,231,258863,6,0,P|128:220|60:154,1,202.500007724762,2|0,0:3|0:0,0:0:0:0:
0,160,259196,1,2,0:3:0:0:
90,47,259363,1,10,0:0:0:0:
145,253,259529,2,0,P|200:294|281:281,1,135.000005149842,2|2,0:3|3:2,0:0:0:0:
346,148,259863,1,2,0:3:0:0:
399,341,260029,85,8,0:0:0:0:
438,359,260113,1,8,0:0:0:0:
477,340,260196,1,8,0:0:0:0:
486,298,260279,1,8,0:0:0:0:
459,264,260363,6,0,P|397:241|319:238,1,135.000005149842,10|2,3:2|0:3,0:0:0:0:
212,335,260696,1,10,0:0:0:0:
71,281,260863,2,0,P|34:220|37:147,1,135.000005149842,2|2,0:3|3:2,0:0:0:0:
188,88,261196,1,2,0:3:0:0:
229,323,261363,1,10,0:0:0:0:
319,164,261529,1,2,0:3:0:0:
9,229,261696,5,2,3:2:0:0:
343,278,261863,1,2,0:3:0:0:
175,104,262029,1,10,0:0:0:0:
128,355,262196,2,0,P|191:331|210:263,1,135.000005149842,2|2,0:3|3:2,0:0:0:0:
54,181,262529,1,2,0:3:0:0:
273,106,262696,1,10,0:0:0:0:
23,68,262863,1,2,0:3:0:0:
283,8,263029,86,0,B|315:39|315:39|323:99|323:99|303:133|313:174|343:201,1,202.500007724762,2|0,3:2|0:0,0:0:0:0:
412,226,263363,1,14,0:0:0:0:
205,167,263529,1,2,0:3:0:0:
429,134,263696,1,2,3:2:0:0:
463,310,263863,1,2,0:3:0:0:
304,91,264029,1,14,0:0:0:0:
269,273,264196,1,2,0:3:0:0:
511,214,264363,5,0,3:0:0:0:
124,145,264529,1,0,3:0:0:0:
502,198,264696,1,0,3:0:0:0:
115,162,264863,2,0,B|109:199|109:199|131:231,2,67.5000025749208
295,116,265196,5,0,3:0:0:0:
300,137,265279,1,0,3:0:0:0:
306,158,265363,1,8,0:0:0:0:
270,133,265446,1,8,0:0:0:0:
270,89,265529,1,8,0:0:0:0:
305,64,265613,1,8,0:0:0:0:
346,79,265696,86,0,B|299:98|260:49|260:49|222:0|169:23,1,202.500007724762,12|0,0:0|0:0,0:0:0:0:
115,89,266029,1,8,0:0:0:0:
336,64,266196,1,2,0:0:0:0:
260,190,266363,2,0,B|222:238|222:238|196:95,1,202.500007724762,0|0,3:0|0:0,0:0:0:0:
179,19,266696,1,8,0:0:0:0:
58,174,266863,2,0,P|34:243|131:210,1,202.500007724762,2|0,0:0|0:0,0:0:0:0:
218,175,267196,2,0,P|159:184|177:254,1,135.000005149842,2|8,0:0|0:0,0:0:0:0:
358,199,267529,5,2,0:0:0:0:
213,155,267696,2,0,B|243:120|247:61|247:61|257:120|290:164,1,202.500007724762,0|0,3:0|0:0,0:0:0:0:
247,231,268029,1,8,0:0:0:0:
439,177,268196,2,0,P|463:246|366:213,1,202.500007724762,2|0,0:0|0:0,0:0:0:0:
279,178,268529,2,0,P|338:187|320:257,1,135.000005149842,2|8,0:0|0:0,0:0:0:0:
154,199,268863,5,2,0:0:0:0:
361,154,269029,1,0,3:0:0:0:
161,70,269196,1,2,0:0:0:0:
145,215,269363,1,8,0:0:0:0:
342,55,269529,2,0,B|374:85|374:85|389:190,1,135.000005149842,2|0,0:0|3:0,0:0:0:0:
288,292,269863,85,2,0:0:0:0:
173,58,270029,1,8,0:0:0:0:
106,312,270196,1,2,0:0:0:0:
69,130,270363,1,0,3:0:0:0:
349,174,270529,1,2,0:0:0:0:
40,249,270696,5,8,0:0:0:0:
15,284,270779,1,8,0:0:0:0:
29,325,270863,1,8,0:0:0:0:
71,337,270946,1,8,0:0:0:0:
105,311,271029,6,0,B|141:291|173:311|173:311|206:329|255:311|255:311|218:309|197:292,1,202.500007724762,12|0,0:0|0:0,0:0:0:0:
180,222,271363,1,8,0:0:0:0:
416,170,271529,1,2,0:0:0:0:
363,289,271696,2,0,B|361:311|348:337|348:337|349:297|335:260|309:234|270:219,1,202.500007724762,0|0,3:0|0:0,0:0:0:0:
180,222,272029,1,8,0:0:0:0:
16,163,272196,2,0,B|-6:137|-6:137|68:131|68:131|89:139|89:139|162:131,1,202.500007724762,2|0,0:0|0:0,0:0:0:0:
169,24,272529,2,0,P|103:53|93:113,1,135.000005149842,2|8,0:0|0:0,0:0:0:0:
256,87,272863,85,2,0:0:0:0:
299,245,273029,2,0,B|323:279|323:279|334:209|334:209|325:187|325:187|336:115,1,202.500007724762,0|0,3:0|0:0,0:0:0:0:
351,40,273363,1,8,0:0:0:0:
496,163,273529,2,0,B|518:137|518:137|444:131|444:131|423:139|423:139|350:131,1,202.500007724762,2|0,0:0|0:0,0:0:0:0:
343,24,273863,2,0,P|409:53|419:113,1,135.000005149842,2|8,0:0|0:0,0:0:0:0:
275,184,274196,6,0,P|280:262|306:335,1,135,2|0,0:0|0:0,0:0:0:0:
380,330,274529,1,8,0:0:0:0:
105,222,274696,1,8,0:0:0:0:
405,122,274863,1,8,0:0:0:0:
95,205,275029,5,0,3:0:0:0:
256,192,276363,12,0,280363,0:0:0:0:
174,277,286882,6,0,L|71:261,2,90,2|2|2,0:0|0:0|0:0,0:0:0:0:
335,356,287525,6,0,P|386:307|388:208,1,135.000005149842,4|0,3:0|0:0,0:0:0:0:
302,173,287847,1,2,0:0:0:0:
179,231,287954,2,0,B|238:238|238:238|253:253|253:253|317:264,1,135.000005149842,10|0,0:0|0:0,0:0:0:0:
413,231,288275,1,0,0:0:0:0:
501,216,288382,38,0,P|500:183|482:148,1,67.5000025749208,0|0,3:0|0:0,0:0:0:0:
364,92,288597,1,0,3:0:0:0:
399,215,288704,1,2,3:2:0:0:
489,130,288811,2,0,P|447:89|371:79,1,135.000005149842,10|0,0:0|0:0,0:0:0:0:
302,173,289132,53,0,0:0:0:0:
267,25,289239,2,0,L|283:219,1,180,2|0,3:2|0:0,0:0:0:0:
281,204,289668,6,0,L|201:194,1,67.5000025749208,10|0,0:0|0:0,0:0:0:0:
286,35,289882,2,0,L|366:25,1,67.5000025749208,2|0,0:0|0:0,0:0:0:0:
415,158,290097,2,0,B|430:195|430:195|412:294,1,135.000005149842,2|0,3:2|3:0,0:0:0:0:
302,337,290418,1,2,3:2:0:0:
266,217,290525,2,0,L|348:208,3,67.5000025749208,10|0|0|0,0:0|0:0|0:0|0:0,0:0:0:0:
207,138,290954,38,0,L|139:130,1,67.5000025749208,2|0,3:2|0:0,0:0:0:0:
142,279,291168,2,0,L|74:286,1,67.5000025749208,2|0,0:0|0:0,0:0:0:0:
16,93,291382,2,0,L|23:19,1,67.5000025749208,10|0,0:0|0:0,0:0:0:0:
43,18,291597,1,0,0:0:0:0:
125,146,291704,1,2,0:0:0:0:
155,264,291811,2,0,L|138:122,1,135.000005149842,0|2,3:0|0:0,0:0:0:0:
366,104,292239,54,0,P|305:62|226:63,1,135.000005149842,10|0,0:0|0:0,0:0:0:0:
270,172,292561,1,2,0:0:0:0:
362,125,292668,2,0,P|375:161|371:202,1,67.5000025749208,2|0,3:2|0:0,0:0:0:0:
326,278,292954,2,0,P|382:223|362:297,1,202.500007724762,2|2,0:0|0:0,0:0:0:0:
363,298,293347,1,0,0:0:0:0:
211,187,293525,6,0,B|184:171|184:171|200:279,1,135.000005149842,6|0,3:2|0:0,0:0:0:0:
125,318,293847,1,0,0:0:0:0:
75,138,293954,2,0,B|102:122|102:122|86:230,1,135.000005149842,14|0,0:2|0:0,0:0:0:0:
110,329,294275,1,0,0:0:0:0:
288,243,294382,37,4,3:0:0:0:
288,243,294597,54,0,L|297:320,1,67.5000025749208,0|0,3:0|0:0,0:0:0:0:
351,151,294811,2,0,L|358:83,1,67.5000025749208,0|0,3:0|0:0,0:0:0:0:
232,170,295025,2,0,L|164:177,1,67.5000025749208,0|0,3:0|0:0,0:0:0:0:
407,224,295239,2,0,L|474:216,1,67.5000025749208,8|0,0:0|0:0,0:0:0:0:
376,75,295454,5,0,3:0:0:0:
289,59,295561,1,0,3:0:0:0:
202,43,295668,2,0,L|129:51,1,67.5000025749208,0|0,3:0|0:0,0:0:0:0:
109,245,295882,2,0,L|182:237,1,67.5000025749208,0|0,3:0|0:0,0:0:0:0:
215,54,296097,37,0,3:0:0:0:
156,156,296204,1,0,3:0:0:0:
259,215,296311,1,0,3:0:0:0:
318,113,296418,1,0,3:0:0:0:
225,114,296525,53,0,3:0:0:0:
216,146,296632,1,0,3:0:0:0:
248,155,296739,1,0,3:0:0:0:
258,122,296847,1,0,3:0:0:0:
237,134,296954,6,0,P|215:129|196:135,1,33.7500012874604,0|0,3:0|3:0,3:0:0:0:
203,117,297061,2,0,P|181:124|167:138,1,33.7500012874604,0|0,3:0|3:0,3:0:0:0:
158,116,297168,2,0,P|143:133|138:152,1,33.7500012874604,0|0,3:0|3:0,3:0:0:0:
111,151,297275,2,0,P|107:173|112:191,1,33.7500012874604,0|0,3:0|3:0,3:0:0:0:
92,225,297382,2,0,P|99:246|113:260,1,33.7500012874604,0|0,3:0|3:0,3:0:0:0:
119,303,297489,2,0,P|136:317|155:322,1,33.7500012874604,0|0,3:0|3:0,3:0:0:0:
194,355,297597,2,0,P|216:359|235:354,1,33.7500012874604,0|0,3:0|3:0,3:0:0:0:
303,370,297704,2,0,P|324:362|338:348,1,33.7500012874604,0|0,3:0|3:0,3:0:0:0:
433,317,297811,38,0,P|445:271|441:224,1,90,0|0,3:0|0:0,0:0:0:0:
348,131,298882,53,0,3:0:0:0:
349,125,298954,1,0,3:0:0:0:
350,119,299025,1,0,3:0:0:0:
351,113,299097,2,0,B|290:161|290:161|379:156|379:156|404:140|404:140|488:135,1,270,4|0,3:2|0:0,0:0:0:0:
442,229,299525,6,0,P|465:262|477:318,1,67.5000025749208,4|0,3:1|0:0,0:0:0:0:
349,374,299739,2,0,P|362:343|367:310,1,67.5000025749208,2|0,0:0|0:0,0:0:0:0:
157,286,299954,2,0,B|183:321|183:321|304:309,1,135.000005149842,8|2,0:0|0:0,0:0:0:0:
312,105,300382,2,0,B|272:83|272:83|284:142|284:142|301:162|301:162|314:232,1,202.500007724762,0|0,3:0|0:0,0:0:0:0:
224,217,300811,1,8,0:0:0:0:
56,142,301025,38,0,B|75:96|57:44|57:44|84:91|139:96,1,202.500007724762,2|0,0:0|0:0,0:0:0:0:
254,63,301454,2,0,P|241:106|207:133,1,67.5000025749208,2|0,0:0|0:0,0:0:0:0:
241,229,301668,2,0,P|201:250|158:245,1,67.5000025749208,8|0,0:0|0:0,0:0:0:0:
114,337,301882,2,0,P|71:324|44:290,1,67.5000025749208,2|0,0:0|0:0,0:0:0:0:
56,142,302097,53,8,0:0:0:0:
141,117,302204,1,0,3:0:0:0:
76,131,302311,1,8,0:0:0:0:
120,129,302418,1,0,3:0:0:0:
85,19,302525,2,0,P|88:87|108:154,1,135.000005149842,8|2,0:0|0:0,0:0:0:0:
264,217,302954,6,0,P|261:285|241:352,1,135.000005149842,4|8,3:2|0:0,0:0:0:0:
242,348,303597,1,2,0:0:0:0:
362,140,303811,2,0,P|376:250|418:330,1,202.500007724762,0|0,3:0|0:0,0:0:0:0:
502,346,304239,1,8,0:0:0:0:
350,230,304454,38,0,P|344:119|372:33,1,202.500007724762,2|0,0:0|0:0,0:0:0:0:
451,69,304882,2,0,P|424:89|385:100,1,67.5000025749208,2|0,0:0|0:0,0:0:0:0:
448,212,305097,2,0,P|414:207|379:187,1,67.5000025749208,8|0,0:0|0:0,0:0:0:0:
344,310,305311,2,0,P|323:283|312:244,1,67.5000025749208,2|0,0:0|0:0,0:0:0:0:
374,87,305525,53,8,0:0:0:0:
284,59,305632,1,0,3:0:0:0:
352,73,305739,1,8,0:0:0:0:
305,72,305847,1,0,3:0:0:0:
338,0,305954,2,0,P|341:33|331:72,1,67.5000025749208,8|0,0:0|0:0,0:0:0:0:
356,171,306168,2,0,P|335:197|300:218,1,67.5000025749208,2|0,0:0|0:0,0:0:0:0:
205,151,306382,6,0,B|145:146|145:146|126:136|126:136|68:132,1,135.000005149842,4|8,3:2|0:0,0:0:0:0:
255,305,307025,2,0,B|167:297|167:297|147:308|147:308|57:300,1,202.500007724762,2|0,0:0|0:0,0:0:0:0:
93,221,307454,2,0,P|115:255|119:290,1,67.5000025749208,2|0,0:0|0:0,0:0:0:0:
228,155,307668,2,0,P|223:188|205:217,1,67.5000025749208,8|0,0:0|0:0,0:0:0:0:
339,270,307882,2,0,P|320:241|315:208,1,67.5000025749208,2|0,0:0|0:0,0:0:0:0:
512,149,308096,38,0,B|492:184|492:184|310:196,1,202.500007724762,0|0,3:0|0:0,0:0:0:0:
408,84,308525,2,0,P|423:112|425:151,1,67.5000025749208,8|0,0:0|0:0,0:0:0:0:
319,178,308739,2,0,P|304:150|302:111,1,67.5000025749208,10|0,0:0|0:0,0:0:0:0:
416,66,308954,53,8,0:0:0:0:
338,32,309061,1,0,3:0:0:0:
286,99,309168,2,0,P|285:133|296:172,1,67.5000025749208,8|0,0:0|0:0,0:0:0:0:
434,271,309382,2,0,P|371:251|294:250,1,135.000005149842,8|2,0:0|0:0,0:0:0:0:
165,309,309811,6,0,L|92:303,1,67.5000025749208,4|0,3:2|0:0,0:0:0:0:
202,223,310025,2,0,L|134:217,1,67.5000025749208,2|0,0:0|0:0,0:0:0:0:
45,139,310239,2,0,L|118:133,1,67.5000025749208,8|0,0:0|0:0,0:0:0:0:
8,53,310454,2,0,L|75:47,1,67.5000025749208,2|0,0:0|0:0,0:0:0:0:
240,59,310668,37,8,0:0:0:0:
221,141,310775,1,0,3:0:0:0:
202,223,310882,2,0,L|134:228,1,67.5000025749208,8|0,0:0|0:0,0:0:0:0:
75,336,311096,2,0,L|142:341,1,67.5000025749208,8|0,0:0|0:0,0:0:0:0:
219,210,311311,2,0,L|286:204,1,67.5000025749208,2|0,0:0|0:0,0:0:0:0:
293,377,311525,54,0,B|356:382|356:382|412:361|412:361|472:370,1,180,4|2,3:2|0:0,0:0:0:0:
461,282,311846,1,2,0:0:0:0:
452,195,311954,2,0,P|430:232|424:269,1,67.5000025749208,2|0,0:0|0:0,0:0:0:0:
315,231,312168,2,0,P|325:272|347:303,1,67.5000025749208,2|0,0:0|0:0,0:0:0:0:
431,184,312382,5,4,3:2:0:0:
128,83,312596,1,4,3:2:0:0:
313,342,312811,1,4,3:2:0:0:
315,23,313025,1,4,3:2:0:0:
126,279,313239,38,0,P|194:249|273:245,1,135.000005149842,4|8,3:1|0:0,0:0:0:0:
128,83,313882,2,0,P|218:136|320:138,1,202.500007724762,2|0,0:0|0:0,0:0:0:0:
296,59,314311,2,0,P|277:80|263:116,1,67.5000025749208,2|0,0:0|0:0,0:0:0:0:
164,153,314525,2,0,P|165:181|180:216,1,67.5000025749208,8|0,0:0|0:0,0:0:0:0:
350,217,314739,1,2,0:0:0:0:
350,217,314954,54,0,B|290:211|265:262|265:262|241:311|184:306,1,202.500007724762,0|0,3:0|0:0,0:0:0:0:
118,254,315382,2,0,P|161:314|166:385,1,135.000005149842,8|2,0:0|0:0,0:0:0:0:
345,299,315811,5,8,0:0:0:0:
259,275,315918,1,0,3:0:0:0:
324,287,316025,1,8,0:0:0:0:
279,286,316132,1,0,3:0:0:0:
350,193,316239,2,0,P|307:253|302:324,1,135.000005149842,8|2,0:0|0:0,0:0:0:0:
467,178,316668,38,0,L|321:169,1,135.000005149842,4|8,3:2|0:0,0:0:0:0:
390,335,317311,1,2,0:0:0:0:
322,183,317525,53,8,0:0:0:0:
351,104,317632,1,0,3:0:0:0:
380,25,317739,2,0,P|397:66|398:102,1,67.5000025749208,8|0,0:0|0:0,0:0:0:0:
271,239,317954,2,0,P|283:118|395:165,1,270,12|0,0:0|0:0,0:0:0:0:
322,183,318382,6,0,L|291:190,1,22.5,4|0,3:2|0:0,0:0:0:0:
291,150,318489,2,0,L|267:171,1,22.5
249,137,318596,2,0,L|239:167,1,22.5,2|0,0:0|0:0,0:0:0:0:
205,146,318704,2,0,L|211:177,1,22.5
170,174,318811,2,0,L|165:152,1,22.5,0|0,1:0|0:0,0:0:0:0:
139,207,318918,2,0,L|115:185,1,22.5
97,220,319025,2,0,L|87:189,1,22.5,2|0,0:0|0:0,0:0:0:0:
53,211,319132,2,0,L|59:180,1,22.5
23,176,319239,37,4,3:2:0:0:
331,59,319454,1,4,3:2:0:0:
152,335,319668,1,4,3:2:0:0:
135,7,319882,1,4,3:2:0:0:
341,261,320096,53,4,3:2:0:0:
341,261,320311,5,0,3:0:0:0:
342,255,320382,1,0,3:0:0:0:
343,249,320454,1,0,3:0:0:0:
344,243,320525,2,0,P|272:253|217:211,1,135.000005149842,4|2,3:3|0:0,0:0:0:0:
388,128,320954,1,0,3:0:0:0:
424,359,321168,2,0,P|447:331|457:295,1,67.5000025749208,2|0,0:0|0:0,0:0:0:0:
344,243,321382,2,0,P|340:206|322:174,1,67.5000025749208,8|0,0:0|0:0,0:0:0:0:
205,217,321596,2,0,P|177:193|141:184,1,67.5000025749208,2|0,0:0|0:0,0:0:0:0:
108,348,321811,38,0,L|254:331,1,135.000005149842,4|8,3:2|0:0,0:0:0:0:
290,151,322454,2,0,L|362:159,1,67.5000025749208,2|0,0:0|0:0,0:0:0:0:
480,278,322668,53,8,0:0:0:0:
392,294,322775,1,0,3:0:0:0:
458,287,322882,1,8,0:0:0:0:
413,284,322989,1,0,3:0:0:0:
418,363,323096,2,0,P|434:331|438:298,1,67.5000025749208,8|0,0:0|0:0,0:0:0:0:
399,204,323311,2,0,P|387:170|367:143,1,67.5000025749208,2|0,0:0|0:0,0:0:0:0:
232,209,323525,6,0,B|172:211|172:211|153:228|153:228|88:232,1,135.000005149842,4|8,3:2|0:0,0:0:0:0:
103,231,324168,1,2,0:0:0:0:
44,38,324382,37,8,0:0:0:0:
121,6,324489,1,0,3:0:0:0:
186,57,324596,2,0,L|192:137,1,67.5000025749208,8|0,0:0|0:0,0:0:0:0:
103,231,324811,2,0,L|99:373,1,135.000005149842,8|2,0:0|0:0,0:0:0:0:
318,339,325239,54,0,P|367:263|369:158,1,180,0|0,3:0|0:0,0:0:0:0:
277,144,325668,2,0,P|228:220|226:325,1,180,0|0,3:0|0:0,0:0:0:0:
349,273,326096,6,0,P|352:230|333:187,1,90,2|0,3:2|0:0,0:0:0:0:
247,200,326311,2,0,P|244:243|263:286,1,90,2|0,3:2|0:0,0:0:0:0:
298,237,326739,37,0,3:0:0:0:
297,242,326811,1,0,3:0:0:0:
296,247,326882,1,0,3:0:0:0:
295,252,326954,1,0,3:0:0:0:
256,192,327168,12,0,330382,0:0:0:0:
111,35,336761,6,0,L|270:45,1,144,4|0,2:1|0:0,0:0:0:0:
428,131,337292,2,0,L|269:141,1,144,8|0,0:0|0:0,0:0:0:0:
111,227,337823,5,4,2:1:0:0:
158,230,337955,1,8,0:0:0:0:
206,233,338088,1,8,3:0:0:0:
254,236,338221,1,8,3:0:0:0:
387,297,338487,1,8,3:0:0:0:
398,250,338620,1,8,3:0:0:0:
449,60,338885,54,0,L|473:204,1,144,4|0,2:1|0:0,0:0:0:0:
328,335,339416,2,0,L|351:192,1,144,8|0,0:0|0:0,0:0:0:0:
371,6,339947,37,4,2:1:0:0:
294,71,340213,2,0,L|213:60,2,72,2|2|2,0:0|0:0|0:0,0:0:0:0:
371,6,340744,1,2,0:0:0:0:
247,143,341009,6,0,P|224:213|275:276,1,144,4|0,2:1|3:0,0:0:0:0:
446,174,341540,2,0,L|304:199,1,144,8|0,0:0|3:0,0:0:0:0:
117,293,342071,2,0,L|258:267,1,144,8|0,0:0|3:0,0:0:0:0:
305,200,342602,1,8,0:0:0:0:
247,143,342868,53,0,3:0:0:0:
247,143,343133,2,0,P|230:86|233:45,1,72,4|0,0:0|0:0,0:0:0:0:
375,25,343399,1,8,0:0:0:0:
382,105,343531,1,8,0:0:0:0:
309,71,343664,38,0,L|318:-9,1,72,4|8,3:0|0:0,0:0:0:0:
294,223,343930,2,0,L|303:143,1,72,4|8,3:0|0:0,0:0:0:0:
279,375,344195,6,0,P|259:298|221:258,1,121.499996292114,2|0,0:0|0:0,0:0:0:0:
176,247,344461,2,0,P|252:268|306:255,1,121.499996292114,2|0,0:0|0:0,0:0:0:0:
338,221,344726,54,0,P|281:276|267:332,1,124.42500303772,6|0,0:0|0:0,0:0:0:0:
380,240,345257,38,0,P|400:176|365:105,1,135,6|0,3:2|0:0,0:0:0:0:
302,77,345522,2,0,P|238:97|167:62,1,135
98,43,345788,6,0,L|116:189,1,135,10|0,0:0|0:0,0:0:0:0:
193,206,346053,2,0,L|176:72,1,135,2|0,0:0|0:0,0:0:0:0:
66,30,346319,53,2,3:2:0:0:
66,30,346452,2,0,P|25:68|36:131,1,90,0|0,3:0|0:0,0:0:0:0:
114,176,346717,1,0,0:0:0:0:
176,72,346850,38,0,P|243:80|303:124,1,135,10|0,0:0|0:0,0:0:0:0:
379,105,347115,2,0,P|312:113|252:157,1,135,2|0,0:0|0:0,0:0:0:0:
204,217,347381,6,0,L|221:321,1,90,2|0,3:2|0:0,0:0:0:0:
374,317,347646,1,0,0:0:0:0:
413,225,347779,1,0,0:0:0:0:
314,238,347912,54,0,P|245:257|202:206,1,135,10|0,0:0|0:0,0:0:0:0:
220,136,348177,2,0,P|289:117|332:168,1,135,2|0,0:0|0:0,0:0:0:0:
413,225,348443,37,2,3:2:0:0:
413,225,348576,2,0,P|424:173|417:124,1,90,0|0,3:0|0:0,0:0:0:0:
337,52,348841,1,0,3:0:0:0:
204,216,348974,2,0,P|149:177|270:97,1,270,8|0,0:0|0:0,0:0:0:0:
235,234,349505,6,0,P|166:256|107:251,1,90,10|0,0:0|0:0,0:0:0:0:
213,143,349770,1,0,0:0:0:0:
235,234,349903,1,0,0:0:0:0:
257,325,350036,54,0,P|188:347|129:342,1,90,10|0,0:0|0:0,0:0:0:0:
235,234,350301,1,0,0:0:0:0:
257,325,350434,1,0,0:0:0:0:
325,261,350567,38,0,L|393:173,1,90,10|0,0:0|3:0,0:0:0:0:
303,126,350832,1,0,0:0:0:0:
380,189,350965,1,0,0:0:0:0:
456,251,351098,6,0,L|400:322,1,90,10|0,0:0|0:0,0:0:0:0:
325,261,351363,2,0,L|393:173,1,90
494,87,351629,54,0,P|423:101|358:64,1,135,10|0,0:0|0:0,0:0:0:0:
303,126,351894,2,0,P|242:99|177:114,1,135,2|0,0:0|0:0,0:0:0:0:
99,89,352160,37,8,0:0:0:0:
115,167,352292,1,0,0:0:0:0:
131,246,352425,1,0,0:0:0:0:
148,325,352558,1,0,0:0:0:0:
148,325,352691,6,0,P|229:295|277:308,1,135,2|0,3:2|0:0,0:0:0:0:
194,206,352956,2,0,P|179:291|144:326,1,135,2|0,0:0|0:0,0:0:0:0:
273,306,353222,2,0,P|206:250|193:202,1,135,10|0,0:0|0:0,0:0:0:0:
190,121,353487,1,2,3:2:0:0:
270,160,353620,1,0,3:2:0:0:
115,167,353753,54,0,P|104:112|150:42,1,135,6|0,0:0|0:0,0:0:0:0:
190,121,354018,2,0,P|245:110|315:156,1,135
322,230,354284,38,0,L|462:210,1,135,10|0,0:0|0:0,0:0:0:0:
386,260,354549,2,0,L|246:240,1,135,2|0,0:0|0:0,0:0:0:0:
172,228,354814,5,2,3:2:0:0:
172,228,354947,2,0,L|195:330,1,90,0|0,3:0|0:0,0:0:0:0:
77,198,355213,1,0,0:0:0:0:
189,124,355345,54,0,B|230:142|230:142|332:124,1,135,10|0,3:2|0:0,0:0:0:0:
273,57,355611,2,0,B|361:41|361:41|402:59,1,135,2|0,0:0|0:0,0:0:0:0:
462,114,355876,38,0,P|477:167|465:205,1,90,2|0,3:2|0:0,0:0:0:0:
291,279,356142,1,0,0:0:0:0:
343,207,356275,1,0,0:0:0:0:
409,269,356407,6,0,B|410:368|410:368|376:312,1,135,10|0,3:2|0:0,0:0:0:0:
325,275,356673,2,0,B|324:176|324:176|358:232,1,135,2|0,0:0|0:0,0:0:0:0:
252,231,356938,53,2,3:2:0:0:
252,231,357071,2,0,P|202:221|157:182,1,90,0|0,3:0|0:0,0:0:0:0:
91,121,357337,1,0,3:0:0:0:
281,58,357469,2,0,P|372:68|317:210,1,270,8|0,0:0|0:0,0:0:0:0:
319,129,358000,38,0,P|273:121|205:139,1,90,2|0,3:2|0:0,0:0:0:0:
82,271,358266,6,0,L|101:180,1,90,2|0,0:0|0:0,0:0:0:0:
136,16,358531,2,0,L|155:107,1,90,10|0,0:0|0:0,0:0:0:0:
190,271,358797,2,0,L|209:180,1,90,2|0,0:0|0:0,0:0:0:0:
244,16,359062,53,2,3:2:0:0:
244,16,359195,2,0,P|300:18|345:46,1,90,0|0,3:0|0:0,0:0:0:0:
408,116,359461,1,0,0:0:0:0:
408,116,359594,2,0,P|352:118|307:146,1,90,10|0,0:0|0:0,0:0:0:0:
244,216,359859,2,0,P|300:218|345:246,1,90
442,324,360124,38,0,B|285:283|350:379|146:324,1,270,14|0,0:0|0:0,0:0:0:0:
78,189,360655,6,0,P|155:140|242:276,1,270,14|0,0:0|0:0,0:0:0:0:
41,296,361186,53,14,0:0:0:0:
159,236,361319,1,0,3:0:0:0:
14,173,361452,38,0,P|7:123|18:49,1,90,2|2,0:0|3:2,0:0:0:0:
121,156,361717,2,0,P|139:109|186:50,1,90,10|2,0:0|0:0,0:0:0:0:
222,194,361983,2,0,P|261:162|331:135,1,90,2|2,3:2|3:2,0:0:0:0:
466,124,362248,5,6,3:2:0:0:
466,124,362381,2,0,L|453:213,1,90,2|0,0:0|0:0,0:0:0:0:
332,332,362646,1,2,0:0:0:0:
332,332,362779,2,0,L|345:243,1,90,10|0,3:2|0:0,0:0:0:0:
375,57,363045,53,2,0:0:0:0:
290,73,363177,2,0,P|341:52|376:57,1,90,2|0,0:0|3:0,0:0:0:0:
232,140,363443,1,2,3:2:0:0:
121,37,363576,2,0,P|135:138|142:234,1,180,2|8,0:0|0:0,0:0:0:0:
35,165,363974,1,0,0:0:0:0:
140,217,364107,1,0,0:0:0:0:
232,140,364239,1,0,0:0:0:0:
337,192,364372,38,0,P|398:118|270:24,1,270,2|0,3:2|0:0,0:0:0:0:
43,108,364903,6,0,B|175:146|175:60|308:107,1,270,10|0,3:2|0:0,0:0:0:0:
392,267,365434,54,0,P|350:285|281:261,1,90,10|0,3:2|3:0,0:0:0:0:
209,201,365699,2,0,L|226:376,1,135,0|0,3:0|0:0,0:0:0:0:
222,335,365965,37,8,0:0:0:0:
132,340,366098,1,0,0:0:0:0:
67,277,366230,1,0,3:0:0:0:
61,186,366363,1,0,0:0:0:0:
118,116,366496,5,2,3:2:0:0:
118,116,366629,2,0,P|166:125|218:138,1,90,2|0,0:0|0:0,0:0:0:0:
328,210,366894,1,2,0:0:0:0:
328,210,367027,2,0,P|280:219|228:232,1,90,10|0,3:2|3:0,0:0:0:0:
67,277,367292,53,2,0:0:0:0:
82,361,367425,2,0,P|62:318|74:263,1,90,2|0,0:0|3:0,0:0:0:0:
141,204,367691,1,2,3:2:0:0:
237,333,367823,2,0,L|433:303,1,180,2|8,0:0|0:0,0:0:0:0:
503,225,368222,1,0,0:0:0:0:
402,161,368354,1,0,0:0:0:0:
490,80,368487,1,0,0:0:0:0:
308,44,368620,38,0,P|325:126|326:234,1,180,14|0,0:0|0:0,0:0:0:0:
237,333,369018,1,0,0:0:0:0:
74,207,369151,2,0,B|116:180|116:180|253:200,1,180,14|0,0:0|0:0,0:0:0:0:
146,278,369549,1,0,0:0:0:0:
45,125,369682,5,14,0:0:0:0:
45,125,369814,2,0,P|26:88|29:25,1,90,0|0,3:0|0:0,0:0:0:0:
190,9,370080,1,0,3:0:0:0:
190,9,370212,2,0,P|209:46|206:109,1,90,14|0,0:0|3:0,0:0:0:0:
97,186,370478,2,0,P|134:166|197:170,1,90,0|0,3:0|3:0,0:0:0:0:
352,240,370744,54,0,P|281:171|322:86,1,180,6|0,0:0|0:0,0:0:0:0:
385,51,371142,1,0,0:0:0:0:
385,51,371275,2,0,P|399:104|408:160,1,90,10|0,3:2|0:0,0:0:0:0:
352,240,371540,1,0,0:0:0:0:
352,240,371673,2,0,P|360:195|372:152,1,90,2|0,0:0|3:0,0:0:0:0:
430,306,371938,1,0,3:0:0:0:
340,319,372071,1,0,0:0:0:0:
250,332,372204,1,0,0:0:0:0:
161,347,372337,38,0,P|129:277|142:218,1,135,10|0,0:0|0:0,0:0:0:0:
202,168,372602,2,0,P|211:102|180:43,1,135,2|0,0:0|0:0,0:0:0:0:
106,6,372868,6,0,L|0:22,1,90,6|0,0:0|0:0,0:0:0:0:
51,92,373133,54,0,L|138:80,1,45,0|0,3:0|0:0,0:0:0:0:
257,9,373399,38,0,L|363:25,1,90,6|0,0:0|0:0,0:0:0:0:
312,95,373664,6,0,L|225:83,1,45,0|0,3:0|0:0,0:0:0:0:
58,182,373930,54,0,P|37:270|48:304,1,90,6|0,0:0|0:0,0:0:0:0:
121,268,374195,38,0,P|131:242|131:219,1,45,0|0,3:0|0:0,0:0:0:0:
300,182,374461,6,0,P|321:270|310:304,1,90,6|0,0:0|0:0,0:0:0:0:
237,268,374726,54,0,P|227:242|227:219,1,45,0|0,3:0|0:0,0:0:0:0:
329,86,374991,38,0,P|410:112|477:92,1,135.000005149842,6|0,3:2|0:0,0:0:0:0:
457,102,375390,2,0,P|431:183|451:250,1,135.000005149842,2|0,0:0|0:0,0:0:0:0:
440,230,375788,1,2,0:0:0:0:
295,348,376053,6,0,L|177:337,1,67.5000025749208,2|0,3:2|0:0,0:0:0:0:
332,274,376319,2,0,L|214:263,1,67.5000025749208,2|0,0:0|0:0,0:0:0:0:
114,328,376584,2,0,P|119:240|182:223,1,135.000005149842,10|2,0:2|0:0,0:0:0:0:
152,222,376983,1,2,0:0:0:0:
230,166,377115,54,0,P|234:113|231:77,1,67.5000025749208,2|0,3:2|0:0,0:0:0:0:
117,22,377381,1,2,0:0:0:0:
104,53,377514,2,0,P|100:106|103:142,1,67.5000025749208,2|8,0:0|0:0,0:0:0:0:
152,222,377779,1,2,0:0:0:0:
181,239,377912,2,0,P|224:254|258:250,1,67.5000025749208,2|0,0:0|0:0,0:0:0:0:
355,147,378177,38,0,L|346:222,2,67.5000025749208,2|0|0,3:2|0:0|0:0,0:0:0:0:
414,65,378576,1,0,3:0:0:0:
414,65,378708,2,0,P|462:83|494:109,1,67.5000025749208,10|0,0:0|0:0,0:0:0:0:
322,6,378974,2,0,P|274:24|242:50,1,67.5000025749208,2|0,0:0|0:0,0:0:0:0:
118,18,379239,6,0,P|156:78|165:150,1,135.000005149842,2|0,3:2|0:0,0:0:0:0:
165,140,379637,2,0,P|105:178|33:187,1,135.000005149842,2|0,0:0|0:0,0:0:0:0:
42,187,380036,1,2,0:0:0:0:
114,348,380301,54,0,L|134:274,1,67.5000025749208,2|0,3:2|0:0,0:0:0:0:
195,351,380567,2,0,L|212:285,1,67.5000025749208,2|0,0:0|0:0,0:0:0:0:
297,206,380832,2,0,P|234:186|175:215,1,135.000005149842,10|2,0:2|0:0,0:0:0:0:
174,215,381230,1,2,0:0:0:0:
101,147,381363,38,0,P|88:107|88:73,1,67.5000025749208,2|0,3:2|0:0,0:0:0:0:
220,21,381629,1,2,0:0:0:0:
240,46,381761,2,0,P|253:86|253:120,1,67.5000025749208,2|0,0:0|3:0,0:0:0:0:
174,215,382027,1,2,0:0:0:0:
142,224,382160,2,0,L|46:217,1,67.5000025749208,2|0,0:0|0:0,0:0:0:0:
185,367,382425,6,0,P|196:327|194:286,2,67.5000025749208,2|0|0,3:2|3:0|0:0,0:0:0:0:
96,318,382823,1,0,0:0:0:0:
96,318,382956,2,0,L|0:311,1,67.5000025749208,10|0,0:0|0:0,0:0:0:0:
142,224,383222,2,0,L|238:217,1,67.5000025749208,2|0,3:0|3:0,0:0:0:0:
85,142,383487,1,2,3:2:0:0:
341,115,393029,102,0,P|285:126|246:133,1,90,6|2,0:0|0:0,0:0:0:0:
201,194,393329,1,2,0:0:0:0:
201,194,393429,2,0,P|145:183|106:176,1,90,0|0,1:0|0:0,0:0:0:0:
51,229,393729,6,0,L|66:280,1,45,2|0,1:0|0:0,0:0:0:0:
174,343,393929,1,2,1:0:0:0:
174,343,394029,2,0,L|186:299,1,45,2|0,0:0|0:0,0:0:0:0:
296,213,394229,1,2,1:2:0:0:
356,352,394429,1,2,0:0:0:0:
356,352,394529,1,2,0:0:0:0:
356,352,394629,6,0,P|410:359|455:343,1,90,4|2,3:0|0:0,0:0:0:0:
503,293,394929,1,0,0:0:0:0:
503,292,395029,2,0,P|510:248|500:205,1,90,0|0,1:0|0:0,0:0:0:0:
428,167,395329,6,0,L|418:222,1,45,2|0,1:0|0:0,0:0:0:0:
304,257,395529,1,2,1:0:0:0:
304,257,395629,2,0,L|295:212,1,45,2|0,0:0|0:0,0:0:0:0:
272,76,395829,1,0,1:0:0:0:
149,148,396029,1,2,0:0:0:0:
149,148,396129,1,2,0:0:0:0:
149,148,396229,6,0,P|98:137|44:131,1,90,4|2,3:0|0:0,0:0:0:0:
22,66,396529,1,2,0:0:0:0:
22,66,396629,2,0,P|73:55|127:49,1,90,0|2,1:0|0:0,0:0:0:0:
191,37,396929,6,0,L|196:86,1,45,2|0,1:0|0:0,0:0:0:0:
309,148,397129,1,2,1:0:0:0:
309,148,397229,2,0,L|313:103,1,45,2|0,0:0|0:0,0:0:0:0:
452,46,397429,38,2,B|503:110|477:192|429:162|432:138,1,161.999995056153,0|0,1:0|0:0,1:0:0:0:
431,140,397829,6,0,B|394:209|394:209|423:228|437:265,1,135.000005149842,6|0,1:2|0:0,0:0:0:0:
323,310,398129,2,0,B|247:331|247:331|217:318|207:286,1,135.000005149842,6|0,1:2|0:0,0:0:0:0:
224,170,398429,1,6,1:2:0:0:
57,309,398829,6,0,P|37:306|22:304,2,22.5
79,313,399029,2,0,L|64:370,1,45,8|8,3:0|3:0,0:0:0:0:
14,213,399229,2,0,L|-1:156,1,45,4|4,3:0|3:0,0:0:0:0:
75,71,399429,6,0,P|91:65|161:82,1,76.5000014591217,6|0,3:2|0:0,0:0:0:0:
227,10,399629,2,0,P|240:20|260:89,1,76.5000014591217,2|0,0:2|0:0,0:0:0:0:
235,170,399829,2,0,P|311:157|373:216,1,153.000002918243,8|2,0:0|0:0,0:0:0:0:
395,296,400129,1,2,0:0:0:0:
297,278,400229,6,0,P|238:287|177:298,1,114.750002188683,0|0,3:0|0:0,0:0:0:0:
170,288,400429,2,0,P|156:322|166:366,1,76.5000014591217,2|0,0:0|0:0,0:0:0:0:
101,228,400629,2,0,P|64:232|31:263,1,76.5000014591217,8|0,0:0|0:0,0:0:0:0:
114,135,400829,2,0,P|91:105|48:92,1,76.5000014591217,2|0,0:0|0:0,0:0:0:0:
193,83,401029,6,0,P|230:75|275:67,1,76.5000014591217,6|0,3:2|0:0,0:0:0:0:
320,152,401229,2,0,P|279:166|246:163,1,76.5000014591217,2|0,0:2|0:0,0:0:0:0:
386,77,401429,2,0,P|419:144|390:223,1,153.000002918243,8|2,0:0|0:0,0:0:0:0:
323,283,401729,1,2,0:0:0:0:
226,257,401829,38,0,P|161:265|123:323,1,114.750002188683,0|0,3:0|0:0,0:0:0:0:
134,314,402029,2,0,L|45:296,1,76.5000014591217,2|0,0:0|0:0,0:0:0:0:
208,383,402229,2,0,L|283:368,1,76.5000014591217,8|0,0:0|0:0,0:0:0:0:
398,298,402429,2,0,L|309:280,1,76.5000014591217,2|0,0:0|0:0,0:0:0:0:
246,163,402629,6,0,P|275:152|325:160,1,76.5000014591217,6|0,3:2|0:0,0:0:0:0:
374,74,402829,2,0,P|402:99|416:135,1,76.5000014591217,2|0,0:2|0:0,0:0:0:0:
287,28,403029,2,0,B|196:44|203:48|109:65,1,153.000002918243,8|2,0:0|0:0,0:0:0:0:
70,134,403329,1,2,0:0:0:0:
156,183,403429,6,0,B|141:237|144:232|129:299,1,114.750002188683,0|0,3:0|0:0,0:0:0:0:
139,306,403629,2,0,P|103:321|48:305,1,76.5000014591217,2|0,0:0|0:0,0:0:0:0:
228,304,403829,2,0,P|222:342|181:382,1,76.5000014591217,8|0,0:0|0:0,0:0:0:0:
270,225,404029,2,0,P|300:248|314:304,1,76.5000014591217,2|0,0:0|0:0,0:0:0:0:
467,305,404229,6,0,B|474:242|474:242|458:219|458:219|469:149,1,153.000002918243,4|2,3:2|0:0,0:0:0:0:
418,74,404529,1,2,0:0:0:0:
418,74,404629,2,0,P|381:60|325:66,1,76.5000014591217,8|0,0:0|0:0,0:0:0:0:
232,152,404829,6,0,P|270:152|305:138,1,76.5000014591217,6|0,0:2|0:0,0:0:0:0:
147,99,405029,2,0,P|141:138|134:179,1,76.5000014591217,0|0,3:0|0:0,0:0:0:0:
62,275,405229,2,0,P|55:237|49:199,1,76.5000014591217,6|0,0:0|0:0,0:0:0:0:
232,152,405429,6,0,P|218:240|207:315,1,153.000002918243,12|0,0:0|0:0,0:0:0:0:
208,326,405829,38,0,B|247:304|247:304|359:344,1,153.000002918243,6|2,3:2|0:0,0:0:0:0:
444,371,406129,1,2,0:0:0:0:
500,289,406229,2,0,B|508:245|508:245|486:206,1,76.5000014591217,8|0,0:1|0:0,0:0:0:0:
418,151,406429,1,2,0:0:0:0:
418,151,406529,1,2,0:0:0:0:
323,181,406629,6,0,P|255:188|208:143,1,114.750002188683,0|0,3:2|0:0,0:0:0:0:
225,149,406829,2,0,P|174:162|131:168,1,76.5000014591217,2|0,0:0|0:0,0:0:0:0:
214,52,407029,2,0,P|251:58|288:68,1,76.5000014591217,8|0,0:1|0:0,0:0:0:0:
381,27,407229,1,2,0:0:0:0:
381,27,407329,1,2,0:0:0:0:
471,72,407429,6,0,B|504:160|504:160|488:189|493:226,1,153.000002918243,4|2,3:2|0:0,0:0:0:0:
418,285,407729,1,2,0:0:0:0:
321,260,407829,2,0,P|308:304|314:339,1,76.5000014591217,8|0,0:1|0:0,0:0:0:0:
225,378,408029,1,2,0:0:0:0:
225,378,408129,1,2,0:0:0:0:
152,309,408229,6,0,P|99:329|38:296,1,114.750002188683,0|0,3:0|0:0,0:0:0:0:
34,314,408429,2,0,P|41:269|48:228,1,76.5000014591217,2|0,0:0|0:0,0:0:0:0:
126,136,408629,2,0,P|132:173|138:211,1,76.5000014591217,8|0,0:1|0:0,0:0:0:0:
7,118,408829,2,0,P|14:73|21:32,1,76.5000014591217,2|0,0:0|0:0,0:0:0:0:
146,16,409029,6,0,B|179:52|179:52|298:18,1,153.000002918243,4|2,3:2|0:0,0:0:0:0:
366,72,409329,1,2,0:0:0:0:
299,146,409429,2,0,P|317:188|322:231,1,76.5000014591217,8|0,0:1|0:0,0:0:0:0:
251,290,409629,1,2,0:0:0:0:
251,290,409729,1,2,0:0:0:0:
317,364,409829,6,0,P|366:351|438:338,1,114.750002188683,0|0,3:0|0:0,0:0:0:0:
441,347,410029,2,0,P|454:308|444:273,1,76.5000014591217,2|0,0:0|0:0,0:0:0:0:
510,199,410229,2,0,P|482:168|447:159,1,76.5000014591217,8|0,0:1|0:0,0:0:0:0:
423,62,410429,2,0,P|382:70|357:96,1,76.5000014591217,2|0,0:0|0:0,0:0:0:0:
247,162,410629,38,0,B|190:151|190:151|173:127|173:127|105:114,1,153.000002918243,6|2,3:2|0:0,0:0:0:0:
10,96,410929,1,2,0:0:0:0:
40,190,411029,2,0,P|20:234|20:272,1,76.5000014591217,8|0,0:1|0:0,0:0:0:0:
131,366,411229,6,0,P|193:328|276:344,1,153.000002918243,6|0,0:0|3:0,0:0:0:0:
360,380,411529,1,2,0:0:0:0:
451,341,411629,2,0,B|463:305|463:305|446:250,1,76.5000014591217,8|0,0:1|0:0,0:0:0:0:
360,226,411829,2,0,P|417:247|459:111,1,229.500004377365,8|0,0:1|0:0,0:0:0:0:
366,77,412229,6,0,P|330:85|300:91,1,62.9999980773926,6|0,3:2|0:0,0:0:0:0:
224,169,412429,1,2,0:0:0:0:
224,169,412529,1,2,0:0:0:0:
224,169,412629,2,0,P|254:175|285:182,1,62.9999980773926,8|0,0:2|0:0,0:0:0:0:
366,262,412829,2,0,P|335:268|304:275,1,62.9999980773926,2|0,0:2|0:0,0:0:0:0:
192,292,413029,6,0,P|143:257|76:273,1,125.999996154785,0|2,3:0|0:0,0:0:0:0:
15,220,413329,1,2,0:0:0:0:
15,220,413429,2,0,P|19:187|27:153,1,62.9999980773926,8|0,0:0|0:0,0:0:0:0:
97,117,413629,2,0,P|92:84|85:50,1,62.9999980773926,2|0,0:0|0:0,0:0:0:0:
205,15,413829,6,0,B|237:24|237:24|283:15,1,62.9999980773926,6|0,3:2|0:0,0:0:0:0:
340,117,414029,1,2,0:0:0:0:
340,117,414129,1,2,0:0:0:0:
340,117,414229,2,0,P|301:111|269:108,1,62.9999980773926,8|0,0:0|0:0,0:0:0:0:
323,212,414429,2,0,P|354:208|385:203,1,62.9999980773926,2|0,0:0|0:0,0:0:0:0:
450,296,414629,6,0,P|388:299|352:375,1,125.999996154785,0|2,3:0|0:0,0:0:0:0:
272,364,414929,1,2,0:0:0:0:
272,364,415029,2,0,P|241:339|203:333,1,62.9999980773926,8|0,0:0|0:0,0:0:0:0:
206,252,415229,2,0,P|168:266|144:296,1,62.9999980773926,2|0,0:0|0:0,0:0:0:0:
59,346,415429,37,6,3:2:0:0:
55,315,415529,1,2,0:0:0:0:
51,284,415629,1,2,0:0:0:0:
47,253,415729,1,2,0:0:0:0:
18,228,415829,1,8,0:0:0:0:
22,197,415929,1,2,0:0:0:0:
26,166,416029,1,2,0:0:0:0:
30,135,416129,1,2,0:0:0:0:
52,104,416229,6,0,B|125:127|125:127|147:117|162:90,1,125.999996154785,0|2,3:0|0:0,0:0:0:0:
233,54,416529,1,2,0:0:0:0:
233,54,416629,2,0,P|253:85|255:123,1,62.9999980773926,8|0,0:0|0:0,0:0:0:0:
330,146,416829,2,0,P|335:115|353:89,1,62.9999980773926,2|0,0:0|0:0,0:0:0:0:
417,140,417029,6,0,P|402:218|392:273,1,125.999996154785,0|2,3:0|0:0,0:0:0:0:
321,298,417329,1,2,0:0:0:0:
321,298,417429,2,0,P|331:342|333:368,1,62.9999980773926,8|0,0:0|0:0,0:0:0:0:
233,279,417629,2,0,P|236:247|244:217,1,62.9999980773926,2|0,0:0|0:0,0:0:0:0:
179,108,417829,6,0,B|150:129|150:129|73:117,1,94.499997116089,6|0,3:2|0:0,0:0:0:0:
82,110,418029,2,0,P|76:76|92:45,1,62.9999980773926,8|0,0:1|0:0,0:0:0:0:
250,25,418229,2,0,P|284:84|276:159,1,125.999996154785,8|2,0:1|0:0,0:0:0:0:
346,211,418529,1,2,0:0:0:0:
346,211,418629,6,0,P|378:204|415:198,1,62.9999980773926,6|0,3:2|0:0,0:0:0:0:
329,315,418829,1,2,0:0:0:0:
329,315,418929,1,2,0:0:0:0:
329,315,419029,2,0,P|298:309|267:303,1,62.9999980773926,8|0,0:2|0:0,0:0:0:0:
182,229,419229,2,0,P|212:223|243:217,1,62.9999980773926,2|0,0:2|0:0,0:0:0:0:
288,113,419429,6,0,P|235:67|168:88,1,125.999996154785,0|2,3:0|0:0,0:0:0:0:
108,104,419729,1,2,0:0:0:0:
108,104,419829,2,0,P|98:138|94:177,1,62.9999980773926,8|0,0:0|0:0,0:0:0:0:
21,203,420029,2,0,P|31:237|35:276,1,62.9999980773926,2|0,0:0|0:0,0:0:0:0:
124,352,420229,38,0,P|152:355|187:343,1,62.9999980773926,6|0,3:2|0:0,0:0:0:0:
303,374,420429,1,2,0:0:0:0:
303,374,420529,1,2,0:0:0:0:
303,374,420629,2,0,P|319:351|326:314,1,62.9999980773926,8|0,0:2|0:0,0:0:0:0:
412,243,420829,2,0,P|400:217|372:192,1,62.9999980773926,2|0,0:2|0:0,0:0:0:0:
264,170,421029,6,0,B|228:174|193:185|193:185|161:175|156:141,1,125.999996154785,0|2,3:0|0:0,0:0:0:0:
183,70,421329,1,2,0:0:0:0:
183,70,421429,2,0,P|207:63|252:73,1,62.9999980773926,8|0,0:0|0:0,0:0:0:0:
293,2,421629,2,0,P|311:19|324:63,1,62.9999980773926,2|0,0:0|0:0,0:0:0:0:
402,136,421829,6,0,P|435:129|470:122,1,62.9999980773926,6|0,3:2|0:0,0:0:0:0:
504,240,422029,1,2,0:0:0:0:
504,240,422129,1,2,0:0:0:0:
504,240,422229,2,0,P|473:233|442:227,3,62.9999980773926,8|0|2|0,0:2|0:0|0:0|0:0,0:0:0:0:
348,214,422629,5,0,3:0:0:0:
331,247,422729,1,2,0:0:0:0:
299,268,422829,1,2,0:0:0:0:
262,271,422929,1,2,0:0:0:0:
228,256,423029,2,0,P|219:222|224:191,1,62.9999980773926,8|2,0:0|0:0,0:0:0:0:
115,159,423229,2,0,P|118:190|109:220,1,62.9999980773926,2|2,0:0|0:0,0:0:0:0:
12,317,423429,5,6,3:2:0:0:
37,345,423529,1,2,0:0:0:0:
70,363,423629,1,2,0:0:0:0:
107,368,423729,1,2,0:0:0:0:
144,360,423829,2,0,P|146:329|151:295,1,62.9999980773926,8|2,0:0|0:0,0:0:0:0:
262,271,424029,2,0,P|266:302|268:333,1,62.9999980773926,2|2,0:0|0:0,0:0:0:0:
389,373,424229,6,0,P|417:363|458:358,1,62.9999980773926,0|2,3:0|0:0,0:0:0:0:
508,245,424429,2,0,P|476:240|447:230,1,62.9999980773926,8|2,0:1|0:0,0:0:0:0:
337,169,424629,2,0,B|345:113|344:124|354:43,1,125.999996154785,8|2,0:1|0:0,0:0:0:0:
279,21,424929,1,2,0:0:0:0:
279,21,425029,38,0,P|206:57|151:22,1,144,6|8,3:2|0:0,0:0:0:0:
44,95,425629,1,2,0:0:0:0:
156,159,425829,1,0,3:0:0:0:
156,159,425929,1,2,0:0:0:0:
156,159,426029,1,2,0:0:0:0:
37,210,426229,2,0,P|53:264|56:293,1,72,8|2,0:0|0:0,0:0:0:0:
156,360,426629,5,0,3:0:0:0:
212,243,426829,1,2,0:0:0:0:
286,374,427029,1,8,0:0:0:0:
342,257,427229,1,2,0:0:0:0:
205,272,427429,1,0,3:0:0:0:
205,272,427529,1,2,0:0:0:0:
205,272,427629,1,2,0:0:0:0:
378,342,427829,2,0,P|413:335|468:330,1,72,8|2,0:0|0:0,0:0:0:0:
509,215,428229,6,0,P|445:226|380:167,1,144,0|8,3:0|0:0,0:0:0:0:
348,56,428829,1,2,0:0:0:0:
253,143,429029,1,0,3:0:0:0:
253,143,429129,1,2,0:0:0:0:
253,143,429229,1,2,0:0:0:0:
181,35,429429,2,0,P|137:42|105:47,1,72,8|2,0:0|0:0,0:0:0:0:
34,186,429829,5,0,3:0:0:0:
154,137,430029,1,2,0:0:0:0:
31,93,430229,1,8,0:0:0:0:
123,230,430429,1,2,0:0:0:0:
123,230,430529,1,2,0:0:0:0:
123,230,430629,2,2,P|149:248|187:244,1,72,2|2,0:1|0:0,0:0:0:0:
317,129,431029,2,2,P|282:123|252:142,1,72,2|2,0:1|0:0,0:0:0:0:
306,259,431429,6,0,B|390:241|373:293|463:267,1,144,0|8,3:0|0:0,0:0:0:0:
335,364,432029,1,2,0:0:0:0:
214,349,432229,1,0,3:0:0:0:
214,349,432329,1,2,0:0:0:0:
214,349,432429,1,2,0:0:0:0:
306,259,432629,2,0,P|300:228|289:169,1,72,8|2,0:0|0:0,0:0:0:0:
200,95,433029,5,0,3:0:0:0:
175,222,433229,1,2,0:0:0:0:
82,84,433429,1,8,0:0:0:0:
57,211,433629,1,2,0:0:0:0:
204,130,433829,1,0,3:0:0:0:
204,130,433929,1,2,0:0:0:0:
204,130,434029,1,2,0:0:0:0:
279,268,434229,2,0,P|269:302|261:337,1,72,8|2,0:0|0:0,0:0:0:0:
416,244,434629,38,0,P|403:156|385:100,1,144,0|8,3:0|0:0,0:0:0:0:
299,7,435229,1,2,0:0:0:0:
239,125,435429,1,0,3:0:0:0:
239,125,435529,1,2,0:0:0:0:
239,125,435629,1,2,0:0:0:0:
134,47,435829,2,0,P|91:54|63:74,1,72,8|2,0:0|0:0,0:0:0:0:
21,191,436229,5,0,3:0:0:0:
147,163,436429,1,2,0:0:0:0:
101,302,436629,1,8,0:0:0:0:
228,280,436829,1,2,0:0:0:0:
256,285,436929,1,2,0:0:0:0:
284,290,437029,1,0,3:0:0:0:
312,295,437129,1,2,0:0:0:0:
341,300,437229,6,0,L|379:293,2,24,0|0|0,1:0|1:0|1:0,1:0:0:0:
380,216,437429,2,0,P|397:220|413:228,1,36,0|0,3:0|3:0,0:0:0:0:
482,154,437629,2,0,P|487:171|488:189,1,36,4|4,3:0|3:0,0:0:0:0:
474,322,437829,6,0,B|419:333|419:333|386:317|386:317|330:328,1,144,6|8,3:2|0:0,0:0:0:0:
207,351,438429,1,2,0:0:0:0:
261,237,438629,1,0,3:0:0:0:
261,237,438729,1,2,0:0:0:0:
261,237,438829,1,2,0:0:0:0:
132,251,439029,2,0,P|93:250|51:233,1,72,8|2,0:0|0:0,0:0:0:0:
14,118,439429,5,0,3:0:0:0:
89,12,439629,1,2,0:0:0:0:
128,157,439829,1,8,0:0:0:0:
203,51,440029,1,2,0:0:0:0:
290,160,440229,1,0,3:0:0:0:
290,160,440329,1,2,0:0:0:0:
290,160,440429,1,2,0:0:0:0:
122,179,440629,2,0,P|129:224|133:262,1,72,8|2,0:0|0:0,0:0:0:0:
193,309,440929,1,2,0:0:0:0:
193,309,441029,6,0,P|249:274|335:310,1,144,0|8,3:0|0:0,0:0:0:0:
440,246,441629,1,2,0:0:0:0:
436,217,441729,1,2,0:0:0:0:
432,188,441829,1,0,3:0:0:0:
428,160,441929,1,2,0:0:0:0:
425,131,442029,1,2,0:0:0:0:
316,61,442229,2,0,P|299:93|301:134,1,72,8|2,0:0|0:0,0:0:0:0:
237,242,442629,37,0,3:0:0:0:
184,123,442829,1,2,0:0:0:0:
124,269,443029,1,8,0:0:0:0:
71,150,443229,1,2,0:0:0:0:
71,150,443329,1,2,0:0:0:0:
71,150,443429,6,0,B|54:154|41:168|41:168|30:159|6:156,1,72,2|2,0:1|0:0,0:0:0:0:
108,16,443829,2,0,B|125:20|138:34|138:34|149:25|172:22,1,72,2|2,0:1|0:0,0:0:0:0:
315,89,444229,6,0,P|290:179|282:246,1,144,0|8,3:0|0:0,0:0:0:0:
316,354,444829,1,2,0:0:0:0:
341,366,444929,1,2,0:0:0:0:
370,371,445029,1,0,3:0:0:0:
398,367,445129,1,2,0:0:0:0:
424,355,445229,1,2,0:0:0:0:
457,229,445429,2,0,P|399:207|379:205,1,72,8|2,0:0|0:0,0:0:0:0:
268,254,445829,5,0,3:0:0:0:
243,126,446029,1,2,0:0:0:0:
166,264,446229,1,8,0:0:0:0:
141,136,446429,1,2,0:0:0:0:
144,107,446529,1,2,0:0:0:0:
148,78,446629,1,0,3:0:0:0:
151,50,446729,1,2,0:0:0:0:
155,21,446829,1,2,0:0:0:0:
284,9,447029,2,0,P|311:28|362:29,1,72,8|2,0:0|0:0,0:0:0:0:
429,12,447329,1,2,0:0:0:0:
429,12,447429,6,0,P|401:49|436:155,1,144,0|8,3:0|0:0,0:0:0:0:
502,237,448029,1,2,0:0:0:0:
498,265,448129,1,2,0:0:0:0:
495,294,448229,1,0,3:0:0:0:
491,322,448329,1,2,0:0:0:0:
488,351,448429,1,2,0:0:0:0:
360,372,448629,2,0,P|325:349|293:338,1,72,8|2,0:0|0:0,0:0:0:0:
167,335,449029,5,0,3:0:0:0:
236,225,449229,1,2,0:0:0:0:
274,356,449429,1,8,0:0:0:0:
358,230,449629,1,2,0:0:0:0:
353,201,449729,1,2,0:0:0:0:
349,173,449829,1,0,3:0:0:0:
344,144,449929,1,2,0:0:0:0:
340,116,450029,1,2,0:0:0:0:
232,43,450229,2,0,P|186:41|148:66,1,72,8|2,0:0|0:0,0:0:0:0:
40,177,450629,38,0,P|108:170|172:249,1,175.499991966248,4|0,3:2|0:0,0:0:0:0:
151,331,451029,2,0,P|198:261|282:261,1,175.499991966248,8|0,0:2|0:0,0:0:0:0:
374,294,451429,1,0,3:0:0:0:
374,294,451529,1,2,0:0:0:0:
374,294,451629,2,0,L|385:228,1,58.4999973220826,2|0,0:0|0:0,0:0:0:0:
457,187,451829,2,0,L|433:124,1,58.4999973220826,8|0,0:0|0:0,0:0:0:0:
494,65,452029,2,0,L|442:22,1,58.4999973220826,2|0,0:0|0:0,0:0:0:0:
315,10,452229,6,0,B|247:26|247:26|217:63|217:63|141:80,1,175.499991966248,0|0,3:0|0:0,0:0:0:0:
113,149,452629,2,0,B|181:165|181:165|211:202|211:202|287:219,1,175.499991966248,8|0,0:0|0:0,0:0:0:0:
361,236,453029,1,0,3:0:0:0:
361,236,453129,1,2,0:0:0:0:
361,236,453229,2,0,P|376:283|372:302,1,58.4999973220826,2|0,0:0|0:0,0:0:0:0:
290,317,453429,2,0,P|256:353|238:359,1,58.4999973220826,8|0,0:0|0:0,0:0:0:0:
189,291,453629,2,0,P|140:280|126:267,1,58.4999973220826,2|0,0:0|0:0,0:0:0:0:
35,193,453829,6,0,B|52:155|52:155|31:67,1,116.999994644165,0|2,3:2|0:0,0:0:0:0:
115,46,454129,1,2,0:0:0:0:
115,46,454229,2,0,P|165:77|227:55,1,116.999994644165,8|2,0:0|0:0,0:0:0:0:
301,27,454529,1,2,0:0:0:0:
301,27,454629,2,0,L|313:96,1,58.4999973220826,0|0,3:0|0:0,0:0:0:0:
395,108,454829,2,0,L|383:177,1,58.4999973220826,2|0,0:0|0:0,0:0:0:0:
323,227,455029,1,8,0:0:0:0:
325,238,455129,1,2,0:0:0:0:
327,250,455229,1,2,0:0:0:0:
329,261,455329,1,2,0:0:0:0:
331,273,455429,6,0,P|276:258|210:297,1,116.999994644165,0|2,3:0|0:0,0:0:0:0:
162,344,455729,1,0,0:0:0:0:
162,344,455829,2,0,P|109:367|54:352,1,116.999994644165,8|2,0:0|0:0,0:0:0:0:
1,282,456129,1,2,0:0:0:0:
1,282,456229,2,0,L|16:212,1,58.4999973220826,0|0,3:0|0:0,0:0:0:0:
112,142,456429,2,0,L|124:199,1,58.4999973220826,2|0,0:0|0:0,0:0:0:0:
229,124,456629,2,0,L|244:54,1,58.4999973220826,8|0,0:0|0:0,0:0:0:0:
367,25,456829,1,2,0:0:0:0:
367,25,456929,1,2,0:0:0:0:
367,25,457029,6,0,B|407:121|407:121|371:149|370:198,1,175.499991966248,6|0,3:2|0:0,0:0:0:0:
431,245,457429,2,0,B|324:213|324:213|281:232|289:279,1,175.499991966248,8|0,0:0|0:0,0:0:0:0:
271,352,457829,1,0,3:0:0:0:
271,352,457929,1,2,0:0:0:0:
271,352,458029,2,0,P|232:351|208:342,1,58.4999973220826,2|0,0:0|0:0,0:0:0:0:
128,366,458229,2,0,P|109:331|105:306,1,58.4999973220826,8|0,0:0|0:0,0:0:0:0:
28,271,458429,2,0,P|48:237|68:221,1,58.4999973220826,2|0,0:0|0:0,0:0:0:0:
180,161,458629,6,0,B|214:196|214:196|351:164,1,175.499991966248,0|0,3:0|0:0,0:0:0:0:
395,101,459029,2,0,P|359:43|250:36,1,175.499991966248,8|0,0:0|0:0,0:0:0:0:
179,56,459429,1,0,3:0:0:0:
179,56,459529,1,2,0:0:0:0:
179,56,459629,2,0,P|141:71|115:71,1,58.4999973220826,2|0,0:0|0:0,0:0:0:0:
180,161,459829,2,0,P|139:156|116:143,1,58.4999973220826,8|0,0:0|0:0,0:0:0:0:
128,254,460029,2,0,P|95:229|82:206,1,58.4999973220826,2|0,0:0|0:0,0:0:0:0:
250,232,460229,38,0,P|267:298|278:350,1,116.999994644165,6|2,3:2|0:0,0:0:0:0:
364,376,460529,1,2,0:0:0:0:
364,376,460629,2,0,P|398:319|373:263,1,116.999994644165,8|2,0:0|0:0,0:0:0:0:
356,194,460929,1,0,0:0:0:0:
356,194,461029,2,0,P|400:179|419:179,1,58.4999973220826,0|0,3:0|0:0,0:0:0:0:
445,97,461229,2,0,P|416:93|389:81,1,58.4999973220826,2|0,0:0|0:0,0:0:0:0:
316,31,461429,1,8,0:0:0:0:
316,31,461529,2,0,B|252:37|274:62|190:69,1,116.999994644165,2|0,0:0|0:0,0:0:0:0:
77,20,461829,6,0,B|121:46|121:46|86:155,1,135.000005149842,6|0,3:2|0:0,0:0:0:0:
191,222,462129,2,0,B|260:194|260:194|286:218|329:223,1,135.000005149842,6|0,3:2|0:0,0:0:0:0:
444,182,462429,1,6,3:2:0:0:
255,332,462829,5,2,0:0:0:0:
255,332,463029,2,0,L|263:380,2,45.0000017166138,0|0|0,1:0|1:0|1:0,1:0:0:0:
233,324,463229,2,0,P|243:278|249:249,1,67.5000025749208,2|0,0:0|1:0,0:0:0:0:
267,121,463429,6,0,P|320:113|360:136,1,76.5000014591217,6|0,3:2|0:0,0:0:0:0:
413,52,463629,2,0,P|446:93|446:140,1,76.5000014591217,2|0,0:2|0:0,0:0:0:0:
408,206,463829,2,0,P|423:275|440:364,1,153.000002918243,8|2,0:1|0:0,0:0:0:0:
342,382,464129,1,2,0:0:0:0:
255,332,464229,6,0,P|182:294|137:316,1,114.750002188683,0|0,3:0|0:0,0:0:0:0:
141,297,464429,2,0,P|150:335|160:383,1,76.5000014591217,2|0,0:0|0:0,0:0:0:0:
34,245,464629,2,0,P|25:283|15:331,1,76.5000014591217,8|0,0:1|0:0,0:0:0:0:
102,131,464829,2,0,P|111:169|121:217,1,76.5000014591217,2|0,0:0|0:0,0:0:0:0:
255,222,465029,6,0,P|257:181|236:136,1,76.5000014591217,0|0,3:0|0:0,0:0:0:0:
314,76,465229,2,0,P|279:53|230:49,1,76.5000014591217,2|0,0:0|0:0,0:0:0:0:
355,166,465429,2,0,B|403:158|444:146|444:146|475:152|497:182,1,153.000002918243,8|2,0:1|0:0,0:0:0:0:
503,277,465729,1,2,0:0:0:0:
414,322,465829,38,0,P|321:300|282:294,1,114.750002188683,0|0,3:0|0:0,0:0:0:0:
289,289,466029,2,0,P|284:331|278:366,1,76.5000014591217,2|0,0:0|0:0,0:0:0:0:
181,234,466229,2,0,P|186:276|192:311,1,76.5000014591217,8|0,0:1|0:0,0:0:0:0:
92,180,466429,2,0,P|87:222|81:257,1,76.5000014591217,2|0,0:0|0:0,0:0:0:0:
19,107,466629,6,0,P|19:73|38:33,1,76.5000014591217,0|0,3:0|0:0,0:0:0:0:
133,11,466829,2,0,P|149:45|150:83,1,76.5000014591217,2|0,0:0|0:0,0:0:0:0:
220,155,467029,2,0,B|287:181|333:175|333:175|373:142,1,153.000002918243,8|2,0:1|0:0,0:0:0:0:
435,83,467329,1,2,0:0:0:0:
345,40,467429,6,0,P|264:52|228:58,1,114.750002188683,0|0,3:0|0:0,0:0:0:0:
221,68,467629,2,0,P|185:47|148:46,1,76.5000014591217,2|0,0:0|0:0,0:0:0:0:
105,135,467829,2,0,P|68:155|49:187,1,76.5000014591217,8|0,0:1|0:0,0:0:0:0:
117,257,468029,2,0,P|116:298|134:331,1,76.5000014591217,2|0,0:0|0:0,0:0:0:0:
265,363,468229,6,0,B|305:266|305:266|256:236,1,153.000002918243,6|2,3:2|0:0,0:0:0:0:
210,161,468529,1,2,0:0:0:0:
210,161,468629,2,0,L|292:141,1,76.5000014591217,8|0,0:1|0:0,0:0:0:0:
387,49,468829,6,0,L|312:30,1,76.5000014591217,4|0,0:0|0:0,0:0:0:0:
177,6,469029,2,0,P|155:40|152:81,1,76.5000014591217,0|0,3:0|0:0,0:0:0:0:
70,188,469229,2,0,P|65:150|44:118,1,76.5000014591217,6|0,0:0|0:0,0:0:0:0:
6,292,469429,6,0,B|102:303|70:254|176:272,1,153.000002918243,6|0,1:2|0:0,0:0:0:0:
171,257,469829,38,0,P|132:317|180:379,1,153.000002918243,6|2,3:2|0:0,0:0:0:0:
272,375,470129,1,2,0:0:0:0:
324,290,470229,2,0,P|316:254|306:212,1,76.5000014591217,8|0,0:1|0:0,0:0:0:0:
227,155,470429,1,2,0:0:0:0:
227,155,470529,1,2,0:0:0:0:
274,67,470629,6,0,P|328:30|389:42,1,114.750002188683,0|0,3:0|0:0,0:0:0:0:
378,49,470829,2,0,P|419:57|463:38,1,76.5000014591217,2|0,0:0|0:0,0:0:0:0:
391,153,471029,2,0,P|404:192|443:221,1,76.5000014591217,8|0,0:1|0:0,0:0:0:0:
511,280,471229,1,2,0:0:0:0:
511,280,471329,1,2,0:0:0:0:
462,366,471429,6,0,B|425:342|425:342|317:374,1,153.000002918243,0|2,3:0|0:0,0:0:0:0:
229,334,471729,1,2,0:0:0:0:
296,260,471829,2,0,P|300:215|276:174,1,76.5000014591217,8|0,0:1|0:0,0:0:0:0:
209,133,472029,1,2,0:0:0:0:
209,133,472129,1,2,0:0:0:0:
138,202,472229,6,0,B|70:224|70:224|23:195,1,114.750002188683,0|0,3:0|0:0,0:0:0:0:
18,206,472429,2,0,P|11:164|5:124,1,76.5000014591217,2|0,0:0|0:0,0:0:0:0:
103,113,472629,2,0,P|117:73|132:35,1,76.5000014591217,8|0,0:1|0:0,0:0:0:0:
208,104,472829,2,0,P|240:76|272:51,1,76.5000014591217,2|0,0:0|0:0,0:0:0:0:
399,22,473029,5,6,3:2:0:0:
399,22,473129,1,2,0:0:0:0:
399,22,473229,2,0,P|416:65|406:99,1,76.5000014591217,2|0,0:0|0:0,0:0:0:0:
361,181,473429,2,0,P|299:168|214:231,1,153.000002918243,8|2,0:1|0:0,0:0:0:0:
177,298,473729,1,2,0:0:0:0:
256,358,473829,6,0,P|315:347|394:337,1,114.750002188683,0|0,3:0|0:0,0:0:0:0:
380,350,474029,2,0,P|417:357|459:340,1,76.5000014591217,2|0,0:0|0:0,0:0:0:0:
421,249,474229,2,0,P|445:220|451:175,1,76.5000014591217,8|0,0:1|0:0,0:0:0:0:
439,87,474429,1,2,0:0:0:0:
439,87,474529,1,2,0:0:0:0:
340,99,474629,38,0,B|276:90|276:90|254:68|254:68|183:58,1,153.000002918243,6|2,3:2|0:0,0:0:0:0:
109,106,474929,1,2,0:0:0:0:
184,170,475029,2,0,P|195:224|175:256,1,76.5000014591217,8|0,0:1|0:0,0:0:0:0:
112,308,475229,6,0,B|193:278|193:278|217:309|259:313,1,153.000002918243,6|2,3:2|0:0,0:0:0:0:
348,318,475529,1,2,0:0:0:0:
306,227,475629,2,0,P|317:168|326:142,1,76.5000014591217,8|0,0:1|0:0,0:0:0:0:
384,73,475829,1,8,0:1:0:0:
406,71,475929,1,4,0:3:0:0:
429,68,476029,1,4,0:3:0:0:
452,66,476129,1,4,0:3:0:0:
503,151,476229,6,0,B|468:237|468:237|491:255|504:298,1,153.000002918243,6|2,3:2|0:0,0:0:0:0:
432,359,476529,1,2,0:0:0:0:
432,359,476629,2,0,P|368:365|347:354,1,76.5000014591217,8|0,0:0|0:0,0:0:0:0:
271,321,476829,1,2,0:0:0:0:
271,321,476929,1,2,0:0:0:0:
316,232,477029,6,0,P|308:173|305:156,1,76.5000014591217,0|0,3:0|0:0,0:0:0:0:
214,115,477229,2,0,P|207:152|203:190,1,76.5000014591217,2|0,0:0|0:0,0:0:0:0:
139,268,477429,2,0,P|91:292|33:268,1,114.750002188683,8|0,0:0|0:0,0:0:0:0:
23,279,477629,2,0,P|8:243|14:199,1,76.5000014591217,2|0,0:0|0:0,0:0:0:0:
67,104,477829,5,0,3:0:0:0:
143,95,477929,1,2,0:0:0:0:
219,86,478029,1,2,0:0:0:0:
295,78,478129,1,2,0:0:0:0:
371,69,478229,2,0,P|386:103|385:157,1,76.5000014591217,8|0,0:0|0:0,0:0:0:0:
479,183,478429,2,0,P|457:212|409:239,1,76.5000014591217,2|0,0:0|0:0,0:0:0:0:
309,251,478629,5,0,3:0:0:0:
271,247,478729,1,2,0:0:0:0:
233,242,478829,1,2,0:0:0:0:
195,238,478929,1,2,0:0:0:0:
157,233,479029,2,0,P|162:272|167:329,1,76.5000014591217,8|0,0:0|0:0,0:0:0:0:
260,323,479229,2,0,P|266:285|270:247,1,76.5000014591217,2|0,0:0|0:0,0:0:0:0:
292,134,479429,38,0,P|233:101|140:134,1,153.000002918243,0|2,3:0|0:0,0:0:0:0:
87,53,479729,1,2,0:0:0:0:
87,53,479829,2,0,P|39:101|47:199,1,153.000002918243,8|2,0:0|0:0,0:0:0:0:
76,281,480129,1,2,0:0:0:0:
76,281,480229,6,0,P|13:296|-14:302,1,76.5000014591217,0|0,3:0|0:0,0:0:0:0:
125,365,480429,1,2,0:0:0:0:
125,365,480529,1,2,0:0:0:0:
125,365,480629,2,0,P|188:380|215:386,1,76.5000014591217,8|0,0:0|0:0,0:0:0:0:
260,266,480829,2,0,P|222:274|185:283,1,76.5000014591217,2|0,0:0|0:0,0:0:0:0:
345,311,481029,6,0,P|355:268|347:230,1,76.5000014591217,0|0,3:0|0:0,0:0:0:0:
433,180,481229,1,2,0:0:0:0:
433,180,481329,1,2,0:0:0:0:
433,180,481429,2,0,P|400:149|363:137,1,76.5000014591217,8|0,0:0|0:0,0:0:0:0:
362,39,481629,2,0,P|319:51|290:77,1,76.5000014591217,2|0,0:0|0:0,0:0:0:0:
244,191,481829,6,0,P|251:228|260:267,1,76.5000014591217,0|0,3:0|0:0,0:0:0:0:
137,175,482029,1,2,0:0:0:0:
137,175,482129,1,2,0:0:0:0:
137,175,482229,2,0,P|144:137|152:100,1,76.5000014591217,8|0,0:0|0:0,0:0:0:0:
208,18,482429,1,2,0:0:0:0:
208,18,482529,1,2,0:0:0:0:
295,71,482629,6,0,B|384:94|384:94|408:67|455:55,1,153.000002918243,6|2,3:2|0:0,0:0:0:0:
504,132,482929,1,2,0:0:0:0:
474,226,483029,2,0,P|390:257|327:202,1,153.000002918243,8|2,0:0|0:0,0:0:0:0:
253,187,483329,1,2,0:0:0:0:
253,187,483429,6,0,P|242:242|230:313,1,114.750002188683,0|0,3:0|0:0,0:0:0:0:
229,315,483629,2,0,P|187:299|146:296,1,76.5000014591217,2|0,0:0|0:0,0:0:0:0:
77,234,483829,2,0,P|119:218|160:215,1,76.5000014591217,8|0,0:0|0:0,0:0:0:0:
81,142,484029,2,0,P|39:126|-2:123,1,76.5000014591217,2|0,0:0|0:0,0:0:0:0:
146,53,484229,38,0,B|231:38|215:93|306:68,1,153.000002918243,0|2,3:0|0:0,0:0:0:0:
394,49,484529,1,2,0:0:0:0:
394,49,484629,2,0,P|381:93|373:129,1,76.5000014591217,8|0,0:0|0:0,0:0:0:0:
294,184,484829,2,0,P|307:228|315:264,1,76.5000014591217,2|0,0:0|0:0,0:0:0:0:
329,357,485029,6,0,P|249:370|161:324,1,153.000002918243,0|2,3:0|0:0,0:0:0:0:
132,265,485329,1,0,0:0:0:0:
132,265,485429,2,0,P|174:255|214:244,1,76.5000014591217,8|0,0:0|0:0,0:0:0:0:
296,161,485629,1,2,0:0:0:0:
296,161,485729,1,2,0:0:0:0:
296,161,485829,6,0,P|301:115|275:70,1,76.5000014591217,0|0,3:0|0:0,0:0:0:0:
200,45,486029,2,0,P|188:80|194:118,1,76.5000014591217,2|0,0:0|0:0,0:0:0:0:
314,247,486229,1,8,0:0:0:0:
344,241,486329,1,2,0:0:0:0:
374,236,486429,1,2,0:0:0:0:
404,231,486529,1,2,0:0:0:0:
434,227,486629,5,0,3:0:0:0:
444,300,486729,1,2,0:0:0:0:
399,360,486829,1,2,0:0:0:0:
325,370,486929,1,2,0:0:0:0:
266,325,487029,5,8,0:0:0:0:
212,262,487129,1,2,0:0:0:0:
132,241,487229,1,2,0:0:0:0:
53,268,487329,1,2,0:0:0:0:
256,192,487429,12,0,488629,0:0:0:0:
256,192,489029,5,0,3:0:0:0:
391,155,489229,1,2,0:0:0:0:
399,129,489329,1,2,0:0:0:0:
406,103,489429,1,8,0:0:0:0:
233,32,489629,37,2,0:0:0:0:
237,59,489729,1,8,0:0:0:0:
241,85,489829,1,0,3:0:0:0:
244,112,489929,1,8,0:0:0:0:
248,139,490029,1,2,0:0:0:0:
252,165,490129,1,2,0:0:0:0:
256,192,490229,1,8,0:0:0:0:
420,273,490429,1,2,0:0:0:0:
412,299,490529,1,2,0:0:0:0:
405,325,490629,5,0,3:0:0:0:
229,379,490829,1,2,0:0:0:0:
222,353,490929,1,2,0:0:0:0:
214,327,491029,1,8,0:0:0:0:
56,233,491229,5,2,0:0:0:0:
60,206,491329,1,8,0:0:0:0:
64,180,491429,1,0,3:0:0:0:
67,153,491529,1,8,0:0:0:0:
71,126,491629,6,0,P|103:138|148:118,1,67.5000025749208,2|0,0:0|0:0,0:0:0:0:
216,41,491829,2,0,B|162:80|147:149|174:206|210:221|251:194|271:152|235:112,1,270.000010299683,8|2,0:0|0:0,0:0:0:0:
379,99,499335,37,0,1:0:0:0:
379,99,499512,1,0,1:0:0:0:
316,197,499688,2,0,L|220:180,1,90,8|0,0:0|0:0,0:0:0:0:
48,87,500041,2,0,L|143:70,1,90,0|0,1:0|1:0,0:0:0:0:
258,17,500394,2,0,L|240:114,1,90,8|0,0:0|0:0,0:0:0:0:
131,210,500747,5,0,1:0:0:0:
131,210,500923,1,0,1:0:0:0:
214,266,501100,2,0,P|232:217|226:178,1,90,8|0,0:0|0:0,0:0:0:0:
140,337,501453,1,0,1:0:0:0:
140,337,501629,1,0,1:0:0:0:
253,364,501806,2,0,L|351:346,1,90,8|0,0:0|0:0,0:0:0:0:
444,254,502159,53,0,1:0:0:0:
444,254,502335,1,0,1:0:0:0:
305,173,502512,2,0,L|322:270,1,90,8|0,0:0|0:0,0:0:0:0:
188,140,502864,1,0,1:0:0:0:
188,140,503041,1,0,1:0:0:0:
282,47,503217,2,0,L|371:62,1,90,8|0,0:0|0:0,0:0:0:0:
495,165,503570,38,8,L|435:154,1,45
305,173,503747,2,8,L|364:183,1,45
477,314,503923,2,0,L|370:295,1,90,8|0,0:0|0:0,0:0:0:0:
212,358,504276,1,8,0:0:0:0:
191,318,504364,1,8,0:0:0:0:
188,273,504452,1,8,0:0:0:0:
204,231,504540,1,8,0:0:0:0:
236,200,504629,1,8,0:0:0:0:
258,161,504717,1,8,0:0:0:0:
260,116,504805,1,8,0:0:0:0:
243,75,504893,1,8,0:0:0:0:
210,47,504982,6,0,B|289:61|289:61|319:96|319:96|390:109,1,198.000006042481,4|8,1:2|0:0,0:0:0:0:
493,222,505512,1,0,0:0:0:0:
350,320,505688,2,0,L|368:213,1,99.0000030212403,0|0,1:0|0:0,0:0:0:0:
210,47,506041,2,0,L|227:144,1,99.0000030212403,8|0,0:0|0:0,0:0:0:0:
127,306,506394,54,0,P|73:306|36:261,1,99.0000030212403,0|0,1:0|0:0,0:0:0:0:
227,144,506747,2,0,P|281:144|318:189,1,99.0000030212403,8|0,0:0|0:0,0:0:0:0:
393,355,507100,2,0,B|341:320|341:320|195:346,1,198.000006042481,0|8,1:0|0:0,0:0:0:0:
103,238,507629,1,0,0:0:0:0:
227,144,507806,37,0,1:0:0:0:
207,343,507982,1,0,0:0:0:0:
319,177,508159,1,8,0:0:0:0:
103,238,508335,1,0,0:0:0:0:
373,252,508512,2,0,P|398:194|311:85,1,198.000006042481,0|8,1:0|0:0,0:0:0:0:
61,107,509041,6,0,B|138:120|138:120|169:153|169:153|252:168,1,198.000006042481
373,252,509570,2,0,L|260:271,1,99.0000030212403,8|0,0:0|0:0,0:0:0:0:
157,331,509923,1,0,1:0:0:0:
242,166,510100,1,0,0:0:0:0:
59,26,510276,1,8,0:0:0:0:
67,74,510364,1,8,0:0:0:0:
76,123,510452,1,8,0:0:0:0:
84,172,510540,1,8,0:0:0:0:
93,220,510629,54,0,B|143:207|178:245|178:245|219:285|283:266,1,198.000006042481,4|8,1:2|0:0,0:0:0:0:
371,174,511159,1,0,0:0:0:0:
220,101,511335,2,0,L|239:212,1,99.0000030212403,0|0,1:0|0:0,0:0:0:0:
387,104,511688,2,0,L|404:6,1,99.0000030212403,8|0,0:0|0:0,0:0:0:0:
237,198,512041,37,0,1:0:0:0:
387,309,512217,1,0,0:0:0:0:
289,359,512394,2,0,P|274:298|295:253,1,99.0000030212403,8|0,0:0|0:0,0:0:0:0:
464,223,512747,2,0,L|360:204,1,99.0000030212403,0|0,1:0|0:0,0:0:0:0:
196,103,513100,1,8,0:0:0:0:
269,13,513276,6,0,P|316:89|245:200,1,198.000006042481
154,294,513806,2,0,L|270:273,1,99.0000030212403,8|0,0:0|0:0,0:0:0:0:
54,162,514159,1,0,1:0:0:0:
154,294,514335,1,0,0:0:0:0:
101,108,514512,2,0,P|51:90|7:106,1,99.0000030212403,8|0,0:0|0:0,0:0:0:0:
154,294,514864,53,0,1:0:0:0:
226,127,515041,1,8,0:0:0:0:
62,225,515217,1,8,0:0:0:0:
259,350,515394,1,8,0:0:0:0:
259,350,515482,1,8,0:0:0:0:
259,350,515570,1,0,1:0:0:0:
170,207,515747,1,8,0:0:0:0:
258,68,515923,1,8,0:0:0:0:
302,47,516011,1,8,0:0:0:0:
351,51,516099,1,8,0:0:0:0:
391,78,516187,1,8,0:0:0:0:
414,122,516276,38,0,L|378:323,1,198.000006042481,4|8,1:2|0:0,0:0:0:0:
259,350,516806,1,0,0:0:0:0:
164,250,516982,2,0,L|268:231,1,99.0000030212403,0|0,1:0|0:0,0:0:0:0:
105,110,517335,2,0,L|7:92,1,99.0000030212403,8|0,0:0|0:0,0:0:0:0:
198,61,517688,6,0,P|234:121|229:165,1,99.0000030212403,0|0,1:0|0:0,0:0:0:0:
92,271,518041,2,0,P|97:222|127:183,1,99.0000030212403,8|0,0:0|0:0,0:0:0:0:
261,232,518394,2,0,B|316:248|351:208|351:208|391:169|452:190,1,198.000006042481,0|8,1:0|0:0,0:0:0:0:
284,127,518923,1,0,0:0:0:0:
414,274,519100,53,0,1:0:0:0:
279,345,519276,1,0,0:0:0:0:
369,166,519453,1,8,0:0:0:0:
444,352,519629,1,0,0:0:0:0:
256,151,519806,38,0,P|214:167|236:303,1,198.000006042481,0|8,1:0|0:0,0:0:0:0:
424,307,520335,2,0,B|398:254|398:254|253:228,1,198.000006042481
194,85,520864,2,0,P|246:116|255:163,1,99.0000030212403,8|0,0:0|0:0,0:0:0:0:
93,317,521217,2,0,L|112:206,1,99.0000030212403,0|0,1:0|0:0,0:0:0:0:
194,85,521570,1,8,0:0:0:0:
242,93,521658,1,8,0:0:0:0:
291,102,521746,1,8,0:0:0:0:
340,110,521834,1,8,0:0:0:0:
388,119,521923,6,0,B|308:133|308:133|275:165|275:165|200:178,1,198.000006042481,4|8,1:2|0:0,0:0:0:0:
132,263,522453,1,0,0:0:0:0:
237,356,522629,2,0,L|216:238,1,99.0000030212403,0|0,1:0|0:0,0:0:0:0:
314,157,522982,1,8,0:0:0:0:
344,337,523159,54,0,L|323:219,1,99.0000030212403,0|0,0:0|1:0,0:0:0:0:
397,123,523512,2,0,L|497:140,1,99.0000030212403,0|8,0:0|0:0,0:0:0:0:
326,239,523864,1,0,0:0:0:0:
232,140,524041,2,0,P|213:88|228:46,1,99.0000030212403,0|0,1:0|0:0,0:0:0:0:
326,239,524394,1,8,0:0:0:0:
232,140,524570,38,0,B|177:119|142:160|142:160|102:200|48:185,1,198.000006042481
211,250,525100,1,8,0:0:0:0:
82,119,525276,1,0,0:0:0:0:
218,66,525453,2,0,P|275:76|304:118,1,99.0000030212403,0|0,1:0|0:0,0:0:0:0:
392,258,525806,2,0,L|373:152,1,99.0000030212403,8|0,0:0|0:0,0:0:0:0:
243,282,526159,5,0,1:0:0:0:
452,347,526335,1,8,0:0:0:0:
374,160,526512,1,8,0:0:0:0:
302,362,526688,1,8,0:0:0:0:
302,362,526776,1,8,0:0:0:0:
302,362,526864,1,0,1:0:0:0:
363,194,527041,1,8,0:0:0:0:
243,282,527217,1,8,0:0:0:0:
198,302,527305,1,8,0:0:0:0:
149,297,527393,1,8,0:0:0:0:
110,268,527481,1,8,0:0:0:0:
92,224,527570,54,0,L|109:126,1,99.0000030212403,4|0,1:2|0:0,0:0:0:0:
77,18,527923,2,0,P|122:43|184:25,1,99.0000030212403,8|0,0:0|0:0,0:0:0:0:
332,204,528276,2,0,P|288:125|187:151,1,198.000006042481,0|8,1:0|0:0,0:0:0:0:
303,282,528806,38,0,P|359:284|397:258,1,99.0000030212403,0|0,0:0|1:0,0:0:0:0:
501,166,529159,2,0,L|482:269,1,99.0000030212403,0|8,0:0|0:0,0:0:0:0:
405,349,529512,1,0,0:0:0:0:
334,218,529688,1,0,1:0:0:0:
205,299,529864,2,0,L|305:281,1,99.0000030212403,0|8,0:0|0:0,0:0:0:0:
366,150,530217,1,0,0:0:0:0:
273,77,530394,6,0,P|245:127|254:185,1,99.0000030212403,0|0,1:0|0:0,0:0:0:0:
302,281,530747,2,0,L|205:299,1,99.0000030212403,8|0,0:0|0:0,0:0:0:0:
23,345,531100,2,0,L|120:362,1,99.0000030212403,0|0,1:0|0:0,0:0:0:0:
205,299,531453,1,8,0:0:0:0:
83,242,531629,54,0,B|36:214|36:214|65:49,1,198.000006042481
169,31,532159,2,0,P|222:68|271:64,1,99.0000030212403,8|0,0:0|0:0,0:0:0:0:
345,209,532512,1,0,1:0:0:0:
221,159,532688,1,0,0:0:0:0:
361,115,532864,1,8,0:0:0:0:
408,123,532952,1,8,0:0:0:0:
442,158,533040,1,8,0:0:0:0:
448,207,533128,1,8,0:0:0:0:
425,250,533217,38,0,L|445:365,1,99.0000030212403,4|0,1:2|0:0,0:0:0:0:
257,275,533570,2,0,P|309:300|356:292,1,99.0000030212403,8|0,0:0|0:0,0:0:0:0:
143,354,533923,2,0,P|181:286|124:156,1,198.000006042481,0|8,1:0|0:0,0:0:0:0:
0,60,534453,6,0,L|112:79,1,99.0000030212403,0|0,0:0|1:0,0:0:0:0:
246,159,534806,2,0,L|133:178,1,99.0000030212403,0|8,0:0|0:0,0:0:0:0:
244,60,535159,1,0,0:0:0:0:
321,205,535335,1,0,1:0:0:0:
445,95,535512,2,0,L|339:76,1,99.0000030212403,0|8,0:0|0:0,0:0:0:0:
244,60,535864,1,0,0:0:0:0:
383,248,536041,54,0,P|393:187|367:145,1,99.0000030212403,0|0,1:0|0:0,0:0:0:0:
341,334,536394,2,0,P|402:344|444:318,1,99.0000030212403,8|0,0:0|0:0,0:0:0:0:
243,258,536747,2,0,L|261:361,1,99.0000030212403,0|0,1:0|0:0,0:0:0:0:
227,173,537100,1,8,0:0:0:0:
126,281,537276,1,0,0:0:0:0:
250,151,537453,37,0,1:0:0:0:
99,125,537629,1,0,0:0:0:0:
243,258,537806,1,8,0:0:0:0:
182,57,537982,1,0,0:0:0:0:
126,281,538159,1,0,1:0:0:0:
315,121,538335,1,8,0:0:0:0:
315,121,538512,1,8,0:0:0:0:
182,57,538688,1,0,0:0:0:0:
256,192,538864,5,4,1:2:0:0:
168,78,551171,85,14,0:0:0:0:
337,206,551355,1,0,0:0:0:0:
141,288,551539,101,14,0:0:0:0:
337,206,551723,1,0,0:0:0:0:
76,168,551907,102,0,L|247:193,1,157.5,14|0,0:0|0:0,0:0:0:0:
337,206,552643,53,14,0:0:0:0:
306,7,552827,1,0,0:0:0:0:
411,278,553011,85,14,0:0:0:0:
442,79,553195,1,0,0:0:0:0:
337,350,553379,102,0,P|285:338|280:244,1,157.5,14|0,0:0|0:0,0:0:0:0:
337,206,554115,102,0,P|405:212|438:193,1,90,14|0,0:0|0:0,0:0:0:0:
419,102,554484,2,0,P|351:96|318:115,1,90,8|0,0:0|0:0,0:0:0:0:
215,158,554852,1,10,0:0:0:0:
215,158,555036,1,0,0:0:0:0:
261,50,555220,53,10,0:0:0:0:
277,247,555404,1,2,0:0:0:0:
125,151,555588,86,0,L|226:158,1,90,10|8,0:0|0:0,0:0:0:0:
93,148,555864,102,0,L|151:152,1,31.4999990386963,8|8,0:0|0:0,0:0:0:0:
61,145,556048,102,0,L|119:149,1,31.4999990386963,8|8,0:0|0:0,0:0:0:0:
29,142,556232,54,0,L|87:146,1,31.4999990386963,8|8,0:0|0:0,0:0:0:0:
256,192,556416,12,4,557060,0:0:0:0:
68,86,557428,85,10,0:0:0:0:
158,215,557612,1,2,0:0:0:0:
225,73,557796,2,0,P|312:55|390:107,1,175.499991966248,6|0,0:0|0:0,0:0:0:0:
355,126,558165,2,0,P|300:99|240:112,1,116.999994644165,10|0,0:0|0:0,0:0:0:0:
155,301,558533,101,14,0:0:0:0:
290,187,558717,1,2,0:0:0:0:
124,128,558901,101,14,0:0:0:0:
280,314,559085,1,2,0:0:0:0:
43,334,559269,54,0,P|106:321|159:298,1,116.999994644165,14|0,0:0|0:0,0:0:0:0:
202,142,559637,2,0,L|215:204,1,58.4999973220826,10|0,0:0|0:0,0:0:0:0:
280,314,559821,2,0,L|292:256,1,58.4999973220826,2|0,0:0|0:0,0:0:0:0:
342,25,560005,86,0,P|292:63|176:33,1,175.499991966248,6|0,0:0|0:0,0:0:0:0:
166,13,560373,1,10,0:0:0:0:
313,149,560557,1,2,0:0:0:0:
32,240,560741,102,0,B|4:181|18:131|18:131|49:112|87:129,1,175.499991966248,6|0,0:0|0:0,0:0:0:0:
110,140,561109,2,0,P|176:149|230:129,1,116.999994644165,10|0,0:0|0:0,0:0:0:0:
250,116,561385,1,0,0:0:0:0:
250,116,561477,101,14,0:0:0:0:
146,308,561661,1,2,0:0:0:0:
169,46,561846,53,14,0:0:0:0:
382,216,562030,2,0,L|319:174,1,58.4999973220826,2|0,0:0|0:0,0:0:0:0:
138,25,562214,86,0,P|65:30|10:123,1,175.499991966248,14|0,0:0|0:0,0:0:0:0:
13,144,562582,101,0,3:0:0:0:
27,141,562674,1,0,3:0:0:0:
41,139,562766,1,0,3:0:0:0:
56,136,562858,1,0,3:0:0:0:
70,134,562950,102,0,B|41:119|41:119|16:187|56:259,1,175.499991966248,6|0,0:0|0:0,0:0:0:0:
71,287,563318,1,10,0:0:0:0:
148,192,563502,1,0,0:0:0:0:
313,357,563686,54,0,L|454:341,1,116.999994644165,6|0,0:0|0:0,0:0:0:0:
246,270,564054,85,10,0:0:0:0:
473,186,564238,1,2,0:0:0:0:
473,186,564330,1,0,0:0:0:0:
473,186,564422,101,6,0:0:0:0:
490,145,564514,1,2,0:0:0:0:
491,102,564606,1,2,0:0:0:0:
477,61,564698,1,2,0:0:0:0:
448,28,564790,1,2,0:0:0:0:
367,101,564974,1,2,0:0:0:0:
120,5,565158,101,6,0:0:0:0:
124,63,565250,1,2,0:0:0:0:
128,121,565342,1,2,0:0:0:0:
133,180,565434,1,2,0:0:0:0:
137,238,565527,54,0,L|68:228,1,58.4999973220826,8|0,0:0|0:0,0:0:0:0:
237,115,565711,2,0,L|306:104,1,58.4999973220826
120,5,565895,85,14,0:0:0:0:
15,152,566079,1,0,0:0:0:0:
222,48,566263,101,10,0:0:0:0:
15,152,566447,1,0,0:0:0:0:
311,221,566631,102,0,B|394:252|394:252|474:220,1,175.499991966248,14|0,0:0|0:0,0:0:0:0:
243,180,566999,2,0,B|160:149|160:149|79:180,1,175.499991966248,14|0,0:0|0:0,0:0:0:0:
73,333,567367,54,0,L|140:307,1,67.5000025749208,8|8,0:0|0:0,0:0:0:0:
198,284,567551,2,0,L|135:308,1,67.5000025749208,8|8,0:0|0:0,0:0:0:0:
51,275,567735,86,0,L|146:312,1,90,8|8,0:0|0:0,0:0:0:0:
218,340,567919,2,0,L|123:303,1,90,8|8,0:0|0:0,0:0:0:0:
16,185,568103,101,0,3:0:0:0:
42,164,568195,1,0,3:0:0:0:
74,153,568287,1,0,3:0:0:0:
107,154,568379,1,0,3:0:0:0:
139,166,568471,101,0,3:0:0:0:
200,191,568563,1,0,3:0:0:0:
267,184,568655,1,0,3:0:0:0:
321,145,568747,1,0,3:0:0:0:
351,85,568839,54,0,P|310:126|433:246,1,270.000010299683,6|10,0:0|0:0,0:0:0:0:
220,222,569392,1,2,0:0:0:0:
363,80,569576,2,0,P|474:132|430:247,1,270.000010299683,6|10,0:0|0:0,0:0:0:0:
391,166,570128,1,2,0:0:0:0:
156,64,570312,85,14,0:0:0:0:
326,27,570496,1,2,0:0:0:0:
63,212,570680,101,14,0:0:0:0:
156,64,570864,1,2,0:0:0:0:
100,382,571048,101,14,0:0:0:0:
63,212,571232,1,2,0:0:0:0:
288,361,571416,54,0,L|298:286,1,67.5000025749208,10|0,0:0|0:0,0:0:0:0:
246,205,571600,2,0,L|254:138,1,67.5000025749208,2|0,0:0|0:0,0:0:0:0:
181,5,571784,86,0,P|283:30|381:36,1,202.500007724762,6|0,0:0|0:0,0:0:0:0:
419,24,572152,1,10,0:0:0:0:
254,138,572336,1,0,0:0:0:0:
498,262,572520,101,6,0:0:0:0:
406,182,572704,1,2,0:0:0:0:
368,299,572888,1,10,0:0:0:0:
431,100,573073,1,0,0:0:0:0:
431,100,573165,1,0,0:0:0:0:
431,100,573257,101,14,0:0:0:0:
190,179,573441,1,0,0:0:0:0:
140,75,573625,53,14,0:0:0:0:
248,310,573809,1,2,0:0:0:0:
141,351,573993,86,0,L|359:269,1,202.500007724762,14|0,0:0|0:0,0:0:0:0:
288,254,574361,101,0,3:0:0:0:
256,265,574453,1,0,3:0:0:0:
224,277,574545,1,0,3:0:0:0:
193,289,574637,1,0,3:0:0:0:
161,301,574729,102,0,P|139:223|156:159,1,135.000005149842,6|0,0:0|0:0,0:0:0:0:
415,207,575097,1,10,0:0:0:0:
288,254,575281,1,2,0:0:0:0:
149,171,575465,2,0,L|295:170,1,135.000005149842,6|0,0:0|0:0,0:0:0:0:
484,267,575833,1,8,3:2:0:0:
481,300,575925,1,0,3:2:0:0:
466,330,576017,1,0,3:2:0:0:
441,351,576109,1,0,3:2:0:0:
409,361,576201,53,14,3:2:0:0:
461,102,576385,1,2,0:0:0:0:
257,284,576569,85,14,0:0:0:0:
461,102,576754,1,2,0:0:0:0:
179,94,576938,101,14,0:0:0:0:
179,94,577030,1,2,0:0:0:0:
179,94,577122,1,2,0:0:0:0:
326,140,577306,101,14,0:0:0:0:
191,178,577490,1,2,0:0:0:0:
461,102,577674,54,0,P|478:208|411:259,1,202.500007724762,6|0,0:0|0:0,0:0:0:0:
353,226,578042,2,0,P|417:195|477:272,1,135.000005149842,10|0,0:0|0:0,0:0:0:0:
271,261,578410,86,0,P|189:319|68:269,1,202.500007724762,6|0,0:0|0:0,0:0:0:0:
52,249,578778,2,0,P|115:234|159:286,1,135.000005149842,10|0,0:0|0:0,0:0:0:0:
16,151,579146,102,0,L|101:121,1,67.5000025749208,8|8,0:0|0:0,0:0:0:0:
79,128,579330,2,0,L|172:134,1,67.5000025749208,8|8,0:0|0:0,0:0:0:0:
147,132,579514,102,0,L|261:85,1,112.5,8|8,0:0|0:0,0:0:0:0:
250,89,579698,2,0,L|368:136,1,112.5,8|8,0:0|0:0,0:0:0:0:
355,130,579882,53,0,3:0:0:0:
358,164,579974,1,0,3:0:0:0:
361,198,580066,1,0,3:0:0:0:
363,231,580158,1,0,3:0:0:0:
366,265,580250,85,0,3:0:0:0:
324,302,580342,1,0,3:0:0:0:
270,313,580434,1,0,3:0:0:0:
217,297,580526,1,0,3:0:0:0:
178,257,580619,102,0,P|194:181|286:150,1,180,6|0,0:0|0:0,0:0:0:0:
263,236,580895,1,0,0:0:0:0:
117,128,580987,102,0,L|12:140,1,90,10|0,0:0|0:0,0:0:0:0:
219,30,581171,2,0,L|324:42,1,90,2|0,0:0|0:0,0:0:0:0:
55,54,581355,54,0,P|28:135|83:241,1,180,6|0,0:0|0:0,0:0:0:0:
119,286,581631,1,0,0:0:0:0:
205,125,581723,86,0,P|190:80|148:44,1,90,10|0,0:0|0:0,0:0:0:0:
290,192,581907,2,0,P|311:149|306:94,1,90,2|0,0:0|0:0,0:0:0:0:
298,292,582091,102,0,L|89:285,1,180,14|2,0:0|0:0,0:0:0:0:
39,345,582367,1,0,0:0:0:0:
110,198,582459,102,0,L|319:191,1,180,14|2,0:0|0:0,0:0:0:0:
369,251,582735,1,0,0:0:0:0:
298,104,582827,54,0,L|89:97,1,180,14|2,0:0|0:0,0:0:0:0:
39,157,583103,1,0,0:0:0:0:
173,4,583195,86,0,P|189:56|215:96,1,90,10|0,0:0|0:0,0:0:0:0:
409,123,583379,2,0,P|431:83|443:40,1,90,2|0,0:0|0:0,0:0:0:0:
281,8,583563,102,0,P|238:129|245:213,1,180,6|0,0:0|0:0,0:0:0:0:
329,221,583839,1,0,0:0:0:0:
143,81,583931,102,0,P|166:207|214:276,1,180,10|0,0:0|0:0,0:0:0:0:
329,221,584207,1,0,0:0:0:0:
59,213,584300,54,0,P|142:310|218:346,1,180,6|0,0:0|0:0,0:0:0:0:
329,221,584576,1,0,0:0:0:0:
80,377,584668,85,8,3:0:0:0:
106,374,584760,1,0,3:0:0:0:
132,371,584852,1,0,3:0:0:0:
158,368,584944,1,0,3:0:0:0:
184,364,585036,102,0,P|192:311|232:271,1,90,14|0,0:0|0:0,0:0:0:0:
328,365,585220,2,0,P|320:312|280:272,1,90,2|0,0:0|0:0,0:0:0:0:
103,227,585404,102,0,P|163:208|207:209,1,90,14|0,0:0|0:0,0:0:0:0:
409,227,585588,2,0,P|349:208|305:209,1,90,2|0,0:0|0:0,0:0:0:0:
185,7,585772,53,14,3:2:0:0:
192,39,585864,1,0,3:0:0:0:
200,72,585956,1,2,3:2:0:0:
207,105,586048,1,0,3:0:0:0:
215,138,586140,85,10,3:2:0:0:
256,155,586232,1,0,3:0:0:0:
300,154,586324,1,2,3:2:0:0:
340,134,586416,1,0,3:0:0:0:
368,100,586508,102,0,B|282:77|282:77|173:178,1,180,6|0,0:0|0:0,0:0:0:0:
154,221,586784,1,0,0:0:0:0:
291,241,586876,102,0,P|305:189|291:134,1,90,10|0,0:0|0:0,0:0:0:0:
142,53,587060,2,0,P|128:105|142:160,1,90,2|0,0:0|0:0,0:0:0:0:
202,311,587244,54,0,L|400:279,1,180,6|0,0:0|0:0,0:0:0:0:
440,191,587520,1,0,0:0:0:0:
372,299,587612,86,0,L|402:392,1,90,10|0,0:0|0:0,0:0:0:0:
229,225,587796,2,0,L|199:318,1,90,2|0,0:0|0:0,0:0:0:0:
355,96,587980,102,0,P|391:80|447:94,1,90,14|0,0:0|0:0,0:0:0:0:
211,42,588165,2,0,P|175:58|119:44,1,90,2|0,0:0|0:0,0:0:0:0:
7,141,588349,102,0,P|20:187|37:233,1,90,14|0,0:0|0:0,0:0:0:0:
229,225,588533,2,0,P|244:182|256:139,1,90,2|0,0:0|0:0,0:0:0:0:
46,18,588717,53,14,0:0:0:0:
59,60,588809,1,2,0:0:0:0:
72,102,588901,1,2,0:0:0:0:
85,144,588993,1,2,0:0:0:0:
99,186,589085,86,0,P|146:147|104:233,1,270,14|0,0:0|0:0,0:0:0:0:
58,253,589453,101,14,0:0:0:0:
157,33,589637,1,0,0:0:0:0:
223,293,589821,101,10,0:0:0:0:
157,33,590005,1,2,0:0:0:0:
318,114,590189,53,14,0:0:0:0:
46,159,590373,1,0,0:0:0:0:
343,245,590557,85,10,0:0:0:0:
46,159,590741,1,2,0:0:0:0:
46,159,590833,1,0,0:0:0:0:
46,159,590925,101,14,0:0:0:0:
295,20,591109,1,0,0:0:0:0:
290,305,591293,101,12,0:0:0:0:
126,18,591477,1,0,0:0:0:0:
457,20,591661,53,12,0:0:0:0:
85,227,591846,1,0,0:0:0:0:
85,227,591938,1,0,0:0:0:0:
85,227,592030,86,0,P|94:164|116:111,1,90,12|0,0:0|0:0,0:0:0:0:
295,20,592214,2,0,P|286:83|264:136,1,90
82,316,592398,101,0,3:0:0:0:
122,297,592490,1,0,3:0:0:0:
167,292,592582,1,0,3:0:0:0:
211,300,592674,1,0,3:0:0:0:
250,322,592766,101,0,3:0:0:0:
305,360,592858,1,0,3:0:0:0:
371,366,592950,1,0,3:0:0:0:
431,337,593042,1,0,3:0:0:0:
469,283,593134,53,0,3:0:0:0:
394,236,593226,1,0,3:0:0:0:
305,235,593318,1,0,3:0:0:0:
228,280,593410,1,0,3:0:0:0:
186,358,593502,85,6,0:0:0:0:
269,73,593686,1,6,0:0:0:0:
186,358,593870,1,6,0:0:0:0:
104,38,603935,102,0,P|132:80|153:140,1,112.5,6|0,3:2|0:0,0:0:0:0:
110,212,604464,1,0,3:0:0:0:
253,176,604641,2,0,P|229:258|170:339,1,180,10|0,0:0|3:0,0:0:0:0:
110,212,605170,53,2,3:2:0:0:
88,209,605258,1,0,3:0:0:0:
66,206,605347,1,0,3:0:0:0:
239,162,605523,1,2,3:2:0:0:
239,162,605876,1,2,3:2:0:0:
346,300,606053,2,0,B|375:264|375:264|381:165,1,135,8|0,0:0|0:0,0:0:0:0:
314,116,606406,1,2,3:2:0:0:
475,222,606582,1,8,0:0:0:0:
250,259,606759,38,0,B|227:233|227:233|217:147,1,112.5,2|0,3:2|0:0,0:0:0:0:
270,90,607288,1,0,3:0:0:0:
247,86,607376,1,0,3:0:0:0:
225,81,607464,2,0,B|243:231|243:231|270:259,1,180,10|0,3:2|3:0,0:0:0:0:
360,146,607994,37,2,3:2:0:0:
382,144,608082,1,0,3:0:0:0:
404,142,608170,1,0,3:0:0:0:
196,164,608347,1,2,3:2:0:0:
196,164,608700,1,2,3:2:0:0:
326,78,608876,2,0,P|395:76|375:140,1,135,10|0,0:0|3:2,3:2:0:0:
313,159,609229,85,8,0:0:0:0:
274,138,609317,1,8,0:0:0:0:
235,159,609406,1,8,0:0:0:0:
230,201,609494,1,8,0:0:0:0:
262,230,609582,53,6,3:2:0:0:
314,61,609759,1,2,0:0:0:0:
359,295,609935,1,0,3:0:0:0:
347,167,610112,1,2,0:3:0:0:
285,338,610288,2,0,B|264:292|286:252|286:252|308:212|287:171,1,168.75,2|0,3:2|0:0,0:0:0:0:
212,142,610641,1,2,3:2:0:0:
131,309,610817,37,2,3:2:0:0:
153,307,610906,1,0,3:0:0:0:
175,305,610994,1,0,3:0:0:0:
224,128,611170,1,2,3:2:0:0:
224,128,611523,1,2,3:2:0:0:
286,335,611700,1,2,3:2:0:0:
367,84,611876,1,8,0:0:0:0:
202,243,612053,1,2,3:2:0:0:
404,225,612229,1,2,0:3:0:0:
133,168,612406,38,0,B|109:240|109:240|125:293,1,112.5,2|8,3:2|0:0,0:0:0:0:
188,327,612670,1,8,0:0:0:0:
183,349,612759,1,8,0:0:0:0:
22,282,612935,85,8,0:0:0:0:
20,248,613023,1,8,0:0:0:0:
18,214,613112,1,10,0:0:0:0:
234,146,613288,53,8,0:0:0:0:
278,153,613376,1,8,0:0:0:0:
322,160,613464,1,10,0:0:0:0:
408,337,613641,37,8,0:0:0:0:
352,345,613729,1,8,0:0:0:0:
296,353,613817,1,10,3:2:0:0:
318,72,613994,37,0,3:0:0:0:
158,297,614170,1,0,3:0:0:0:
403,226,614347,1,0,3:0:0:0:
115,21,614523,2,0,P|113:47|123:74,1,45,0|0,3:0|0:0,0:0:0:0:
233,116,614700,85,0,3:0:0:0:
188,112,614788,1,0,3:0:0:0:
143,108,614876,2,0,B|85:100|85:100|121:124|138:157|142:199|129:240,1,202.500007724762,8|0,0:0|0:0,0:0:0:0:
82,288,615229,54,0,P|141:256|220:250,1,135.000005149842,4|2,3:2|0:0,0:0:0:0:
431,194,615582,2,0,P|378:152|314:133,1,135.000005149842,12|2,0:0|0:0,0:0:0:0:
227,327,615935,2,0,B|250:356|250:356|243:189,1,202.500007724762,0|0,3:0|0:0,0:0:0:0:
163,165,616288,1,8,0:0:0:0:
347,54,616464,38,0,P|428:56|357:124,1,202.500007724762,2|0,0:0|0:0,0:0:0:0:
302,126,616817,1,2,0:0:0:0:
151,15,616994,2,0,P|70:17|141:85,1,202.500007724762,8|0,0:0|0:0,0:0:0:0:
196,87,617347,1,0,3:0:0:0:
18,139,617523,1,2,0:0:0:0:
292,232,617700,1,8,0:0:0:0:
136,291,617876,1,2,0:0:0:0:
357,105,618053,38,0,P|379:172|381:249,1,135.000005149842,0|2,3:0|0:0,0:0:0:0:
201,355,618406,2,0,P|245:304|275:244,1,135.000005149842,8|2,0:0|0:0,0:0:0:0:
159,125,618759,2,0,B|121:144|121:144|285:158,1,202.500007724762,0|0,3:0|0:0,0:0:0:0:
328,89,619112,1,8,0:0:0:0:
133,268,619288,86,0,P|69:289|1:293,2,135.000005149842,2|0|2,0:0|3:0|0:0,0:0:0:0:
159,125,619817,2,0,B|203:147|257:157|298:148|298:148|266:145|234:130,1,202.500007724762,8|0,0:0|0:0,0:0:0:0:
139,131,620170,2,0,P|110:195|122:272,1,135.000005149842,0|2,3:0|0:0,0:0:0:0:
283,165,620523,53,8,0:0:0:0:
301,204,620612,1,8,0:0:0:0:
279,241,620700,1,8,0:0:0:0:
236,246,620788,1,8,0:0:0:0:
208,213,620876,37,0,3:0:0:0:
398,159,621053,1,2,0:0:0:0:
126,123,621229,1,8,0:0:0:0:
335,60,621406,1,2,0:0:0:0:
306,246,621582,1,0,3:0:0:0:
237,0,621759,1,2,0:0:0:0:
202,266,621935,1,8,0:0:0:0:
112,108,622112,1,2,0:0:0:0:
438,71,622288,37,0,3:0:0:0:
141,194,622464,1,2,0:0:0:0:
435,164,622641,1,8,0:0:0:0:
252,14,622817,1,2,0:0:0:0:
233,276,622994,1,0,3:0:0:0:
199,84,623170,1,2,0:0:0:0:
241,257,623347,1,8,0:0:0:0:
288,117,623523,1,2,0:0:0:0:
237,247,623700,86,0,P|272:219|215:221,1,135,0|0,3:0|0:0,0:0:0:0:
234,288,624053,2,0,P|303:221|259:125,1,202.500007724762,12|0,0:0|0:0,0:0:0:0:
167,152,624406,54,0,P|132:180|189:178,1,135,0|0,3:0|0:0,0:0:0:0:
170,111,624759,2,0,P|101:178|145:274,1,202.500007724762,12|0,0:0|0:0,0:0:0:0:
219,274,625112,37,0,3:0:0:0:
63,174,625288,1,8,0:0:0:0:
320,126,625464,1,0,3:0:0:0:
233,264,625641,2,0,P|227:232|204:204,2,67.5000025749208,8|0|0,3:2|3:0|3:0,3:0:0:0:
63,174,625994,37,8,0:0:0:0:
40,175,626082,1,8,0:0:0:0:
17,176,626170,1,8,0:0:0:0:
56,155,626259,1,8,0:0:0:0:
98,166,626347,1,8,0:0:0:0:
123,203,626435,1,8,0:0:0:0:
116,246,626523,86,0,P|102:186|128:104,1,135.000005149842,4|2,3:2|0:0,0:0:0:0:
331,122,626876,2,0,P|345:187|328:251,1,135.000005149842,8|2,0:0|0:0,0:0:0:0:
137,106,627229,2,0,B|186:100|224:124|224:124|255:110|255:110|297:132|336:120,1,202.500007724762,0|0,3:0|0:0,0:0:0:0:
307,39,627582,1,8,0:0:0:0:
167,190,627759,54,0,P|95:226|112:135,1,202.500007724762,2|0,0:0|0:0,0:0:0:0:
167,190,628112,2,0,P|166:273|58:291,1,202.500007724762,2|0,0:0|0:0,0:0:0:0:
3,240,628464,1,2,0:0:0:0:
190,197,628641,1,0,3:0:0:0:
34,97,628817,1,2,0:0:0:0:
100,345,628994,1,8,0:0:0:0:
171,124,629170,1,2,0:0:0:0:
27,325,629347,38,0,P|92:320|162:299,1,135.000005149842,0|2,3:0|0:0,0:0:0:0:
385,255,629700,2,0,P|317:249|253:230,1,135.000005149842,8|2,0:0|0:0,0:0:0:0:
117,112,630053,2,0,B|162:131|162:131|169:195|169:195|164:210|164:210|173:282,1,202.500007724762,0|0,3:0|0:0,0:0:0:0:
241,339,630406,1,8,0:0:0:0:
293,200,630582,38,0,B|299:105|299:105|326:75,2,135.000005149842,2|0|2,0:0|3:0|0:0,0:0:0:0:
445,252,631112,2,0,B|377:232|345:267|345:267|312:298|255:278,1,202.500007724762,8|0,0:0|0:0,0:0:0:0:
208,207,631464,2,0,P|147:171|70:169,1,135.000005149842,0|2,3:0|0:0,0:0:0:0:
20,349,631817,85,8,0:0:0:0:
62,359,631906,1,8,0:0:0:0:
103,342,631994,1,8,0:0:0:0:
123,303,632082,1,8,0:0:0:0:
116,259,632170,53,4,3:2:0:0:
318,216,632347,1,2,0:0:0:0:
57,169,632523,1,8,0:0:0:0:
301,111,632700,1,2,0:0:0:0:
249,303,632876,1,0,3:0:0:0:
200,51,633053,1,2,0:0:0:0:
165,343,633229,1,8,0:0:0:0:
111,31,633406,1,2,0:0:0:0:
66,259,633582,37,0,3:0:0:0:
349,201,633759,1,2,0:0:0:0:
25,133,633935,1,8,0:0:0:0:
294,82,634112,1,2,0:0:0:0:
39,43,634288,1,0,3:0:0:0:
238,159,634464,1,2,0:0:0:0:
58,131,634641,1,8,0:0:0:0:
210,81,634817,1,2,0:0:0:0:
131,221,634994,38,0,B|164:240|198:231|198:231|170:204|132:208,1,135,0|0,3:0|0:0,0:0:0:0:
124,232,635347,2,0,B|152:248|188:253|219:234|219:234|194:204|159:193|128:198,1,202.500007724762,12|0,3:2|0:0,0:0:0:0:
52,301,635700,86,0,B|19:320|-15:311|-15:311|13:284|51:288,1,135,0|0,3:0|0:0,0:0:0:0:
59,312,636053,2,0,B|31:328|-5:333|-36:314|-36:314|-11:284|24:273|55:278,1,202.500007724762,12|0,3:2|0:0,0:0:0:0:
143,328,636406,53,0,3:0:0:0:
219,128,636582,1,8,0:0:0:0:
278,369,636759,1,0,3:0:0:0:
389,261,636935,2,0,P|361:239|326:230,2,67.5000025749208,8|0|0,3:2|3:0|3:0,0:0:0:0:
199,181,637288,37,0,3:0:0:0:
215,166,637376,1,0,3:0:0:0:
235,155,637464,2,0,P|238:221|225:290,1,135.000005149842,0|0,3:0|0:0,0:0:0:0:
71,333,637817,37,0,3:0:0:0:
329,259,637994,1,2,0:0:0:0:
25,184,638170,1,8,0:0:0:0:
274,114,638347,1,2,0:0:0:0:
173,355,638523,1,0,3:0:0:0:
130,57,638700,1,0,0:0:0:0:
264,330,638876,1,8,0:0:0:0:
35,203,639053,1,2,0:0:0:0:
258,102,639229,85,0,3:0:0:0:
97,286,639406,1,2,0:0:0:0:
61,109,639582,1,8,0:0:0:0:
247,319,639759,1,2,0:0:0:0:
289,150,639935,1,0,3:0:0:0:
49,202,640112,1,2,0:0:0:0:
400,250,640288,2,0,P|352:315|224:322,1,180,8|0,0:0|3:0,0:0:0:0:
198,90,640817,53,2,0:0:0:0:
119,346,640994,1,8,0:0:0:0:
386,235,641170,1,2,0:0:0:0:
82,165,641347,1,0,3:0:0:0:
256,379,641523,1,2,0:0:0:0:
323,117,641700,1,8,0:0:0:0:
151,241,641876,1,2,0:0:0:0:
353,333,642053,37,0,3:0:0:0:
419,140,642229,1,2,0:0:0:0:
254,352,642406,1,8,0:0:0:0:
207,185,642582,1,2,0:0:0:0:
483,301,642759,2,0,P|431:348|345:342,1,135.000005149842,0|2,3:0|0:0,0:0:0:0:
269,125,643112,37,8,0:0:0:0:
229,108,643200,1,8,0:0:0:0:
221,66,643288,1,8,0:0:0:0:
254,38,643376,1,8,0:0:0:0:
295,51,643464,85,4,3:2:0:0:
109,101,643641,1,2,0:0:0:0:
380,196,643817,2,0,P|438:171|359:162,1,202.500007724762,8|0,0:0|0:0,0:0:0:0:
301,216,644170,2,0,B|270:231|263:273|263:273|255:312|225:325,1,135.000005149842,0|2,3:0|0:0,0:0:0:0:
141,224,644523,2,0,B|92:217|92:217|70:193|70:193|18:187,2,135.000005149842,8|2|0,0:0|0:0|3:0,0:0:0:0:
76,339,645053,53,2,0:0:0:0:
35,101,645229,1,8,0:0:0:0:
188,315,645406,1,2,0:0:0:0:
205,146,645582,1,0,3:0:0:0:
7,272,645759,1,2,0:0:0:0:
259,217,645935,1,8,0:0:0:0:
23,117,646112,1,2,0:0:0:0:
324,31,646288,38,0,B|349:65|349:65|337:173,1,135.000005149842,0|2,3:0|0:0,0:0:0:0:
381,233,646553,1,2,0:0:0:0:
381,233,646641,2,0,P|364:288|284:341,1,135.000005149842,10|2,0:0|0:0,0:0:0:0:
134,230,646994,2,0,P|195:256|260:244,1,135.000005149842,0|2,3:0|0:0,0:0:0:0:
89,317,647347,2,0,P|35:277|13:214,1,135.000005149842,10|2,0:0|0:0,0:0:0:0:
195,284,647700,38,0,P|221:222|209:157,1,135.000005149842,2|0,3:2|0:0,0:0:0:0:
67,91,648053,2,0,P|114:149|202:163,1,157.500001502037,2|0,3:2|0:0,0:0:0:0:
330,54,648406,2,0,P|248:71|192:146,1,180,2|0,3:2|0:0,0:0:0:0:
340,321,648759,86,0,B|302:301|291:332|299:366|340:376|379:360|399:323|401:275|397:237|380:203|353:179,1,270,10|0,0:0|0:0,0:0:0:0:
292,146,649112,1,4,3:2:0:0:
256,192,649288,12,0,653347,0:0:0:0:
394,42,659425,101,2,0:0:0:0:
426,56,659680,1,2,0:0:0:0:
446,85,659934,1,2,0:0:0:0:
450,121,660188,1,0,0:0:0:0:
366,220,660315,6,0,B|320:240|279:202|279:202|245:172|198:185,1,180
127,344,660697,2,0,L|238:324,1,90
53,196,660951,2,0,L|33:305,1,90
199,184,661205,2,0,L|183:95,1,90
293,19,661459,21,2,0:0:0:0:
314,48,661713,1,2,0:0:0:0:
346,63,661968,1,2,0:0:0:0:
382,60,662222,2,0,L|365:152,1,90
435,303,662476,69,0,0:0:0:0:
365,330,662603,1,2,0:0:0:0:
292,312,662731,1,2,0:0:0:0:
243,255,662858,1,0,0:0:0:0:
238,180,662985,2,0,L|255:81,1,90,2|0,0:0|0:0,0:0:0:0:
44,26,663239,2,0,L|59:114,1,90,2|0,0:0|0:0,0:0:0:0:
19,264,663493,6,0,B|68:252|99:286|99:286|130:320|198:305,1,180,2|8,0:0|0:0,0:0:0:0:
281,239,663875,1,0,0:0:0:0:
365,330,664002,2,0,L|382:231,1,90,2|2,0:0|0:0,0:0:0:0:
481,107,664256,2,0,P|438:135|393:133,1,90,8|0,0:0|0:0,0:0:0:0:
213,31,664510,22,0,L|310:48,1,90,2|0,0:0|0:0,0:0:0:0:
109,177,664764,2,0,L|11:194,1,90,8|2,0:0|0:0,0:0:0:0:
197,355,665019,2,0,P|219:307|213:267,1,90,2|0,0:0|0:0,0:0:0:0:
109,177,665273,1,8,0:0:0:0:
214,271,665400,1,0,0:0:0:0:
147,94,665527,70,0,P|95:81|26:198,1,180,2|8,0:0|0:0,0:0:0:0:
126,293,665908,1,0,0:0:0:0:
256,208,666036,2,2,L|239:302,1,90
409,361,666290,2,0,L|393:272,1,90,8|0,0:0|0:0,0:0:0:0:
208,145,666544,6,0,P|181:199|182:234,1,90,2|0,0:0|0:0,0:0:0:0:
359,315,666798,1,8,0:0:0:0:
256,208,666925,1,0,0:0:0:0:
361,97,667052,2,2,L|468:115,1,90
256,208,667307,2,0,L|148:226,1,90,8|0,0:0|0:0,0:0:0:0:
34,74,667561,21,2,0:0:0:0:
68,71,667816,1,2,0:0:0:0:
100,85,668070,1,2,0:0:0:0:
121,114,668324,1,0,0:0:0:0:
92,230,668451,70,0,L|3:214,1,90
121,114,668705,2,0,B|167:102|199:135|199:135|234:166|294:150,1,180
419,87,669086,2,0,L|399:196,1,90
324,332,669341,2,0,L|308:243,1,90
227,44,669595,5,2,0:0:0:0:
202,68,669850,1,2,0:0:0:0:
193,101,670104,1,2,0:0:0:0:
201,136,670358,1,0,0:0:0:0:
134,266,670485,22,0,L|39:250,1,90,0|8,0:0|0:0,0:0:0:0:
201,136,670739,1,0,0:0:0:0:
299,195,670866,2,0,L|393:178,1,90
227,54,671120,2,0,P|199:104|206:150,1,90,8|0,0:0|0:0,0:0:0:0:
385,338,671375,2,0,P|383:293|358:256,1,90,8|0,0:0|0:0,0:0:0:0:
254,321,671629,70,0,B|189:309|189:309|137:334|137:334|63:320,1,180,2|8,0:0|0:0,0:0:0:0:
22,207,672010,1,0,0:0:0:0:
143,110,672137,2,0,L|124:212,1,90,2|0,0:0|0:0,0:0:0:0:
313,106,672391,2,0,L|297:17,1,90,8|0,0:0|0:0,0:0:0:0:
456,200,672646,6,0,B|407:171|368:198|368:198|329:228|276:205,1,180,2|8,0:0|0:0,0:0:0:0:
217,347,673027,1,0,0:0:0:0:
77,246,673154,2,0,L|177:263,1,90,2|0,0:0|0:0,0:0:0:0:
92,87,673408,2,0,L|3:102,1,90,8|0,0:0|0:0,0:0:0:0:
274,276,673663,22,0,L|288:194,1,67.5000025749208,8|0,0:0|0:0,0:0:0:0:
170,86,673917,70,0,L|181:152,1,67.5000025749208,8|0,0:0|0:0,0:0:0:0:
296,298,674171,6,0,L|310:216,1,67.5000025749208,8|0,0:0|0:0,0:0:0:0:
145,70,674425,22,0,L|156:136,1,67.5000025749208,8|0,0:0|0:0,0:0:0:0:
307,231,674680,2,0,P|346:228|375:204,1,67.5000025749208,8|0,0:0|0:0,0:0:0:0:
497,148,674934,1,0,0:0:0:0:
491,179,675018,1,0,0:0:0:0:
486,210,675103,1,0,0:0:0:0:
481,248,675188,2,0,P|479:340|414:270,1,236.250009012223,2|0,0:0|0:0,0:0:0:0:
367,211,675697,70,0,B|284:196|284:196|252:216|252:216|165:200,1,180,2|8,0:0|0:0,0:0:0:0:
311,315,676078,1,0,0:0:0:0:
96,153,676205,2,0,P|123:108|244:112,1,180,2|8,0:0|0:0,0:0:0:0:
195,207,676586,1,0,0:0:0:0:
362,139,676713,6,0,L|346:49,1,90,2|0,0:0|0:0,0:0:0:0:
195,207,676968,2,0,L|179:295,1,90,8|0,0:0|0:0,0:0:0:0:
376,127,677222,22,0,L|360:37,1,90,2|0,0:0|0:0,0:0:0:0:
178,227,677476,2,0,L|162:315,1,90,8|0,0:0|0:0,0:0:0:0:
6,115,677730,70,0,P|51:82|107:89,1,90,2|0,0:0|0:0,0:0:0:0:
178,227,677985,1,8,0:0:0:0:
71,154,678112,1,0,0:0:0:0:
243,45,678239,2,0,L|226:141,1,90,2|0,0:0|0:0,0:0:0:0:
321,308,678493,2,0,P|319:257|291:225,1,90,8|0,0:0|0:0,0:0:0:0:
72,251,678747,6,0,B|125:237|160:275|160:275|189:309|255:293,1,180,2|8,0:0|0:0,0:0:0:0:
93,351,679129,1,0,0:0:0:0:
229,135,679256,2,0,L|211:233,1,90,2|0,0:0|0:0,0:0:0:0:
405,146,679510,2,0,L|389:57,1,90,8|0,0:0|0:0,0:0:0:0:
229,135,679764,21,2,0:0:0:0:
347,249,679891,1,0,0:0:0:0:
208,116,680019,2,0,P|155:108|120:129,1,90,8|0,0:0|0:0,0:0:0:0:
25,264,680273,2,0,L|122:246,1,90,2|0,0:0|0:0,0:0:0:0:
281,353,680527,2,0,P|222:357|198:333,1,90,8|0,0:0|0:0,0:0:0:0:
384,193,680781,70,0,L|365:295,1,90,2|0,0:0|0:0,0:0:0:0:
230,166,681036,2,0,B|276:173|310:141|310:141|349:97|406:110,1,180,8|2,0:0|0:0,0:0:0:0:
236,44,681417,1,0,0:0:0:0:
384,193,681544,2,0,P|450:173|468:146,1,90,8|0,0:0|0:0,0:0:0:0:
236,44,681798,6,0,B|100:67|100:67|83:120,1,180,2|8,0:0|0:0,0:0:0:0:
58,259,682180,1,0,0:0:0:0:
173,219,682307,2,0,L|157:128,1,90,2|0,0:0|0:0,0:0:0:0:
294,270,682561,2,0,L|278:358,1,90,8|0,0:0|0:0,0:0:0:0:
384,200,682815,22,0,P|335:151|232:171,1,180,2|8,0:0|0:0,0:0:0:0:
294,270,683197,1,0,0:0:0:0:
454,223,683324,2,0,P|454:176|421:135,1,90,2|0,0:0|0:0,0:0:0:0:
243,48,683578,2,0,P|288:61|329:35,1,90,8|0,0:0|0:0,0:0:0:0:
226,200,683832,70,0,L|132:183,1,90,2|0,0:0|0:0,0:0:0:0:
3,334,684086,2,0,P|31:280|158:297,1,180,8|2,0:0|0:0,0:0:0:0:
206,369,684468,1,0,0:0:0:0:
303,302,684595,2,0,L|285:203,1,90,8|0,0:0|0:0,0:0:0:0:
259,47,684849,6,0,B|311:56|311:56|350:90|350:90|435:105,1,180,2|8,0:0|0:0,0:0:0:0:
484,194,685230,1,0,0:0:0:0:
398,338,685358,2,0,P|391:283|414:245,1,90,2|0,0:0|0:0,0:0:0:0:
279,128,685612,2,0,P|295:169|286:212,1,90,8|0,0:0|0:0,0:0:0:0:
136,336,685866,22,0,B|178:295|178:295|154:161,1,180,2|8,0:0|0:0,0:0:0:0:
51,87,686247,1,2,0:0:0:0:
157,176,686375,2,0,B|212:174|239:141|239:141|272:102|324:112,1,180,2|8,0:0|0:0,0:0:0:0:
416,177,686756,1,2,0:0:0:0:
332,22,686883,70,0,L|315:114,1,90,2|0,0:0|0:0,0:0:0:0:
431,265,687137,2,0,L|415:176,1,90,8|0,0:0|0:0,0:0:0:0:
254,315,687391,1,2,0:0:0:0:
431,265,687519,1,0,0:0:0:0:
269,196,687646,1,8,0:0:0:0:
383,366,687773,1,0,0:0:0:0:
269,196,687900,5,2,0:0:0:0:
269,196,688154,2,0,L|178:211,1,90,8|0,0:0|0:0,0:0:0:0:
129,323,688408,21,2,0:0:0:0:
129,323,688662,2,0,L|38:307,1,90,8|0,0:0|0:0,0:0:0:0:
94,215,688917,69,2,0:0:0:0:
94,215,689171,2,0,P|109:161|96:125,1,90,8|0,0:0|0:0,0:0:0:0:
21,25,689425,5,2,0:0:0:0:
21,25,689680,2,0,P|72:49|114:40,1,90,8|0,0:0|0:0,0:0:0:0:
209,89,689934,22,0,B|337:66|337:66|377:111,1,180,2|8,0:0|0:0,0:0:0:0:
309,260,690315,1,0,0:0:0:0:
223,157,690442,2,0,L|331:137,1,90,2|0,0:0|0:0,0:0:0:0:
239,308,690697,2,0,L|130:288,1,90,8|0,0:0|0:0,0:0:0:0:
279,68,690951,70,0,P|331:67|383:173,1,180,2|8,0:0|0:0,0:0:0:0:
309,260,691332,1,0,0:0:0:0:
407,357,691459,2,0,L|508:339,1,90,2|0,0:0|0:0,0:0:0:0:
309,260,691713,2,0,L|220:244,1,90,8|0,0:0|0:0,0:0:0:0:
37,127,691968,6,0,L|57:241,1,90,2|0,0:0|0:0,0:0:0:0:
197,348,692222,1,8,0:0:0:0:
136,190,692349,1,0,0:0:0:0:
94,309,692476,1,8,0:0:0:0:
239,171,692603,1,0,0:0:0:0:
119,68,692730,2,0,L|19:85,1,90,8|0,0:0|0:0,0:0:0:0:
211,236,692985,22,0,P|259:240|294:216,1,90,8|0,0:0|0:0,0:0:0:0:
361,74,693239,1,8,0:0:0:0:
239,171,693366,1,0,0:0:0:0:
410,249,693493,1,8,0:0:0:0:
276,93,693620,1,0,0:0:0:0:
211,236,693747,2,0,L|229:342,1,90,8|0,0:0|0:0,0:0:0:0:
410,249,694002,70,0,L|425:160,1,90,2|0,0:0|0:0,0:0:0:0:
343,34,694256,1,8,0:0:0:0:
283,182,694383,1,0,0:0:0:0:
438,72,694510,1,8,0:0:0:0:
239,122,694637,1,0,0:0:0:0:
321,264,694764,2,0,L|412:247,1,90,8|0,0:0|0:0,0:0:0:0:
261,55,695019,6,0,P|216:55|175:89,1,90,8|0,0:0|0:0,0:0:0:0:
105,243,695273,1,8,0:0:0:0:
239,122,695400,1,0,0:0:0:0:
74,157,695527,1,8,0:0:0:0:
218,300,695654,1,0,0:0:0:0:
162,141,695781,2,0,L|65:158,1,90,8|0,0:0|0:0,0:0:0:0:
188,363,696036,22,0,B|234:382|272:347|272:347|311:308|372:326,1,180,2|8,0:0|0:0,0:0:0:0:
453,214,696417,1,0,0:0:0:0:
393,97,696544,2,0,P|346:147|233:104,1,180,2|8,0:0|0:0,0:0:0:0:
154,28,696925,1,0,0:0:0:0:
73,156,697052,70,0,L|91:259,1,90,2|0,0:0|0:0,0:0:0:0:
246,124,697307,2,0,L|261:35,1,90,8|0,0:0|0:0,0:0:0:0:
314,233,697561,2,0,P|272:256|220:252,1,90,2|0,0:0|0:0,0:0:0:0:
405,92,697815,2,0,P|449:92|488:114,1,90,8|0,0:0|0:0,0:0:0:0:
471,332,698069,6,0,B|407:320|407:320|359:343|359:343|273:328,1,180,2|8,0:0|0:0,0:0:0:0:
257,189,698451,1,0,0:0:0:0:
156,276,698578,2,0,L|173:374,1,90,2|0,0:0|0:0,0:0:0:0:
24,217,698832,2,0,L|39:128,1,90,8|0,0:0|0:0,0:0:0:0:
92,32,699086,21,2,0:0:0:0:
114,70,699340,1,2,0:0:0:0:
152,94,699595,1,2,0:0:0:0:
197,99,699849,2,8,L|185:162,2,60
210,23,700103,69,2,0:0:0:0:
430,162,710461,70,0,P|403:171|372:173,1,45,4|0,0:0|0:0,0:0:0:0:
314,137,710814,1,2,0:0:0:0:
441,28,710991,2,0,P|403:84|371:95,1,90,2|0,0:0|0:0,0:0:0:0:
142,75,711697,2,0,P|209:79|235:102,1,90,2|0,0:0|0:0,0:0:0:0:
335,300,712402,1,2,0:0:0:0:
335,300,712579,2,0,P|305:239|311:205,1,90,2|0,0:0|0:0,0:0:0:0:
38,205,713285,38,0,P|72:227|96:236,1,45,2|0,0:0|0:0,0:0:0:0:
166,218,713638,1,2,0:0:0:0:
83,60,713814,2,0,P|92:119|108:159,1,90,2|0,0:0|0:0,0:0:0:0:
166,218,714520,1,2,0:0:0:0:
58,325,714697,5,0,3:0:0:0:
139,355,714785,2,0,L|228:332,2,62.9999980773926,0|0|0,0:0|3:0|3:0,0:0:0:0:
458,185,715314,5,0,3:0:0:0:
458,185,715402,1,0,3:0:0:0:
384,227,715491,2,0,L|276:212,2,90,0|0|0,3:0|3:0|3:0,0:0:0:0:
28,59,716020,37,0,3:0:0:0:
28,59,716108,1,0,3:0:0:0:
84,50,716226,1,0,3:0:0:0:
138,41,716344,1,0,3:0:0:0:
214,105,716461,37,0,3:0:0:0:
270,114,716579,1,0,3:0:0:0:
324,123,716697,1,0,3:0:0:0:
412,62,716814,6,0,L|482:56,1,63,0|0,1:3|0:0,0:0:0:0:
511,183,717520,5,0,1:0:0:0:
488,179,717608,1,0,0:0:0:0:
465,182,717697,1,0,0:0:0:0:
445,193,717785,1,0,0:0:0:0:
419,265,717873,37,0,1:0:0:0:
442,269,717961,1,0,0:0:0:0:
465,266,718050,1,0,0:0:0:0:
485,255,718138,1,0,0:0:0:0:
373,202,718226,38,0,P|325:204|275:248,1,107.999996704102,0|0,1:0|0:0,0:0:0:0:
259,381,718491,1,0,1:0:0:0:
344,341,718579,2,0,L|362:264,1,53.9999983520508,0|0,1:0|0:0,0:0:0:0:
170,175,718755,2,0,L|194:254,1,53.9999983520508,0|0,1:0|0:0,0:0:0:0:
80,370,718932,6,0,B|118:316|118:316|80:184,1,188.999994232178,6|0,0:0|0:0,0:0:0:0:
0,232,719285,2,0,L|23:312,1,62.9999980773926,10|0,0:0|0:0,0:0:0:0:
198,235,719461,2,0,L|179:173,1,62.9999980773926,2|0,0:0|0:0,0:0:0:0:
45,0,719638,5,0,1:0:0:0:
5,71,719726,1,0,0:0:0:0:
54,135,719814,1,2,0:0:0:0:
133,117,719902,1,0,0:0:0:0:
144,35,719991,2,0,L|254:55,1,62.9999980773926,10|0,0:0|0:0,0:0:0:0:
368,100,720167,2,0,L|307:116,1,62.9999980773926,2|0,0:0|0:0,0:0:0:0:
197,185,720344,6,0,P|215:215|235:283,1,62.9999980773926,0|0,1:2|0:0,0:0:0:0:
309,325,720520,2,0,P|326:288|334:250,1,62.9999980773926,2|0,0:0|0:0,0:0:0:0:
496,130,720697,1,10,0:0:0:0:
442,191,720785,1,0,0:0:0:0:
432,272,720873,2,0,P|442:304|468:356,1,62.9999980773926,2|0,0:0|0:0,0:0:0:0:
341,162,721050,2,0,P|347:132|364:103,1,62.9999980773926,0|0,1:0|0:0,0:0:0:0:
272,282,721226,38,0,P|243:296|184:305,1,62.9999980773926,2|0,0:0|0:0,0:0:0:0:
73,141,721402,2,0,P|99:159|136:205,1,62.9999980773926,10|0,0:0|0:0,0:0:0:0:
32,377,721579,2,0,P|34:344|56:289,1,62.9999980773926,2|0,0:0|0:0,0:0:0:0:
222,206,721755,38,0,B|287:196|287:196|336:221|336:221|433:206,1,188.999994232178,2|0,1:0|0:0,0:0:0:0:
273,277,722108,2,0,L|168:296,1,62.9999980773926,10|0,0:0|0:0,0:0:0:0:
353,138,722285,2,0,L|414:126,1,62.9999980773926
241,73,722461,5,2,1:0:0:0:
167,53,722550,1,0,0:0:0:0:
94,33,722638,1,0,0:0:0:0:
107,107,722726,1,0,0:0:0:0:
120,181,722814,2,0,L|137:258,1,62.9999980773926,10|0,0:0|0:0,0:0:0:0:
241,73,722991,2,0,L|254:11,1,62.9999980773926
413,315,723167,6,0,P|311:337|281:233,1,188.999994232178,2|0,1:0|0:0,0:0:0:0:
358,210,723520,2,0,P|359:245|347:279,1,62.9999980773926,10|0,0:0|0:0,0:0:0:0:
222,382,723697,2,0,P|187:383|153:371,1,62.9999980773926,2|0,0:0|0:0,0:0:0:0:
137,147,723873,37,0,1:0:0:0:
210,131,723961,1,0,0:0:0:0:
284,115,724050,2,0,L|268:203,1,62.9999980773926,2|0,1:2|0:0,0:0:0:0:
177,296,724226,37,10,0:0:0:0:
104,312,724314,1,8,0:0:0:0:
30,328,724402,2,0,L|46:240,1,62.9999980773926,2|0,3:2|0:0,0:0:0:0:
18,61,724579,6,0,B|58:89|58:89|168:59,1,125.999996154785,2|0,1:2|0:0,0:0:0:0:
210,50,724844,1,0,0:0:0:0:
210,50,724932,1,10,0:0:0:0:
348,284,725108,6,0,B|304:268|293:218|293:218|224:213|181:284,1,188.999994232178,2|0,1:2|0:0,0:0:0:0:
221,349,725461,1,2,1:2:0:0:
376,203,725638,1,10,0:0:0:0:
391,128,725726,1,8,0:0:0:0:
406,53,725814,1,10,0:0:0:0:
204,253,725991,6,0,B|185:195|185:195|104:216,1,125.999996154785,2|10,1:2|0:0,0:0:0:0:
27,239,726255,1,8,0:0:0:0:
52,329,726344,1,10,0:0:0:0:
242,352,726520,6,0,B|289:332|301:289|301:289|411:331|411:331|359:346,1,251.999992309571,2|2,1:2|1:2,0:0:0:0:
204,253,726961,1,0,1:0:0:0:
197,221,727050,2,0,L|218:132,1,62.9999980773926,2|0,1:2|0:0,0:0:0:0:
249,9,727226,2,0,L|234:70,1,62.9999980773926,2|0,1:2|0:0,0:0:0:0:
384,240,727402,37,2,1:2:0:0:
429,300,727491,1,0,0:0:0:0:
503,286,727579,1,0,0:0:0:0:
508,210,727667,1,0,0:0:0:0:
442,172,727755,2,0,P|378:206|288:176,1,125.999996154785,10|0,0:0|0:0,0:0:0:0:
128,34,728108,37,2,1:2:0:0:
161,102,728197,1,0,0:0:0:0:
167,177,728285,1,0,0:0:0:0:
157,251,728373,1,0,0:0:0:0:
115,313,728461,2,0,P|86:305|37:304,1,62.9999980773926,10|0,0:0|0:0,0:0:0:0:
241,373,728638,2,0,P|270:381|319:382,1,62.9999980773926
272,139,728814,6,0,B|242:176|242:176|280:298,1,125.999996154785,2|0,1:2|0:0,0:0:0:0:
353,276,729079,1,0,0:0:0:0:
397,201,729167,2,0,L|319:190,1,62.9999980773926,10|0,0:0|0:0,0:0:0:0:
117,259,729344,2,0,L|182:240,1,62.9999980773926,2|0,1:2|0:0,0:0:0:0:
152,95,729520,5,0,0:0:0:0:
147,76,729608,1,0,0:0:0:0:
142,57,729697,1,2,1:0:0:0:
137,38,729785,1,0,0:0:0:0:
95,150,729873,37,2,1:0:0:0:
153,101,729961,1,0,1:0:0:0:
229,106,730050,1,0,1:0:0:0:
275,165,730138,1,0,1:0:0:0:
228,261,730226,38,0,B|137:299|141:208|36:251,1,188.999994232178,6|0,0:0|0:0,0:0:0:0:
79,384,730579,2,0,L|91:306,1,62.9999980773926,10|0,0:0|0:0,0:0:0:0:
187,183,730755,2,0,L|177:120,1,62.9999980773926,2|0,0:0|0:0,0:0:0:0:
419,177,730932,6,0,P|390:198|366:231,1,62.9999980773926,0|0,1:0|0:0,0:0:0:0:
401,375,731108,2,0,P|397:339|380:302,1,62.9999980773926,2|0,0:0|0:0,0:0:0:0:
228,261,731285,2,0,P|260:275|301:279,1,62.9999980773926,8|0,0:0|0:0,0:0:0:0:
471,243,731461,2,0,P|493:214|507:176,1,62.9999980773926,2|0,0:0|0:0,0:0:0:0:
377,52,731638,5,0,1:0:0:0:
312,91,731726,1,0,0:0:0:0:
377,128,731814,2,0,L|457:110,1,62.9999980773926,2|0,0:0|0:0,0:0:0:0:
304,14,731991,2,0,L|242:5,1,62.9999980773926,10|0,0:0|0:0,0:0:0:0:
148,133,732167,2,0,L|209:119,1,62.9999980773926,2|0,0:0|0:0,0:0:0:0:
72,7,732344,37,0,1:0:0:0:
63,81,732432,1,0,0:0:0:0:
54,155,732520,1,2,0:0:0:0:
45,229,732608,1,0,0:0:0:0:
4,303,732697,2,0,P|35:312|66:310,1,62.9999980773926,10|0,0:0|0:0,0:0:0:0:
119,384,732873,2,0,P|145:365|162:339,1,62.9999980773926,2|0,0:0|0:0,0:0:0:0:
234,161,733050,37,2,1:0:0:0:
271,226,733138,1,0,0:0:0:0:
307,292,733226,1,0,0:0:0:0:
379,271,733314,1,0,0:0:0:0:
451,250,733402,2,0,B|443:225|443:225|424:347,1,125.999996154785,10|0,0:0|0:0,0:0:0:0:
507,90,733755,5,2,1:0:0:0:
469,30,733844,1,0,0:0:0:0:
404,6,733932,1,0,0:0:0:0:
339,31,734020,1,0,0:0:0:0:
313,95,734108,2,0,L|334:179,1,62.9999980773926,10|0,0:0|0:0,0:0:0:0:
412,157,734285,2,0,L|396:95,1,62.9999980773926
166,200,734461,6,0,B|266:178|249:266|356:248,1,188.999994232178,2|0,1:0|0:0,0:0:0:0:
416,320,734814,2,0,P|401:359|394:408,1,62.9999980773926,10|0,0:0|0:0,0:0:0:0:
213,342,734991,2,0,P|205:311|193:282,1,62.9999980773926,2|0,0:0|0:0,0:0:0:0:
365,57,735167,2,0,P|374:122|301:157,1,125.999996154785,0|0,1:0|0:0,0:0:0:0:
187,102,735432,1,0,1:0:0:0:
228,14,735520,2,0,L|310:-1,1,62.9999980773926,2|0,1:2|0:0,0:0:0:0:
183,109,735697,2,0,L|121:120,1,62.9999980773926,0|0,1:0|0:0,0:0:0:0:
299,230,735873,38,0,P|313:296|280:361,1,125.999996154785,2|0,1:2|0:0,0:0:0:0:
215,343,736138,2,0,L|153:357,1,62.9999980773926,8|8,0:0|0:0,0:0:0:0:
27,198,736402,2,0,B|120:168|117:258|206:228,1,188.999994232178,2|0,1:2|0:0,0:0:0:0:
242,157,736755,2,0,L|221:79,1,62.9999980773926,0|0,1:0|0:0,0:0:0:0:
343,15,736932,1,10,0:0:0:0:
346,27,737020,1,8,0:0:0:0:
349,39,737108,1,8,0:0:0:0:
352,51,737197,1,8,0:0:0:0:
321,129,737285,38,0,P|375:94|458:109,1,125.999996154785,2|0,1:2|0:0,0:0:0:0:
477,171,737550,2,0,L|469:234,1,62.9999980773926,8|8,0:0|0:0,0:0:0:0:
186,300,737814,2,0,B|231:342|231:342|211:217,1,188.999994232178,2|0,1:2|0:0,0:0:0:0:
247,146,738167,1,0,1:0:0:0:
94,288,738344,5,8,0:0:0:0:
25,278,738432,1,8,0:0:0:0:
12,210,738520,1,8,0:0:0:0:
73,179,738608,1,8,0:0:0:0:
126,224,738697,6,0,L|146:355,1,125.999996154785,4|0,0:0|0:0,0:0:0:0:
398,97,739050,2,0,L|378:228,1,125.999996154785,8|0,0:0|0:0,0:0:0:0:
85,108,739402,2,0,B|200:106|145:205|301:196,1,188.999994232178,2|0,1:2|0:0,0:0:0:0:
366,32,739755,2,0,P|295:58|244:107,1,125.999996154785,10|0,0:0|0:0,0:0:0:0:
417,331,740108,38,0,B|399:284|335:273|335:273|307:319|216:326,1,188.999994232178,6|0,0:0|0:0,0:0:0:0:
171,345,740461,2,0,P|185:317|173:249,1,62.9999980773926,8|0,0:0|0:0,0:0:0:0:
132,198,740638,1,2,0:0:0:0:
14,280,740814,2,0,B|1:310|1:310|106:290,1,125.999996154785,0|0,1:0|0:0,0:0:0:0:
219,214,741079,1,0,0:0:0:0:
219,214,741167,2,0,L|303:226,1,62.9999980773926,10|0,0:0|0:0,0:0:0:0:
477,335,741344,1,0,0:0:0:0:
456,358,741432,1,0,0:0:0:0:
427,370,741520,38,0,P|376:348|381:258,1,125.999996154785,2|0,1:2|0:0,0:0:0:0:
405,192,741785,1,0,0:0:0:0:
430,206,741873,6,0,L|503:195,1,62.9999980773926,8|0,0:0|0:0,0:0:0:0:
297,146,742050,2,0,L|224:135,1,62.9999980773926
500,201,742226,6,0,L|437:210,1,62.9999980773926,0|0,1:0|0:0,0:0:0:0:
293,139,742402,2,0,L|220:128,1,62.9999980773926,2|0,0:0|0:0,0:0:0:0:
62,321,742579,2,0,P|165:290|212:324,1,125.999996154785,10|2,0:0|0:0,0:0:0:0:
71,197,742844,1,0,0:0:0:0:
71,197,742932,37,0,1:0:0:0:
86,129,743020,1,0,1:0:0:0:
142,88,743108,1,0,1:0:0:0:
211,85,743197,1,0,1:0:0:0:
270,120,743285,1,0,1:0:0:0:
304,179,743373,1,0,1:0:0:0:
363,214,743461,1,0,1:0:0:0:
432,215,743550,1,0,1:0:0:0:
484,168,743638,38,0,L|472:114,2,31.4999990386963,8|8|8,0:0|0:0|0:0,0:0:0:0:
505,255,743814,1,0,1:0:0:0:
505,255,743902,1,0,1:0:0:0:
459,310,743991,5,8,0:0:0:0:
460,322,744079,1,8,0:0:0:0:
462,334,744167,1,8,0:0:0:0:
464,346,744255,1,8,0:0:0:0:
466,358,744344,5,0,1:0:0:0:
333,292,744520,2,0,P|344:268|363:241,1,45,0|0,3:0|0:0,0:0:0:0:
257,316,744873,2,0,P|254:284|262:251,1,45,0|0,3:0|0:0,0:0:0:0:
199,372,745226,2,0,P|185:354|176:321,1,45,0|0,3:0|0:0,0:0:0:0:
221,184,745579,38,0,P|184:207|144:212,1,67.5,0|0,1:0|0:0,0:0:0:0:
160,211,745932,1,0,1:0:0:0:
35,185,746108,1,0,1:0:0:0:
134,103,746285,38,0,P|145:113|159:144,1,45,0|0,3:0|0:0,0:0:0:0:
52,312,746638,2,0,P|62:286|82:258,1,45,0|0,3:0|0:0,0:0:0:0:
244,258,746991,1,0,3:0:0:0:
244,258,747079,1,0,3:0:0:0:
244,258,747167,6,0,P|258:303|262:349,1,72,4|0,0:0|0:0,0:0:0:0:
326,215,747520,2,0,P|352:268|363:304,1,72,2|0,0:0|0:0,0:0:0:0:
153,128,747873,2,0,P|139:173|135:219,1,72,2|0,0:0|0:0,0:0:0:0:
71,85,748226,2,0,P|45:138|34:174,1,72,2|0,0:0|0:0,0:0:0:0:
261,65,748579,5,2,0:0:0:0:
285,61,748667,1,2,0:0:0:0:
309,57,748755,1,2,0:0:0:0:
334,53,748844,1,2,0:0:0:0:
358,49,748932,1,2,0:0:0:0:
382,45,749020,1,2,0:0:0:0:
406,41,749108,1,2,0:0:0:0:
431,37,749197,1,2,0:0:0:0:
456,31,749285,38,0,L|485:25,6,18,2|0|0|0|0|0|0,0:0|0:0|0:0|0:0|0:0|0:0|0:0,0:0:0:0:
480,105,749638,2,0,L|509:99,6,18,2|0|0|0|0|0|0,0:0|0:0|0:0|0:0|0:0|0:0|0:0,0:0:0:0:
460,194,749991,1,2,0:0:0:0:
460,194,750344,37,0,1:0:0:0:
318,143,750461,1,0,1:0:0:0:
480,105,750579,1,0,1:0:0:0:
272,227,750697,1,4,1:2:0:0:
297,243,751050,5,0,1:2:0:0:
206,88,751167,1,0,1:2:0:0:
182,270,751285,1,0,1:2:0:0:
305,60,751402,1,4,1:2:0:0:
298,102,751755,5,0,1:2:0:0:
75,132,751873,1,0,1:2:0:0:
251,209,751991,1,0,1:2:0:0:
127,33,752108,1,4,1:2:0:0:
148,14,752461,37,4,1:2:0:0:
232,164,752579,1,4,1:2:0:0:
65,222,752697,1,4,1:2:0:0:
137,384,752814,1,4,1:2:0:0:
256,192,752902,12,0,754138,0:0:0:0:
256,192,754226,12,0,757050,0:0:0:0:
214,66,766860,6,0,P|261:51|330:102,1,135,10|0,0:0|0:0,0:0:0:0:
424,178,767110,2,0,L|435:30,1,148.50000453186,10|0,0:1|0:0,0:0:0:0:
321,134,767360,6,0,L|327:223,1,90,10|0,0:0|0:0,0:0:0:0:
436,317,767610,1,10,0:0:0:0:
264,365,767735,1,8,0:0:0:0:
471,334,767860,2,0,P|482:296|477:245,2,90,10|8|2,0:0|0:1|0:0,0:0:0:0:
373,156,768235,1,8,0:0:0:0:
205,291,768360,86,0,L|351:280,1,144,14|10,0:0|0:0,0:0:0:0:
222,190,768735,1,0,0:0:0:0:
222,190,768860,1,2,0:0:0:0:
66,370,769110,2,0,L|61:298,1,72,10|0,0:1|0:0,0:0:0:0:
52,173,769360,5,10,0:0:0:0:
52,173,769860,2,0,P|98:145|165:158,1,108,2|0,0:0|0:0,0:0:0:0:
116,222,770110,1,10,0:0:0:0:
116,222,770235,1,8,0:1:0:0:
274,160,770360,6,0,L|284:13,1,144,10|2,0:0|0:0,0:0:0:0:
161,123,770735,1,0,0:0:0:0:
161,123,770860,85,2,0:0:0:0:
350,251,771110,2,0,L|344:162,1,72,10|0,0:1|0:0,0:0:0:0:
460,94,771360,6,0,P|409:45|339:52,1,144,10|8,0:0|0:0,0:0:0:0:
241,154,771735,1,8,0:0:0:0:
350,251,771860,2,0,L|354:179,2,72,10|10|10,0:0|0:0|0:1,0:0:0:0:
293,369,772235,1,10,0:1:0:0:
152,274,772360,6,0,P|218:252|284:294,1,144,10|0,0:0|0:0,0:0:0:0:
25,350,772860,1,2,0:0:0:0:
211,330,773110,1,10,0:1:0:0:
91,133,773360,85,10,0:0:0:0:
114,317,773610,1,10,0:0:0:0:
281,243,773860,2,0,L|162:226,1,108,10|0,0:1|0:0,0:0:0:0:
138,223,774110,1,2,0:0:0:0:
138,223,774235,1,8,0:1:0:0:
207,384,774360,6,0,P|214:348|212:313,1,72,2|0,0:0|0:0,0:0:0:0:
169,144,774610,1,10,0:1:0:0:
22,361,774860,2,0,L|93:356,1,72,10|0,0:0|0:0,0:0:0:0:
295,342,775110,1,10,0:1:0:0:
20,236,775360,5,10,0:0:0:0:
130,297,775485,1,8,0:0:0:0:
22,361,775610,1,8,0:1:0:0:
22,361,775860,85,10,0:0:0:0:
130,297,775985,1,8,0:1:0:0:
20,236,776110,1,10,0:1:0:0:
128,172,776235,1,8,0:1:0:0:
20,236,776360,6,0,L|9:66,1,161.999995056153,14|10,0:0|0:1,0:0:0:0:
233,293,776860,2,0,L|244:123,1,161.999995056153,10|10,0:0|0:1,0:0:0:0:
95,384,777360,6,0,L|84:214,1,161.999995056153,10|10,0:0|0:1,0:0:0:0:
349,336,777860,2,0,L|360:166,1,161.999995056153,10|10,0:0|0:1,0:0:0:0:
390,53,778235,1,2,0:0:0:0:
303,106,778360,86,0,P|363:155|440:140,1,161.999995056153,10|10,0:0|0:1,0:0:0:0:
188,29,778860,2,0,P|111:13|50:62,1,161.999995056153,10|10,0:0|0:1,0:0:0:0:
227,264,779360,6,0,P|236:220|233:178,1,80.9999975280763,10|8,0:0|0:0,0:0:0:0:
136,91,779610,1,8,0:1:0:0:
269,31,779735,1,8,0:0:0:0:
105,97,779860,2,0,P|65:93|25:86,2,80.9999975280763,10|2|10,0:0|0:0|0:1,0:0:0:0:
234,184,780235,1,10,0:1:0:0:
98,342,780360,6,0,B|95:300|106:269|106:269|101:252|101:252|117:220|110:170,1,161.999995056153,10|8,0:0|0:0,0:0:0:0:
216,32,780860,2,0,L|302:38,1,80.9999975280763,10|0,0:0|0:0,0:0:0:0:
369,178,781110,2,0,L|288:183,1,80.9999975280763,10|0,0:1|0:0,0:0:0:0:
129,311,781360,86,0,L|123:225,1,80.9999975280763,10|0,0:0|0:0,0:0:0:0:
284,374,781610,2,0,L|290:288,1,80.9999975280763,10|0,0:1|0:0,0:0:0:0:
129,311,781860,2,0,L|123:225,1,80.9999975280763,10|0,0:0|0:0,0:0:0:0:
284,374,782110,2,0,L|290:288,1,80.9999975280763,10|0,0:1|0:0,0:0:0:0:
453,316,782360,6,0,L|444:185,1,121.499996292114,10|0,0:0|0:0,0:0:0:0:
403,118,782610,2,0,L|409:32,1,80.9999975280763,8|0,0:1|0:0,0:0:0:0:
209,112,782860,1,8,0:0:0:0:
354,188,782985,1,0,0:0:0:0:
161,283,783110,2,0,L|155:197,1,80.9999975280763,10|0,0:1|0:0,0:0:0:0:
340,309,783360,5,10,0:0:0:0:
188,370,783485,1,8,0:0:0:0:
416,355,783610,2,0,P|425:308|421:274,1,80.9999975280763,10|0,0:1|0:0,0:0:0:0:
328,168,783860,1,10,0:0:0:0:
506,155,783985,2,0,P|458:123|388:128,1,121.499996292114,8|0,0:1|0:0,0:0:0:0:
328,168,784235,2,0,P|307:162|288:154,1,40.4999987640381,10|0,0:1|0:0,0:0:0:0:
345,202,784360,86,0,L|336:336,1,135,10|0,0:0|0:0,0:0:0:0:
261,384,784610,6,0,P|189:399|126:356,1,148.50000453186,10|0,0:0|0:0,0:0:0:0:
117,273,784860,6,0,P|194:257|259:300,1,161.999995056153,10|0,0:0|0:0,0:0:0:0:
336,336,785110,86,0,L|347:157,1,175.499991966248,10|0,0:0|0:0,0:0:0:0:
394,82,785360,5,10,0:0:0:0:
394,82,785860,6,0,P|358:70|316:72,1,72,10|0,0:0|0:0,0:0:0:0:
248,110,786110,2,0,P|194:112|143:96,1,108,2|0,0:0|0:0,0:0:0:0:
68,42,786360,86,0,B|57:90|57:90|79:208,1,161.999995056153,10|0,0:0|0:0,0:0:0:0:
152,268,786610,1,10,0:1:0:0:
22,342,786735,1,2,0:0:0:0:
264,384,786860,2,0,L|276:264,1,107.999996704102,10|0,0:0|0:0,0:0:0:0:
224,130,787110,1,10,0:1:0:0:
367,230,787235,1,2,0:0:0:0:
473,97,787360,6,0,L|366:112,1,107.999996704102,10|0,0:0|0:0,0:0:0:0:
224,130,787610,1,10,0:1:0:0:
403,19,787735,1,2,0:0:0:0:
363,252,787860,1,10,0:0:0:0:
269,31,787985,1,2,0:0:0:0:
478,206,788110,1,10,0:1:0:0:
248,298,788235,1,2,0:0:0:0:
478,206,788360,6,0,P|497:160|492:98,1,107.999996704102,10|2,0:0|0:0,0:0:0:0:
269,31,788610,1,10,0:1:0:0:
424,142,788735,1,10,0:1:0:0:
219,117,788860,1,10,0:0:0:0:
403,19,788985,1,2,0:0:0:0:
386,247,789110,2,0,L|395:131,1,107.999996704102,10|2,0:1|0:0,0:0:0:0:
228,341,789360,85,10,0:0:0:0:
310,161,789485,1,8,0:0:0:0:
114,180,789610,2,0,P|96:237|105:296,1,107.999996704102,10|2,0:1|0:0,0:0:0:0:
228,341,789860,1,10,0:0:0:0:
206,134,789985,1,8,0:1:0:0:
81,198,790110,1,8,0:1:0:0:
318,279,790235,1,8,0:1:0:0:
67,359,790360,6,0,L|81:189,1,161.999995056153,10|0,0:0|0:0,0:0:0:0:
89,109,790610,1,10,0:1:0:0:
189,245,790735,1,2,0:0:0:0:
303,122,790860,2,0,L|311:14,1,107.999996704102,10|0,0:0|0:0,0:0:0:0:
386,206,791110,1,10,0:1:0:0:
417,92,791235,1,2,0:0:0:0:
272,236,791360,6,0,L|263:343,1,107.999996704102,10|0,0:0|0:0,0:0:0:0:
137,114,791610,2,0,L|128:221,1,107.999996704102,10|2,0:1|0:0,0:0:0:0:
311,14,791860,2,0,L|302:121,1,107.999996704102,10|0,0:0|0:0,0:0:0:0:
272,236,792110,1,10,0:1:0:0:
218,55,792235,1,2,0:0:0:0:
401,98,792360,86,0,P|415:158|405:211,1,107.999996704102,10|0,0:0|0:0,0:0:0:0:
298,353,792610,1,10,0:1:0:0:
482,299,792735,1,10,0:1:0:0:
298,353,792860,2,0,L|182:344,1,107.999996704102,10|0,0:0|0:0,0:0:0:0:
268,190,793110,1,10,0:1:0:0:
98,295,793235,1,2,0:0:0:0:
103,51,793360,5,10,0:0:0:0:
173,227,793485,1,8,0:0:0:0:
340,139,793610,2,0,P|351:79|348:28,1,107.999996704102,8|0,0:1|0:0,0:0:0:0:
230,82,793860,1,8,0:0:0:0:
432,128,793985,1,8,0:1:0:0:
243,210,794110,1,10,0:1:0:0:
348,32,794235,1,10,0:1:0:0:
367,238,794360,6,0,B|347:362|347:362|336:314,1,161.999995056153,10|0,0:0|0:0,0:0:0:0:
283,274,794610,1,10,0:1:0:0:
449,348,794735,1,2,0:0:0:0:
503,192,794860,2,0,L|512:80,1,107.999996704102,10|0,0:0|0:0,0:0:0:0:
353,138,795110,1,10,0:1:0:0:
476,270,795235,1,2,0:0:0:0:
353,138,795360,86,0,L|346:30,1,107.999996704102,10|0,0:0|0:0,0:0:0:0:
144,110,795610,1,10,0:1:0:0:
242,171,795735,1,10,0:1:0:0:
76,27,795860,1,10,0:0:0:0:
106,253,795985,1,2,0:0:0:0:
251,56,796110,1,10,0:1:0:0:
221,282,796235,1,2,0:0:0:0:
26,160,796360,6,0,P|70:140|133:154,1,107.999996704102,10|2,0:0|0:0,0:0:0:0:
303,221,796610,1,10,0:1:0:0:
160,352,796735,1,10,0:1:0:0:
271,121,796860,1,10,0:0:0:0:
290,329,796985,1,2,0:0:0:0:
89,271,797110,2,0,P|78:217|82:163,1,107.999996704102,10|2,0:1|0:0,0:0:0:0:
192,45,797360,5,10,0:0:0:0:
18,95,797485,1,10,0:0:0:0:
192,45,797610,2,0,L|300:60,1,107.999996704102,10|0,0:1|0:0,0:0:0:0:
456,142,797860,1,10,0:0:0:0:
264,199,797985,1,8,0:1:0:0:
373,109,798110,1,8,0:1:0:0:
356,318,798235,1,8,0:1:0:0:
178,221,798360,86,0,L|165:56,1,161.999995056153,10|0,0:0|0:0,0:0:0:0:
80,20,798610,1,10,0:1:0:0:
250,98,798735,1,2,0:0:0:0:
83,210,798860,2,0,L|76:102,1,107.999996704102,10|0,0:0|0:0,0:0:0:0:
197,303,799110,1,10,0:1:0:0:
22,353,799235,1,2,0:0:0:0:
214,299,799360,6,0,B|225:255|225:255|220:191,1,107.999996704102,10|8,0:0|0:0,0:0:0:0:
74,53,799610,2,0,B|106:84|106:84|164:112,1,107.999996704102,10|2,0:1|0:0,0:0:0:0:
356,53,799860,2,0,B|312:65|312:65|259:101,1,107.999996704102,10|0,0:0|0:0,0:0:0:0:
122,203,800110,1,10,0:1:0:0:
318,181,800235,1,2,0:0:0:0:
122,203,800360,6,0,P|103:152|109:95,1,107.999996704102,10|0,0:0|0:0,0:0:0:0:
356,53,800610,1,10,0:1:0:0:
189,140,800735,1,10,0:1:0:0:
374,244,800860,86,0,P|392:193|387:140,1,107.999996704102,10|0,0:0|0:0,0:0:0:0:
232,32,801110,1,10,0:1:0:0:
444,75,801235,1,2,0:0:0:0:
292,214,801360,5,10,0:0:0:0:
292,214,801485,1,8,0:0:0:0:
463,324,801610,2,0,L|469:216,1,107.999996704102,10|0,0:1|0:0,0:0:0:0:
444,75,801860,2,0,P|355:68|304:130,1,161.999995056153,10|0,0:0|0:0,0:0:0:0:
305,134,802110,1,2,0:0:0:0:
395,152,802235,1,2,0:0:0:0:
221,296,802360,5,14,0:0:0:0:
72,268,815266,102,0,P|77:263|64:266,1,33.7500012874604,0|0,1:0|0:0,0:0:0:0:
1,307,815497,5,0,1:0:0:0:
66,343,815612,1,0,1:0:0:0:
136,322,815727,2,0,P|150:297|153:270,1,45,8|0,0:0|0:0,0:0:0:0:
122,133,815958,53,0,1:0:0:0:
137,206,816073,1,0,1:0:0:0:
200,156,816189,38,0,P|202:124|179:97,1,45,4|0,0:0|0:0,0:0:0:0:
255,208,816420,5,0,1:0:0:0:
278,139,816535,2,0,L|290:82,1,45,8|0,0:0|1:0,0:0:0:0:
255,208,816766,53,0,0:0:0:0:
325,196,816881,2,0,P|350:178|412:193,1,90,8|0,0:0|1:0,0:0:0:0:
492,165,817227,37,2,0:2:0:0:
446,201,817343,1,2,0:2:0:0:
420,255,817458,1,2,0:2:0:0:
443,327,817573,5,10,0:2:0:0:
451,325,817689,1,2,0:2:0:0:
456,332,817804,1,2,0:2:0:0:
453,340,817920,1,2,0:2:0:0:
378,368,818035,54,0,P|361:346|334:339,1,45,0|0,1:0|0:0,0:0:0:0:
286,263,818266,37,0,1:0:0:0:
265,384,818381,2,0,L|275:320,1,45,8|0,0:0|1:0,0:0:0:0:
288,256,818612,5,0,0:0:0:0:
196,338,818727,2,0,P|148:351|110:317,1,90,8|0,0:0|1:0,0:0:0:0:
51,280,819073,53,2,0:2:0:0:
57,271,819189,2,0,L|47:207,1,45,2|2,0:2|0:2,0:0:0:0:
9,168,819420,1,10,0:2:0:0:
66,143,819535,1,2,0:2:0:0:
99,90,819650,1,2,0:2:0:0:
115,28,819766,37,4,1:2:0:0:
118,100,819881,2,0,B|178:109|163:78|222:92,1,90,0|0,0:0|1:0,0:0:0:0:
268,140,820227,1,0,1:0:0:0:
275,189,820343,2,0,P|264:152|271:129,1,45,8|0,0:0|0:0,0:0:0:0:
340,2,820573,1,0,1:0:0:0:
310,71,820689,6,0,B|352:100|347:137|347:137|325:157,1,90,10|0,0:0|0:0,0:0:0:0:
224,255,821035,2,0,L|178:250,1,45
256,336,821266,53,8,0:0:0:0:
300,291,821381,1,0,0:0:0:0:
364,275,821497,1,0,1:0:0:0:
424,290,821612,38,0,P|449:308|458:328,1,45,10|2,0:0|1:2,0:0:0:0:
475,186,821843,1,2,0:0:0:0:
451,217,821958,1,2,0:0:0:0:
414,205,822074,1,2,0:0:0:0:
414,166,822189,1,10,0:0:0:0:
451,153,822304,5,2,0:0:0:0:
381,185,822420,1,2,0:0:0:0:
309,162,822535,1,2,0:0:0:0:
271,91,822650,54,0,P|265:52|273:9,1,67.5000025749208,0|0,1:0|0:0,0:0:0:0:
296,166,822881,37,8,0:0:0:0:
213,154,822997,2,0,P|187:124|181:101,1,56.25,0|0,1:0|0:0,0:0:0:0:
287,177,823227,5,0,1:0:0:0:
232,234,823343,2,0,P|190:236|177:233,1,45,8|0,0:0|0:0,0:0:0:0:
42,180,823573,54,0,P|80:197|99:229,1,67.5,4|0,1:2|0:0,0:0:0:0:
105,220,823804,38,0,B|99:289|99:289|97:292|97:292|89:380,2,135.000005149842,2|10|2,0:0|0:0|0:0,0:0:0:0:
112,78,824497,6,0,P|94:107|95:127,1,45,0|0,1:2|0:0,0:0:0:0:
9,149,824727,2,0,P|31:175|50:180,1,45,2|0,0:0|0:0,0:0:0:0:
227,139,824958,54,0,B|191:145|191:145|188:150|188:150|134:162,1,67.5000025749208,10|0,0:0|0:0,0:0:0:0:
0,6,825189,2,0,B|25:11|25:11|28:16|28:16|63:22,1,67.5000025749208,2|0,0:0|0:0,0:0:0:0:
332,58,825420,38,0,P|309:128|308:185,1,114.750002188683,0|0,1:2|0:0,0:0:0:0:
310,185,825650,6,0,P|359:184|377:154,1,85.4999977169037,2|0,0:0|0:0,0:0:0:0:
490,230,825881,54,0,P|464:197|433:205,1,67.5000025749208,10|0,0:0|0:0,0:0:0:0:
387,257,826112,38,0,L|390:361,1,90,2|0,0:0|1:2,0:0:0:0:
400,358,826458,1,0,0:0:0:0:
474,368,826573,2,0,P|478:346|464:329,1,45,2|0,0:0|0:0,0:0:0:0:
312,349,826804,6,0,B|257:348|281:377|217:375,1,90,10|2,0:0|0:0,0:0:0:0:
216,367,827150,1,0,0:0:0:0:
189,290,827266,54,0,P|165:302|151:325,1,53.9999983520508,4|0,1:2|0:0,0:0:0:0:
9,220,827497,2,0,P|23:242|24:268,1,53.9999983520508,2|0,0:0|0:0,0:0:0:0:
56,384,827727,38,0,L|78:310,1,62.9999980773926,10|0,0:0|0:0,0:0:0:0:
46,114,827958,5,0,1:0:0:0:
80,184,828073,1,0,1:0:0:0:
155,215,828189,2,0,P|172:206|152:208,1,53.9999983520508,0|0,1:0|0:0,0:0:0:0:
170,117,828420,53,8,1:0:0:0:
139,87,828535,1,8,1:0:0:0:
140,44,828650,1,0,1:0:0:0:
162,52,828766,37,0,1:0:0:0:
162,80,828882,1,0,3:0:0:0:
176,103,828997,1,0,3:0:0:0:
256,96,829112,6,0,L|256:40,1,53.9999983520508,0|0,1:0|0:0,0:0:0:0:
256,24,829343,1,0,1:0:0:0:
224,168,829458,54,0,B|248:176|256:184|256:184|264:176|288:168,1,67.5000025749208,2|0,1:0|0:0,0:0:0:0:
293,164,829689,37,0,1:0:0:0:
219,189,829804,1,0,1:0:0:0:
275,247,829920,5,0,1:0:0:0:
256,320,830035,1,0,1:0:0:0:
256,320,830266,54,0,L|256:368,2,36
256,320,830958,38,0,B|327:318|276:352|378:354,1,99.0000030212403,4|0,1:2|0:0,0:0:0:0:
448,306,831189,1,0,1:0:0:0:
427,380,831304,6,0,P|425:316|448:227,1,148.50000453186,2|0,0:0|0:0,0:0:0:0:
451,217,831535,2,0,P|496:221|497:258,1,76.5000014591217
353,275,831766,1,0,0:0:0:0:
323,244,831881,54,0,P|318:202|330:152,1,76.5000014591217,0|0,1:0|0:0,0:0:0:0:
441,13,832112,38,0,L|431:57,1,45,0|0,1:0|1:0,0:0:0:0:
491,127,832343,6,0,B|440:117|402:158|402:158|390:103|337:90,1,198.000006042481,10|2,0:0|0:0,0:0:0:0:
266,114,832689,1,0,0:0:0:0:
163,1,832804,54,0,B|202:22|213:56|213:56|177:93|189:143,1,170.999995433807,0|0,1:2|1:0,0:0:0:0:
62,258,833150,2,0,P|111:219|135:213,1,85.4999977169037,2|8,0:0|0:0,0:0:0:0:
269,189,833381,37,0,0:0:0:0:
215,242,833497,2,0,P|234:276|237:340,1,101.250003862381
248,358,833727,6,0,B|226:313|161:322|184:353|93:323|114:289|150:257|169:311,1,198.000006042481,0|0,1:0|0:0,0:0:0:0:
168,308,834189,54,0,P|87:315|13:365,1,148.50000453186,8|0,0:0|0:0,0:0:0:0:
23,357,834420,38,0,P|61:364|80:296,1,112.5,2|0,0:0|0:0,0:0:0:0:
19,92,834650,6,0,P|-5:157|4:203,1,112.5,0|0,1:2|0:0,0:0:0:0:
75,145,834881,2,0,P|76:183|124:224,1,103.500001974106,0|0,0:0|1:0,0:0:0:0:
146,150,835112,2,0,P|189:118|188:81,1,94.499997116089,8|0,0:0|0:0,0:0:0:0:
121,54,835343,2,0,P|105:41|112:74,1,80.9999975280763,2|0,1:2|0:0,0:0:0:0:
202,218,835573,54,0,P|217:205|210:238,1,80.9999975280763,0|0,1:0|0:0,0:0:0:0:
175,359,835804,2,0,P|198:320|244:317,1,94.499997116089,0|0,0:0|1:0,0:0:0:0:
301,261,836035,2,0,P|322:321|312:363,1,103.500001974106,8|0,0:0|0:0,0:0:0:0:
433,375,836266,38,0,P|401:298|413:195,1,168.75,2|0,1:2|0:0,0:0:0:0:
410,197,836497,6,0,B|429:185|451:176|451:176|324:188|324:188|351:177|358:166,1,207.000003948212,0|0,1:2|1:0,0:0:0:0:
454,97,836843,54,0,P|471:51|451:1,1,103.500001974106,2|8,0:0|0:0,0:0:0:0:
373,8,837073,38,0,B|342:59|375:102|375:102|335:86|290:122,1,170.999995433807
255,172,837420,6,0,B|197:167|197:167|193:170|193:170|122:164,1,135.000005149842,0|2,1:0|0:0,0:0:0:0:
121,164,837881,54,0,P|97:141|91:105,1,67.5000025749208,10|0,0:0|0:0,0:0:0:0:
202,40,838112,2,0,P|175:60|165:92,1,67.5000025749208,2|0,0:0|0:0,0:0:0:0:
17,233,838343,38,0,B|-3:235|-23:206|10:195|92:203|84:314,1,170.999995433807,4|0,1:2|0:0,0:0:0:0:
9,313,838689,2,0,P|24:352|60:375,1,85.4999977169037,0|8,1:0|0:0,0:0:0:0:
137,361,838920,5,0,0:0:0:0:
161,286,839035,2,0,B|237:282|210:322|291:314,1,128.249996575356,2|0,0:0|0:0,0:0:0:0:
297,308,839266,54,0,L|303:249,1,45,0|0,1:0|0:0,0:0:0:0:
313,116,839497,38,0,P|298:171|323:201,1,80.9999975280763,2|0,0:0|0:0,0:0:0:0:
512,256,839727,2,0,P|471:215|433:222,1,80.9999975280763,10|0,0:0|0:0,0:0:0:0:
337,378,839958,6,0,B|369:348|369:348|375:267,1,121.499996292114,2|0,0:0|0:0,0:0:0:0:
376,254,840189,54,0,L|381:193,1,45,0|0,1:2|0:0,0:0:0:0:
360,5,840420,37,0,1:0:0:0:
415,57,840535,2,0,B|393:77|393:77|389:132,1,80.9999975280763,2|8,0:0|0:0,0:0:0:0:
447,283,840766,6,0,B|479:293|506:335|506:335|496:289|511:255,1,161.999995056153
379,209,841112,54,0,B|356:157|371:88|371:88|330:151|281:166,1,242.999992584229,2|0,1:2|1:0,0:0:0:0:
307,256,841573,1,8,0:0:0:0:
307,256,841804,1,0,1:0:0:0:
258,338,842035,38,0,P|246:322|244:337,1,45,2|0,1:2|0:0,0:0:0:0:
226,225,842266,2,0,P|211:243|209:226,1,53.9999983520508
166,332,842497,2,0,P|149:310|147:330,1,62.9999980773926,10|0,0:0|0:0,0:0:0:0:
121,204,842727,2,0,P|102:228|99:205,1,72,2|0,0:0|0:0,0:0:0:0:
37,61,842958,6,0,B|75:12|226:0|257:138|234:166|157:152|165:70,1,310.500005922318,2|0,1:2|0:0,0:0:0:0:
261,30,843420,54,0,B|301:25|301:25|306:26|306:26|308:22|308:22|312:24|312:24|362:19,1,90,10|0,0:0|0:0,0:0:0:0:
121,204,843650,2,0,B|85:200|85:200|81:202|81:202|79:198|79:198|74:199|74:199|34:194,1,90,2|0,0:0|0:0,0:0:0:0:
216,366,843881,38,0,P|211:286|240:245,1,121.499996292114,0|0,1:2|0:0,0:0:0:0:
242,246,844112,2,0,P|274:246|247:272,1,80.9999975280763
347,235,844343,6,0,B|404:219|380:246|442:220,1,80.9999975280763,12|0,0:0|0:0,0:0:0:0:
173,112,844573,2,0,B|116:96|140:123|78:97,1,80.9999975280763,2|0,0:0|0:0,0:0:0:0:
261,30,844804,53,0,1:0:0:0:
264,56,844920,1,0,1:0:0:0:
256,80,845035,1,0,1:0:0:0:
256,104,845150,1,0,1:0:0:0:
266,180,845266,37,0,3:0:0:0:
286,174,845381,1,0,3:0:0:0:
242,246,845497,1,0,3:0:0:0:
222,240,845612,1,0,3:0:0:0:
256,320,845727,6,0,B|185:318|236:352|134:354,1,99.0000030212403,4|0,1:2|0:0,0:0:0:0:
64,306,845958,1,0,1:0:0:0:
85,380,846073,54,0,P|87:316|64:227,1,148.50000453186,2|0,0:0|0:0,0:0:0:0:
61,217,846304,2,0,P|16:221|15:258,1,76.5000014591217
159,275,846535,1,0,0:0:0:0:
142,201,846650,38,0,P|136:165|168:148,1,76.5000014591217,0|0,1:0|0:0,0:0:0:0:
108,50,846881,6,0,P|122:40|117:58,1,45,0|0,1:0|1:0,0:0:0:0:
10,107,847112,54,0,B|51:123|130:129|68:63|170:62|214:83,1,198.000006042481,10|2,0:0|0:0,0:0:0:0:
244,143,847458,1,0,0:0:0:0:
337,2,847573,38,0,P|322:75|325:167,1,128.249996575356,0|0,1:2|0:0,0:0:0:0:
326,143,847804,1,0,1:0:0:0:
394,183,847920,2,0,P|423:157|392:120,1,85.4999977169037,2|8,0:0|0:0,0:0:0:0:
244,143,848150,5,0,0:0:0:0:
205,209,848266,2,0,P|231:248|244:303,1,101.250003862381
238,315,848497,54,0,B|261:302|291:305|321:324|299:323|319:367|401:347|397:315|363:271|343:307,1,198.000006042481,0|0,1:0|0:0,0:0:0:0:
344,308,848958,38,0,P|425:315|499:365,1,148.50000453186,8|0,0:0|0:0,0:0:0:0:
489,357,849189,6,0,P|451:364|432:296,1,112.5,2|0,0:0|0:0,0:0:0:0:
493,92,849420,54,0,P|517:157|508:203,1,112.5,0|0,1:2|0:0,0:0:0:0:
437,145,849651,2,0,P|436:183|388:224,1,103.500001974106,0|0,0:0|1:0,0:0:0:0:
366,150,849882,2,0,P|323:118|324:81,1,94.499997116089,8|0,0:0|0:0,0:0:0:0:
391,54,850112,2,0,P|407:41|400:74,1,80.9999975280763,2|0,1:2|0:0,0:0:0:0:
310,218,850343,38,0,P|295:205|302:238,1,80.9999975280763,0|0,1:0|0:0,0:0:0:0:
337,359,850574,2,0,P|314:320|268:317,1,94.499997116089,0|0,0:0|1:0,0:0:0:0:
211,261,850805,2,0,P|190:321|200:363,1,103.500001974106,8|0,0:0|0:0,0:0:0:0:
79,375,851036,6,0,P|111:298|99:195,1,168.75,2|0,1:2|0:0,0:0:0:0:
101,202,851266,54,0,B|134:194|150:168|150:168|169:184|206:183,1,112.5,0|0,1:2|0:0,0:0:0:0:
197,109,851497,1,0,1:0:0:0:
74,68,851612,38,0,B|78:55|53:42|39:64|42:113|88:133,1,112.5,2|8,0:0|0:0,0:0:0:0:
267,151,851843,6,0,P|265:88|283:14,1,135.000005149842
281,18,852189,54,0,P|342:26|367:69,1,99.0000030212403,0|0,1:0|0:0,0:0:0:0:
435,57,852420,38,0,P|478:127|479:171,1,107.999996704102,2|0,0:0|0:0,0:0:0:0:
495,233,852650,6,0,B|399:235|439:167|329:175,1,175.499991966248,10|0,0:0|0:0,0:0:0:0:
331,180,852881,54,0,P|333:210|343:217,1,33.7500012874604,2|0,0:0|0:0,0:0:0:0:
495,233,853112,38,0,B|515:235|535:206|502:195|420:203|428:314,1,170.999995433807,4|0,1:2|0:0,0:0:0:0:
503,313,853458,2,0,P|488:352|452:375,1,85.4999977169037,0|8,1:0|0:0,0:0:0:0:
375,361,853689,5,0,0:0:0:0:
351,286,853804,2,0,B|275:282|302:322|221:314,1,128.249996575356,2|0,0:0|0:0,0:0:0:0:
220,306,854035,54,0,L|169:298,1,45,0|0,1:0|0:0,0:0:0:0:
23,350,854266,38,0,B|9:373|-1:336|7:293|51:317|73:290|79:244,1,130.500003982544,2|0,0:0|0:0,0:0:0:0:
3,171,854497,6,0,B|16:162|17:142|-2:143|-40:216|31:258,1,107.999996704102,10|0,0:0|0:0,0:0:0:0:
77,190,854727,54,0,L|112:188,1,33.7500012874604,2|0,0:0|0:0,0:0:0:0:
206,29,854958,38,0,P|188:46|177:120,1,90,0|0,1:2|0:0,0:0:0:0:
178,245,855189,6,0,P|199:206|258:188,1,99.0000030212403,0|2,1:0|0:0,0:0:0:0:
502,190,855420,54,0,B|468:186|441:195|441:195|452:178|454:137,1,107.999996704102,8|0,0:0|0:0,0:0:0:0:
274,91,855650,38,0,B|259:49|180:99|291:135|269:111|314:109|436:117|413:164|353:161|351:144,1,233.999989288331,0|0,1:0|1:0,0:0:0:0:
351,145,856112,6,0,P|346:94|351:72,1,67.5000025749208,0|0,0:0|1:0,0:0:0:0:
469,26,856343,2,0,B|459:48|419:50|419:50|405:16|360:5,1,135.000005149842,8|0,0:0|1:0,0:0:0:0:
256,217,856804,53,6,1:2:0:0:
256,233,856920,1,2,3:0:0:0:
256,249,857035,1,2,3:0:0:0:
256,265,857150,1,2,3:0:0:0:
232,303,857266,37,0,1:0:0:0:
299,263,857381,1,0,1:0:0:0:
279,303,857497,5,0,1:0:0:0:
212,263,857612,2,0,B|163:250|140:269|158:290|128:306|71:294,1,135.000005149842,4|0,1:2|0:0,0:0:0:0:
21,264,857958,53,4,1:2:0:0:
21,264,858189,37,2,0:0:0:0:
31,243,858304,1,2,0:0:0:0:
6,158,858420,5,2,0:0:0:0:
66,104,858535,1,2,0:0:0:0:
4,8,858650,53,4,0:0:0:0:
69,125,869202,70,0,P|151:72|246:82,1,180,2|0,0:0|3:2,0:0:0:0:
230,75,870097,2,0,P|312:22|407:32,1,180,2|0,0:0|3:2,0:0:0:0:
391,25,870993,6,0,B|405:117|345:111|371:224,1,180,2|0,0:0|3:2,0:0:0:0:
445,173,871888,2,0,B|459:265|399:259|425:372,1,180,2|0,0:0|3:2,0:0:0:0:
208,192,872784,21,2,0:0:0:0:
304,176,873008,1,2,0:0:0:0:
158,186,873231,69,2,3:2:0:0:
353,181,873455,1,2,0:0:0:0:
110,167,873679,5,2,0:0:0:0:
401,200,873903,1,2,0:0:0:0:
67,135,874127,21,2,3:2:0:0:
444,232,874351,1,2,0:0:0:0:
38,226,874575,70,0,P|-21:118|40:48,1,225,10|0,0:0|0:0,0:0:0:0:
117,62,874911,1,10,0:0:0:0:
307,298,875246,5,2,3:2:0:0:
338,316,875321,5,0,3:0:0:0:
389,318,875396,5,0,3:0:0:0:
435,278,875470,6,0,B|476:160|384:171|435:28,1,225,10|0,0:0|0:0,0:0:0:0:
508,3,875806,1,10,0:0:0:0:
27,219,876142,21,2,0:0:0:0:
52,304,876254,1,2,0:0:0:0:
125,356,876366,1,10,0:0:0:0:
54,129,876590,1,8,0:0:0:0:
52,304,876813,69,8,0:0:0:0:
173,46,877037,1,8,0:0:0:0:
285,384,877261,5,8,0:0:0:0:
69,13,877485,1,8,0:0:0:0:
69,13,877597,1,8,0:0:0:0:
69,13,877709,2,0,P|127:21|176:48,2,112.5,8|0|0,0:0|0:0|0:0,0:0:0:0:
112,133,878157,22,0,B|303:148|208:21|402:32,1,315.000003004074,6|0,0:0|0:0,0:0:0:0:
456,88,878493,5,2,0:0:0:0:
494,19,878605,2,0,P|473:10|465:8,1,22.5,2|0,0:0|0:0,0:0:0:0:
349,126,878828,6,0,B|370:259|268:236|291:386,1,270.000010299683,6|0,0:0|0:0,0:0:0:0:
242,142,879164,1,0,0:0:0:0:
242,142,879276,2,0,B|267:274|355:218|385:367,1,270.000010299683,2|2,0:0|0:0,0:0:0:0:
290,381,879612,21,0,0:0:0:0:
473,340,879724,2,0,L|494:335,1,22.5,2|0,0:0|0:0,0:0:0:0:
509,151,879948,70,0,B|337:133|337:133|244:123|206:166,1,270.000010299683,6|0,0:0|0:0,0:0:0:0:
103,290,880284,6,0,P|73:293|105:284,1,90,2|0,0:0|0:0,0:0:0:0:
137,361,880619,22,0,P|23:212|119:192,1,360,6|0,0:0|0:0,0:0:0:0:
140,201,880955,1,0,0:0:0:0:
119,71,881067,70,0,L|113:28,1,22.5,2|0,0:0|0:0,0:0:0:0:
193,115,881291,2,0,L|233:131,1,22.5
117,157,881515,2,0,L|82:183,1,22.5,2|0,0:0|0:0,0:0:0:0:
204,35,881739,6,0,P|379:120|389:295,1,315.000003004074,2|0,0:0|0:0,0:0:0:0:
315,228,882075,2,0,P|388:68|522:31,1,315.000003004074,2|0,0:0|0:0,0:0:0:0:
512,110,882411,6,0,B|496:169|496:169|505:209|505:209|487:266,1,157.500001502037,2|0,0:0|0:0,0:0:0:0:
381,336,882634,22,0,B|188:327|308:212|34:203,1,360,2|0,0:0|0:0,0:0:0:0:
66,337,882970,2,0,B|259:328|139:213|413:204,1,360,2|0,0:0|0:0,0:0:0:0:
387,205,883306,70,0,L|390:243,1,22.5,2|0,0:0|0:0,0:0:0:0:
316,92,883530,6,0,P|149:-4|49:8,1,270.000010299683,2|0,0:0|0:0,0:0:0:0:
117,252,883866,2,0,P|283:155|323:62,1,270.000010299683,2|0,0:0|0:0,0:0:0:0:
77,0,884202,2,0,P|62:78|103:200,1,135.000005149842,2|0,0:0|0:0,0:0:0:0:
164,365,884425,1,2,0:1:0:0:
117,252,884537,1,2,0:1:0:0:
117,252,884761,21,2,0:1:0:0:
292,349,884985,2,2,B|353:356|353:356|269:325,1,135.000005149842,0|0,0:1|0:0,0:1:0:0:
169,236,885321,70,0,P|180:81|301:168,1,315.000003004074,6|0,0:0|0:0,0:0:0:0:
166,282,885657,2,0,P|111:94|318:92,1,450,2|0,0:0|0:0,0:0:0:0:
299,201,885993,6,0,P|246:198|216:162,1,101.250003862381,6|0,0:0|0:0,0:0:0:0:
500,193,886440,6,0,P|357:259|416:113,1,405.000015449525,2|0,0:0|0:0,0:0:0:0:
415,199,886888,1,2,0:0:0:0:
203,111,887112,70,0,B|242:34|128:-26|-3:97|161:167|139:261,1,360,6|0,0:0|0:0,0:0:0:0:
203,112,887448,2,0,B|230:29|354:67|359:247|194:180|142:261,1,360,2|0,0:0|0:0,0:0:0:0:
50,335,887784,6,0,L|41:379,1,33.7500012874604,6|0,0:0|0:0,0:0:0:0:
27,174,888008,1,2,0:0:0:0:
294,349,888231,5,2,0:0:0:0:
175,370,888343,1,2,0:0:0:0:
388,120,888679,70,0,L|399:88,1,33.7500012874604,2|0,0:0|0:0,0:0:0:0:
309,0,888903,6,0,P|364:148|409:335,1,315.000003004074,2|0,0:0|0:0,0:0:0:0:
498,158,889239,1,2,0:0:0:0:
467,266,889351,2,0,P|411:337|330:391,1,157.500001502037,2|0,0:0|0:0,0:0:0:0:
486,49,889575,1,2,0:0:0:0:
241,320,890022,22,0,B|144:266|144:266|117:222,1,157.500001502037,2|0,0:0|0:0,0:0:0:0:
6,205,890246,2,0,B|101:147|101:147|152:146,1,157.500001502037,2|0,0:0|0:0,0:0:0:0:
223,58,890470,2,0,B|225:167|225:167|200:213,1,157.500001502037,2|0,0:0|0:0,0:0:0:0:
270,322,890694,70,0,B|389:385|525:315|482:197|425:176,1,315.000003004074,6|0,0:0|0:0,0:0:0:0:
385,251,891030,1,6,0:0:0:0:
337,28,891366,6,0,L|352:91,1,45,2|0,0:0|0:0,0:0:0:0:
347,71,891590,22,0,B|242:82|242:82|170:150|170:150|-35:185,1,315.000003004074,6|0,0:0|0:0,0:0:0:0:
65,74,891925,2,0,B|170:84|170:84|242:152|242:152|447:187,1,315.000003004074,6|0,0:0|0:0,0:0:0:0:
449,183,892261,70,0,L|472:186,1,22.5,6|0,0:0|0:0,0:0:0:0:
124,173,892485,6,0,B|98:104|-50:172|7:309|147:286|181:377,1,360,6|0,0:0|0:0,0:0:0:0:
122,171,892821,2,0,B|110:100|273:82|294:230|163:281|179:367,1,360,2|0,0:0|0:0,0:0:0:0:
129,187,893157,22,0,L|140:226,1,33.75,6|0,0:0|0:0,0:0:0:0:
142,227,893605,70,0,P|250:85|488:328,1,600,2|0,0:0|0:0,0:0:0:0:
432,350,893940,5,0,0:0:0:0:
432,350,894052,2,0,L|399:357,1,33.7500012874604,2|0,0:0|0:0,0:0:0:0:
308,383,894276,22,0,P|359:166|162:140,1,450,6|0,0:0|0:0,0:0:0:0:
123,256,894612,2,0,P|72:39|269:13,1,450,2|0,0:0|0:0,0:0:0:0:
426,97,894948,70,0,P|412:67|421:102,1,101.250003862381,6|0,0:0|0:0,0:0:0:0:
433,222,895396,6,0,P|308:374|326:132,1,600,2|0,0:0|0:0,0:0:0:0:
346,144,895731,1,0,0:0:0:0:
346,144,895843,1,2,0:0:0:0:
316,252,896067,22,0,L|327:355,1,90,2|0,0:0|0:0,0:0:0:0:
248,135,896403,2,0,L|237:238,1,90,2|0,0:0|0:0,0:0:0:0:
325,13,896739,2,0,L|334:90,1,45,2|0,0:0|0:0,0:0:0:0:
348,148,896963,70,0,L|453:122,1,90,2|0,0:0|0:0,0:0:0:0:
170,42,897299,2,0,L|257:63,1,90,2|0,0:0|0:0,0:0:0:0:
54,145,897634,2,0,L|125:130,1,45,2|0,0:0|0:0,0:0:0:0:
193,240,897858,6,0,L|208:144,1,90,2|0,0:0|0:0,0:0:0:0:
154,347,898194,2,0,L|118:256,1,90,2|0,0:0|0:0,0:0:0:0:
274,327,898530,1,2,0:0:0:0:
442,102,898754,21,2,0:1:0:0:
492,249,898866,1,0,0:1:0:0:
492,249,899090,5,2,0:1:0:0:
222,107,899313,1,2,0:1:0:0:
222,107,899425,6,0,L|159:93,1,45,2|0,0:0|0:0,0:0:0:0:
28,115,899649,22,0,P|99:214|204:64,1,323.999990112305,6|0,0:0|0:0,0:0:0:0:
227,103,899985,2,0,P|126:225|20:114,1,341.999990867615,2|0,0:0|0:0,0:0:0:0:
16,33,900321,70,0,L|9:-6,1,33.75,6|0,0:0|0:0,0:0:0:0:
20,125,900769,6,0,B|54:294|219:159|277:383,1,360,2|0,0:0|0:0,0:0:0:0:
54,384,901105,1,0,0:0:0:0:
54,384,901216,2,0,P|55:299|140:207,1,180,2|0,0:0|0:0,0:0:0:0:
307,205,901440,22,0,L|413:219,1,90,6|0,0:0|0:0,0:0:0:0:
257,125,901776,2,0,L|363:139,1,90,2|0,0:0|0:0,0:0:0:0:
216,48,902112,70,0,L|322:62,1,90,6|0,0:0|0:0,0:0:0:0:
484,270,902336,1,2,0:0:0:0:
415,0,902560,5,2,0:0:0:0:
386,122,902672,1,2,0:0:0:0:
496,384,903008,22,0,L|482:326,1,45,2|0,0:0|0:0,0:0:0:0:
341,189,903231,2,0,L|333:296,1,90,2|0,0:0|0:0,0:0:0:0:
254,302,903567,2,0,L|350:255,1,90,2|0,0:0|0:0,0:0:0:0:
395,320,903903,70,0,L|306:259,1,90,2|0,0:0|0:0,0:0:0:0:
130,220,904127,1,0,0:0:0:0:
265,120,904351,5,2,0:0:0:0:
123,366,904575,1,2,0:0:0:0:
5,120,904799,1,2,0:0:0:0:
241,98,905022,22,0,B|431:113|321:252|570:252,1,323.999990112305,10|0,0:0|0:0,0:0:0:0:
276,271,905358,2,0,B|85:255|195:116|-53:116,1,323.999990112305,10|0,0:0|0:0,0:0:0:0:
0,210,905694,1,2,0:0:0:0:
241,98,905918,5,2,0:0:0:0:
301,177,906254,1,2,0:0:0:0:
276,271,906590,1,2,0:0:0:0:
32,384,906813,6,0,B|221:365|221:365|224:368|224:368|423:349,1,360,6|0,0:0|0:0,0:0:0:0:
394,340,907149,2,0,B|228:354|228:354|225:352|225:352|35:370,1,360,4|0,0:0|0:0,0:0:0:0:
0,265,907485,1,2,0:0:0:0:
176,136,907709,1,2,0:0:0:0:
61,162,907933,1,2,0:0:0:0:
248,298,908157,21,2,0:0:0:0:
299,315,908269,1,2,0:0:0:0:
353,316,908381,1,0,0:0:0:0:
403,296,908493,1,2,0:0:0:0:
438,255,908605,2,0,L|442:112,1,135.000005149842,8|8,0:0|0:0,0:0:0:0:
500,359,909052,1,8,0:0:0:0:
500,359,909276,69,8,0:0:0:0:
319,212,909388,1,8,0:0:0:0:
213,268,909500,1,8,0:0:0:0:
7,104,909724,6,2,L|0:69,3,33.7500012874604,10|2|2|2,0:0|0:0|0:0|0:0,0:0:0:0:
80,256,909948,2,0,P|135:255|240:278,1,135.000005149842,10|0,0:0|0:0,0:0:0:0:
336,282,910396,22,0,P|392:109|254:60,1,315.000003004074,4|0,0:0|0:0,0:0:0:0:
254,265,910731,2,0,P|363:233|333:86,1,270.000010299683,4|0,0:0|0:0,0:0:0:0:
204,191,911067,2,0,P|304:250|316:94,1,270,4|0,0:0|0:0,0:0:0:0:
223,136,911515,2,0,P|224:197|270:224,1,90,4|0,0:0|0:0,0:0:0:0:
8,32,911963,1,4,0:0:0:0:
353,261,919625,22,0,P|336:183|411:225,1,180,8|0,0:0|0:0,0:0:0:0:
406,196,920445,38,0,P|339:205|271:167,1,135,8|0,0:0|0:0,0:0:0:0:
267,93,920679,1,8,0:0:0:0:
443,121,920796,1,8,0:0:0:0:
331,260,920914,1,8,0:0:0:0:
378,61,921031,2,0,B|358:22|358:22|343:118|343:118|354:147|354:147|340:250,1,270.000010299683,8|0,0:0|0:0,0:0:0:0:
331,260,921500,5,4,3:2:0:0:
265,321,921617,1,0,0:0:0:0:
179,294,921734,2,0,P|153:255|146:191,1,90,10|0,0:0|0:0,0:0:0:0:
264,77,921968,2,0,P|243:119|191:157,1,90,2|0,3:2|0:0,0:0:0:0:
33,111,922203,2,0,P|79:107|138:133,1,90,10|0,0:0|0:0,0:0:0:0:
179,294,922437,6,0,P|245:321|324:320,1,135,2|0,3:2|0:0,0:0:0:0:
341,244,922671,1,10,0:0:0:0:
417,287,922789,2,0,P|399:326|391:377,1,90,2|0,0:0|3:0,0:0:0:0:
436,283,923023,2,0,P|473:248|408:211,1,135,2|0,0:0|0:0,0:0:0:0:
341,244,923257,2,0,P|308:278|255:292,1,90,2|0,0:0|3:0,0:0:0:0:
156,163,923492,5,0,0:0:0:0:
74,136,923609,2,0,P|58:178|66:228,1,90,10|0,0:0|0:0,0:0:0:0:
158,322,923843,2,0,P|165:277|197:238,1,90,2|0,3:2|0:0,0:0:0:0:
302,162,924078,2,0,L|151:148,1,135,10|0,0:0|0:0,0:0:0:0:
137,73,924312,2,0,P|170:36|228:15,1,90,2|0,3:2|0:0,0:0:0:0:
356,89,924546,1,10,0:0:0:0:
364,227,924664,2,0,B|381:258|381:258|400:148,1,135,2|0,0:0|0:0,0:0:0:0:
356,89,924898,1,2,0:0:0:0:
499,63,925015,21,8,0:0:0:0:
414,150,925132,1,8,0:0:0:0:
467,220,925250,1,0,3:0:0:0:
467,220,925484,38,0,P|430:201|383:193,1,90,10|0,0:0|0:0,0:0:0:0:
253,324,925718,2,0,P|287:301|318:264,1,90,2|0,3:2|0:0,0:0:0:0:
270,87,925953,2,0,P|272:128|288:173,1,90,10|0,0:0|0:0,0:0:0:0:
462,236,926187,2,0,L|309:249,1,135,2|0,3:2|0:0,0:0:0:0:
258,307,926421,5,10,0:0:0:0:
297,159,926539,1,2,0:0:0:0:
253,324,926656,1,10,0:0:0:0:
202,201,926773,1,10,0:0:0:0:
249,342,926890,1,10,0:0:0:0:
175,296,927007,1,10,0:0:0:0:
175,296,927359,6,0,P|76:257|131:354,1,270.000010299683,10|0,0:0|0:0,0:0:0:0:
339,240,927710,2,0,P|321:151|266:230,1,225,10|0,0:0|0:0,0:0:0:0:
242,370,928062,5,2,3:2:0:0:
305,300,928179,1,0,3:0:0:0:
308,200,928296,1,0,3:0:0:0:
245,130,928414,1,0,3:0:0:0:
93,174,928531,21,8,0:0:0:0:
228,249,928648,1,8,0:0:0:0:
144,80,928765,1,0,3:0:0:0:
105,190,928882,1,0,3:0:0:0:
207,155,929000,37,4,3:2:0:0:
207,155,929234,2,0,P|171:126|126:108,1,90,10|0,0:0|0:0,0:0:0:0:
92,203,929468,2,0,L|108:292,1,90,2|0,3:2|0:0,0:0:0:0:
194,377,929703,2,0,P|207:330|248:294,1,90,10|0,0:0|0:0,0:0:0:0:
369,326,929937,5,2,3:2:0:0:
256,300,930054,1,2,0:0:0:0:
401,254,930171,2,0,L|416:350,1,90,10|0,0:0|0:0,0:0:0:0:
293,384,930406,1,2,3:2:0:0:
242,312,930523,2,0,L|257:216,1,90,2|8,0:0|0:0,0:0:0:0:
348,148,930757,1,10,0:0:0:0:
244,213,930875,6,0,P|196:235|147:240,1,90,2|0,3:2|0:0,0:0:0:0:
78,308,931109,2,0,P|28:289|-9:258,1,90,10|0,0:0|0:0,0:0:0:0:
55,106,931343,2,0,P|62:150|82:190,1,90,2|0,3:2|0:0,0:0:0:0:
186,200,931578,2,0,P|222:225|264:240,1,90,10|0,0:0|0:0,0:0:0:0:
386,319,931812,6,0,P|366:278|358:234,1,90,2|0,3:2|0:0,0:0:0:0:
292,154,932046,2,0,P|306:111|332:75,1,90,8|0,0:0|0:0,0:0:0:0:
492,132,932281,2,0,P|447:139|407:159,1,90,2|0,3:2|0:0,0:0:0:0:
397,263,932515,2,0,P|371:299|356:341,1,90,10|0,0:0|0:0,0:0:0:0:
497,248,932750,22,0,B|444:253|444:253|415:241|415:241|356:244,1,135,6|0,3:2|0:0,0:0:0:0:
288,292,932984,2,0,P|238:266|201:195,1,135,10|0,0:0|0:0,0:0:0:0:
188,121,933218,2,0,P|182:194|143:251,1,135,2|0,3:2|0:0,0:0:0:0:
69,219,933453,1,10,0:0:0:0:
32,117,933570,38,0,P|70:83|116:75,1,90,2|0,0:0|3:0,0:0:0:0:
227,33,933804,2,0,P|275:48|305:84,1,90,2|10,0:0|0:0,0:0:0:0:
205,135,934039,1,0,0:0:0:0:
318,88,934156,2,0,P|328:137|312:181,1,90,2|0,3:2|3:0,0:0:0:0:
292,298,934390,2,0,P|254:332|208:339,1,90,10|0,0:0|0:0,0:0:0:0:
91,251,934625,6,0,L|99:153,1,90,2|0,3:2|0:0,0:0:0:0:
214,39,934859,2,0,L|222:137,1,90,8|0,0:0|0:0,0:0:0:0:
109,264,935093,1,0,3:0:0:0:
220,290,935210,1,0,3:0:0:0:
331,316,935328,2,0,L|323:218,1,90,8|0,0:0|0:0,0:0:0:0:
438,100,935562,2,0,P|406:144|359:155,1,90,0|0,3:0|0:0,0:0:0:0:
198,109,935796,2,0,P|232:151|279:159,1,90,8|0,0:0|0:0,0:0:0:0:
366,14,936031,5,0,3:0:0:0:
276,78,936148,1,0,3:0:0:0:
358,144,936265,1,0,3:0:0:0:
294,211,936382,1,0,3:0:0:0:
302,234,936500,6,0,P|317:185|319:123,1,90,8|0,0:0|0:0,0:0:0:0:
94,115,936734,2,0,P|57:142|27:175,1,90,8|0,0:0|0:0,0:0:0:0:
189,332,936968,2,0,P|234:332|278:323,1,90,8|0,0:0|0:0,0:0:0:0:
241,100,937203,2,0,P|204:73|163:55,1,90,8|0,0:0|0:0,0:0:0:0:
62,259,937437,2,0,P|76:302|99:341,1,90,12|0,0:0|0:0,0:0:0:0:
191,217,937671,22,0,P|168:196|185:222,2,90,2|2|2,0:0|0:0|0:0,0:0:0:0:
318,307,938375,38,0,P|401:283|440:198,1,168.75,6|0,3:2|0:0,0:0:0:0:
438,128,938609,2,0,P|396:56|317:35,1,168.75,10|0,0:0|0:0,0:0:0:0:
334,117,938843,2,0,B|328:160|328:160|339:181|339:181|331:235,1,112.5,2|0,3:2|0:0,0:0:0:0:
194,307,939078,6,0,P|111:283|72:198,1,168.75,10|0,0:0|0:0,0:0:0:0:
74,128,939312,2,0,P|115:56|194:35,1,168.75,2|0,3:2|0:0,0:0:0:0:
178,117,939546,2,0,B|183:160|183:160|173:181|173:181|181:235,1,112.5,10|0,0:0|0:0,0:0:0:0:
335,306,939781,6,0,P|401:313|369:239,1,168.75,6|0,3:2|0:0,0:0:0:0:
335,306,940015,2,0,B|291:278|257:306|257:306|222:335|174:307,1,168.75,10|0,0:0|0:0,0:0:0:0:
133,243,940250,2,0,P|106:309|177:309,1,168.75,2|0,3:2|0:0,0:0:0:0:
216,235,940484,5,10,0:0:0:0:
241,142,940601,1,2,0:0:0:0:
160,89,940718,1,2,3:2:0:0:
85,149,940835,1,2,0:0:0:0:
119,240,940953,1,10,0:0:0:0:
161,169,941070,22,0,P|117:141|53:127,2,112.5,2|0|2,3:2|3:0|3:2,0:0:0:0:
209,330,941421,1,10,0:0:0:0:
279,202,941539,1,2,0:0:0:0:
218,346,941656,2,0,P|272:333|320:304,1,112.5,2|0,3:2|0:0,0:0:0:0:
176,159,941890,2,0,P|230:172|278:201,1,112.5,2|0,3:2|0:0,0:0:0:0:
320,303,942125,38,0,B|365:316|404:309|404:309|434:280|447:238,1,168.75,6|0,3:2|0:0,0:0:0:0:
447,152,942359,2,0,B|433:110|403:81|403:81|364:74|319:87,1,168.75,10|0,0:0|0:0,0:0:0:0:
327,171,942593,2,0,B|351:192|377:196|377:196|351:199|326:218,1,112.5,2|0,3:2|0:0,0:0:0:0:
191,303,942828,6,0,B|146:316|107:309|107:309|77:280|63:238,1,168.75,10|0,0:0|0:0,0:0:0:0:
64,152,943062,2,0,B|77:110|107:81|107:81|146:74|191:87,1,168.75,2|0,3:2|0:0,0:0:0:0:
184,171,943296,2,0,B|160:192|134:196|134:196|160:199|184:218,1,112.5,10|0,0:0|0:0,0:0:0:0:
320,303,943531,5,6,3:2:0:0:
191,303,943648,1,2,0:0:0:0:
286,311,943765,1,10,0:0:0:0:
224,294,943882,1,2,0:0:0:0:
254,302,944000,6,0,P|275:245|270:187,1,112.5,2|0,3:2|0:0,0:0:0:0:
147,108,944234,1,10,0:0:0:0:
90,192,944351,2,0,B|136:207|136:207|262:188,1,168.75,2|0,3:2|0:0,0:0:0:0:
315,121,944585,22,0,B|341:88|348:55|340:20|315:0|303:30|308:64|321:90|354:114,1,202.500007724762,6|0,0:0|0:0,0:0:0:0:
420,186,944820,2,0,B|300:203|300:203|254:188,1,168.75,6|0,0:2|0:0,0:0:0:0:
231,109,945054,37,0,3:0:0:0:
250,274,945171,1,2,3:2:0:0:
264,183,945289,1,2,3:2:0:0:
245,292,945406,1,0,3:0:0:0:
240,213,945523,1,2,3:2:0:0:
250,307,945640,1,0,3:0:0:0:
253,229,945757,1,0,3:0:0:0:
245,325,945875,6,0,L|55:285,1,168.75,6|0,3:2|0:0,0:0:0:0:
15,217,946109,2,0,L|180:182,1,168.75,10|0,0:0|0:0,0:0:0:0:
261,200,946343,2,0,L|231:312,1,112.5,2|2,3:2|0:0,0:0:0:0:
275,212,946578,6,0,L|465:172,1,168.75,10|0,0:0|0:0,0:0:0:0:
505,104,946812,2,0,L|339:69,1,168.75,2|0,3:2|0:0,0:0:0:0:
259,87,947046,2,0,L|289:199,1,112.5,10|0,0:0|0:0,0:0:0:0:
108,308,947281,6,0,B|119:236|119:236|105:213|105:213|117:133,1,168.75,6|0,3:2|0:0,0:0:0:0:
107,60,947515,2,0,P|22:58|68:116,1,168.75,10|0,0:0|0:0,0:0:0:0:
115,144,947750,2,0,P|172:125|229:124,1,112.5,2|0,3:2|0:0,0:0:0:0:
272,242,947984,21,10,0:0:0:0:
339,361,948101,2,0,P|346:290|384:241,1,112.5,2|0,0:0|3:0,0:0:0:0:
239,301,948335,2,0,P|208:236|155:203,1,112.5,2|8,0:0|0:0,0:0:0:0:
358,158,948570,2,0,P|416:117|478:115,1,112.5,2|0,0:0|3:0,0:0:0:0:
458,244,948804,37,0,3:0:0:0:
367,256,948921,1,10,0:0:0:0:
294,199,949039,1,2,0:0:0:0:
282,107,949156,1,2,3:2:0:0:
208,50,949273,1,2,0:0:0:0:
115,62,949390,1,10,0:0:0:0:
57,136,949507,1,2,0:0:0:0:
175,136,949625,6,0,P|139:207|129:314,1,168.75,6|0,3:2|0:0,0:0:0:0:
206,309,949859,2,0,B|241:335|241:335|104:322,1,168.75,10|0,0:0|0:0,0:0:0:0:
45,274,950093,1,2,3:2:0:0:
230,225,950210,1,2,0:0:0:0:
103,174,950328,1,10,0:0:0:0:
197,150,950445,1,2,0:0:0:0:
165,76,950562,6,0,B|139:59|139:59|144:116|144:116|155:141|155:141|160:212,1,168.75,6|0,3:2|0:0,0:0:0:0:
130,272,950796,2,0,P|157:318|228:337,1,112.5,10|0,0:0|0:0,0:0:0:0:
396,242,951031,2,0,P|344:255|280:218,1,112.5,2|0,3:2|0:0,0:0:0:0:
344,57,951265,2,0,B|359:87|359:87|350:171,1,112.5,10|0,0:0|0:0,0:0:0:0:
277,241,951500,5,0,3:0:0:0:
182,224,951617,1,0,0:0:0:0:
126,144,951734,1,8,0:0:0:0:
41,179,951851,21,0,0:0:0:0:
57,82,951968,1,0,3:0:0:0:
137,26,952085,1,0,0:0:0:0:
233,42,952203,1,8,0:0:0:0:
124,38,952320,1,0,0:0:0:0:
250,34,952437,38,0,P|282:73|293:137,1,112.5,0|0,3:0|3:0,0:0:0:0:
402,88,952671,2,0,P|393:137|416:198,1,112.5,8|0,0:0|0:0,0:0:0:0:
233,204,952906,2,2,P|215:251|165:292,1,112.5,0|0,3:0|0:0,0:0:0:0:
380,281,953140,2,0,P|419:313|483:324,1,112.5,8|0,0:0|0:0,0:0:0:0:
232,353,953375,5,2,3:2:0:0:
318,344,953492,1,2,0:0:0:0:
232,353,953609,1,10,0:0:0:0:
318,344,953726,1,2,0:0:0:0:
208,247,953843,5,2,3:2:0:0:
336,267,953960,1,2,0:0:0:0:
208,247,954078,1,10,0:0:0:0:
336,267,954195,1,2,0:0:0:0:
180,167,954312,5,2,3:2:0:0:
341,149,954429,1,2,0:0:0:0:
180,167,954546,1,10,0:0:0:0:
341,149,954664,2,0,P|337:207|303:265,1,112.5,2|0,0:0|3:0,0:0:0:0:
208,247,954898,21,10,0:0:0:0:
112,237,955015,1,10,0:0:0:0:
16,227,955132,1,10,0:0:0:0:
72,148,955250,37,2,3:2:0:0:
91,230,955367,1,2,0:0:0:0:
72,148,955484,1,10,0:0:0:0:
91,230,955601,1,2,0:0:0:0:
186,132,955718,5,2,3:2:0:0:
170,257,955835,1,2,0:0:0:0:
186,132,955953,1,10,0:0:0:0:
170,257,956070,2,0,P|109:237|71:187,2,112.5,2|0|0,0:0|3:0|0:0,0:0:0:0:
237,336,956421,6,0,P|290:322|330:283,1,112.5,2|0,3:2|3:0,0:0:0:0:
422,248,956656,2,0,P|437:194|427:149,1,90,2|0,3:2|3:0,0:0:0:0:
466,86,956890,2,0,P|427:46|391:36,1,67.5000025749208,2|0,3:2|3:0,0:0:0:0:
227,39,957125,6,0,P|198:56|178:83,1,67.5000025749208,2|0,3:2|0:0,0:0:0:0:
100,116,957359,2,0,P|100:149|130:197,1,90,2|0,3:2|0:0,0:0:0:0:
133,292,957593,2,0,P|162:308|241:299,1,112.5,2|0,3:2|0:0,0:0:0:0:
350,334,957828,2,0,P|392:299|408:218,1,135.000005149842,2|0,3:2|0:0,0:0:0:0:
256,152,958062,21,2,3:2:0:0:
256,152,958296,37,2,0:0:0:0:
261,172,958414,1,2,0:0:0:0:
266,192,958531,1,2,0:0:0:0:
266,192,959000,6,0,P|296:112|349:86,1,135,4|0,3:2|0:0,0:0:0:0:
408,134,959234,2,0,L|504:146,1,90,8|0,0:0|0:0,0:0:0:0:
444,229,959468,1,0,3:0:0:0:
388,308,959585,1,0,3:0:0:0:
345,221,959703,2,0,L|249:233,1,90,8|0,0:0|0:0,0:0:0:0:
143,124,959937,6,0,B|158:161|182:181|182:181|165:217|167:261,1,135,4|0,3:2|0:0,0:0:0:0:
222,311,960171,1,8,0:0:0:0:
135,328,960289,2,0,P|97:353|47:359,2,90,0|0|0,3:0|3:0|3:0,3:0:0:0:
87,197,960640,2,0,P|43:204|6:229,1,90,8|0,0:0|0:0,0:0:0:0:
148,336,960875,6,0,B|152:284|152:284|167:261|167:261|172:203,1,135,4|0,3:2|0:0,0:0:0:0:
137,126,961109,2,0,P|103:88|50:75,1,90,8|0,0:0|0:0,0:0:0:0:
87,197,961343,1,0,3:0:0:0:
171,205,961460,1,0,3:0:0:0:
255,213,961578,2,0,P|271:165|310:134,1,90,8|0,0:0|0:0,0:0:0:0:
464,86,961812,22,0,L|326:60,1,135,4|0,3:2|0:0,0:0:0:0:
246,75,962046,1,8,0:0:0:0:
331,61,962164,2,0,P|340:104|343:162,2,90,0|0|0,3:0|3:0|3:0,3:0:0:0:
453,68,962515,1,8,3:2:0:0:
427,164,962632,1,0,3:0:0:0:
331,61,962750,38,0,P|271:120|349:90,1,225,4|0,3:2|0:0,0:0:0:0:
256,192,963101,12,0,964390,0:0:0:0:
93,125,964625,6,0,P|82:164|84:202,1,67.5,4|0,3:2|0:0,0:0:0:0:
117,264,964859,6,0,P|115:211|133:165,1,101.250003862381,4|0,3:2|0:0,0:0:0:0:
200,122,965093,6,0,P|179:196|219:269,1,135,4|0,3:2|0:0,0:0:0:0:
244,332,965328,22,0,P|239:218|338:132,1,225,4|0,3:2|0:0,0:0:0:0:
372,82,965914,38,8,L|376:24,2,45
256,192,966148,12,0,968375,0:0:0:0:
424,242,968726,6,0,L|428:300,2,45,0|0|0,3:0|3:0|3:0,3:0:0:0:
109,330,971738,54,0,P|191:298|360:261,1,251.999992309571,2|0,0:0|0:0,0:0:0:0:
453,167,972571,1,2,0:0:0:0:
281,59,972738,1,2,0:0:0:0:
480,56,972904,6,0,P|401:78|357:85,1,125.999996154785,2|0,0:0|0:0,0:0:0:0:
261,150,973404,1,0,0:0:0:0:
193,115,973571,1,0,0:0:0:0:
132,237,973738,2,0,P|139:182|138:153,1,62.9999980773926,2|0,0:0|0:0,0:0:0:0:
10,100,974071,2,0,P|11:131|17:162,1,62.9999980773926,2|0,0:0|0:0,0:0:0:0:
187,331,974404,6,0,P|223:206|204:64,1,251.999992309571,2|0,0:0|0:0,0:0:0:0:
309,276,975238,1,2,0:0:0:0:
479,187,975404,1,2,0:0:0:0:
316,249,975571,2,0,P|373:257|452:288,2,125.999996154785,2|0|0,0:0|0:0|0:0,0:0:0:0:
25,98,976571,1,0,0:0:0:0:
45,105,976654,1,0,0:0:0:0:
67,106,976738,1,0,0:0:0:0:
87,99,976821,1,0,0:0:0:0:
107,91,976904,1,0,0:0:0:0:
128,85,976988,1,0,0:0:0:0:
151,84,977071,6,0,B|284:88|228:201|365:217,1,251.999992309571,2|0,0:0|0:0,0:0:0:0:
401,54,978071,1,2,0:0:0:0:
379,49,978154,1,2,0:0:0:0:
356,54,978238,6,0,P|339:106|394:111,1,125.999996154785,2|0,0:0|0:0,0:0:0:0:
459,248,978738,1,0,0:0:0:0:
352,215,978904,1,0,0:0:0:0:
256,329,979071,2,0,P|208:331|161:358,2,94.499997116089,2|0|0,0:0|0:0|0:0,0:0:0:0:
29,175,979738,6,0,P|60:216|61:269,1,94.4999971160889,2|0,0:0|0:0,0:0:0:0:
31,327,980404,2,0,P|70:298|191:280,1,157.5,2|0,0:0|0:0,0:0:0:0:
241,328,981071,2,0,P|197:260|195:113,1,220.499993270874,2|0,0:0|0:0,0:0:0:0:
300,76,981738,2,0,P|213:88|17:8,1,283.499991348267,2|0,0:0|0:0,0:0:0:0:
0,0,982404,6,0,B|32:136|32:136|48:161|48:161|85:326,1,324,4|0,0:0|0:0,0:0:0:0:
22,384,983238,1,0,3:0:0:0:
363,233,983571,2,0,B|272:219|328:140|210:128,1,180,2|0,0:0|0:0,0:0:0:0:
160,189,984071,2,0,P|191:210|257:205,1,72,2|0,0:0|0:0,0:0:0:0:
426,108,984404,2,0,P|392:124|363:184,1,72,2|0,0:0|0:0,0:0:0:0:
372,374,984738,2,0,P|374:336|337:281,1,72,2|0,3:2|0:0,0:0:0:0:
150,379,985071,22,0,L|315:347,1,144,2|0,3:2|0:0,0:0:0:0:
470,359,985571,1,0,3:0:0:0:
473,361,985904,2,0,P|486:321|490:277,1,72,0|0,3:0|0:0,0:0:0:0:
271,146,986238,2,0,P|276:181|287:215,1,72,0|0,3:0|0:0,0:0:0:0:
501,155,986571,5,2,0:0:0:0:
458,164,986654,1,2,0:0:0:0:
417,146,986738,1,2,0:0:0:0:
400,106,986821,1,2,0:0:0:0:
409,63,986904,2,0,B|487:48|487:48|474:93,1,108,2|0,0:0|0:0,0:0:0:0:
458,164,987238,5,0,3:0:0:0:
223,115,987404,2,0,B|151:129|198:166|110:183,1,108,0|0,3:0|0:0,0:0:0:0:
108,105,987738,1,0,3:0:0:0:
108,105,988071,5,0,3:0:0:0:
41,296,988238,1,0,3:0:0:0:
3,86,988404,5,0,3:0:0:0:
149,310,988571,1,0,3:0:0:0:
262,40,988738,5,8,0:0:0:0:
229,77,988821,1,8,0:0:0:0:
225,127,988904,1,8,0:0:0:0:
251,170,988988,1,8,0:0:0:0:
297,189,989071,1,8,0:0:0:0:
482,247,990404,6,0,B|401:262|441:312|346:330,1,135,4|0,0:0|0:0,0:0:0:0:
292,185,990738,2,0,P|333:206|344:276,1,90,8|0,0:0|0:0,0:0:0:0:
288,310,990988,1,0,3:0:0:0:
288,310,991071,1,0,3:0:0:0:
115,262,991238,1,0,3:0:0:0:
364,159,991404,1,8,0:0:0:0:
207,36,991571,22,0,P|213:129|194:194,1,135,0|0,3:0|0:0,0:0:0:0:
215,208,991904,1,0,3:0:0:0:
87,117,992071,2,0,L|147:109,1,45,8|0,0:0|0:0,0:0:0:0:
338,215,992238,2,0,P|310:167|336:92,1,135,0|0,3:0|0:0,0:0:0:0:
397,52,992571,1,0,3:0:0:0:
238,253,992738,2,0,P|176:235|141:231,1,90,8|0,0:0|0:0,0:0:0:0:
383,149,993071,6,0,P|445:131|528:160,1,135,0|0,3:0|0:0,0:0:0:0:
471,273,993404,2,0,B|445:285|445:285|457:202,1,90,8|0,0:0|0:0,0:0:0:0:
512,149,993654,1,0,3:0:0:0:
512,149,993738,1,0,3:0:0:0:
495,354,993904,1,0,3:0:0:0:
329,231,994071,1,8,0:0:0:0:
156,342,994238,6,0,P|206:320|294:347,1,135,0|0,3:0|0:0,0:0:0:0:
298,356,994571,1,0,3:0:0:0:
110,254,994738,1,8,0:0:0:0:
98,210,994821,1,0,0:0:0:0:
116,169,994904,6,0,P|164:143|228:173,1,90,0|0,3:0|0:0,0:0:0:0:
260,205,995154,1,8,0:0:0:0:
260,205,995238,2,0,L|251:258,1,45,8|0,0:0|0:0,0:0:0:0:
347,55,995404,1,8,0:0:0:0:
506,186,995571,1,0,3:0:0:0:
506,186,995654,1,0,3:0:0:0:
506,186,995738,6,0,P|469:213|350:203,1,135,4|0,0:0|0:0,0:0:0:0:
321,269,996071,2,0,L|340:363,1,90,8|0,0:0|0:0,0:0:0:0:
338,357,996321,1,0,3:0:0:0:
338,357,996404,1,0,3:0:0:0:
160,320,996571,1,0,3:0:0:0:
382,218,996738,1,8,0:0:0:0:
195,177,996904,6,0,B|112:191|151:240|61:254,1,135,0|0,3:0|0:0,0:0:0:0:
11,239,997238,1,0,3:0:0:0:
19,118,997404,2,0,P|50:119|86:134,1,45,8|0,0:0|0:0,0:0:0:0:
194,264,997571,2,0,P|195:309|211:367,1,90,0|0,3:0|0:0,0:0:0:0:
378,165,997904,1,0,3:0:0:0:
314,310,998071,2,0,P|318:258|340:189,1,90,8|0,0:0|3:0,0:0:0:0:
288,124,998404,5,8,0:0:0:0:
468,239,998571,1,0,3:0:0:0:
205,208,998738,2,0,L|248:196,1,45,0|0,3:0|0:0,0:0:0:0:
392,128,998904,21,8,0:0:0:0:
258,295,999071,1,0,3:0:0:0:
198,103,999238,1,0,3:0:0:0:
445,322,999404,2,0,L|379:312,1,45,0|0,3:0|3:0,0:0:0:0:
212,362,999571,6,0,P|296:368|337:295,1,135,8|0,0:0|0:0,0:0:0:0:
331,252,999904,1,0,3:0:0:0:
280,54,1000071,2,0,P|298:119|283:192,1,135,8|0,0:0|0:0,0:0:0:0:
245,254,1000404,5,0,3:0:0:0:
15,211,1000571,2,0,B|89:223|114:157|134:104|214:116,1,225,8|0,0:0|0:0,0:0:0:0:
308,158,1001071,6,0,L|424:174,1,94.499997116089,0|0,3:0|0:0,0:0:0:0:
492,151,1001404,1,0,3:0:0:0:
492,151,1001738,1,0,3:0:0:0:
492,151,1002071,1,0,3:0:0:0:
484,279,1002238,1,2,0:0:0:0:
377,324,1002404,5,0,3:0:0:0:
364,320,1002738,1,0,3:0:0:0:
351,316,1003071,1,0,3:0:0:0:
338,314,1003404,1,0,3:0:0:0:
149,216,1003738,5,0,3:0:0:0:
162,214,1004071,1,0,3:0:0:0:
175,210,1004404,1,0,3:0:0:0:
188,206,1004738,1,0,3:0:0:0:
125,349,1004904,1,2,0:0:0:0:
33,167,1005071,5,0,3:0:0:0:
37,155,1005404,1,0,3:0:0:0:
41,143,1005738,1,0,3:0:0:0:
45,131,1006071,1,0,3:0:0:0:
261,297,1006404,21,0,3:0:0:0:
257,285,1006738,1,0,3:0:0:0:
253,273,1007071,1,0,3:0:0:0:
249,261,1007404,1,0,3:0:0:0:
396,302,1007571,1,2,0:0:0:0:
482,181,1007738,5,0,3:0:0:0:
470,185,1008071,1,0,3:0:0:0:
458,189,1008404,1,0,3:0:0:0:
446,193,1008738,1,0,3:0:0:0:
256,23,1009071,5,0,3:0:0:0:
266,59,1009404,1,0,3:0:0:0:
276,95,1009738,1,0,3:0:0:0:
287,131,1010071,1,0,3:0:0:0:
186,296,1010238,6,0,P|189:249|206:211,1,62.9999980773926,8|0,0:0|0:0,0:0:0:0:
338,310,1010571,2,0,P|335:357|318:395,1,62.9999980773926,8|0,0:0|0:0,0:0:0:0:
287,131,1011238,5,2,0:0:0:0:
509,245,1011404,1,0,3:0:0:0:
461,245,1011488,1,0,3:0:0:0:
414,254,1011571,1,0,3:0:0:0:
373,277,1011654,1,0,3:0:0:0:
338,310,1011738,6,0,P|275:296|242:250,1,121.499996292114,0|0,3:2|0:2,0:2:0:0:
250,172,1012071,2,0,P|291:142|344:145,1,80.9999975280763,10|2,0:2|0:2,0:2:0:0:
378,198,1012321,1,0,3:2:0:0:
378,198,1012404,1,2,3:2:0:0:
172,213,1012571,2,0,L|145:117,1,80.9999975280763,0|2,3:2|0:2,0:2:0:0:
368,58,1012904,6,0,P|360:119|262:162,1,161.999995056153,10|2,0:2|3:2,0:2:0:0:
125,56,1013404,2,0,L|218:31,1,80.9999975280763,8|2,0:2|0:2,0:2:0:0:
291,77,1013654,1,0,3:2:0:0:
291,77,1013738,1,0,3:2:0:0:
78,135,1013904,1,2,3:2:0:0:
235,293,1014071,22,0,P|246:245|239:169,1,121.499996292114,10|0,0:2|0:2,0:2:0:0:
150,145,1014404,2,0,P|156:188|171:231,1,80.9999975280763,0|0,3:2|3:2,0:2:0:0:
304,349,1014738,2,0,P|322:295|326:250,1,80.9999975280763,10|0,0:2|0:2,0:2:0:0:
306,198,1014988,1,0,3:2:0:0:
306,198,1015071,1,2,3:2:0:0:
406,357,1015238,1,0,3:2:0:0:
474,163,1015404,1,2,0:2:0:0:
281,104,1015571,6,0,P|230:149|153:129,1,121.499996292114,10|0,0:2|0:2,0:2:0:0:
208,68,1015904,1,2,3:2:0:0:
99,192,1016071,2,0,L|89:273,1,80.9999975280763,8|2,0:2|0:2,0:2:0:0:
153,364,1016321,1,0,3:2:0:0:
153,364,1016404,5,0,3:2:0:0:
191,350,1016488,1,0,0:2:0:0:
230,339,1016571,2,0,L|213:279,1,40.4999987640381,2|0,3:2|0:2,0:2:0:0:
316,213,1016738,2,0,L|312:272,1,40.4999987640381,10|0,0:2|3:2,0:2:0:0:
498,339,1016904,1,0,3:2:0:0:
461,357,1016988,1,0,3:2:0:0:
427,333,1017071,6,0,L|461:202,1,121.499996292114,0|0,3:2|0:2,0:2:0:0:
512,139,1017404,1,10,0:2:0:0:
397,265,1017571,1,0,3:2:0:0:
397,265,1017654,1,0,3:2:0:0:
397,265,1017738,1,2,3:2:0:0:
358,59,1017904,2,0,L|441:41,1,80.9999975280763,0|2,3:2|0:2,0:2:0:0:
265,139,1018238,6,0,P|227:124|122:109,1,121.499996292114,10|0,0:2|0:2,0:2:0:0:
62,134,1018571,1,2,3:2:0:0:
120,264,1018738,2,0,L|207:242,1,80.9999975280763,8|2,0:2|0:2,0:2:0:0:
277,271,1018988,1,0,3:2:0:0:
277,271,1019071,5,0,3:2:0:0:
125,187,1019238,1,2,3:2:0:0:
329,102,1019404,2,0,P|399:86|470:86,1,121.499996292114,10|0,0:2|0:2,0:2:0:0:
496,144,1019738,6,0,L|477:248,1,80.9999975280763,10|0,0:2|3:2,0:2:0:0:
512,293,1019988,1,0,3:2:0:0:
512,293,1020071,1,0,3:2:0:0:
313,218,1020238,2,0,P|370:198|405:195,1,80.9999975280763,10|0,0:2|0:2,0:2:0:0:
334,378,1020571,1,10,0:2:0:0:
294,371,1020654,1,0,3:2:0:0:
253,364,1020738,1,0,3:2:0:0:
232,182,1020904,22,0,P|227:236|126:269,1,161.999995056153,10|0,0:2|3:2,0:2:0:0:
73,215,1021321,2,0,P|74:192|80:159,1,40.4999987640381,0|0,3:2|3:2,0:2:0:0:
213,61,1021571,2,0,L|325:43,1,80.9999975280763,8|0,0:2|3:2,0:2:0:0:
394,13,1021821,1,0,3:2:0:0:
406,5,1021904,5,0,3:2:0:0:
381,52,1021988,1,0,3:2:0:0:
388,103,1022071,1,8,0:2:0:0:
411,149,1022154,1,0,3:2:0:0:
441,192,1022238,1,0,3:2:0:0:
455,242,1022321,1,0,3:2:0:0:
440,289,1022404,6,0,B|357:299|407:349|304:364,1,144,4|0,0:2|0:2,0:2:0:0:
223,336,1022904,1,0,3:2:0:0:
290,209,1023071,2,0,P|302:244|307:295,1,72,0|0,3:2|0:2,0:2:0:0:
133,372,1023404,1,8,0:2:0:0:
54,294,1023571,6,0,L|92:141,1,144,0|0,3:2|3:2,0:2:0:0:
242,139,1024071,2,0,P|184:168|163:169,1,72,2|0,0:2|3:2,0:2:0:0:
29,72,1024404,2,0,B|89:54|89:54|179:76,1,144,2|8,3:2|0:2,0:2:0:0:
219,270,1024904,1,0,3:2:0:0:
98,225,1025071,6,0,L|85:134,1,72,2|0,3:2|0:2,0:2:0:0:
224,281,1025404,1,2,3:2:0:0:
93,231,1025571,1,2,3:2:0:0:
289,148,1025738,2,0,P|352:161|405:147,1,108,2|0,3:2|0:2,0:2:0:0:
457,116,1026071,2,0,L|472:49,1,36,10|0,0:2|0:2,0:2:0:0:
332,0,1026238,6,0,L|345:87,1,72,2|0,3:2|0:2,0:2:0:0:
503,180,1026571,2,0,L|491:266,1,72,2|0,3:2|0:2,0:2:0:0:
387,380,1026904,1,2,3:2:0:0:
272,290,1027071,2,0,P|301:262|431:242,1,144,2|8,3:2|0:2,0:2:0:0:
227,151,1027738,6,0,L|58:175,1,144,4|0,0:2|0:2,0:2:0:0:
23,314,1028238,1,0,3:2:0:0:
107,376,1028404,2,0,B|134:337|134:337|112:233,1,144,0|8,3:2|0:2,0:2:0:0:
235,79,1028904,22,0,L|224:171,1,72,0|0,3:2|0:2,0:2:0:0:
309,272,1029238,1,0,3:2:0:0:
434,198,1029404,2,0,P|457:149|464:121,1,72,2|0,0:2|3:2,0:2:0:0:
489,294,1029738,1,2,3:2:0:0:
380,140,1029904,1,0,3:2:0:0:
303,279,1030071,2,0,P|309:318|321:351,1,72,8|0,0:2|0:2,0:2:0:0:
198,216,1030404,6,0,P|170:264|150:338,1,121.499996292114,2|0,3:2|0:2,0:2:0:0:
210,364,1030738,1,8,0:2:0:0:
320,182,1030904,2,0,P|294:136|233:100,1,121.499996292114,2|0,3:2|0:2,0:2:0:0:
155,133,1031238,1,0,3:2:0:0:
321,202,1031404,2,0,L|387:186,1,40.4999987640381,8|0,0:2|0:2,0:2:0:0:
155,133,1031571,6,0,L|37:160,1,121.499996292114,2|0,3:2|0:2,0:2:0:0:
11,139,1031904,1,0,3:2:0:0:
162,226,1032071,1,10,0:2:0:0:
22,299,1032238,1,2,3:2:0:0:
129,62,1032404,6,0,P|182:61|213:75,1,80.9999975280763,2|0,3:2|0:2,0:2:0:0:
253,134,1032654,2,0,L|342:114,1,80.9999975280763,8|0,0:2|0:2,0:2:0:0:
409,99,1032904,1,8,0:2:0:0:
261,219,1033071,5,2,3:2:0:0:
434,309,1033238,1,0,0:2:0:0:
252,334,1033404,2,0,L|200:323,1,40.4999987640381,8|0,0:2|0:2,0:2:0:0:
393,205,1033571,6,0,P|439:193|536:176,1,121.499996292114,2|0,3:2|0:2,0:2:0:0:
371,174,1033904,1,0,3:2:0:0:
512,277,1034071,1,8,0:2:0:0:
331,349,1034238,6,0,P|274:336|211:324,1,121.499996292114,2|0,3:2|0:2,0:2:0:0:
140,362,1034571,1,2,3:2:0:0:
142,153,1034738,1,10,0:2:0:0:
282,292,1034904,1,2,3:2:0:0:
285,122,1035071,21,2,3:2:0:0:
155,237,1035238,1,8,0:2:0:0:
103,229,1035321,1,8,0:2:0:0:
64,194,1035404,1,0,3:2:0:0:
42,213,1035488,1,0,3:2:0:0:
26,236,1035571,1,0,3:2:0:0:
22,264,1035654,1,0,3:2:0:0:
27,292,1035738,1,4,3:2:0:0:
428,301,1037904,6,2,L|415:245,1,40.4999987640381,2|2,0:2|0:2,0:2:0:0:
453,185,1038071,1,2,0:2:0:0:
453,185,1038404,5,0,3:2:0:0:
407,332,1038571,1,0,3:2:0:0:
280,210,1038738,1,0,3:2:0:0:
317,370,1038904,1,0,3:2:0:0:
162,291,1039071,5,0,3:2:0:0:
389,244,1039238,1,0,3:2:0:0:
118,147,1039404,1,0,3:2:0:0:
379,136,1039571,1,0,3:2:0:0:
176,30,1039738,5,2,3:2:0:0:
263,273,1039904,1,2,3:2:0:0:
259,292,1039988,1,0,3:2:0:0:
255,312,1040071,5,2,3:2:0:0:
209,337,1040154,1,0,3:2:0:0:
159,318,1040238,1,2,3:2:0:0:
143,267,1040321,1,0,3:2:0:0:
171,222,1040404,1,8,3:2:0:0:
166,274,1040488,1,8,3:2:0:0:
118,297,1040571,1,8,3:2:0:0:
68,280,1040654,1,8,3:2:0:0:
50,229,1040738,6,0,L|59:157,1,40.4999987640381,8|8,3:2|3:2,0:2:0:0:
216,106,1040904,2,0,L|227:166,1,40.4999987640381,8|8,3:2|3:2,0:2:0:0:
81,27,1041071,21,8,0:2:0:0:
81,27,1041738,5,8,0:2:0:0:
81,27,1042404,6,0,B|165:52|129:136|235:157,1,202.500007724762,8|0,0:2|0:2,0:2:0:0:
293,44,1042738,6,0,P|221:19|280:75,1,202.500007724762,8|0,0:2|0:2,0:2:0:0:
395,4,1043071,6,0,P|344:124|313:236,1,202.500007724762,8|0,0:2|0:2,0:2:0:0:
380,284,1043404,6,0,L|425:274,6,33.7500012874604,8|0|0|0|0|0|0,0:2|0:2|0:2|0:2|0:2|0:2|0:2,0:2:0:0:
293,355,1043738,6,0,B|215:359|233:282|136:294,1,161.999995056153,4|0,0:2|0:2,0:2:0:0:
89,350,1044071,1,10,0:2:0:0:
292,258,1044238,1,2,3:2:0:0:
298,232,1044321,1,0,3:2:0:0:
304,206,1044404,1,0,3:2:0:0:
115,111,1044571,1,2,3:2:0:0:
149,229,1044738,1,8,0:2:0:0:
397,59,1044904,22,0,P|312:74|216:72,1,161.999995056153,2|0,3:2|0:2,0:2:0:0:
196,91,1045238,2,0,L|181:39,1,53.9999983520508,2|0,3:2|3:2,0:2:0:0:
154,186,1045404,1,8,0:2:0:0:
319,274,1045571,2,0,P|381:177|285:124,1,215.999993408203,0|0,3:2|3:2,0:2:0:0:
154,186,1046071,2,0,L|36:160,1,107.999996704102,10|0,0:2|0:2,0:2:0:0:
203,333,1046404,6,0,B|239:329|261:304|261:304|321:308|358:349,1,161.999995056153,2|0,3:2|0:2,0:2:0:0:
352,369,1046738,1,10,0:2:0:0:
490,177,1046904,2,0,B|449:183|422:222|422:222|387:191|328:198,1,161.999995056153,2|0,3:2|0:2,0:2:0:0:
310,229,1047238,1,2,3:2:0:0:
434,17,1047404,1,8,0:2:0:0:
450,38,1047488,1,0,3:2:0:0:
452,64,1047571,6,0,P|389:104|344:-1,1,215.999993408203,2|0,3:2|3:2,0:2:0:0:
305,8,1047988,1,0,3:2:0:0:
306,65,1048071,1,8,0:2:0:0:
258,89,1048154,1,0,3:2:0:0:
205,79,1048238,6,0,P|160:152|87:141,1,161.999995056153,0|0,3:2|0:2,0:2:0:0:
56,70,1048571,2,0,P|62:48|88:19,1,53.9999983520508,0|0,3:2|3:2,0:2:0:0:
158,6,1048738,1,10,0:2:0:0:
18,206,1048904,1,2,3:2:0:0:
28,248,1048988,1,0,3:2:0:0:
38,289,1049071,6,0,P|95:264|197:248,1,161.999995056153,2|0,3:2|0:2,0:2:0:0:
264,291,1049404,1,10,0:2:0:0:
150,157,1049571,1,2,3:2:0:0:
123,150,1049654,1,0,3:2:0:0:
96,143,1049738,1,2,3:2:0:0:
194,327,1049904,1,0,3:2:0:0:
333,173,1050071,2,0,P|390:198|492:214,1,161.999995056153,10|0,0:2|0:2,0:2:0:0:
487,213,1050404,5,2,3:2:0:0:
304,267,1050571,1,0,3:2:0:0:
484,85,1050738,2,0,P|417:92|375:103,1,107.999996704102,10|2,0:2|3:2,0:2:0:0:
255,205,1050988,1,0,3:2:0:0:
242,197,1051071,2,0,B|168:205|170:141|64:167,1,161.999995056153,2|0,3:2|0:2,0:2:0:0:
79,320,1051404,2,0,B|88:359|88:359|116:241,1,161.999995056153,10|0,0:2|0:2,0:2:0:0:
0,134,1051738,6,0,P|11:214|40:257,1,107.999996704102,2|0,3:2|0:2,0:2:0:0:
224,86,1052071,1,10,0:2:0:0:
369,283,1052238,2,0,P|282:267|185:313,1,161.999995056153,2|0,3:2|0:2,0:2:0:0:
158,353,1052571,2,0,L|74:339,1,53.9999983520508,2|0,3:2|3:2,0:2:0:0:
295,384,1052738,1,8,0:2:0:0:
232,32,1052904,22,0,L|266:244,1,161.999995056153,2|0,3:2|0:2,0:2:0:0:
214,290,1053238,1,10,0:2:0:0:
395,139,1053404,1,10,0:2:0:0:
102,83,1053571,1,10,0:2:0:0:
102,83,1053904,1,0,3:2:0:0:
214,290,1054071,1,8,0:2:0:0:
262,266,1054154,1,8,0:2:0:0:
316,262,1054238,1,8,0:2:0:0:
366,280,1054321,1,8,0:2:0:0:
402,319,1054404,6,0,P|382:249|362:148,1,161.999995056153,4|0,3:2|0:2,0:2:0:0:
400,82,1054738,1,10,0:2:0:0:
271,191,1054904,1,2,3:2:0:0:
244,187,1054988,1,0,3:2:0:0:
217,184,1055071,1,0,3:2:0:0:
431,264,1055238,1,2,3:2:0:0:
231,364,1055404,1,8,0:2:0:0:
445,190,1055571,6,0,B|355:179|384:251|272:251,1,161.999995056153,2|0,3:2|0:2,0:2:0:0:
217,184,1055904,1,0,3:2:0:0:
341,336,1056071,1,10,0:2:0:0:
392,149,1056238,2,0,B|347:120|320:61|320:61|348:-7,1,161.999995056153,0|0,3:2|0:2,0:2:0:0:
412,56,1056571,1,0,3:2:0:0:
198,89,1056738,2,0,L|64:73,1,107.999996704102,10|0,0:2|0:2,0:2:0:0:
288,217,1057071,6,0,L|90:258,1,161.999995056153,2|0,3:2|0:2,0:2:0:0:
54,227,1057404,1,10,0:2:0:0:
280,384,1057571,2,0,P|316:315|325:261,1,107.999996704102,2|0,3:2|0:2,0:2:0:0:
230,95,1057904,1,2,3:2:0:0:
368,213,1058071,1,8,0:2:0:0:
394,216,1058154,1,0,0:2:0:0:
421,219,1058238,6,0,P|458:163|329:141,1,215.999993408203,2|0,3:2|3:2,0:2:0:0:
294,162,1058654,1,0,3:2:0:0:
294,162,1058738,2,0,P|310:195|308:233,1,53.9999983520508,8|0,0:2|3:2,0:2:0:0:
227,288,1058904,6,0,B|135:295|160:205|63:222,1,161.999995056153,0|0,3:2|3:2,0:2:0:0:
82,298,1059238,2,0,L|74:352,1,53.9999983520508,0|0,3:2|3:2,0:2:0:0:
216,201,1059404,6,0,L|207:147,1,53.9999983520508,2|0,3:2|0:2,0:2:0:0:
0,168,1059571,2,0,L|8:115,1,53.9999983520508,2|0,3:2|0:2,0:2:0:0:
127,0,1059738,1,2,3:2:0:0:
127,0,1060071,21,8,0:2:0:0:
339,9,1060238,1,8,0:2:0:0:
112,178,1060404,5,8,0:2:0:0:
399,130,1060571,1,8,0:2:0:0:
162,352,1060738,5,8,0:2:0:0:
201,315,1060821,1,8,0:2:0:0:
252,299,1060904,1,8,0:2:0:0:
305,307,1060988,1,8,0:2:0:0:
345,342,1061071,1,8,0:2:0:0:
345,342,1062404,5,4,0:2:0:0:
256,192,1062488,12,0,1067738,0:2:0:0:
181,109,1071669,69,6,0:0:0:0:
181,109,1071904,1,2,0:0:0:0:
290,155,1072021,2,0,P|341:150|391:142,1,96,2|0,0:0|0:0,0:0:0:0:
356,255,1072374,2,0,L|348:367,1,96,2|0,0:0|0:0,0:0:0:0:
245,289,1072727,1,2,0:0:0:0:
245,289,1072963,1,2,0:0:0:0:
139,344,1073080,86,0,P|89:341|41:333,1,96,2|0,0:0|0:0,0:0:0:0:
91,223,1073433,2,0,P|138:215|186:212,1,96,2|0,0:0|0:0,0:0:0:0:
282,140,1073786,1,2,0:0:0:0:
282,140,1074021,1,2,0:0:0:0:
189,63,1074139,2,0,L|84:52,1,96,2|0,0:0|0:0,0:0:0:0:
303,21,1074492,21,2,0:0:0:0:
303,21,1074727,1,2,0:0:0:0:
395,98,1074845,2,0,P|400:149|391:194,1,96,2|0,0:0|0:0,0:0:0:0:
287,254,1075198,2,0,L|191:245,1,96,2|0,0:0|0:0,0:0:0:0:
89,181,1075551,1,2,0:0:0:0:
89,181,1075786,1,2,0:0:0:0:
177,340,1075904,86,0,P|183:292|191:243,1,96,2|0,0:0|0:0,0:0:0:0:
262,148,1076257,2,0,P|256:100|248:51,1,96,2|0,0:0|0:0,0:0:0:0:
149,122,1076610,1,2,0:0:0:0:
149,122,1076845,1,2,0:0:0:0:
271,229,1076963,21,2,0:0:0:0:
256,192,1077051,12,0,1077669,0:0:0:0:
366,119,1077845,85,2,0:0:0:0:
366,119,1077933,1,2,0:0:0:0:
366,119,1078022,21,12,0:0:0:0:
297,329,1078198,1,2,0:0:0:0:
227,180,1078374,1,10,0:3:0:0:
438,259,1078551,1,2,0:0:0:0:
438,259,1078639,1,0,0:0:0:0:
438,259,1078727,1,8,0:0:0:0:
204,282,1078904,1,2,0:0:0:0:
287,125,1079080,1,10,0:3:0:0:
309,384,1079257,1,2,0:0:0:0:
309,384,1079345,1,0,0:0:0:0:
309,384,1079433,85,8,0:0:0:0:
93,288,1079610,1,2,0:0:0:0:
299,222,1079786,1,10,0:3:0:0:
181,384,1079963,1,2,0:0:0:0:
143,142,1080139,1,10,0:0:0:0:
47,353,1080316,1,2,0:0:0:0:
275,288,1080492,2,0,P|280:242|269:188,1,90,10|0,0:3|0:0,0:0:0:0:
82,87,1080845,22,0,P|136:128|203:126,1,135,10|0,0:0|0:0,0:0:0:0:
269,63,1081198,1,8,0:3:0:0:
175,222,1081374,1,2,0:0:0:0:
175,222,1081463,1,0,0:0:0:0:
175,222,1081551,1,10,0:0:0:0:
167,19,1081727,1,0,0:0:0:0:
336,147,1081904,1,10,0:3:0:0:
109,115,1082080,1,2,0:0:0:0:
294,36,1082257,85,8,0:0:0:0:
432,214,1082433,2,0,L|434:169,1,45,2|0,0:0|0:0,0:0:0:0:
408,47,1082610,2,0,L|413:136,1,90,10|0,0:3|0:0,0:0:0:0:
426,351,1082963,2,0,P|402:348|380:341,1,45,10|0,0:0|0:0,0:0:0:0:
232,239,1083139,2,0,P|255:245|275:256,1,45,2|0,0:0|0:0,0:0:0:0:
200,376,1083316,1,10,0:3:0:0:
200,376,1083492,1,2,0:0:0:0:
60,275,1083669,22,0,P|52:228|56:184,1,80.9999975280763,14|0,0:0|0:0,0:0:0:0:
123,75,1084022,1,0,0:0:0:0:
232,158,1084198,1,2,0:0:0:0:
232,158,1084286,1,0,0:0:0:0:
232,158,1084374,1,10,0:0:0:0:
364,120,1084551,1,0,0:0:0:0:
326,279,1084727,2,0,P|315:240|321:200,1,80.9999975280763,8|2,0:3|0:0,0:0:0:0:
450,249,1085080,86,0,P|460:287|454:327,1,80.9999975280763,10|0,0:0|0:0,0:0:0:0:
323,372,1085433,1,0,0:0:0:0:
218,281,1085610,1,2,0:0:0:0:
218,281,1085698,1,0,0:0:0:0:
218,281,1085786,1,10,0:0:0:0:
324,193,1085963,1,8,0:3:0:0:
221,101,1086139,2,0,P|212:140|218:180,1,80.9999975280763,10|2,0:3|0:0,0:0:0:0:
426,104,1086492,22,0,L|345:94,1,80.9999975280763,10|0,0:0|0:0,0:0:0:0:
178,73,1086845,2,0,L|259:63,1,80.9999975280763,2|0,0:0|0:0,0:0:0:0:
375,184,1087198,2,0,P|378:227|369:270,1,80.9999975280763,10|8,0:0|0:0,0:0:0:0:
224,349,1087551,2,0,P|220:305|235:262,1,80.9999975280763,10|0,0:3|0:0,0:0:0:0:
353,143,1087904,86,0,P|313:98|254:91,1,121.499996292114,10|0,0:0|0:0,0:0:0:0:
175,115,1088257,1,2,0:0:0:0:
357,234,1088433,2,0,L|443:222,1,80.9999975280763,10|0,0:0|0:0,0:0:0:0:
224,349,1088786,2,0,L|138:337,1,80.9999975280763,10|8,0:3|0:3,0:0:0:0:
359,359,1089139,1,10,0:0:0:0:
233,177,1089316,22,0,P|227:203|233:228,1,40.4999987640381
259,158,1089669,86,0,P|176:139|122:195,1,161.999995056153,14|0,0:0|0:0,0:0:0:0:
112,276,1090022,21,8,0:0:0:0:
23,192,1090198,1,2,0:0:0:0:
207,312,1090374,2,0,P|208:264|203:221,1,90,10|2,0:3|0:0,0:0:0:0:
87,81,1090727,86,0,P|134:78|178:71,1,90,10|0,0:0|0:0,0:0:0:0:
330,44,1091080,1,10,0:3:0:0:
288,236,1091257,2,0,P|285:191|279:143,1,90,2|8,0:0|0:0,0:0:0:0:
429,323,1091610,2,0,P|432:278|438:230,1,90,2|8,0:0|0:3,0:0:0:0:
488,70,1091963,1,10,0:0:0:0:
312,22,1092139,22,0,P|300:76|314:121,1,90,10|0,0:0|0:0,0:0:0:0:
499,156,1092492,2,0,P|501:100|479:58,1,90,10|0,0:0|0:0,0:0:0:0:
354,259,1092845,2,0,P|408:251|446:223,1,90,10|0,0:0|0:0,0:0:0:0:
231,176,1093198,2,0,P|178:192|146:227,1,90,10|0,0:0|0:0,0:0:0:0:
269,323,1093551,85,10,0:0:0:0:
366,115,1093727,1,8,0:0:0:0:
366,115,1093816,1,8,0:0:0:0:
366,115,1093904,1,8,0:0:0:0:
92,157,1094080,1,10,0:0:0:0:
92,157,1094169,1,8,0:0:0:0:
92,157,1094257,1,10,0:0:0:0:
250,225,1094433,1,10,0:3:0:0:
215,39,1094610,1,10,0:3:0:0:
68,170,1094786,1,10,0:0:0:0:
215,39,1094963,21,0,0:0:0:0:
247,30,1095051,1,0,0:0:0:0:
280,36,1095139,1,2,0:0:0:0:
307,56,1095227,1,0,0:0:0:0:
322,85,1095316,85,8,0:0:0:0:
339,117,1095404,1,0,0:0:0:0:
369,139,1095492,1,0,0:0:0:0:
405,146,1095580,1,0,0:0:0:0:
440,136,1095669,22,0,B|448:118|448:118|442:83,1,45,10|0,0:0|0:0,0:0:0:0:
375,257,1095845,2,0,B|367:239|367:239|373:204,1,45,10|8,0:0|0:0,0:0:0:0:
460,348,1096022,86,0,B|402:343|402:343|403:338|403:338|402:343|402:343|276:332,1,175.499991966248,10|0,0:3|0:0,0:0:0:0:
209,273,1096374,22,0,P|150:273|89:346,1,148.50000453186,14|0,0:0|0:0,0:0:0:0:
75,320,1096727,2,0,P|124:258|202:252,1,161.999995056153,10|0,0:0|0:0,0:0:0:0:
286,290,1097080,1,10,0:0:0:0:
286,290,1097169,1,0,0:0:0:0:
286,290,1097257,1,2,0:0:0:0:
177,352,1097433,1,8,0:0:0:0:
361,248,1097610,2,0,L|365:196,1,49.5000015106202,2|0,0:0|0:0,0:0:0:0:
303,128,1097786,85,8,0:0:0:0:
360,334,1097963,1,2,0:0:0:0:
445,156,1098139,1,10,0:0:0:0:
248,278,1098316,1,2,0:0:0:0:
449,274,1098492,2,0,P|399:226|322:233,1,148.50000453186,10|0,0:0|0:0,0:0:0:0:
248,278,1098845,1,10,0:0:0:0:
248,278,1099022,1,10,0:0:0:0:
89,138,1099198,22,0,P|139:90|216:97,1,148.50000453186,8|0,0:0|0:0,0:0:0:0:
275,158,1099551,1,10,0:0:0:0:
97,248,1099727,1,2,0:0:0:0:
240,357,1099904,86,0,L|233:250,1,99.0000030212403,10|2,0:0|0:0,0:0:0:0:
300,73,1100257,1,8,0:0:0:0:
440,209,1100433,2,0,L|436:258,1,49.5000015106202,2|0,0:0|0:0,0:0:0:0:
468,181,1100610,22,0,P|472:128|479:70,1,99.0000030212403,8|2,0:0|0:0,0:0:0:0:
317,306,1100963,2,0,P|313:253|306:195,1,99.0000030212403,10|2,0:0|0:0,0:0:0:0:
468,181,1101316,86,0,P|472:128|479:70,1,99.0000030212403,10|0,0:0|0:0,0:0:0:0:
317,306,1101669,2,0,P|313:253|306:195,1,99.0000030212403,8|0,0:0|0:0,0:0:0:0:
364,61,1102022,22,0,P|327:58|305:75,1,54,10|0,0:0|0:0,0:0:0:0:
401,52,1102374,86,0,P|331:31|268:68,1,148.50000453186,14|0,0:0|0:0,0:0:0:0:
234,144,1102727,1,10,0:0:0:0:
355,298,1102905,1,2,0:0:0:0:
344,107,1103080,1,10,0:3:0:0:
194,249,1103257,2,0,P|180:299|192:356,1,99.0000030212403,2|8,0:0|0:0,0:0:0:0:
388,279,1103610,21,2,0:0:0:0:
234,144,1103787,1,10,0:3:0:0:
388,279,1103963,2,0,L|495:272,1,99.0000030212403,2|8,0:0|0:0,0:0:0:0:
408,102,1104316,1,2,0:0:0:0:
328,199,1104493,1,10,0:3:0:0:
510,170,1104669,1,10,0:0:0:0:
328,199,1104845,86,0,P|249:190|179:165,1,148.50000453186
117,117,1105199,1,10,0:0:0:0:
197,285,1105375,1,2,0:0:0:0:
268,106,1105551,2,0,P|277:51|275:-1,1,99.0000030212403,10|8,0:0|0:3,0:0:0:0:
131,46,1105905,1,8,0:3:0:0:
361,94,1106081,2,0,L|413:90,1,49.5000015106202,2|0,0:0|0:0,0:0:0:0:
268,106,1106257,21,8,0:0:0:0:
476,153,1106433,1,10,0:0:0:0:
476,153,1106610,1,10,0:0:0:0:
338,315,1106786,1,8,0:0:0:0:
338,315,1106874,1,8,0:0:0:0:
338,315,1106963,2,0,L|334:263,1,49.5000015106202,10|0,0:0|0:0,0:0:0:0:
327,176,1107139,1,10,0:0:0:0:
461,348,1107315,1,2,0:0:0:0:
239,372,1107492,1,2,0:0:0:0:
239,372,1107580,1,2,0:0:0:0:
239,372,1107669,86,0,P|213:305|238:215,1,148.50000453186,10|0,0:0|0:0,0:0:0:0:
325,199,1108022,22,0,P|254:209|186:144,1,161.999995056153,10|0,0:0|0:0,0:0:0:0:
178,76,1108375,1,10,0:0:0:0:
178,76,1108464,1,0,0:0:0:0:
178,76,1108552,1,2,0:0:0:0:
117,276,1108728,1,8,0:0:0:0:
273,130,1108905,2,0,L|277:78,1,49.5000015106202,2|0,0:0|0:0,0:0:0:0:
177,179,1109080,85,8,0:0:0:0:
369,113,1109258,1,2,0:0:0:0:
343,324,1109434,1,10,0:0:0:0:
273,130,1109611,1,2,0:0:0:0:
122,278,1109787,2,0,P|197:273|274:266,1,148.50000453186,10|0,0:0|0:0,0:0:0:0:
355,233,1110139,1,10,0:0:0:0:
355,233,1110316,1,10,0:0:0:0:
323,65,1110493,22,0,P|250:49|190:102,1,148.50000453186,8|0,0:0|0:0,0:0:0:0:
168,167,1110845,1,10,0:0:0:0:
372,143,1111022,1,2,0:0:0:0:
289,331,1111199,2,0,P|280:277|282:224,1,99.0000030212403,10|2,0:0|0:0,0:0:0:0:
323,65,1111552,1,8,0:0:0:0:
456,244,1111728,2,0,L|460:192,1,49.5000015106202,2|0,0:0|0:0,0:0:0:0:
488,112,1111904,86,0,P|435:112|385:133,1,99.0000030212403,8|2,0:0|0:0,0:0:0:0:
184,220,1112257,2,0,P|230:236|279:236,1,99.0000030212403,10|2,0:0|0:0,0:0:0:0:
488,112,1112610,22,0,P|435:112|385:133,1,99.0000030212403,10|0,0:0|0:0,0:0:0:0:
184,220,1112963,2,0,P|230:236|279:236,1,99.0000030212403,10|2,0:0|0:0,0:0:0:0:
451,333,1113316,86,0,L|454:279,1,54,10|0,0:0|0:0,0:0:0:0:
512,205,1113669,22,0,P|443:183|378:233,1,148.50000453186,14|0,0:0|0:0,0:0:0:0:
302,280,1114022,2,0,B|263:288|263:288|178:259,1,107.999996704102,10|0,0:0|0:0,0:0:0:0:
86,249,1114286,2,0,B|125:241|125:241|210:270,1,116.999994644165,10|0,0:0|0:0,0:0:0:0:
129,367,1114551,2,0,P|120:339|121:316,1,49.5000015106202,10|0,0:0|0:0,0:0:0:0:
168,174,1114727,85,8,0:0:0:0:
302,280,1114904,1,2,0:0:0:0:
414,134,1115080,2,0,L|421:27,1,99.0000030212403,10|2,0:0|0:0,0:0:0:0:
506,215,1115433,2,0,P|458:266|375:260,1,148.50000453186,10|0,0:0|0:0,0:0:0:0:
329,203,1115787,1,10,0:0:0:0:
329,203,1115964,1,10,0:0:0:0:
177,353,1116139,22,0,P|254:347|329:346,1,148.50000453186,12|0,0:0|0:0,0:0:0:0:
416,360,1116493,1,2,0:0:0:0:
233,242,1116669,1,2,0:0:0:0:
416,120,1116845,2,0,L|409:218,1,99.0000030212403,14|2,0:0|0:0,0:0:0:0:
297,48,1117199,1,2,0:0:0:0:
409,218,1117375,2,0,L|461:214,1,49.5000015106202,10|0,0:0|0:0,0:0:0:0:
329,167,1117551,85,12,0:0:0:0:
463,339,1117727,1,10,0:0:0:0:
503,129,1117904,1,10,0:3:0:0:
267,237,1118080,1,0,0:0:0:0:
267,237,1118168,1,0,0:0:0:0:
267,237,1118257,2,0,L|262:178,1,49.5000015106202,10|0,0:0|0:0,0:0:0:0:
339,61,1118433,2,0,L|334:110,1,49.5000015106202,10|0,0:0|0:0,0:0:0:0:
159,143,1118609,1,10,0:0:0:0:
159,143,1118698,1,10,0:0:0:0:
159,143,1118786,2,0,L|162:192,1,49.5000015106202,10|0,0:0|0:0,0:0:0:0:
177,299,1118963,21,10,0:0:0:0:
75,76,1119139,1,6,0:0:0:0:
75,76,1119316,1,6,0:0:0:0:
2,319,1119492,1,2,0:0:0:0:
2,319,1119580,1,2,0:0:0:0:
2,319,1119669,1,2,0:0:0:0:
267,237,1119845,1,6,0:0:0:0:
267,237,1120022,1,6,0:0:0:0:
59,54,1120198,1,2,0:0:0:0:
59,54,1120286,1,2,0:0:0:0:
59,54,1120374,86,0,P|49:109|65:152,1,99.0000030212403,10|0,0:0|0:0,0:0:0:0:
343,195,1120727,2,0,P|300:158|254:151,1,99.0000030212403,10|0,0:0|0:0,0:0:0:0:
76,370,1121080,2,0,P|128:351|158:315,1,99.0000030212403,10|0,0:0|0:0,0:0:0:0:
247,78,1121433,2,0,P|186:129|233:226,1,175.499991966248,2|0,0:0|0:0,0:0:0:0:
279,261,1121786,21,14,0:0:0:0:
90,361,1135598,6,0,L|73:259,1,90,6|0,0:0|0:0,0:0:0:0:
226,220,1136164,2,0,L|211:308,1,90,2|0,0:0|0:0,0:0:0:0:
65,269,1136730,2,0,L|48:167,1,90,2|0,0:0|0:0,0:0:0:0:
231,134,1137296,2,0,L|216:222,1,90,2|0,0:0|0:0,0:0:0:0:
35,27,1137862,6,0,L|140:41,1,97.2000023730469,2|0,0:0|0:0,0:0:0:0:
134,146,1138428,2,0,L|230:133,1,97.2000023730469,2|0,0:0|0:0,0:0:0:0:
304,31,1138994,2,0,L|409:45,1,97.2000023730469,2|0,0:0|0:0,0:0:0:0:
403,150,1139560,2,0,L|499:137,1,97.2000023730469,2|0,0:0|0:0,0:0:0:0:
184,7,1140126,6,0,P|126:138|124:181,1,170.100004152832,2|0,0:0|0:0,0:0:0:0:
123,162,1140692,1,8,0:0:0:0:
234,109,1140975,6,0,P|230:181|256:284,1,170.100004152832,2|0,0:0|0:0,0:0:0:0:
321,188,1141541,6,0,P|355:243|374:259,1,72.9000017797852,2|0,0:0|0:0,0:0:0:0:
429,98,1141824,2,0,P|364:99|341:108,1,72.9000017797852,10|0,0:0|0:0,0:0:0:0:
452,236,1142107,2,0,P|482:179|486:154,1,72.9000017797852,2|0,0:0|0:0,0:0:0:0:
487,158,1142390,5,6,3:2:0:0:
323,0,1142673,1,0,3:2:0:0:
123,107,1142956,1,0,3:2:0:0:
162,330,1143239,1,0,3:2:0:0:
387,362,1143522,1,4,3:2:0:0:
51,192,1144088,6,0,L|44:298,1,97.2000023730469,2|0,0:3|0:0,0:0:0:0:
46,306,1144654,6,0,B|163:320|396:223|368:29|223:11|138:103|172:212|246:246,1,540,4|0,0:0|0:0,0:0:0:0:
347,306,1145220,6,0,P|362:334|357:377,1,67.5000025749208,2|0,0:3|0:0,0:0:0:0:
264,322,1145503,2,0,P|262:355|277:384,1,67.5000025749208,2|0,0:3|0:0,0:0:0:0:
436,252,1145786,6,0,L|452:100,1,135.000005149842,2|0,0:3|0:0,0:0:0:0:
275,61,1146070,2,0,L|260:195,1,135.000005149842,2|0,0:3|0:0,0:0:0:0:
347,223,1146353,2,0,L|362:82,1,135.000005149842,2|0,0:3|0:0,0:0:0:0:
186,32,1146636,2,0,L|171:166,1,135.000005149842,2|0,0:3|0:0,0:0:0:0:
9,283,1146919,6,0,L|19:360,1,67.5,2|0,0:3|0:0,0:0:0:0:
17,272,1147202,2,0,L|27:349,1,67.5,2|0,0:3|0:0,0:0:0:0:
25,261,1147485,2,0,L|35:338,1,67.5,2|0,0:3|0:0,0:0:0:0:
91,199,1147768,6,0,L|101:276,1,67.5,2|0,0:3|0:0,0:0:0:0:
178,349,1148051,2,0,L|186:282,1,67.5,2|0,0:3|0:0,0:0:0:0:
205,205,1148334,6,0,L|235:198,1,27,2|0,0:3|0:0,0:0:0:0:
249,210,1148617,2,0,L|279:217,1,27,2|0,0:3|0:0,0:0:0:0:
295,205,1148900,2,0,L|325:198,1,27,2|0,0:3|0:0,0:0:0:0:
432,326,1149183,6,0,P|397:309|400:240,1,101.250003862381,2|0,0:3|0:0,0:0:0:0:
395,176,1149466,1,2,0:3:0:0:
502,365,1149607,1,0,0:0:0:0:
458,212,1149749,2,0,P|500:238|500:287,1,101.250003862381,2|0,0:3|0:0,0:0:0:0:
502,365,1150032,1,2,0:3:0:0:
325,350,1150173,1,0,0:0:0:0:
148,335,1150315,2,0,P|115:349|93:379,1,67.5,2|0,0:3|0:0,0:0:0:0:
122,260,1150598,2,0,P|93:238|56:234,1,67.5,2|0,0:3|0:0,0:0:0:0:
157,189,1150881,2,0,P|161:153|146:119,1,67.5,2|0,0:3|0:0,0:0:0:0:
84,88,1151164,2,0,P|72:56|77:23,1,67.5,2|0,0:3|0:0,0:0:0:0:
13,155,1151447,6,0,P|142:109|529:207,1,540.000020599366,6|2,0:0|0:3,0:0:0:0:
349,30,1152296,2,0,P|306:80|300:156,1,135.000005149842,2|0,0:3|0:0,0:0:0:0:
406,230,1152579,2,0,P|416:303|394:214,1,540.000020599366,2|2,0:3|0:3,0:0:0:0:
110,317,1153428,5,2,0:3:0:0:
41,232,1153570,1,0,0:3:0:0:
38,124,1153711,2,0,L|154:113,1,90,2|0,0:3|0:0,0:0:0:0:
203,27,1153994,1,0,0:0:0:0:
281,150,1154136,1,0,0:0:0:0:
347,56,1154277,2,0,L|463:45,1,90,8|0,0:0|0:0,0:0:0:0:
367,270,1154560,1,2,0:3:0:0:
281,150,1154702,1,0,0:0:0:0:
228,341,1154843,6,0,L|138:349,1,90,2|0,0:3|0:0,0:0:0:0:
72,239,1155126,2,0,L|161:230,1,90,2|0,0:3|0:0,0:0:0:0:
356,282,1155409,2,0,L|445:290,1,90,8|0,0:0|0:0,0:0:0:0:
512,180,1155692,2,0,L|422:171,1,90,2|0,0:3|0:0,0:0:0:0:
192,47,1155975,6,0,P|160:96|168:155,1,90,2|0,0:3|0:0,0:0:0:0:
343,95,1156258,2,0,P|315:43|260:20,1,90,2|0,0:3|0:0,0:0:0:0:
225,201,1156541,2,0,P|283:203|330:166,1,90,2|0,0:3|0:0,0:0:0:0:
256,117,1156824,1,2,0:3:0:0:
133,218,1156966,1,2,0:3:0:0:
133,218,1157036,1,2,0:3:0:0:
133,218,1157107,1,2,0:3:0:0:
14,345,1157390,6,0,P|64:286|275:266,1,270,2|0,0:3|0:0,0:0:0:0:
261,338,1157956,6,0,P|209:353|194:313,1,101.250003862381,2|0,0:3|0:0,0:0:0:0:
18,23,1158239,6,0,L|14:96,1,67.5,2|0,0:3|0:0,0:0:0:0:
27,38,1158522,2,0,L|29:111,1,67.5,2|0,0:3|0:0,0:0:0:0:
40,48,1158805,2,0,L|55:119,1,67.5,2|0,0:3|0:0,0:0:0:0:
62,47,1159088,2,0,L|95:112,1,67.5,2|0,0:3|0:0,0:0:0:0:
35,189,1159371,6,0,L|26:266,1,67.5,2|0,0:3|0:0,0:0:0:0:
148,182,1159654,2,0,L|101:244,1,67.5,2|0,0:3|0:0,0:0:0:0:
259,236,1159937,2,0,L|187:266,1,67.5,2|0,0:3|0:0,0:0:0:0:
354,338,1160220,2,0,L|277:329,1,67.5,2|0,0:3|0:0,0:0:0:0:
256,192,1160503,12,0,1162202,0:0:0:0:
74,295,1162768,6,0,B|-13:220|-26:145|-25:89|43:75|94:71|122:132|122:132|160:50|271:82|286:144|277:242|150:279|111:381,1,781.19996900757,6|0,0:0|0:0,0:0:0:0:
333,148,1165032,2,0,B|335:277|335:277|337:351|469:351|470:279|470:279|468:146,1,446.39998229004,2|0,0:0|0:0,0:0:0:0:
400,35,1166447,5,2,0:3:0:0:
270,98,1166730,1,2,0:3:0:0:
170,38,1167013,1,2,0:3:0:0:
87,79,1167296,6,0,L|72:187,1,101.250003862381,2|0,0:3|0:0,0:0:0:0:
126,240,1167579,1,2,0:3:0:0:
169,147,1167720,1,0,0:0:0:0:
45,258,1167862,2,0,L|30:366,1,101.250003862381,2|0,0:3|0:0,0:0:0:0:
126,240,1168145,2,0,L|111:348,1,101.250003862381,2|0,0:3|0:0,0:0:0:0:
207,222,1168428,2,0,L|192:330,1,101.250003862381,2|0,0:3|0:0,0:0:0:0:
350,353,1168711,6,0,P|390:353|445:307,1,101.250003862381,2|0,0:3|0:0,0:0:0:0:
454,239,1168994,2,0,P|434:204|366:179,1,101.250003862381,2|0,0:3|0:0,0:0:0:0:
303,205,1169277,2,0,P|283:239|295:310,1,101.250003862381,2|0,0:3|0:0,0:0:0:0:
369,266,1169560,6,0,L|357:107,2,135.000005149842,2|2|2,0:3|0:3|0:3,0:0:0:0:
369,266,1170409,2,0,L|268:277,1,101.250003862381,2|0,0:3|0:0,0:0:0:0:
54,103,1170692,6,0,P|32:153|51:225,1,101.250003862381,2|0,0:3|0:0,0:0:0:0:
137,224,1170975,2,0,P|158:269|154:319,1,101.250003862381,2|0,0:3|0:0,0:0:0:0:
0,268,1171258,2,0,P|90:208|237:172,1,236.250009012223,2|0,0:3|0:0,0:0:0:0:
364,229,1171824,6,0,L|381:367,1,135.000005149842,4|2,0:0|0:3,0:0:0:0:
212,173,1172390,2,0,L|195:311,1,135.000005149842,2|2,0:3|0:3,0:0:0:0:
379,131,1172956,2,0,L|396:269,1,135.000005149842,2|2,0:3|0:3,0:0:0:0:
189,78,1173522,2,0,L|172:216,1,135.000005149842,2|2,0:3|0:3,0:0:0:0:
448,16,1174088,5,2,0:3:0:0:
291,103,1174371,1,2,0:3:0:0:
156,107,1174654,1,2,0:3:0:0:
94,41,1174937,1,2,0:3:0:0:
93,25,1175079,1,2,0:3:0:0:
103,15,1175220,1,2,0:3:0:0:
80,144,1175433,6,0,L|97:167,1,16.8750006437302
55,141,1175503,1,2,0:3:0:0:
19,232,1175786,2,0,P|78:199|162:192,1,135.000005149842
326,340,1176353,5,4,0:0:0:0:
382,130,1176636,1,2,0:3:0:0:
212,0,1176919,1,2,0:3:0:0:
263,105,1177060,1,2,0:3:0:0:
429,255,1177343,1,2,0:3:0:0:
471,43,1177768,1,2,0:3:0:0:
382,130,1178051,1,2,0:3:0:0:
326,340,1178334,5,2,0:3:0:0:
46,185,1178617,2,0,L|32:325,1,135,4|0,0:0|0:0,0:0:0:0:
32,319,1179749,1,2,0:0:0:0:
32,319,1180032,1,0,3:3:0:0:
130,204,1180315,6,0,L|147:201,1,11.25,8|0,0:0|0:0,0:0:0:0:
164,170,1180456,2,0,L|180:175,1,11.25,8|0,0:0|0:0,0:0:0:0:
230,257,1180598,6,0,L|247:260,1,11.25,8|0,0:0|0:0,0:0:0:0:
264,291,1180739,2,0,L|280:285,1,11.25,8|0,0:0|0:0,0:0:0:0:
385,148,1180881,5,4,0:0:0:0:
390,77,1193366,86,0,P|372:155|372:253,1,135,4|0,0:2|0:2,0:2:0:0:
401,274,1193719,1,10,0:2:0:0:
111,178,1193895,2,0,P|207:158|316:153,1,180,2|0,3:2|3:2,0:2:0:0:
317,269,1194425,2,0,P|242:260|220:253,1,90,10|0,0:2|0:2,0:2:0:0:
242,37,1194778,85,2,3:2:0:0:
367,56,1194954,1,0,0:2:0:0:
288,152,1195131,1,10,0:2:0:0:
112,114,1195307,2,0,P|103:70|88:-1,2,90,2|0|0,3:2|3:2|3:2,0:2:0:0:
22,252,1195837,2,0,P|73:212|173:211,1,135,8|0,0:2|0:2,0:2:0:0:
272,226,1196190,102,0,B|249:238|238:257|238:257|278:304|264:365,1,135,0|0,3:2|0:2,0:2:0:0:
249,365,1196543,1,10,0:2:0:0:
77,353,1196719,2,0,L|167:333,1,90,0|2,3:2|0:2,0:2:0:0:
394,351,1197072,1,0,3:2:0:0:
291,163,1197248,1,10,0:2:0:0:
249,365,1197425,1,2,3:2:0:0:
481,255,1197601,86,0,L|453:138,1,90,2|0,3:2|0:2,0:2:0:0:
461,53,1197954,1,10,0:2:0:0:
246,38,1198131,70,0,P|218:108|210:187,1,135,2|0,3:2|0:2,0:2:0:0:
252,233,1198484,1,0,3:2:0:0:
36,70,1198660,85,8,0:2:0:0:
105,114,1198778,101,0,3:2:0:0:
117,189,1198895,85,0,3:2:0:0:
51,255,1199013,70,0,P|37:223|33:152,1,90,4|0,0:2|0:2,0:2:0:0:
138,317,1199366,1,10,0:2:0:0:
303,224,1199543,2,0,L|321:49,1,135,0|0,3:2|0:2,0:2:0:0:
364,34,1199895,1,0,3:2:0:0:
424,226,1200072,1,10,0:2:0:0:
224,102,1200248,1,0,3:2:0:0:
188,109,1200337,1,0,3:2:0:0:
153,117,1200425,86,0,P|191:182|208:263,1,135,2|0,3:2|0:2,0:2:0:0:
183,318,1200778,1,10,0:2:0:0:
368,125,1200954,2,0,P|326:111|258:99,1,90,0|2,3:2|0:2,0:2:0:0:
205,239,1201307,1,0,3:2:0:0:
338,313,1201484,2,0,P|388:304|440:284,1,90,10|2,0:2|3:2,0:2:0:0:
468,149,1201837,102,0,L|482:23,1,90,2|0,3:2|0:2,0:2:0:0:
179,152,1202190,1,8,0:2:0:0:
187,200,1202278,1,0,3:2:0:0:
195,248,1202366,1,0,3:2:0:0:
203,296,1202454,1,0,3:2:0:0:
211,345,1202543,86,0,P|257:306|359:318,1,161.999995056153,4|0,0:2|0:2,0:2:0:0:
408,374,1202895,1,2,3:2:0:0:
122,268,1203072,70,0,B|61:204|86:129|169:168|127:37|20:80|21:166|111:178,1,269.999991760254,10|0,0:2|0:2,0:2:0:0:
190,205,1203601,2,0,P|279:230|385:238,1,161.999995056153,4|0,0:2|0:2,0:2:0:0:
385,158,1203954,86,0,P|325:154|266:244,1,161.999995056153,8|0,0:2|0:2,0:2:0:0:
341,343,1204307,1,8,0:2:0:0:
391,325,1204395,1,8,0:2:0:0:
442,307,1204484,1,8,0:2:0:0:
454,254,1204572,1,8,0:2:0:0:
465,210,1204660,102,0,L|442:99,1,90,4|0,0:2|0:2,0:2:0:0:
289,10,1205013,1,8,0:2:0:0:
250,133,1205190,1,0,3:2:0:0:
355,99,1205366,85,0,0:2:0:0:
155,79,1205543,1,0,3:2:0:0:
240,260,1205719,2,0,L|346:237,1,90,8|0,0:2|0:2,0:2:0:0:
106,181,1206072,70,0,P|80:218|78:275,1,90,2|0,3:2|0:2,0:2:0:0:
175,384,1206425,1,8,0:2:0:0:
155,246,1206601,1,2,3:2:0:0:
28,327,1206778,1,2,0:2:0:0:
54,118,1206954,85,2,3:2:0:0:
256,149,1207131,2,0,L|381:120,1,90,8|0,0:2|0:2,0:2:0:0:
449,262,1207484,2,0,P|342:212|301:211,1,135,0|0,3:2|0:2,0:2:0:0:
247,229,1207837,1,8,0:2:0:0:
279,373,1208013,2,0,P|300:325|311:269,1,90,0|0,3:2|0:2,0:2:0:0:
61,314,1208366,1,0,3:2:0:0:
80,155,1208543,2,0,P|86:206|112:258,1,90,8|0,0:2|0:2,0:2:0:0:
322,138,1208895,102,0,P|265:161|191:172,1,135,2|0,3:2|0:2,0:2:0:0:
193,172,1209248,1,8,0:2:0:0:
410,230,1209425,1,2,3:2:0:0:
241,50,1209601,1,2,0:2:0:0:
447,107,1209778,1,2,3:2:0:0:
263,290,1209954,2,0,P|178:299|141:311,1,90,8|0,0:2|3:2,0:2:0:0:
124,355,1210219,1,0,3:2:0:0:
124,355,1210307,1,0,3:2:0:0:
322,108,1210660,86,0,L|351:228,1,90,10|2,0:2|3:2,0:2:0:0:
381,58,1211013,1,2,3:2:0:0:
276,235,1211190,1,0,0:2:0:0:
153,79,1211366,2,0,P|215:64|258:67,1,90,10|0,0:2|0:2,0:2:0:0:
189,214,1211719,70,0,B|97:219|125:146|27:151,1,180,0|10,3:2|0:2,0:2:0:0:
34,251,1212248,1,2,3:2:0:0:
181,125,1212425,2,0,P|168:60|161:33,1,90,2|0,3:2|0:2,0:2:0:0:
325,220,1212778,2,0,P|346:158|358:119,1,90,10|0,0:2|0:2,0:2:0:0:
123,302,1213131,86,0,B|157:301|184:273|184:273|231:273|276:318,1,135,2|0,3:2|0:2,0:2:0:0:
281,357,1213484,1,10,0:2:0:0:
118,224,1213660,2,0,P|103:182|101:127,1,90,10|0,0:2|0:2,0:2:0:0:
363,76,1214013,1,10,0:2:0:0:
348,123,1214101,1,0,3:2:0:0:
315,161,1214190,1,0,3:2:0:0:
268,177,1214278,1,0,3:2:0:0:
219,166,1214366,102,0,P|289:160|352:218,1,135,14|0,0:2|0:2,0:2:0:0:
341,277,1214719,1,0,3:2:0:0:
444,112,1214895,85,8,0:2:0:0:
265,238,1215072,1,0,3:2:0:0:
254,27,1215248,2,0,L|352:40,1,90,10|0,0:2|0:2,0:2:0:0:
149,182,1215601,69,10,0:2:0:0:
192,159,1215690,1,8,0:2:0:0:
238,143,1215778,1,8,0:2:0:0:
287,138,1215866,1,8,0:2:0:0:
335,140,1215954,86,0,B|371:227|371:227|354:298,1,135,6|0,0:2|0:2,0:2:0:0:
411,343,1216307,1,8,0:2:0:0:
249,229,1216484,1,0,3:2:0:0:
430,154,1216660,1,0,0:2:0:0:
272,353,1216837,1,0,3:2:0:0:
104,285,1217013,2,0,P|88:239|81:183,1,90,8|0,0:2|0:2,0:2:0:0:
282,50,1217366,101,2,3:2:0:0:
180,217,1217543,1,0,0:2:0:0:
127,65,1217719,1,8,0:2:0:0:
329,203,1217895,1,2,3:2:0:0:
167,332,1218072,2,0,P|124:318|70:312,1,90,2|2,0:2|3:2,0:2:0:0:
329,203,1218425,2,0,P|372:189|424:181,1,90,8|0,0:2|0:2,0:2:0:0:
315,334,1218778,86,0,B|230:249|230:249|234:178,1,180,0|8,3:2|0:2,0:2:0:0:
406,83,1219307,2,0,P|359:103|307:102,1,90,0|0,3:2|0:2,0:2:0:0:
117,25,1219660,2,0,L|137:146,1,90,0|8,3:2|0:2,0:2:0:0:
176,343,1220013,1,0,3:2:0:0:
230,249,1220190,70,0,P|141:245|77:287,1,135,2|0,3:2|0:2,0:2:0:0:
83,345,1220543,1,8,0:2:0:0:
198,165,1220719,1,2,0:2:0:0:
326,348,1220895,85,8,0:2:0:0:
393,323,1221013,101,0,3:2:0:0:
414,254,1221131,85,0,3:2:0:0:
372,195,1221248,69,8,0:2:0:0:
411,49,1221425,1,0,3:2:0:0:
372,195,1221601,1,4,0:2:0:0:
135,218,1221954,86,0,B|208:220|175:278|259:289,1,135,0|0,3:2|0:2,0:2:0:0:
320,238,1222307,2,0,L|301:126,1,90,8|0,0:2|0:2,0:2:0:0:
323,326,1222660,1,0,3:2:0:0:
232,120,1222837,1,8,0:2:0:0:
462,175,1223013,101,0,3:2:0:0:
320,238,1223190,1,8,0:2:0:0:
365,57,1223366,1,0,3:2:0:0:
365,57,1223719,2,0,L|382:189,1,90,8|0,0:2|0:2,0:2:0:0:
203,312,1224072,1,8,0:2:0:0:
218,189,1224248,1,0,3:2:0:0:
35,87,1224425,85,0,3:2:0:0:
250,9,1224601,1,10,0:2:0:0:
6,69,1224778,1,10,0:2:0:0:
293,203,1224954,70,0,L|245:194,1,45,0|0,3:2|3:2,0:2:0:0:
68,160,1225131,2,0,L|112:168,1,45,10|0,0:2|0:2,0:2:0:0:
319,165,1225307,1,10,0:2:0:0:
195,362,1225484,1,0,3:2:0:0:
46,278,1225660,86,0,B|101:299|166:254|166:254|258:267,1,180,8|0,0:2|0:2,0:2:0:0:
393,376,1226190,2,0,P|362:322|351:270,1,90,8|0,0:2|0:2,0:2:0:0:
482,70,1226543,101,8,0:2:0:0:
449,112,1226631,1,8,0:2:0:0:
397,126,1226719,1,8,0:2:0:0:
343,119,1226807,1,8,0:2:0:0:
301,84,1226895,85,0,3:2:0:0:
319,70,1226984,1,0,3:2:0:0:
339,60,1227072,1,0,3:2:0:0:
361,57,1227160,1,0,3:2:0:0:
383,60,1227248,1,4,0:2:0:0:
256,192,1227337,12,0,1230072,0:2:0:0:
372,220,1237697,5,10,0:0:0:0:
365,250,1237807,1,10,0:0:0:0:
359,281,1237916,1,10,0:0:0:0:
398,98,1238135,37,8,0:0:0:0:
279,136,1238354,1,2,0:3:0:0:
182,54,1238573,1,10,0:0:0:0:
279,136,1238792,2,0,P|284:190|273:237,1,90,10|8,0:1|0:0,0:0:0:0:
177,302,1239230,1,2,0:0:0:0:
279,375,1239449,2,0,L|384:369,1,90,8|2,0:0|0:0,0:0:0:0:
109,361,1239887,5,8,0:0:0:0:
268,200,1240106,2,0,L|273:289,1,90,2|8,0:0|0:0,0:0:0:0:
119,117,1240544,2,0,L|113:206,1,90,2|8,0:0|0:0,0:0:0:0:
272,18,1240982,2,0,L|266:107,1,90,2|8,0:0|0:0,0:0:0:0:
255,233,1241420,1,2,0:0:0:0:
429,103,1241639,5,8,0:0:0:0:
361,209,1241858,1,2,0:0:0:0:
412,323,1242077,1,8,0:0:0:0:
361,209,1242296,2,0,P|313:194|265:193,1,90,10|8,0:1|0:0,0:0:0:0:
156,241,1242734,1,10,0:0:0:0:
201,51,1242953,1,8,0:0:0:0:
201,51,1243062,1,0,0:0:0:0:
201,51,1243172,2,0,P|204:97|195:140,1,90,2|8,0:0|0:0,0:0:0:0:
37,273,1243610,37,2,0:0:0:0:
146,210,1243829,1,8,0:0:0:0:
266,247,1244048,2,0,P|315:246|371:227,1,90,2|8,0:0|0:0,0:0:0:0:
444,77,1244486,1,2,0:0:0:0:
444,77,1244704,1,2,0:0:0:0:
459,262,1244923,1,2,0:0:0:0:
459,262,1245032,1,0,0:0:0:0:
459,262,1245142,38,0,L|453:351,1,90,8|2,0:0|0:0,0:0:0:0:
355,196,1245580,1,8,0:0:0:0:
476,164,1245799,1,10,0:1:0:0:
388,76,1246018,1,8,0:0:0:0:
355,196,1246237,2,0,L|360:285,1,90,2|8,0:0|0:0,0:0:0:0:
267,108,1246675,1,2,0:0:0:0:
165,301,1246894,5,8,0:0:0:0:
234,228,1247113,2,0,P|194:204|144:204,1,90,2|8,0:0|0:0,0:0:0:0:
18,313,1247551,2,0,P|58:290|83:247,1,90,2|8,0:0|0:0,0:0:0:0:
51,82,1247989,2,0,P|50:128|75:171,1,90,2|8,0:0|0:0,0:0:0:0:
168,41,1248427,1,2,0:0:0:0:
280,97,1248646,6,0,B|410:82|410:82|363:57,1,180,8|8,0:0|0:0,0:0:0:0:
196,124,1249303,1,10,0:1:0:0:
264,272,1249522,2,0,P|267:223|259:173,1,90,8|2,0:0|0:0,0:0:0:0:
181,320,1249960,1,8,0:0:0:0:
356,268,1250179,1,10,0:0:0:0:
181,320,1250398,37,8,0:0:0:0:
380,349,1250617,2,0,L|377:304,1,45,6|0,0:0|0:0,0:0:0:0:
356,268,1250836,2,0,L|362:173,1,90,4|2,0:0|0:0,0:0:0:0:
433,31,1251274,1,8,0:0:0:0:
410,11,1251383,1,8,0:0:0:0:
382,2,1251492,1,10,0:0:0:0:
352,2,1251602,1,8,0:0:0:0:
325,12,1251711,1,8,0:0:0:0:
303,33,1251821,1,8,0:0:0:0:
290,60,1251930,1,10,0:0:0:0:
461,172,1252150,38,0,P|403:128|331:152,1,144,14|0,0:0|0:0,0:0:0:0:
259,262,1252807,2,0,L|265:212,1,36,8|0,0:0|0:0,0:0:0:0:
338,144,1253026,2,0,P|406:128|461:172,1,144,10|8,0:1|0:0,0:0:0:0:
353,342,1253902,6,0,L|198:357,1,144,10|0,0:0|0:0,0:0:0:0:
104,291,1254559,2,0,P|99:273|99:255,1,36,8|0,0:0|0:0,0:0:0:0:
209,355,1254777,2,0,L|295:346,1,72,10|0,0:1|0:0,0:0:0:0:
408,336,1255215,1,10,0:0:0:0:
408,336,1255434,1,2,0:0:0:0:
242,231,1255653,6,0,L|257:76,1,144,14|0,0:0|0:0,0:0:0:0:
353,186,1256310,2,0,L|349:147,1,36,8|0,0:0|0:0,0:0:0:0:
255,87,1256529,2,0,L|247:158,1,72,10|8,0:1|0:0,0:0:0:0:
349,268,1256967,2,0,L|341:196,1,72,14|8,0:1|0:0,0:0:0:0:
256,88,1257405,37,8,0:0:0:0:
372,157,1257624,1,10,0:0:0:0:
274,259,1257843,1,10,0:1:0:0:
372,157,1258062,2,0,L|377:111,1,36,10|0,0:0|0:0,0:0:0:0:
342,38,1258281,1,8,0:1:0:0:
467,162,1258500,1,8,0:0:0:0:
309,231,1258719,1,8,0:0:0:0:
309,231,1258829,1,8,0:0:0:0:
309,231,1258938,1,8,0:0:0:0:
191,66,1259157,38,0,L|186:106,2,40.4999987640381,14|0|2,0:0|0:0|0:0,0:0:0:0:
95,222,1259595,2,0,L|99:262,2,40.4999987640381,10|0|2,0:0|0:0|0:0,0:0:0:0:
27,95,1260033,2,0,L|33:38,2,40.4999987640381,10|0|2,0:0|0:0|0:0,0:0:0:0:
184,177,1260471,2,0,L|178:120,2,40.4999987640381,10|0|2,0:0|0:0|0:0,0:0:0:0:
61,307,1260909,6,0,P|80:311|100:312,1,40.4999987640381,10|0,0:0|0:0,0:0:0:0:
215,270,1261128,1,2,0:0:0:0:
37,148,1261347,2,0,P|56:143|76:142,1,40.4999987640381,10|0,0:0|0:0,0:0:0:0:
184,177,1261566,1,2,0:0:0:0:
61,307,1261785,2,0,L|65:256,1,40.4999987640381,10|0,0:0|0:0,0:0:0:0:
76,142,1262004,1,2,0:0:0:0:
199,342,1262223,2,0,L|195:291,1,40.4999987640381,10|0,0:0|0:0,0:0:0:0:
184,177,1262442,1,2,0:0:0:0:
349,280,1262661,6,0,L|447:260,1,90,12|8,0:0|0:0,0:0:0:0:
462,255,1262989,1,8,0:0:0:0:
462,255,1263099,2,0,L|467:203,1,45,10|0,0:0|0:0,0:0:0:0:
398,102,1263318,2,0,L|393:146,1,45,10|0,0:0|0:0,0:0:0:0:
449,27,1263537,1,10,0:0:0:0:
419,11,1263646,1,2,0:0:0:0:
385,8,1263755,1,10,0:0:0:0:
354,19,1263865,1,2,0:0:0:0:
329,41,1263975,2,0,P|306:49|278:51,1,45,10|0,0:0|0:0,0:0:0:0:
176,26,1264194,1,10,0:0:0:0:
242,260,1264413,37,8,0:0:0:0:
280,128,1264632,1,10,0:1:0:0:
280,128,1264850,1,10,0:1:0:0:
129,249,1265069,1,8,0:0:0:0:
136,284,1265179,1,8,0:0:0:0:
143,319,1265288,2,0,L|149:349,7,22.5,10|2|2|2|10|2|2|2,0:0|0:0|0:0|0:0|0:0|0:0|0:0|0:0,0:0:0:0:
170,296,1265726,38,0,B|196:286|232:284|209:294|241:298|269:284,1,94.499997116089,14|0,0:0|0:0,0:0:0:0:
340,214,1266164,6,0,L|352:108,1,103.500001974106,14|0,0:0|0:0,0:0:0:0:
272,32,1266602,1,10,0:0:0:0:
457,132,1266821,1,2,0:0:0:0:
457,132,1266931,1,2,0:0:0:0:
457,132,1267040,1,10,0:0:0:0:
248,195,1267259,1,2,0:0:0:0:
401,329,1267478,2,0,P|416:267|415:222,1,103.500001974106,10|0,0:0|0:0,0:0:0:0:
252,107,1267916,5,10,0:0:0:0:
471,157,1268135,1,2,0:0:0:0:
324,302,1268354,1,10,0:0:0:0:
373,77,1268573,1,2,0:0:0:0:
373,77,1268683,1,2,0:0:0:0:
373,77,1268792,2,0,L|361:135,1,51.7500009870529,10|8,0:0|0:1,0:0:0:0:
333,262,1269011,1,2,0:0:0:0:
160,153,1269230,1,10,0:1:0:0:
49,342,1269449,1,2,0:0:0:0:
49,342,1269559,1,2,0:0:0:0:
49,342,1269668,38,0,P|38:286|44:235,1,103.500001974106,14|0,0:0|0:0,0:0:0:0:
147,71,1270106,1,10,0:0:0:0:
236,244,1270325,1,2,0:0:0:0:
236,244,1270434,1,2,0:0:0:0:
236,244,1270544,1,10,0:0:0:0:
53,135,1270763,1,2,0:0:0:0:
260,31,1270982,2,0,P|272:87|259:144,1,103.500001974106,10|0,0:0|0:0,0:0:0:0:
100,261,1271420,37,10,0:0:0:0:
242,382,1271639,2,0,L|237:277,1,103.500001974106,2|8,0:0|0:0,0:0:0:0:
375,129,1272077,2,0,L|370:232,1,103.500001974106,2|8,0:0|0:0,0:0:0:0:
364,362,1272515,1,2,0:0:0:0:
263,182,1272734,1,10,0:0:0:0:
364,362,1272953,1,10,0:1:0:0:
511,206,1273172,6,0,P|464:184|407:190,1,103.500001974106,10|0,0:0|0:0,0:0:0:0:
218,322,1273610,2,0,L|276:318,1,51.7500009870529,10|0,0:0|0:0,0:0:0:0:
364,362,1273829,2,0,L|422:358,1,51.7500009870529,2|0,0:0|0:0,0:0:0:0:
507,312,1274048,1,10,0:0:0:0:
348,140,1274267,1,2,0:0:0:0:
250,347,1274486,1,10,0:0:0:0:
442,213,1274704,1,2,0:0:0:0:
442,213,1274814,1,2,0:0:0:0:
442,213,1274923,6,0,L|451:100,1,103.500001974106,10|0,0:0|0:0,0:0:0:0:
298,25,1275361,2,0,L|237:36,1,51.7500009870529,10|0,0:0|0:0,0:0:0:0:
143,122,1275580,2,0,L|193:131,1,51.7500009870529,2|0,0:0|0:0,0:0:0:0:
30,57,1275799,1,10,0:0:0:0:
30,57,1275909,1,2,0:0:0:0:
30,57,1276018,1,2,0:0:0:0:
105,273,1276237,1,10,0:0:0:0:
304,183,1276456,2,0,L|248:189,1,51.7500009870529,2|0,0:0|0:0,0:0:0:0:
148,202,1276675,37,10,0:0:0:0:
298,339,1276894,1,2,0:0:0:0:
402,159,1277113,1,10,0:0:0:0:
203,291,1277332,1,2,0:0:0:0:
203,291,1277442,1,2,0:0:0:0:
203,291,1277551,1,10,0:0:0:0:
423,335,1277770,1,2,0:0:0:0:
267,167,1277989,2,0,L|260:225,1,51.7500009870529,10|0,0:0|0:0,0:0:0:0:
209,342,1278208,2,0,L|202:290,1,51.7500009870529,2|0,0:0|0:0,0:0:0:0:
130,177,1278427,37,14,0:0:0:0:
323,371,1278646,1,10,0:1:0:0:
323,371,1278865,1,10,0:1:0:0:
115,369,1279084,1,10,0:0:0:0:
115,369,1279194,1,10,0:0:0:0:
115,369,1279303,2,0,L|107:306,1,51.7500009870529,10|0,0:0|0:0,0:0:0:0:
37,209,1279522,2,0,L|45:146,1,51.7500009870529,10|8,0:1|0:1,0:0:0:0:
142,51,1279741,2,0,P|172:48|204:41,1,51.7500009870529,10|8,0:1|0:1,0:0:0:0:
22,24,1279960,1,10,0:0:0:0:
166,158,1280179,6,0,P|176:213|171:262,1,103.500001974106,14|0,0:0|0:0,0:0:0:0:
33,358,1280617,1,10,0:0:0:0:
259,309,1280836,1,2,0:0:0:0:
259,309,1280945,1,2,0:0:0:0:
259,309,1281055,1,10,0:0:0:0:
91,215,1281274,1,2,0:0:0:0:
275,336,1281493,1,10,0:0:0:0:
325,134,1281712,1,2,0:0:0:0:
158,302,1281931,5,2,0:0:0:0:
385,270,1282150,1,2,0:0:0:0:
180,162,1282369,1,10,0:0:0:0:
289,362,1282588,1,2,0:0:0:0:
289,362,1282697,1,2,0:0:0:0:
289,362,1282807,2,0,L|300:297,1,51.7500009870529,10|8,0:0|0:1,0:0:0:0:
318,206,1283026,1,10,0:0:0:0:
129,339,1283245,2,0,P|124:285|115:232,1,103.500001974106,10|0,0:0|0:0,0:0:0:0:
36,87,1283683,38,0,P|87:63|148:73,1,103.500001974106,14|0,0:0|0:0,0:0:0:0:
279,160,1284121,1,10,0:0:0:0:
115,236,1284340,1,2,0:0:0:0:
115,236,1284449,1,2,0:0:0:0:
115,236,1284559,1,10,0:0:0:0:
239,59,1284777,1,2,0:0:0:0:
237,274,1284996,1,10,0:0:0:0:
376,173,1285215,38,0,P|396:121|389:64,1,103.500001974106,2|8,0:0|0:0,0:0:0:0:
238,169,1285653,1,2,0:0:0:0:
429,241,1285872,1,10,0:0:0:0:
245,377,1286091,2,0,P|242:327|236:266,1,103.500001974106,2|8,0:0|0:0,0:0:0:0:
437,137,1286529,2,0,P|432:188|428:240,1,103.500001974106,2|12,0:0|0:0,0:0:0:0:
334,351,1286967,1,10,0:0:0:0:
175,221,1287186,6,0,P|221:199|286:203,1,103.500001974106,10|0,0:0|0:0,0:0:0:0:
71,345,1287624,2,0,L|63:281,1,51.7500009870529,10|0,0:0|0:0,0:0:0:0:
98,151,1287843,2,0,L|91:202,1,51.7500009870529,2|0,0:0|0:0,0:0:0:0:
35,58,1288062,1,10,0:0:0:0:
35,58,1288172,1,2,0:0:0:0:
35,58,1288281,1,2,0:0:0:0:
262,73,1288500,1,10,0:0:0:0:
138,266,1288719,1,2,0:0:0:0:
138,266,1288829,1,2,0:0:0:0:
138,266,1288938,6,0,P|123:201|131:155,1,103.500001974106,10|0,0:0|0:0,0:0:0:0:
210,75,1289267,1,2,0:0:0:0:
210,75,1289376,2,0,L|272:72,1,51.7500009870529,10|0,0:0|0:0,0:0:0:0:
386,157,1289595,2,0,L|334:154,1,51.7500009870529,2|0,0:0|0:0,0:0:0:0:
479,49,1289814,2,0,L|468:112,1,51.7500009870529,10|0,0:0|0:0,0:0:0:0:
447,228,1290033,1,2,0:0:0:0:
348,25,1290252,1,10,0:0:0:0:
215,207,1290471,1,2,0:0:0:0:
215,207,1290580,1,2,0:0:0:0:
215,207,1290690,37,10,0:0:0:0:
331,322,1290909,1,2,0:0:0:0:
270,119,1291128,1,10,0:0:0:0:
103,282,1291347,1,2,0:0:0:0:
103,282,1291456,1,2,0:0:0:0:
103,282,1291566,1,10,0:0:0:0:
304,221,1291785,1,2,0:0:0:0:
69,180,1292004,1,10,0:0:0:0:
270,119,1292223,1,2,0:0:0:0:
231,351,1292442,37,10,0:0:0:0:
158,108,1292661,1,10,0:0:0:0:
404,166,1292880,1,10,0:0:0:0:
256,192,1292989,12,14,1294194,0:0:0:0:
88,180,1304810,86,0,P|135:153|214:173,1,125.999996154785,2|0,0:0|0:0,0:0:0:0:
281,219,1305239,2,0,P|263:262|257:303,1,62.9999980773926,2|0,0:0|1:0,0:0:0:0:
375,199,1305525,2,0,P|366:168|353:140,1,62.9999980773926,2|0,0:0|0:0,0:0:0:0:
285,74,1305810,6,0,P|290:38|304:0,1,62.9999980773926,2|0,0:0|0:0,0:0:0:0:
472,136,1306096,2,0,B|429:130|429:130|402:148|402:148|341:138,1,125.999996154785,0|0,1:0|0:0,0:0:0:0:
238,211,1306525,101,2,0:0:0:0:
249,217,1306667,2,0,L|260:266,1,31.4999990386963,2|0,0:1|0:0,0:0:0:0:
149,170,1306810,5,2,0:0:0:0:
157,180,1306953,2,0,L|146:229,1,31.4999990386963,2|0,0:1|0:0,0:0:0:0:
272,330,1307096,102,0,B|312:342|362:339|362:339|400:300,1,121.499996292114,4|0,1:0|0:0,0:0:0:0:
397,292,1307382,2,0,P|392:257|383:210,1,80.9999975280763,8|2,0:0|0:0,0:0:0:0:
275,88,1307667,1,0,3:0:0:0:
249,217,1307810,1,2,0:0:0:0:
369,120,1307953,1,8,0:0:0:0:
184,143,1308096,6,0,P|139:130|98:121,1,80.9999975280763,2|0,0:0|3:0,0:0:0:0:
275,63,1308382,1,2,0:0:0:0:
271,225,1308525,1,8,0:0:0:0:
395,122,1308667,2,0,P|434:112|473:101,1,80.9999975280763,2|0,0:0|3:0,0:0:0:0:
416,254,1308953,1,2,0:0:0:0:
296,144,1309096,1,8,0:0:0:0:
229,313,1309239,1,0,1:0:0:0:
229,313,1309310,1,0,1:0:0:0:
229,313,1309382,102,0,B|138:295|164:353|63:331,1,161.999995056153,4|8,3:2|0:0,0:0:0:0:
68,170,1309810,2,0,P|93:206|97:248,1,80.9999975280763,2|0,0:0|3:0,0:0:0:0:
196,111,1310096,2,0,P|202:71|225:38,1,80.9999975280763,2|8,0:0|0:0,0:0:0:0:
332,224,1310382,1,0,1:0:0:0:
332,224,1310453,1,0,1:0:0:0:
332,224,1310525,5,0,3:0:0:0:
205,200,1310667,1,2,0:0:0:0:
352,115,1310810,1,8,0:0:0:0:
420,270,1310953,2,0,P|404:324|398:359,1,80.9999975280763,2|0,0:0|3:0,0:0:0:0:
254,274,1311239,1,2,0:0:0:0:
424,180,1311382,1,8,0:0:0:0:
262,90,1311525,1,0,1:0:0:0:
262,90,1311596,1,0,1:0:0:0:
262,90,1311667,102,0,B|181:74|181:74|159:96|131:103,1,121.499996292114,4|0,3:2|0:0,0:0:0:0:
120,98,1311953,2,0,P|105:60|119:18,1,80.9999975280763,8|2,0:0|0:0,0:0:0:0:
204,179,1312239,1,0,3:0:0:0:
58,171,1312382,1,2,0:0:0:0:
179,290,1312525,1,8,0:0:0:0:
322,197,1312667,1,0,1:0:0:0:
322,197,1312739,1,0,1:0:0:0:
322,197,1312810,6,0,P|365:206|404:215,1,80.9999975280763,0|2,3:0|0:0,0:0:0:0:
280,335,1313096,1,8,0:0:0:0:
204,179,1313239,2,0,P|197:140|217:95,1,80.9999975280763,2|0,0:0|3:0,0:0:0:0:
318,225,1313525,1,2,0:0:0:0:
151,284,1313667,1,8,0:0:0:0:
294,358,1313810,1,2,0:0:0:0:
204,179,1313953,102,0,P|163:165|120:170,1,80.9999975280763,0|2,3:0|0:0,0:0:0:0:
203,356,1314239,1,8,0:0:0:0:
318,225,1314382,2,0,P|312:186|306:136,1,80.9999975280763,2|0,0:0|3:0,0:0:0:0:
202,0,1314667,2,0,P|197:40|190:80,1,80.9999975280763,2|8,0:0|0:0,0:0:0:0:
106,190,1314953,1,2,0:0:0:0:
30,37,1315096,5,4,3:2:0:0:
194,112,1315239,1,8,0:0:0:0:
194,112,1315310,1,8,0:0:0:0:
194,112,1315382,1,8,0:0:0:0:
14,162,1315525,1,8,0:0:0:0:
124,3,1315667,101,8,0:0:0:0:
192,210,1315810,1,8,3:0:0:0:
272,6,1315953,1,8,3:0:0:0:
323,161,1316096,1,8,3:0:0:0:
105,110,1316239,5,6,3:2:0:0:
168,197,1316382,2,0,P|157:252|140:342,1,144,0|0,3:0|3:0,0:0:0:0:
244,369,1316810,2,0,P|271:347|316:346,1,72,8|0,0:0|0:0,0:0:0:0:
414,361,1317096,1,2,0:0:0:0:
386,256,1317239,102,0,P|339:258|255:192,1,144,8|0,0:0|0:0,0:0:0:0:
316,111,1317667,2,0,P|359:117|398:124,1,72,0|0,3:0|0:0,0:0:0:0:
245,8,1317953,1,8,0:0:0:0:
178,92,1318096,2,0,P|142:98|106:102,1,72,0|2,3:0|0:0,0:0:0:0:
39,188,1318382,1,8,0:0:0:0:
136,235,1318525,6,0,P|148:277|136:315,1,72,0|0,3:0|3:0,0:0:0:0:
54,368,1318810,2,0,P|45:333|54:298,1,72,0|0,3:0|0:0,0:0:0:0:
123,215,1319096,1,8,0:0:0:0:
227,242,1319239,2,0,P|261:238|303:232,1,72,0|0,3:0|0:0,0:0:0:0:
403,205,1319525,102,0,B|387:248|376:295|376:295|417:333,1,144,8|2,0:0|0:0,0:0:0:0:
504,227,1319953,2,0,P|495:180|486:138,1,72,0|0,3:0|0:0,0:0:0:0:
426,68,1320239,1,8,0:0:0:0:
337,130,1320382,2,0,P|294:131|258:114,1,72,0|2,3:0|0:0,0:0:0:0:
186,48,1320667,1,8,0:0:0:0:
130,180,1320810,5,6,3:2:0:0:
33,131,1320953,2,0,P|8:82|75:21,1,144,0|0,3:0|3:0,0:0:0:0:
128,105,1321382,2,0,P|116:148|107:182,1,72,8|0,0:0|0:0,0:0:0:0:
80,278,1321667,1,2,0:0:0:0:
184,248,1321810,102,0,B|267:243|243:290|331:282,1,144,8|2,0:0|0:0,0:0:0:0:
423,246,1322239,2,0,P|436:287|443:319,1,72,0|0,3:0|0:0,0:0:0:0:
309,191,1322525,1,8,0:0:0:0:
392,123,1322667,2,0,P|434:132|465:142,1,72,0|2,3:0|0:0,0:0:0:0:
330,204,1322953,1,8,0:0:0:0:
267,116,1323096,6,0,P|273:81|281:41,1,72,0|0,3:0|3:0,0:0:0:0:
162,102,1323382,2,0,P|169:137|175:172,1,72,0|0,3:0|0:0,0:0:0:0:
127,269,1323667,1,8,0:0:0:0:
25,231,1323810,2,0,P|14:194|22:149,1,72,0|0,3:0|0:0,0:0:0:0:
62,62,1324096,1,8,0:0:0:0:
153,182,1324239,101,0,3:0:0:0:
275,91,1324382,1,8,0:0:0:0:
275,91,1324453,1,8,0:0:0:0:
275,91,1324525,2,0,P|265:51|259:18,1,72,8|2,0:0|0:0,0:0:0:0:
241,228,1324810,5,8,0:0:0:0:
370,113,1324953,1,8,0:0:0:0:
347,284,1325096,1,8,0:0:0:0:
265,115,1325239,1,2,0:0:0:0:
406,199,1325382,102,0,P|440:190|496:182,1,90,2|0,0:3|0:0,0:0:0:0:
401,285,1325810,6,0,P|367:276|300:266,1,99.0000030212403,2|0,0:3|0:0,0:0:0:0:
230,375,1326239,102,0,P|264:366|341:354,1,107.999996704102,2|0,0:3|0:0,0:0:0:0:
170,275,1326667,6,0,P|136:266|50:257,1,116.999994644165,2|0,0:3|0:0,0:0:0:0:
10,136,1327096,102,0,P|44:127|132:112,1,94.499997116089,2|0,0:3|0:0,0:0:0:0:
123,127,1327382,6,0,P|95:71|139:15,1,135,4|0,3:0|0:0,0:0:0:0:
221,24,1327667,102,0,B|206:91|206:91|225:130,1,99.0000030212403,6|2,3:2|0:0,0:0:0:0:
387,259,1327953,2,0,P|372:205|360:155,1,99.0000030212403,8|2,0:0|0:0,0:0:0:0:
300,332,1328239,1,0,3:2:0:0:
485,200,1328382,1,2,0:0:0:0:
257,212,1328525,1,8,0:0:0:0:
415,344,1328667,1,2,0:0:0:0:
353,139,1328810,6,0,B|366:76|366:76|346:38,1,99.0000030212403,0|2,3:0|0:0,0:0:0:0:
142,143,1329096,1,8,0:0:0:0:
336,241,1329239,2,0,B|467:209|467:209|427:265,1,198.000006042481,2|2,3:2|3:2,0:0:0:0:
233,353,1329667,1,8,0:0:0:0:
257,123,1329810,1,2,0:0:0:0:
257,123,1329882,1,2,0:0:0:0:
257,123,1329953,101,6,3:2:0:0:
110,224,1330096,1,2,0:0:0:0:
173,36,1330239,1,8,0:0:0:0:
257,212,1330382,1,2,0:0:0:0:
67,137,1330525,5,0,3:0:0:0:
151,313,1330668,1,2,0:0:0:0:
231,122,1330810,1,8,0:0:0:0:
33,268,1330953,1,2,0:0:0:0:
33,268,1331025,1,2,0:0:0:0:
33,268,1331096,102,0,P|17:313|30:366,1,99.0000030212403,0|2,3:0|0:0,0:0:0:0:
274,230,1331382,1,10,0:0:0:0:
79,156,1331525,1,0,3:0:0:0:
205,355,1331667,5,10,0:0:0:0:
325,119,1331810,1,0,1:0:0:0:
325,119,1331882,1,0,1:0:0:0:
325,119,1331953,1,10,0:0:0:0:
142,255,1332096,1,0,3:0:0:0:
373,343,1332239,102,0,B|402:358|402:358|470:337,1,99.0000030212403,6|2,3:2|0:0,0:0:0:0:
510,133,1332525,2,0,P|459:120|410:110,1,99.0000030212403,8|2,0:0|0:0,0:0:0:0:
189,151,1332810,1,0,3:0:0:0:
354,240,1332953,1,2,0:0:0:0:
248,49,1333096,1,8,0:0:0:0:
146,254,1333239,1,2,0:0:0:0:
146,254,1333310,1,2,0:0:0:0:
146,254,1333382,6,0,B|86:267|86:267|48:250,1,99.0000030212403,0|2,3:0|0:0,0:0:0:0:
161,38,1333667,1,8,0:0:0:0:
268,229,1333810,2,0,B|245:299|227:353|227:353|293:380,1,198.000006042481,2|2,3:2|3:2,0:0:0:0:
409,153,1334239,1,8,0:0:0:0:
189,151,1334382,1,2,0:0:0:0:
189,151,1334453,1,2,0:0:0:0:
189,151,1334525,101,6,3:2:0:0:
326,17,1334667,1,2,0:0:0:0:
293,243,1334810,1,8,0:0:0:0:
437,58,1334953,1,2,0:0:0:0:
209,49,1335096,5,0,3:0:0:0:
380,156,1335239,1,2,0:0:0:0:
190,242,1335382,2,0,P|132:233|80:226,1,99.0000030212403,8|2,0:0|0:0,0:0:0:0:
315,46,1335667,101,6,3:2:0:0:
321,261,1335810,1,8,0:0:0:0:
321,261,1335882,1,8,0:0:0:0:
321,261,1335953,1,8,0:0:0:0:
490,140,1336096,1,8,0:0:0:0:
262,154,1336239,5,8,3:0:0:0:
305,357,1336382,1,8,3:0:0:0:
128,182,1336525,1,4,3:0:0:0:
162,344,1336668,1,4,3:0:0:0:
413,230,1336810,102,0,B|473:237|473:237|511:217,1,99.0000030212403,4|2,3:2|0:0,0:0:0:0:
367,36,1337096,2,0,P|319:20|268:31,1,99.0000030212403,8|2,0:0|0:0,0:0:0:0:
119,157,1337382,1,0,3:0:0:0:
316,139,1337525,1,2,3:2:0:0:
164,320,1337667,2,0,P|109:309|45:300,1,99.0000030212403,8|2,0:0|0:0,0:0:0:0:
222,120,1337953,5,0,3:0:0:0:
295,314,1338096,1,2,3:2:0:0:
507,219,1338239,2,0,P|510:168|490:120,1,99.0000030212403,8|2,0:0|0:0,0:0:0:0:
318,26,1338525,1,0,3:0:0:0:
271,217,1338667,1,2,3:2:0:0:
470,106,1338810,1,8,0:0:0:0:
220,99,1338953,1,2,0:0:0:0:
220,99,1339025,1,2,0:0:0:0:
220,99,1339096,101,6,3:2:0:0:
362,236,1339239,1,2,0:0:0:0:
130,181,1339382,1,8,0:0:0:0:
336,112,1339525,1,2,0:0:0:0:
225,298,1339667,2,0,B|134:319|134:319|111:308|91:278,1,148.50000453186,0|0,3:0|0:0,0:0:0:0:
18,254,1339953,2,0,P|24:206|30:156,1,99.0000030212403,8|2,0:0|0:0,0:0:0:0:
203,57,1340239,6,0,P|214:121|222:172,1,99.0000030212403,0|2,3:0|0:0,0:0:0:0:
359,360,1340525,1,8,0:0:0:0:
439,127,1340667,1,2,0:0:0:0:
235,268,1340810,101,4,3:2:0:0:
482,262,1340953,1,0,1:0:0:0:
482,262,1341025,1,0,1:0:0:0:
482,262,1341096,1,8,0:0:0:0:
311,126,1341239,1,2,1:2:0:0:
166,351,1341382,6,0,B|130:369|130:369|59:352,1,99.0000030212403,6|2,3:2|0:0,0:0:0:0:
18,133,1341667,2,0,P|66:126|123:118,1,99.0000030212403,8|2,0:0|0:0,0:0:0:0:
292,207,1341953,1,0,3:0:0:0:
103,267,1342096,1,2,3:2:0:0:
218,105,1342239,2,0,P|224:60|235:6,1,99.0000030212403,8|2,0:0|0:0,0:0:0:0:
409,156,1342525,101,0,3:0:0:0:
197,236,1342667,1,2,3:2:0:0:
396,345,1342810,2,0,P|454:356|508:328,1,99.0000030212403,8|2,0:0|0:0,0:0:0:0:
301,179,1343096,1,0,3:0:0:0:
255,371,1343239,1,2,3:2:0:0:
443,247,1343382,1,8,0:0:0:0:
193,271,1343525,1,2,0:0:0:0:
193,271,1343596,1,2,0:0:0:0:
193,271,1343667,5,6,3:2:0:0:
280,93,1343810,1,2,0:0:0:0:
374,321,1343953,1,8,0:0:0:0:
446,136,1344096,1,2,0:0:0:0:
211,175,1344239,2,0,B|114:155|114:155|99:181|63:193,1,148.50000453186,0|0,3:0|0:0,0:0:0:0:
47,113,1344525,2,0,P|31:61|55:15,1,99.0000030212403,8|2,0:0|0:0,0:0:0:0:
270,71,1344810,101,6,3:2:0:0:
124,273,1344953,1,0,1:0:0:0:
124,273,1345025,1,0,1:0:0:0:
124,273,1345096,1,8,0:0:0:0:
362,207,1345239,1,0,1:0:0:0:
134,66,1345382,1,12,0:0:0:0:
256,192,1345953,5,4,0:0:0:0:
288,87,1354942,86,0,B|272:87|256:95|256:95|240:87|227:87,1,62.9999980773926,8|0,0:0|0:0,0:0:0:0:
256,15,1355169,6,0,B|257:98|257:98|254:101|254:101|257:184,1,161.999995056153,0|0,1:0|3:0,0:0:0:0:
309,245,1355510,1,0,3:0:0:0:
316,253,1355624,102,0,P|349:265|395:260,1,67.5000025749208,4|0,0:0|0:0,0:0:0:0:
455,250,1355965,2,0,P|464:220|435:206,1,67.5000025749208,2|0,0:0|0:0,0:0:0:0:
360,186,1356306,6,0,B|374:154|413:100|416:146|486:150|521:59|484:-5|395:9|396:88,1,270,2|0,0:0|3:0,0:0:0:0:
332,58,1356760,102,0,P|333:74|341:89,1,33.7500012874604,0|0,1:0|0:0,0:0:0:0:
509,161,1356987,6,0,P|384:136|270:156,1,216,4|0,0:1|0:0,0:0:0:0:
244,205,1357442,102,0,P|221:160|231:111,1,90,4|0,1:2|3:0,0:0:0:0:
230,110,1357783,1,0,3:0:0:0:
234,102,1357896,1,8,0:0:0:0:
157,5,1358124,6,0,P|177:22|177:42,1,45,0|0,3:3|0:0,0:0:0:0:
141,108,1358351,1,0,1:0:0:0:
8,192,1358578,102,0,B|28:176|28:176|44:192,1,45,2|0,3:2|3:0,0:0:0:0:
116,192,1358806,2,0,B|136:208|136:208|152:192,1,45,10|0,0:0|0:0,0:0:0:0:
224,192,1359033,1,2,3:2:0:0:
232,192,1359146,2,0,L|232:144,1,45,2|0,0:0|1:2,0:0:0:0:
304,192,1359374,2,0,L|304:240,1,45,2|0,0:0|3:0,0:0:0:0:
376,192,1359601,1,2,3:2:0:0:
384,192,1359714,2,0,L|384:144,1,45,10|0,0:2|0:0,0:0:0:0:
452,192,1359942,1,2,3:2:0:0:
460,192,1360056,1,0,0:0:0:0:
468,192,1360169,1,2,1:2:0:0:
448,330,1360396,6,0,L|388:327,1,45,2|0,3:2|3:0,0:0:0:0:
323,370,1360624,2,0,B|314:320|314:320|343:252,1,90,10|0,0:2|3:0,0:0:0:0:
194,361,1361078,102,0,P|163:326|116:325,1,90,0|0,1:0|3:0,0:0:0:0:
55,291,1361419,1,0,3:0:0:0:
49,308,1361533,2,0,P|51:347|55:357,1,45,8|0,0:0|0:0,0:0:0:0:
164,248,1361760,2,0,P|196:226|203:218,1,45,0|0,3:0|0:0,0:0:0:0:
194,361,1361987,6,0,P|163:326|116:325,1,90,0|0,1:0|3:0,0:0:0:0:
55,291,1362328,1,0,3:0:0:0:
49,308,1362442,2,0,P|43:346|45:357,1,45,8|0,0:0|0:0,0:0:0:0:
142,178,1362669,2,0,P|147:139|145:128,1,45,0|0,3:0|0:0,0:0:0:0:
59,19,1362896,102,0,B|64:70|64:70|66:75|66:75|72:141,1,107.999996704102,0|0,1:0|3:0,0:0:0:0:
46,196,1363237,2,0,P|37:226|53:201,1,90,0|0,3:0|0:0,0:0:0:0:
40,212,1363578,6,0,B|110:216|68:250|165:258,1,107.999996704102,0|0,3:0|1:0,0:0:0:0:
169,135,1364033,2,0,P|153:146|142:177,1,53.9999983520508,0|0,3:0|3:0,0:0:0:0:
178,324,1364260,2,0,B|193:330|196:349|196:349|208:266,1,107.999996704102,8|0,0:0|3:0,0:0:0:0:
268,179,1364715,102,0,P|291:224|281:273,1,90,4|0,1:2|3:0,0:0:0:0:
282,274,1365056,1,0,3:0:0:0:
278,282,1365169,1,8,0:0:0:0:
355,379,1365397,6,0,P|335:362|335:342,1,45,0|0,3:3|0:0,0:0:0:0:
371,276,1365624,1,0,1:0:0:0:
504,192,1365851,102,0,B|484:208|484:208|468:192,1,45,2|0,3:2|3:0,0:0:0:0:
396,192,1366079,2,0,B|376:176|376:176|360:192,1,45,10|0,0:0|0:0,0:0:0:0:
288,192,1366306,1,2,3:2:0:0:
280,192,1366419,2,0,L|280:240,1,45,2|0,0:0|1:2,0:0:0:0:
208,192,1366647,2,0,L|208:144,1,45,2|0,0:0|3:0,0:0:0:0:
136,192,1366874,1,2,3:2:0:0:
128,192,1366987,2,0,L|128:240,1,45,10|0,0:2|0:0,0:0:0:0:
60,192,1367215,1,2,3:2:0:0:
52,192,1367329,1,0,0:0:0:0:
44,192,1367442,5,2,1:2:0:0:
18,267,1367669,1,2,3:2:0:0:
136,192,1367896,102,0,B|188:188|188:188|191:195|191:195|254:192,1,101.250003862381,10|0,0:2|0:0,0:0:0:0:
306,156,1368351,6,0,P|315:106|305:32,2,101.250003862381,0|0|0,1:0|0:0|0:0,0:0:0:0:
272,227,1369260,2,0,B|274:247|218:259|218:259|208:218|232:193,1,135.000005149842,0|0,1:0|1:0,0:0:0:0:
315,345,1369942,101,0,0:0:0:0:
315,345,1370056,1,0,0:0:0:0:
315,345,1370169,2,0,P|356:353|378:367,1,67.5000025749208,2|0,1:2|0:0,0:0:0:0:
449,339,1370510,2,0,P|430:311|402:293,1,67.5000025749208,2|0,0:2|0:0,0:0:0:0:
331,266,1370851,1,2,0:2:0:0:
197,345,1371078,6,0,P|156:353|134:367,1,67.5000025749208,2|0,1:2|0:0,0:0:0:0:
63,339,1371419,2,0,P|82:311|110:293,1,67.5000025749208,2|0,0:2|0:0,0:0:0:0:
181,266,1371760,1,2,0:2:0:0:
320,176,1371987,102,0,B|304:168|304:144|304:144|308:140|308:140|312:106|304:80|272:96|256:72|256:32|256:32|256:72|240:96|216:80|200:104|204:140|204:140|208:144|208:144|208:168|192:176,1,337.5,2|0,1:2|0:0,0:0:0:0:
88,63,1374033,6,0,L|85:44,2,16.8750006437302,8|0|0,3:0|0:0|0:0,0:0:0:0:
10,77,1374260,101,2,3:0:0:0:
63,139,1374374,1,2,3:0:0:0:
142,124,1374487,1,2,3:0:0:0:
164,49,1374601,1,2,3:0:0:0:
146,134,1374715,5,4,3:0:0:0:
148,140,1374828,1,4,3:0:0:0:
150,146,1374942,2,0,L|147:186,1,33.7500012874604,0|0,1:0|0:0,0:0:0:0:
142,291,1375169,102,0,B|170:309|234:270|180:239|110:248|71:266|131:274|73:312|-51:252|6:186|80:206|71:245,1,270,4|0,1:0|0:0,0:0:0:0:
206,372,1375624,6,0,P|230:341|261:326,1,67.5000025749208,6|0,1:2|0:0,0:0:0:0:
261,248,1375851,1,0,3:0:0:0:
396,302,1375965,102,0,B|362:299|362:299|358:300|358:300|298:296,1,67.5000025749208,2|8,3:2|0:0,0:0:0:0:
147,179,1376192,2,0,B|176:180|176:180|180:179|180:179|214:182,1,67.5000025749208,2|0,0:0|3:2,0:0:0:0:
407,80,1376419,6,0,B|436:47|424:19|424:19|389:38|398:76,1,135.000005149842,2|0,0:0|0:0,0:0:0:0:
482,116,1376760,101,2,2:0:0:0:
422,158,1376874,1,2,2:0:0:0:
342,130,1376987,1,10,2:0:0:0:
321,49,1377101,1,2,2:0:0:0:
256,100,1377215,5,0,1:0:0:0:
256,112,1377328,1,0,1:0:0:0:
191,49,1377442,102,0,B|124:45|145:89|49:80,1,135.000005149842,2|0,1:2|3:0,0:0:0:0:
3,33,1377783,2,0,P|29:10|61:5,1,67.5000025749208,2|8,3:2|0:0,0:0:0:0:
179,127,1378010,2,0,P|191:144|168:131,1,67.5000025749208,2|0,0:0|3:2,0:0:0:0:
82,155,1378237,6,0,P|92:178|95:226,1,67.5000025749208,2|0,0:0|1:0,0:0:0:0:
77,159,1378578,102,0,P|87:182|90:230,1,67.5000025749208,2|0,2:0|2:0,0:0:0:0:
17,272,1378806,2,0,B|62:293|75:349|75:349|100:297|159:287,1,202.500007724762,10|0,2:0|1:0,0:0:0:0:
222,334,1379260,6,0,B|282:363|330:336|322:287|283:285|294:340,1,135.000005149842,2|0,1:2|3:0,0:0:0:0:
373,350,1379601,2,0,P|382:309|369:276,1,67.5000025749208,2|8,3:2|0:0,0:0:0:0:
296,233,1379828,2,0,P|256:245|234:273,1,67.5000025749208,2|0,0:0|3:2,0:0:0:0:
367,365,1380056,1,2,0:0:0:0:
373,350,1380169,102,0,P|408:328|451:327,1,76.5000014591217,0|0,1:0|0:0,0:0:0:0:
376,209,1380396,2,0,P|362:169|371:127,1,76.5000014591217,2|0,2:0|2:0,0:0:0:0:
457,41,1380624,6,0,B|471:45|471:45|435:181,1,135,10|0,2:0|1:0,0:0:0:0:
485,233,1381078,102,0,B|443:237|422:256|422:256|410:233|362:199,1,135.000005149842,2|0,1:2|3:0,0:0:0:0:
296,233,1381419,1,2,3:2:0:0:
233,178,1381533,2,0,L|245:106,1,67.5000025749208,10|0,0:0|0:0,0:0:0:0:
256,36,1381760,1,2,3:2:0:0:
256,36,1381987,6,0,B|253:21|263:16|263:16|272:23|267:39,1,45,2|0,1:2|0:0,0:0:0:0:
173,103,1382215,102,0,B|129:88|140:108|92:90,1,76.5000014591217,2|0,2:0|2:0,0:0:0:0:
317,176,1382442,2,0,B|360:161|349:181|397:163,1,76.5000014591217,10|0,2:0|2:0,0:0:0:0:
424,309,1382669,6,0,P|433:266|403:305,1,116.999994644165,2|0,1:2|1:0,0:0:0:0:
306,372,1382896,102,0,P|282:341|251:326,1,67.5000025749208,6|0,1:2|0:0,0:0:0:0:
251,248,1383123,1,0,3:0:0:0:
186,370,1383237,6,0,B|183:336|183:336|184:332|184:332|180:272,1,67.5000025749208,2|8,3:2|0:0,0:0:0:0:
17,262,1383464,2,0,B|18:232|18:232|17:228|17:228|20:194,1,67.5000025749208,2|0,0:0|3:2,0:0:0:0:
111,74,1383692,102,0,B|122:37|87:18|87:18|66:50|102:76,1,135.000005149842,2|0,0:0|0:0,0:0:0:0:
21,101,1384033,5,2,2:0:0:0:
90,159,1384147,1,2,2:0:0:0:
170,130,1384260,1,10,2:0:0:0:
191,49,1384374,1,2,2:0:0:0:
256,100,1384488,101,0,1:0:0:0:
256,112,1384601,1,0,1:0:0:0:
321,49,1384715,6,0,B|363:41|407:63|364:97|466:99|479:41|450:22|402:31|415:70,1,180,2|0,1:2|3:0,0:0:0:0:
333,123,1385056,102,0,P|330:154|353:188,1,67.5000025749208,2|8,3:2|0:0,0:0:0:0:
468,179,1385283,2,0,P|470:151|445:171,1,67.5000025749208,2|0,0:0|3:2,0:0:0:0:
357,256,1385510,5,2,0:0:0:0:
358,266,1385624,2,0,L|359:299,1,33.7500012874604,0|0,1:0|0:0,0:0:0:0:
440,313,1385851,102,0,B|439:287|457:273|471:285|482:264|458:228|433:267|451:278,1,90,2|0,2:0|2:0,0:0:0:0:
282,227,1386078,2,0,B|253:268|268:312|303:307|299:355|219:388|220:295|262:296,1,180,10|2,2:0|1:2,0:0:0:0:
357,256,1386419,5,0,1:0:0:0:
364,341,1386533,2,0,B|355:345|348:352|348:352|317:314|224:298,1,135.000005149842,2|0,1:2|3:0,0:0:0:0:
165,340,1386874,1,2,3:2:0:0:
161,350,1386987,2,0,P|132:353|99:382,1,67.5000025749208,8|2,0:0|0:0,0:0:0:0:
64,300,1387215,101,0,3:2:0:0:
64,300,1387328,1,2,0:0:0:0:
64,300,1387442,2,0,B|8:274|29:223|29:223|45:225|58:246,1,135.000005149842,0|2,1:0|2:0,0:0:0:0:
136,241,1387783,5,0,2:0:0:0:
141,251,1387896,2,0,B|221:214|191:139|191:139|167:143|149:173,1,180,10|0,2:0|1:2,0:0:0:0:
0,152,1388237,101,0,1:0:0:0:
13,149,1388351,2,0,B|47:145|82:171|82:171|81:125|118:94,1,135.000005149842,2|0,1:2|3:0,0:0:0:0:
157,26,1388692,5,2,3:2:0:0:
157,26,1388806,1,10,0:0:0:0:
157,26,1388919,2,0,L|161:109,1,45,0|2,0:0|3:2,0:0:0:0:
283,179,1389146,101,2,0:0:0:0:
283,179,1389260,2,0,P|279:132|251:118,1,67.5000025749208,2|0,1:2|0:0,0:0:0:0:
112,142,1389487,2,0,P|83:179|94:208,1,67.5000025749208,2|0,2:0|2:0,0:0:0:0:
206,195,1389715,6,0,B|183:168|117:176|145:281|210:260|193:235|257:228|291:287,1,229.500004377365,10|0,2:0|1:0,0:0:0:0:
335,378,1390169,102,0,P|306:359|279:360,1,45,2|0,1:2|0:0,0:0:0:0:
477,327,1390396,2,0,P|501:304|528:300,1,45,2|0,3:2|3:2,0:0:0:0:
330,279,1390624,6,0,B|283:250|264:283|279:287|306:280,1,67.5000025749208,8|0,0:0|0:0,0:0:0:0:
472,238,1390851,2,0,B|506:196|535:221|522:229|494:231,1,67.5000025749208,2|0,0:0|0:0,0:0:0:0:
398,356,1391078,102,0,L|404:295,1,45,2|0,1:2|0:0,0:0:0:0:
390,119,1391305,6,0,B|387:137|394:177|404:153|434:219|378:232|339:195|388:162,1,135,2|8,3:2|0:0,0:0:0:0:
301,114,1391646,1,0,0:0:0:0:
300,128,1391760,101,2,3:2:0:0:
221,166,1391874,1,0,3:2:0:0:
150,115,1391987,6,0,P|142:76|157:45,1,67.5000025749208,2|0,1:2|0:0,0:0:0:0:
49,60,1392215,2,0,P|65:23|95:7,1,67.5000025749208,2|0,3:2|3:2,0:0:0:0:
215,4,1392442,102,0,P|245:10|222:23,1,67.5000025749208,10|0,0:0|0:0,0:0:0:0:
186,135,1392669,1,2,3:2:0:0:
166,129,1392783,1,0,0:0:0:0:
150,115,1392896,6,0,P|149:80|163:60,1,45,2|0,1:2|0:0,0:0:0:0:
72,133,1393124,2,0,P|54:102|56:78,1,45,2|0,3:2|3:2,0:0:0:0:
116,203,1393351,102,0,P|128:209|118:208,1,40.4999987640381,10|0,0:0|3:0,0:0:0:0:
31,257,1393805,6,0,P|61:267|74:279,1,45,2|0,1:2|0:0,0:0:0:0:
187,250,1394033,2,0,P|199:231|217:218,1,45,2|0,3:2|3:2,0:0:0:0:
144,337,1394260,102,0,P|191:328|217:332,1,67.5000025749208,8|0,0:0|0:0,0:0:0:0:
298,227,1394487,2,0,P|310:180|325:159,1,67.5000025749208,2|0,0:0|0:0,0:0:0:0:
444,330,1394715,6,0,P|432:366|388:384,1,76.5000014591217,2|0,1:2|0:0,0:0:0:0:
290,312,1394942,101,2,3:2:0:0:
308,304,1395055,1,0,3:2:0:0:
328,302,1395169,2,0,P|362:308|377:325,1,45,8|0,0:0|0:0,0:0:0:0:
510,384,1395396,5,2,3:2:0:0:
445,320,1395510,1,0,3:2:0:0:
426,232,1395624,102,0,P|430:183|436:162,1,67.5000025749208,2|0,1:2|0:0,0:0:0:0:
397,90,1395851,2,0,P|364:74|372:109,1,90,2|0,3:2|3:2,0:0:0:0:
496,58,1396078,6,0,P|476:85|475:115,1,45,10|0,0:0|0:0,0:0:0:0:
354,185,1396305,2,0,P|322:172|293:177,1,45,2|0,3:2|0:0,0:0:0:0:
444,208,1396533,102,0,P|434:173|436:156,1,45,2|0,1:2|0:0,0:0:0:0:
397,90,1396760,2,0,P|377:89|373:111,1,45,2|0,3:2|3:2,0:0:0:0:
349,193,1396987,6,0,P|282:193|257:211,1,90,10|0,0:0|3:0,0:0:0:0:
198,246,1397328,1,0,3:0:0:0:
198,246,1397442,102,0,P|164:230|158:217,1,45,2|0,1:2|0:0,0:0:0:0:
26,229,1397669,2,0,P|60:213|66:200,1,45,2|0,3:2|3:2,0:0:0:0:
220,164,1397896,6,0,P|227:143|257:110,1,67.5000025749208,8|0,0:0|0:0,0:0:0:0:
19,145,1398124,2,0,P|18:123|-1:83,1,67.5000025749208,2|0,0:0|0:0,0:0:0:0:
139,44,1398351,102,0,B|114:-12|163:-11|167:41|123:97,1,135.000005149842,2|2,1:2|3:2,0:0:0:0:
116,164,1398692,1,0,3:2:0:0:
115,174,1398805,6,0,B|99:269|132:240|117:334,1,135.000005149842,8|2,0:0|3:2,0:0:0:0:
110,380,1399146,101,0,3:2:0:0:
185,350,1399260,2,0,P|211:359|246:390,1,67.5000025749208,2|0,1:2|0:0,0:0:0:0:
186,230,1399487,2,0,P|212:221|247:190,1,67.5000025749208,2|0,3:2|3:2,0:0:0:0:
293,298,1399715,2,0,P|312:284|285:289,1,67.5000025749208,10|0,0:0|0:0,0:0:0:0:
115,274,1399942,6,0,L|120:311,1,33.7500012874604,2|0,3:2|0:0,0:0:0:0:
185,350,1400169,102,0,P|213:350|256:368,1,45,2|0,1:2|0:0,0:0:0:0:
186,230,1400396,2,0,P|214:230|257:212,1,45,2|0,3:2|3:2,0:0:0:0:
298,286,1400624,6,0,B|388:285|325:328|447:330,1,135.000005149842,10|0,0:0|3:0,0:0:0:0:
481,382,1400965,1,0,3:0:0:0:
490,366,1401078,102,0,P|498:318|478:277,1,67.5000025749208,2|0,1:2|0:0,0:0:0:0:
375,282,1401305,2,0,P|362:235|327:206,1,67.5000025749208,2|0,3:2|3:2,0:0:0:0:
241,188,1401533,6,0,P|281:183|293:150,1,53.9999983520508,8|0,0:0|0:0,0:0:0:0:
356,216,1401760,2,0,P|379:183|363:152,1,53.9999983520508,2|0,0:0|0:0,0:0:0:0:
353,38,1401987,102,0,B|347:43|347:52|353:57|353:57|374:78|360:117|318:119|300:92|306:70,1,135.000005149842,2|2,1:2|3:2,0:0:0:0:
430,40,1402328,1,0,3:2:0:0:
434,55,1402442,6,0,P|436:99|426:128,1,67.5000025749208,8|0,0:0|0:0,0:0:0:0:
268,156,1402669,102,0,P|238:122|231:84,1,76.5000014591217,2|0,3:2|3:2,0:0:0:0:
69,150,1402896,6,0,B|78:139|78:124|69:115|69:115|32:79|56:10|128:8|160:54|149:93,1,233.999989288331,0|8,1:0|0:0,0:0:0:0:
151,86,1403805,102,0,P|147:101|142:110,2,22.5,0|0|0,1:0|1:0|1:0,0:0:0:0:
0,183,1404260,6,0,B|122:181|53:246|191:239,1,202.500007724762,4|0,0:1|0:0,0:0:0:0:
256,192,1404715,101,4,0:0:0:0:
256,192,1422080,21,2,3:2:0:0:
256,192,1422774,1,0,3:0:0:0:
256,192,1423468,1,2,3:2:0:0:
256,192,1424161,1,0,3:0:0:0:
256,281,1424855,5,2,3:2:0:0:
166,191,1425549,1,0,3:0:0:0:
256,102,1426242,1,2,3:2:0:0:
256,192,1426763,2,0,L|348:193,1,72,0|0,3:0|3:0,0:0:0:0:
432,192,1427283,1,0,3:0:0:0:
477,36,1427630,37,2,3:2:0:0:
368,128,1427976,1,0,3:0:0:0:
259,36,1428323,1,2,3:2:0:0:
150,128,1428670,1,0,3:0:0:0:
35,348,1429017,53,2,3:2:0:0:
144,229,1429363,1,0,3:0:0:0:
253,348,1429710,1,2,3:2:0:0:
362,229,1430057,1,0,3:0:0:0:
471,348,1430404,6,0,P|486:250|481:225,1,108,2|0,3:2|3:0,0:0:0:0:
472,211,1430751,1,0,0:0:0:0:
372,130,1430924,2,0,L|292:142,1,72,2|0,0:2|3:0,0:0:0:0:
368,273,1431271,2,0,L|296:262,1,72,2|0,0:0|3:0,0:0:0:0:
96,187,1431618,38,0,P|129:134|217:156,1,135,2|0,3:2|0:0,0:0:0:0:
232,176,1431965,54,0,L|221:258,1,67.5000025749208,2|0,3:2|0:0,0:0:0:0:
90,353,1432138,1,2,3:2:0:0:
256,192,1432832,12,4,1434219,0:0:0:0:
175,85,1434566,6,0,P|149:126|213:114,1,141.749995674133,6|0,0:0|0:0,0:0:0:0:
278,60,1435260,38,0,L|286:122,1,45,8|8,0:0|0:0,0:0:0:0:
358,226,1435433,2,0,L|363:181,1,45,8|8,0:0|0:0,0:0:0:0:
490,13,1435606,1,8,0:0:0:0:
494,44,1435693,1,8,0:0:0:0:
498,75,1435780,54,0,B|506:125|506:125|321:85,1,202.500007724762,6|0,3:2|0:0,0:0:0:0:
152,20,1436127,6,0,P|80:80|206:146,1,270,6|0,0:0|0:0,0:0:0:0:
245,70,1436474,38,0,P|196:73|152:93,1,99.0000030212403,10|0,0:0|0:0,0:0:0:0:
360,316,1436820,54,0,P|404:336|453:339,1,99.0000030212403,10|0,0:0|0:0,0:0:0:0:
302,212,1436994,6,0,B|249:286|249:286|263:345,1,135,10|0,0:0|0:0,0:0:0:0:
322,184,1437341,38,0,P|217:209|110:194,1,202.500007724762,6|0,3:2|0:0,0:0:0:0:
95,180,1437687,1,8,0:0:0:0:
239,72,1437861,1,0,0:0:0:0:
30,16,1438034,2,0,P|17:129|14:289,1,270.000010299683,2|8,3:2|0:0,0:0:0:0:
118,339,1438554,1,0,0:0:0:0:
110,105,1438728,54,0,L|28:123,1,67.5000025749208,2|0,3:2|0:0,0:0:0:0:
224,148,1438901,1,0,0:0:0:0:
44,204,1439075,1,10,0:0:0:0:
228,245,1439248,1,0,3:0:0:0:
10,354,1439422,6,0,P|42:282|143:326,1,202.500007724762,2|0,0:0|0:0,0:0:0:0:
118,339,1439768,2,0,P|198:359|248:341,1,135.000005149842,8|0,0:0|0:0,0:0:0:0:
414,130,1440115,38,0,B|351:105|351:105|223:148,1,202.500007724762,6|0,3:2|0:0,0:0:0:0:
193,162,1440462,1,8,0:0:0:0:
334,20,1440635,1,0,0:0:0:0:
266,235,1440809,2,0,P|200:268|128:240,1,135.000005149842,2|0,3:2|3:0,0:0:0:0:
57,127,1441156,1,8,0:0:0:0:
156,58,1441329,1,2,0:0:0:0:
29,335,1441502,54,0,B|91:371|91:371|198:376|301:333,1,270.000010299683,2|8,3:2|0:0,0:0:0:0:
445,229,1442023,1,2,3:2:0:0:
236,103,1442196,2,0,P|249:173|274:259,1,135.000005149842,2|0,0:0|3:0,0:0:0:0:
363,102,1442543,1,8,0:0:0:0:
285,339,1442716,1,2,0:0:0:0:
86,98,1442890,6,0,P|147:44|238:118,1,202.500007724762,6|0,3:2|0:0,0:0:0:0:
225,132,1443237,2,0,P|188:157|144:164,1,67.5000025749208,10|0,0:0|0:0,0:0:0:0:
10,161,1443410,38,0,P|-8:88|12:31,1,135.000005149842,2|0,0:0|3:0,0:0:0:0:
304,38,1443757,2,0,P|322:101|304:165,1,135.000005149842,2|8,0:0|0:0,0:0:0:0:
153,293,1444104,1,2,3:2:0:0:
170,21,1444277,54,0,L|461:58,1,270.000010299683,2|10,3:2|0:0,0:0:0:0:
485,159,1444797,1,0,3:0:0:0:
168,172,1444971,5,8,0:0:0:0:
123,186,1445057,1,8,0:0:0:0:
77,200,1445144,1,8,0:0:0:0:
282,93,1445317,38,0,P|288:146|272:180,1,67.5000025749208,8|8,0:0|0:0,0:0:0:0:
155,358,1445491,2,0,P|149:305|165:271,1,67.5000025749208,8|8,0:0|0:0,0:0:0:0:
376,43,1445664,54,0,P|372:141|260:141,1,202.500007724762,6|0,3:2|0:0,0:0:0:0:
248,151,1446011,2,0,L|406:182,1,135.000005149842,8|0,0:0|0:0,0:0:0:0:
112,121,1446358,1,2,3:2:0:0:
232,280,1446531,1,0,3:0:0:0:
256,40,1446705,1,8,0:0:0:0:
99,227,1446878,1,0,0:0:0:0:
380,176,1447052,6,0,B|403:261|373:321|373:321|318:269,1,202.500007724762,2|0,3:2|0:0,0:0:0:0:
311,260,1447398,1,8,0:0:0:0:
453,132,1447572,1,0,3:0:0:0:
256,40,1447745,37,2,0:0:0:0:
206,289,1447919,1,0,3:0:0:0:
369,81,1448092,53,10,0:0:0:0:
112,121,1448265,1,0,0:0:0:0:
369,81,1448439,6,0,P|400:154|270:210,1,202.500007724762,6|0,3:2|0:0,0:0:0:0:
290,212,1448786,1,8,0:0:0:0:
492,187,1448959,1,0,0:0:0:0:
211,41,1449133,38,0,B|161:105|161:105|139:194|194:314,1,270.000010299683,2|2,3:2|0:0,0:0:0:0:
288,368,1449653,1,0,0:0:0:0:
23,264,1449826,54,0,L|97:248,1,67.5000025749208,2|0,3:2|0:0,0:0:0:0:
248,215,1450000,1,0,0:0:0:0:
100,354,1450173,1,8,0:0:0:0:
162,106,1450346,1,0,3:0:0:0:
288,368,1450520,5,2,0:0:0:0:
337,378,1450606,1,2,0:0:0:0:
386,370,1450693,1,2,3:2:0:0:
429,344,1450780,1,2,0:0:0:0:
460,304,1450866,37,10,0:0:0:0:
406,264,1450953,1,2,0:0:0:0:
343,240,1451040,1,2,0:0:0:0:
276,235,1451127,1,2,0:0:0:0:
210,249,1451213,54,0,P|368:199|425:152,1,202.500007724762,6|0,3:2|0:0,0:0:0:0:
420,152,1451560,1,8,0:0:0:0:
258,82,1451734,1,2,0:0:0:0:
499,56,1451907,2,0,B|524:140|524:140|486:341,1,270.000010299683,2|0,3:2|0:0,0:0:0:0:
420,152,1452427,1,2,0:0:0:0:
350,358,1452601,6,0,B|300:313|300:313|246:350|173:361|173:361|108:308,1,270.000010299683,6|8,3:2|0:0,0:0:0:0:
34,197,1453121,1,2,3:2:0:0:
206,130,1453294,2,0,B|222:196|222:196|215:232|196:265,1,135.000005149842,2|0,0:0|3:0,0:0:0:0:
34,197,1453641,1,10,0:0:0:0:
202,46,1453815,1,0,0:0:0:0:
413,233,1453988,38,0,P|342:324|242:296,1,202.500007724762,6|0,3:2|0:0,0:0:0:0:
238,295,1454335,1,10,0:0:0:0:
316,142,1454508,1,2,0:0:0:0:
483,185,1454682,53,0,3:0:0:0:
204,82,1454855,2,0,P|210:130|219:174,1,67.5000025749208,8|8,0:0|0:0,0:0:0:0:
330,288,1455028,2,0,P|335:254|339:221,1,67.5000025749208,8|8,0:0|0:0,0:0:0:0:
129,44,1455202,6,0,P|47:51|36:164,1,202.500007724762,6|0,0:0|0:0,0:0:0:0:
100,308,1455549,38,0,B|137:209|62:208|92:112,1,202.500007724762,6|0,0:0|0:0,0:0:0:0:
272,279,1455896,54,0,P|206:334|90:297,1,202.500007724762,6|0,0:0|0:0,0:0:0:0:
176,221,1456242,5,4,3:0:0:0:
272,279,1456416,1,8,0:0:0:0:
368,221,1456589,1,0,0:0:0:0:
176,221,1456763,38,0,P|118:163|155:72,2,180,6|10|0,3:2|3:2|3:2,3:2:0:0:
272,279,1457630,1,0,0:0:0:0:
285,132,1457803,2,0,P|240:132|197:142,1,90,8|0,0:0|0:0,0:0:0:0:
95,285,1458150,54,0,B|188:309|190:249|283:282,1,180,2|8,3:2|0:0,0:0:0:0:
359,336,1458670,1,2,3:2:0:0:
429,254,1458843,2,0,L|445:155,1,90,2|2,0:0|3:2,0:0:0:0:
304,103,1459190,2,0,L|289:191,1,90,10|2,0:0|0:0,0:0:0:0:
393,16,1459537,6,0,P|266:32|199:36,2,180,2|10|0,3:2|0:0|3:0,0:0:0:0:
490,69,1460404,1,0,0:0:0:0:
443,165,1460578,2,0,P|454:213|469:267,1,90,8|0,0:0|0:0,0:0:0:0:
369,345,1460924,38,0,P|299:353|232:272,1,180,2|8,3:2|0:0,0:0:0:0:
284,177,1461445,1,0,3:0:0:0:
125,225,1461618,2,0,L|23:210,1,90,2|0,0:0|3:0,0:0:0:0:
190,24,1461965,2,0,P|208:88|208:165,1,135,10|0,0:0|0:0,0:0:0:0:
194,190,1462312,54,0,L|296:175,1,90,2|0,3:2|0:0,0:0:0:0:
383,214,1462659,2,0,L|485:199,1,90,10|0,0:0|0:0,0:0:0:0:
353,12,1463005,2,0,P|353:85|401:124,1,135,2|0,3:2|0:0,0:0:0:0:
428,125,1463352,1,8,0:0:0:0:
258,44,1463526,6,0,P|208:45|164:64,1,90,2|0,0:0|3:0,0:0:0:0:
105,186,1463872,2,0,P|155:185|199:166,1,90,2|8,0:0|0:0,0:0:0:0:
17,73,1464219,2,0,L|30:166,1,90,2|0,3:2|0:0,0:0:0:0:
86,300,1464566,1,2,3:0:0:0:
105,186,1464739,1,10,0:0:0:0:
86,300,1464913,1,2,0:0:0:0:
224,149,1465086,38,0,P|242:237|258:331,2,180,4|8|0,3:2|0:0|3:0,0:0:0:0:
117,40,1465953,1,8,0:0:0:0:
107,70,1466040,1,8,0:0:0:0:
97,100,1466127,1,8,0:0:0:0:
221,33,1466300,54,0,L|363:23,1,135,8|0,0:0|0:0,0:0:0:0:
384,42,1466647,2,0,B|404:83|404:83|389:142,1,90,4|0,0:0|0:0,0:0:0:0:
266,213,1466994,2,0,B|246:172|246:172|261:113,1,90,8|0,0:0|0:0,0:0:0:0:
422,228,1467341,1,8,0:0:0:0:
274,338,1467514,1,8,0:0:0:0:
266,213,1467687,1,0,0:0:0:0:
493,342,1467861,6,0,B|382:384|385:299|260:342,1,225,4|0,0:0|0:0,0:0:0:0:
274,338,1468381,2,0,P|181:353|120:241,1,225,4|0,0:0|0:0,0:0:0:0:
135,29,1468901,38,0,L|117:257,1,225,4|0,0:0|0:0,0:0:0:0:
117,253,1469422,2,0,P|225:258|259:151,1,225,4|0,0:0|0:0,0:0:0:0:
197,104,1469942,54,0,P|244:132|264:169,1,90,8|0,0:0|0:0,0:0:0:0:
326,104,1470289,2,0,P|279:132|259:169,1,90,8|0,0:0|0:0,0:0:0:0:
255,298,1470635,6,0,B|166:284|166:284|125:302|125:302|18:284,1,225,4|0,0:0|0:0,0:0:0:0:
36,287,1471156,2,0,P|20:206|142:181,1,225,4|0,0:0|0:0,0:0:0:0:
332,186,1471676,38,0,P|243:226|123:156,1,225,4|0,0:0|0:0,0:0:0:0:
134,174,1472196,2,0,B|141:1|141:1|167:78,1,225,4|0,0:0|0:0,0:0:0:0:
68,39,1472716,54,0,L|175:52,1,90,8|0,0:0|0:0,0:0:0:0:
246,39,1473063,2,0,L|139:52,1,90,8|0,0:0|0:0,0:0:0:0:
158,132,1473410,1,4,0:0:0:0:
256,192,1473497,12,0,1476098,0:0:0:0:
256,192,1476358,12,0,1481734,0:0:0:0:
333,108,1487696,85,2,0:0:0:0:
465,140,1487860,1,2,0:0:0:0:
333,108,1488025,2,0,P|273:130|174:125,1,144,6|2,0:0|0:0,0:0:0:0:
193,129,1488520,1,2,0:0:0:0:
275,311,1488685,2,0,P|289:260|295:224,1,72,2|0,0:0|0:0,0:0:0:0:
93,189,1489014,2,0,P|100:224|110:258,1,72,2|0,0:0|0:0,0:0:0:0:
197,366,1489344,5,2,0:0:0:0:
197,366,1489674,2,0,P|314:336|360:338,2,144,2|2|2,0:0|0:0|0:0,0:0:0:0:
414,255,1490663,70,0,P|415:215|431:160,1,72,2|0,0:0|0:0,0:0:0:0:
482,123,1490992,1,2,0:0:0:0:
324,98,1491157,2,0,P|297:145|291:173,1,72,2|0,0:0|0:0,0:0:0:0:
351,331,1491487,2,0,P|323:284|302:264,1,72,2|0,0:0|0:0,0:0:0:0:
79,222,1491816,22,0,B|120:250|120:250|168:256|239:218,1,144,2|0,0:0|0:0,0:0:0:0:
324,98,1492311,1,0,0:0:0:0:
158,22,1492476,2,0,L|144:178,1,144
315,7,1492970,5,2,0:0:0:0:
142,21,1493135,1,2,0:0:0:0:
315,7,1493300,2,0,P|337:59|361:143,1,144,2|2,0:0|0:0,0:0:0:0:
361,143,1493794,1,2,0:0:0:0:
244,274,1493959,2,0,P|258:220|284:193,1,72,2|0,0:0|0:0,0:0:0:0:
409,372,1494289,2,0,P|355:386|318:377,1,72,2|0,0:0|0:0,0:0:0:0:
462,220,1494619,70,0,P|394:256|313:268,1,144,2|0,0:0|0:0,0:0:0:0:
186,185,1495113,2,0,L|210:359,1,144,2|0,0:0|0:0,0:0:0:0:
177,365,1495608,21,0,1:0:0:0:
269,106,1495772,2,0,P|201:84|139:97,1,135,4|0,0:0|0:0,0:0:0:0:
73,142,1496102,5,0,1:0:0:0:
308,202,1496267,1,0,1:0:0:0:
71,278,1496432,1,0,1:0:0:0:
230,322,1496597,1,0,1:0:0:0:
73,142,1496761,1,0,1:0:0:0:
316,13,1496926,70,0,P|299:93|227:104,1,135,0|0,1:0|0:0,0:0:0:0:
186,71,1497256,22,0,P|228:173|238:236,1,135,12|0,0:0|0:0,0:0:0:0:
197,281,1497586,1,0,1:0:0:0:
35,219,1497750,6,0,L|60:68,1,135,12|0,0:0|0:0,0:0:0:0:
11,26,1498080,1,0,1:0:0:0:
0,290,1498245,70,0,B|59:242|176:282|117:333|211:405|317:334,1,315,12|0,0:0|0:0,0:0:0:0:
284,204,1498904,2,0,P|252:249|249:291,1,90,2|0,0:3|0:0,0:0:0:0:
367,372,1499234,21,0,1:0:0:0:
384,182,1499399,1,0,1:0:0:0:
375,142,1499481,1,0,1:0:0:0:
366,102,1499564,1,0,1:0:0:0:
512,232,1499728,1,0,1:0:0:0:
248,282,1499893,6,0,P|192:271|76:255,1,161.999995056153,4|0,0:2|0:2,0:2:0:0:
46,283,1500223,1,10,0:2:0:0:
180,170,1500388,2,0,L|159:30,1,107.999996704102,2|8,1:2|0:2,0:2:0:0:
261,224,1500717,69,2,0:2:0:0:
83,121,1500882,1,10,0:2:0:0:
338,14,1501047,2,0,L|322:159,1,107.999996704102,2|8,1:2|0:2,0:2:0:0:
202,10,1501377,21,2,0:2:0:0:
420,83,1501542,1,10,0:2:0:0:
261,224,1501706,2,0,P|342:195|398:198,1,107.999996704102,2|8,1:2|0:2,0:2:0:0:
195,157,1502036,5,2,1:2:0:0:
412,263,1502201,1,10,0:2:0:0:
180,311,1502366,1,2,1:2:0:0:
446,355,1502531,70,0,P|503:302|461:187,1,161.999995056153,12|0,0:2|0:2,0:2:0:0:
427,174,1502860,1,10,0:2:0:0:
272,275,1503025,2,0,P|291:327|298:383,1,107.999996704102,2|8,1:2|0:2,0:2:0:0:
188,233,1503355,21,2,0:2:0:0:
422,271,1503520,1,10,0:2:0:0:
329,59,1503685,2,0,L|209:83,1,107.999996704102,2|8,1:2|0:2,0:2:0:0:
408,108,1504014,5,2,0:2:0:0:
156,24,1504179,1,10,0:2:0:0:
415,16,1504344,1,2,1:2:0:0:
220,181,1504509,2,0,B|125:172|183:103|47:95,1,161.999995056153,8|0,0:2|0:2,0:2:0:0:
0,162,1504838,2,0,P|13:233|39:269,1,107.999996704102,8|0,0:2|0:2,0:2:0:0:
190,339,1505168,70,0,P|199:249|234:149,1,161.999995056153,14|0,0:2|0:2,0:2:0:0:
284,119,1505498,1,10,0:2:0:0:
403,285,1505663,2,0,P|345:288|296:277,1,107.999996704102,2|8,1:2|0:2,0:2:0:0:
116,192,1505992,21,2,0:2:0:0:
190,339,1506157,1,10,0:2:0:0:
165,123,1506322,2,0,L|180:-15,1,107.999996704102,2|8,1:2|0:2,0:2:0:0:
384,181,1506652,2,0,L|361:54,1,107.999996704102,2|8,1:2|0:2,0:2:0:0:
85,255,1506981,6,0,P|148:238|195:234,1,107.999996704102,2|8,1:2|0:2,0:2:0:0:
411,359,1507311,1,2,1:2:0:0:
364,371,1507393,1,0,1:2:0:0:
321,346,1507476,2,0,P|312:278|392:232,1,161.999995056153,0|0,1:2|0:2,0:2:0:0:
434,296,1507805,70,0,P|442:176|489:48,1,215.999993408203,4|0,0:2|1:2,0:2:0:0:
470,85,1508300,1,8,0:2:0:0:
145,274,1508630,1,0,1:2:0:0:
124,365,1508794,22,0,P|87:202|67:141,1,215.999993408203,4|0,0:2|1:2,0:2:0:0:
72,155,1509289,1,8,0:2:0:0:
355,24,1509783,6,0,P|318:68|207:68,1,157.5,2|0,0:0|0:0,0:0:0:0:
163,17,1510443,69,0,1:0:0:0:
163,17,1510608,1,0,1:0:0:0:
231,151,1510772,2,0,L|223:253,1,90,8|0,0:0|0:0,0:0:0:0:
39,200,1511102,2,0,L|24:98,1,90,0|0,1:0|1:0,0:0:0:0:
223,76,1511432,1,8,0:0:0:0:
295,290,1511597,1,0,1:0:0:0:
295,290,1511679,1,0,1:0:0:0:
295,290,1511761,22,0,P|250:319|163:298,1,135,0|0,1:0|0:0,0:0:0:0:
126,249,1512091,1,8,0:0:0:0:
311,132,1512256,2,0,L|376:143,1,45,0|0,1:0|1:0,0:0:0:0:
223,76,1512421,2,0,L|120:100,1,90,0|0,1:0|1:0,0:0:0:0:
307,7,1512750,1,8,0:0:0:0:
454,109,1512915,5,0,1:0:0:0:
372,269,1513080,2,0,L|251:243,1,90,0|0,1:0|1:0,0:0:0:0:
190,272,1513410,2,0,L|212:170,1,90,8|0,0:0|0:0,0:0:0:0:
340,363,1513739,69,0,1:0:0:0:
340,363,1513904,1,0,1:0:0:0:
115,352,1514069,2,0,B|91:285|91:285|123:147,1,180,8|0,0:0|1:0,0:0:0:0:
185,0,1514564,21,0,1:0:0:0:
261,72,1514728,2,0,P|180:101|90:47,1,180,8|0,0:0|1:0,0:0:0:0:
299,237,1515223,5,0,1:0:0:0:
468,220,1515388,2,0,B|490:199|490:199|387:218,1,135,8|0,0:0|0:0,0:0:0:0:
299,237,1515717,70,0,P|319:270|335:323,1,90,0|0,1:0|1:0,0:0:0:0:
392,123,1516047,2,0,P|404:91|414:34,1,90,8|0,0:0|0:0,0:0:0:0:
151,141,1516377,2,0,B|198:170|198:170|304:136,1,135,0|0,1:0|0:0,0:0:0:0:
315,64,1516706,1,8,0:0:0:0:
452,199,1516871,1,0,1:0:0:0:
193,196,1517036,21,0,1:0:0:0:
344,344,1517201,1,0,1:0:0:0:
150,370,1517366,2,0,P|140:333|139:279,1,90,8|0,0:0|0:0,0:0:0:0:
245,371,1517696,5,0,1:0:0:0:
64,248,1517860,1,0,1:0:0:0:
316,163,1518025,2,0,P|315:226|307:265,1,90,8|0,0:0|1:0,0:0:0:0:
244,274,1518272,1,0,1:0:0:0:
220,262,1518355,70,0,L|189:121,1,135,0|0,1:0|0:0,0:0:0:0:
159,113,1518685,1,8,0:0:0:0:
408,72,1518849,2,0,L|397:165,1,90,0|0,1:0|1:0,0:0:0:0:
313,234,1519179,1,0,1:0:0:0:
93,52,1519344,22,0,B|149:24|149:24|271:80,1,180,12|0,0:0|1:0,0:0:0:0:
148,208,1519838,1,0,1:0:0:0:
23,123,1520003,2,0,L|2:19,1,90,8|0,0:0|0:0,0:0:0:0:
148,208,1520333,5,8,0:0:0:0:
105,208,1520415,1,8,0:0:0:0:
70,235,1520498,1,8,0:0:0:0:
63,277,1520580,1,8,0:0:0:0:
80,316,1520663,2,0,P|139:312|207:351,1,135,8|0,0:0|0:0,0:0:0:0:
276,383,1520992,70,0,L|381:363,1,90,4|0,0:0|0:0,0:0:0:0:
465,209,1521322,2,0,L|366:194,1,90,8|0,0:0|0:0,0:0:0:0:
269,246,1521652,1,0,1:0:0:0:
425,320,1521816,1,0,1:0:0:0:
257,261,1521981,2,0,L|234:144,1,90,8|0,0:0|0:0,0:0:0:0:
399,35,1522311,22,0,P|360:105|372:178,1,135,0|0,1:0|0:0,0:0:0:0:
418,212,1522641,1,8,0:0:0:0:
260,50,1522805,1,0,1:0:0:0:
469,106,1522970,1,0,0:0:0:0:
260,172,1523135,1,0,1:0:0:0:
470,295,1523300,2,0,P|481:242|418:211,1,135,8|0,0:0|0:0,0:0:0:0:
346,274,1523630,6,0,P|271:298|208:288,1,135,4|0,0:0|0:0,0:0:0:0:
142,321,1523959,1,8,0:0:0:0:
226,75,1524124,1,0,1:0:0:0:
226,75,1524206,1,0,1:0:0:0:
226,75,1524289,2,0,P|216:139|203:176,1,90,0|0,1:0|1:0,0:0:0:0:
2,219,1524619,2,0,P|62:195|100:188,1,90,8|0,0:0|0:0,0:0:0:0:
171,234,1524866,1,0,0:0:0:0:
171,234,1524948,69,0,1:0:0:0:
98,40,1525113,1,0,0:0:0:0:
175,238,1525278,1,8,0:0:0:0:
328,106,1525443,2,0,L|335:46,1,45,0|0,1:0|1:0,0:0:0:0:
406,160,1525608,22,0,P|405:220|399:261,1,90,0|0,1:0|1:0,0:0:0:0:
303,336,1525937,2,0,P|271:255|268:146,1,180,8|0,0:0|0:0,0:0:0:0:
15,290,1526597,6,0,B|122:316|82:218|192:245,1,180,8|0,0:0|1:0,0:0:0:0:
177,356,1527091,1,0,1:0:0:0:
27,201,1527256,2,0,L|1:98,1,90,8|0,0:0|0:0,0:0:0:0:
178,242,1527586,70,0,P|185:176|204:108,1,135,0|0,1:0|0:0,0:0:0:0:
146,40,1527915,1,8,0:0:0:0:
311,202,1528080,2,0,L|413:183,1,90,0|0,1:0|0:0,0:0:0:0:
511,79,1528410,1,0,1:0:0:0:
334,0,1528575,2,0,P|304:74|340:160,1,135,8|0,0:0|0:0,0:0:0:0:
399,185,1528904,21,8,0:0:0:0:
265,52,1529069,1,0,1:0:0:0:
224,41,1529152,1,0,1:0:0:0:
185,30,1529234,1,0,1:0:0:0:
401,72,1529399,5,8,0:0:0:0:
180,177,1529564,1,0,1:0:0:0:
388,232,1529728,1,0,1:0:0:0:
144,157,1529893,69,8,0:0:0:0:
223,323,1530058,1,0,1:0:0:0:
264,312,1530141,1,0,1:0:0:0:
303,301,1530223,1,0,1:0:0:0:
63,259,1530388,21,8,0:0:0:0:
261,159,1530553,1,0,1:0:0:0:
15,84,1530717,1,0,1:0:0:0:
103,349,1530882,6,0,P|158:279|144:215,1,135,8|0,0:0|0:0,0:0:0:0:
106,98,1531212,2,0,P|94:136|131:101,1,135,8|0,0:0|0:0,0:0:0:0:
73,23,1531542,70,0,P|133:18|218:74,1,144,4|0,0:0|0:0,0:0:0:0:
249,141,1532036,1,0,1:0:0:0:
115,248,1532201,2,0,L|36:263,1,72,0|0,1:0|0:0,0:0:0:0:
254,359,1532531,2,0,L|174:352,1,72,8|0,0:0|0:0,0:0:0:0:
322,241,1532860,22,0,B|382:245|380:301|440:314,1,144,0|0,1:0|0:0,0:0:0:0:
512,272,1533355,1,0,1:0:0:0:
474,127,1533520,2,0,P|442:151|437:200,1,72,0|0,1:0|0:0,0:0:0:0:
313,44,1533849,2,0,P|337:82|346:124,1,72,8|0,0:0|0:0,0:0:0:0:
214,267,1534179,6,0,L|239:110,1,144,0|0,1:0|0:0,0:0:0:0:
191,43,1534674,1,0,1:0:0:0:
42,184,1534838,2,0,L|124:169,1,72,0|0,1:0|0:0,0:0:0:0:
284,279,1535168,2,0,L|202:264,1,72,8|0,0:0|0:0,0:0:0:0:
16,335,1535498,2,0,P|60:306|132:312,1,108,0|0,1:0|0:0,0:0:0:0:
173,365,1535827,1,8,0:0:0:0:
173,365,1536157,69,0,1:0:0:0:
281,141,1536322,1,8,0:0:0:0:
271,102,1536404,1,8,0:0:0:0:
260,63,1536487,1,8,0:0:0:0:
428,248,1536652,22,0,L|239:234,1,161.999995056153,8|0,0:0|0:0,0:0:0:0:
196,273,1536981,1,8,0:0:0:0:
458,177,1537146,1,8,0:0:0:0:
129,40,1539289,6,0,P|197:176|206:224,1,161.999995056153,8|0,0:0|0:0,0:0:0:0:
141,243,1539619,1,8,0:0:0:0:
270,20,1539783,1,8,0:0:0:0:
270,20,1540278,70,0,L|285:83,1,36,0|0,1:0|1:0,0:0:0:0:
298,137,1540443,1,0,1:0:0:0:
165,283,1540608,22,0,B|259:260|220:360|343:344,1,161.999995056153,8|0,0:0|0:0,0:0:0:0:
446,210,1540937,6,0,P|334:235|311:288,1,161.999995056153,8|0,0:0|0:0,0:0:0:0:
406,299,1541267,70,0,P|375:147|402:49,1,215.999993408203,8|0,0:0|1:0,0:0:0:0:
481,25,1541761,21,0,1:0:0:0:
255,161,1542091,6,0,P|200:144|146:142,1,90,4|0,0:0|0:0,0:0:0:0:
99,327,1542421,2,0,P|143:321|186:307,1,90,8|0,0:0|0:0,0:0:0:0:
31,190,1542750,1,0,1:0:0:0:
190,227,1542915,1,0,1:0:0:0:
177,45,1543080,2,0,L|66:62,1,90,8|0,0:0|0:0,0:0:0:0:
371,138,1543410,70,0,P|297:146|246:103,1,135,0|0,1:0|0:0,0:0:0:0:
415,59,1543739,2,0,P|453:99|458:159,1,90,8|0,0:0|0:0,0:0:0:0:
253,277,1544069,21,0,1:0:0:0:
448,240,1544234,1,0,1:0:0:0:
194,348,1544399,2,0,P|164:304|186:215,1,135,8|0,0:0|0:0,0:0:0:0:
274,361,1544728,5,0,1:0:0:0:
454,210,1544893,70,0,B|483:168|483:168|280:208,1,233.999989288331,8|0,0:0|1:0,0:0:0:0:
128,101,1545388,22,0,P|223:70|210:169,1,233.999989288331,8|0,0:0|1:0,0:0:0:0:
20,186,1545882,6,0,B|141:144|123:278|246:246,1,233.999989288331,8|0,0:0|1:0,0:0:0:0:
334,134,1546377,70,0,P|323:60|309:15,1,116.999994644165,8|0,0:0|0:0,0:0:0:0:
58,266,1546706,2,0,P|42:322|34:380,1,116.999994644165,8|0,0:0|0:0,0:0:0:0:
403,318,1547036,2,0,P|361:267|258:277,1,175.499991966248,8|0,0:0|0:0,0:0:0:0:
317,343,1547366,21,8,0:0:0:0:
442,170,1547531,1,8,0:0:0:0:
79,60,1547860,5,8,1:2:0:0:
454,160,1548190,69,8,1:2:0:0:
87,299,1548520,21,8,1:2:0:0:
87,299,1549014,6,0,P|141:222|143:124,1,175.499991966248,12|0,0:0|0:0,0:0:0:0:
79,60,1549344,69,0,1:0:0:0:
224,244,1549509,1,0,1:0:0:0:
257,234,1549591,1,0,1:0:0:0:
290,226,1549674,2,0,L|273:321,1,80.9999975280763,0|0,1:0|0:0,0:0:0:0:
343,338,1550003,22,0,L|324:155,1,175.499991966248,4|0,0:2|0:2,0:2:0:0:
377,72,1550333,1,10,0:2:0:0:
182,170,1550498,1,2,1:2:0:0:
370,250,1550663,2,0,L|501:222,1,116.999994644165,10|0,0:2|0:2,0:2:0:0:
324,163,1550992,5,10,0:2:0:0:
508,329,1551157,1,2,1:2:0:0:
332,354,1551322,2,0,B|230:363|262:264|139:297,1,175.499991966248,10|0,0:2|0:2,0:2:0:0:
108,362,1551652,70,0,P|38:365|0:287,1,116.999994644165,10|0,0:2|0:2,0:2:0:0:
216,146,1551981,2,0,P|243:214|248:277,1,116.999994644165,10|0,0:2|0:2,0:2:0:0:
5,156,1552311,2,0,P|14:98|37:44,1,116.999994644165,10|0,0:2|0:2,0:2:0:0:
167,269,1552641,22,0,P|137:184|141:58,1,175.499991966248,10|0,0:2|0:2,0:2:0:0:
184,43,1552970,1,10,0:2:0:0:
431,147,1553135,2,0,P|449:66|447:26,1,116.999994644165,2|8,1:2|0:2,0:2:0:0:
231,207,1553465,2,0,L|361:185,1,116.999994644165,2|8,1:2|0:2,0:2:0:0:
466,265,1553794,1,2,1:2:0:0:
156,327,1553959,5,8,0:2:0:0:
334,239,1554124,1,0,1:2:0:0:
178,146,1554289,1,8,0:2:0:0:
293,361,1554454,1,0,1:2:0:0:
176,112,1554619,69,8,0:2:0:0:
74,339,1554783,1,0,1:2:0:0:
33,166,1554948,1,10,0:2:0:0:
215,336,1555113,1,2,1:2:0:0:
362,194,1555278,22,0,L|374:53,1,116.999994644165,10|0,0:2|0:2,0:2:0:0:
82,187,1555608,1,10,0:2:0:0:
282,140,1555772,1,2,1:2:0:0:
82,187,1555937,2,0,P|173:185|265:238,1,175.499991966248,10|0,0:2|0:2,0:2:0:0:
299,304,1556267,2,0,P|248:332|174:343,1,116.999994644165,10|2,0:2|1:2,0:2:0:0:
7,101,1556597,6,0,B|18:80|54:73|54:73|98:141|74:224,1,175.499991966248,10|0,0:2|0:2,0:2:0:0:
44,255,1556926,1,10,0:2:0:0:
215,78,1557091,2,0,L|334:99,1,116.999994644165,2|8,1:2|0:2,0:2:0:0:
127,116,1557421,1,2,1:2:0:0:
399,42,1557586,1,10,0:2:0:0:
317,282,1557750,1,2,1:2:0:0:
250,32,1557915,69,8,0:2:0:0:
477,104,1558080,2,0,P|473:171|460:230,1,116.999994644165,0|8,1:2|0:2,0:2:0:0:
274,366,1558410,2,0,P|248:286|241:244,1,116.999994644165,0|8,1:2|0:2,0:2:0:0:
365,68,1558739,2,0,P|361:135|348:194,1,116.999994644165,0|8,1:2|0:2,0:2:0:0:
162,330,1559069,2,0,P|136:250|129:208,1,116.999994644165,0|8,1:2|0:2,0:2:0:0:
241,109,1559399,21,0,1:2:0:0:
121,284,1559564,2,0,L|-19:315,1,116.999994644165,12|0,0:2|0:2,0:2:0:0:
258,375,1559893,5,8,1:2:0:0:
310,366,1559976,1,0,1:2:0:0:
361,357,1560058,1,0,1:2:0:0:
413,348,1560141,1,0,1:2:0:0:
464,340,1560223,2,0,P|424:363|443:297,1,135,0|0,1:2|0:2,0:2:0:0:
512,245,1560553,70,0,B|437:265|437:181|343:198,1,175.499991966248,14|0,0:2|0:2,0:2:0:0:
282,252,1560882,1,10,0:2:0:0:
228,55,1561047,1,2,1:2:0:0:
282,252,1561212,2,0,P|304:184|307:128,1,116.999994644165,10|0,0:2|0:2,0:2:0:0:
90,248,1561542,2,0,P|95:306|115:361,1,116.999994644165,10|2,0:2|1:2,0:2:0:0:
161,74,1561871,22,0,P|99:54|127:152,1,175.499991966248,10|0,0:2|0:2,0:2:0:0:
195,174,1562201,2,0,L|315:136,1,116.999994644165,10|0,0:2|0:2,0:2:0:0:
119,224,1562531,1,10,0:2:0:0:
315,291,1562695,1,0,1:2:0:0:
119,224,1562860,2,0,P|97:283|93:349,1,116.999994644165,10|0,0:2|1:2,0:2:0:0:
329,358,1563190,5,10,0:2:0:0:
236,193,1563355,1,0,1:2:0:0:
215,336,1563520,1,8,0:2:0:0:
337,168,1563685,1,0,1:2:0:0:
159,203,1563849,69,10,0:2:0:0:
437,259,1564014,1,0,1:2:0:0:
256,88,1564179,1,8,0:2:0:0:
329,358,1564344,1,2,1:2:0:0:
373,62,1564509,22,0,P|360:156|336:261,1,175.499991966248,8|0,0:2|0:2,0:2:0:0:
353,324,1564838,2,0,B|385:307|385:307|331:253|257:288,1,175.499991966248,12|0,0:2|0:2,0:2:0:0:
97,358,1565168,5,0,1:2:0:0:
58,343,1565250,1,0,1:2:0:0:
19,327,1565333,1,0,1:2:0:0:
29,287,1565415,1,0,1:2:0:0:
47,249,1565498,2,0,B|125:271|78:360|205:352,1,175.499991966248,0|0,1:2|0:2,0:2:0:0:
257,288,1565827,70,0,P|252:239|238:164,1,108,4|0,0:2|0:2,0:2:0:0:
212,156,1566157,1,0,1:2:0:0:
337,190,1566322,1,0,1:2:0:0:
347,65,1566487,2,0,P|288:70|265:86,1,72,0|2,0:2|1:2,0:2:0:0:
422,184,1566816,2,0,L|439:98,1,72,2|2,0:2|1:2,0:2:0:0:
464,258,1567146,21,2,1:2:0:0:
331,221,1567311,2,0,L|317:117,2,72,8|2|2,0:2|1:2|1:2,0:2:0:0:
299,349,1567805,2,0,P|253:302|217:221,1,144,8|0,0:2|0:2,0:2:0:0:
23,299,1568300,1,2,1:2:0:0:
23,299,1568382,1,0,1:2:0:0:
23,299,1568465,6,0,P|82:312|173:265,1,144,4|2,0:2|1:2,0:2:0:0:
183,130,1568959,1,10,0:2:0:0:
79,222,1569124,1,0,1:2:0:0:
81,71,1569289,2,0,L|101:163,1,72,10|0,0:2|0:2,0:2:0:0:
255,26,1569619,1,2,1:2:0:0:
255,26,1569701,1,0,1:2:0:0:
255,26,1569783,70,0,L|238:177,1,135,4|0,0:2|0:2,0:2:0:0:
308,225,1570113,2,0,P|355:222|408:196,1,90,10|2,0:2|1:2,0:2:0:0:
423,123,1570360,1,0,1:2:0:0:
423,123,1570443,22,0,L|409:80,1,45,10|0,0:2|0:2,0:2:0:0:
239,160,1570608,1,2,1:2:0:0:
186,185,1570690,1,0,1:2:0:0:
134,157,1570772,1,0,1:2:0:0:
100,187,1570855,1,0,1:2:0:0:
94,231,1570937,1,2,1:2:0:0:
116,270,1571020,1,0,1:2:0:0:
159,281,1571102,6,0,B|278:246|257:351|384:312,2,215.999993408203,4|8|0,0:2|0:2|1:2,0:2:0:0:
198,376,1571926,1,2,1:2:0:0:
331,234,1572091,2,0,P|340:192|344:104,1,107.999996704102,10|2,0:2|0:2,0:2:0:0:
159,18,1572421,70,0,P|167:98|185:177,1,161.999995056153,2|0,1:2|0:2,0:2:0:0:
259,208,1572750,1,10,0:2:0:0:
358,40,1572915,2,0,P|272:65|249:82,1,107.999996704102,2|0,1:2|0:2,0:2:0:0:
82,209,1573245,2,0,L|185:177,1,107.999996704102,2|8,1:2|0:2,0:2:0:0:
10,160,1573575,1,2,1:2:0:0:
82,290,1573739,21,12,0:2:0:0:
221,137,1573904,1,0,1:2:0:0:
222,317,1574069,1,8,0:2:0:0:
94,93,1574234,1,0,1:2:0:0:
325,205,1574399,1,8,0:2:0:0:
55,249,1574564,1,0,1:2:0:0:
270,60,1574728,2,0,B|356:70|310:141|432:156,1,161.999995056153,10|0,0:2|0:2,0:2:0:0:
472,174,1575058,6,0,P|403:191|382:220,1,107.999996704102,10|2,0:2|1:2,0:2:0:0:
376,308,1575305,1,0,1:2:0:0:
376,308,1575388,2,0,L|396:377,1,53.9999983520508,2|0,1:2|0:2,0:2:0:0:
201,252,1575553,70,0,B|172:236|172:236|327:247,1,161.999995056153,10|0,0:2|0:2,0:2:0:0:
456,250,1575882,1,2,1:2:0:0:
136,321,1576047,22,0,P|86:255|199:150,1,252,10|0,0:2|0:2,0:2:0:0:
182,147,1576706,1,2,0:2:0:0:
258,358,1577036,5,0,1:2:0:0:
416,293,1577201,1,0,1:2:0:0:
416,293,1577283,1,0,1:2:0:0:
416,293,1577366,2,0,L|432:358,1,36,0|0,1:2|0:2,0:2:0:0:
299,204,1577531,2,0,L|307:169,1,36,0|0,1:2|0:2,0:2:0:0:
453,104,1577695,69,12,0:2:0:0:
256,192,1577778,12,0,1581981,0:2:0:0:
364,261,1588745,22,0,P|378:315|378:360,1,90,12|0,0:0|0:0,0:0:0:0:
119,284,1589459,2,0,P|125:238|137:194,1,90,2|0,0:0|0:0,0:0:0:0:
245,364,1589995,2,0,P|230:303|227:256,1,90,2|2,0:0|0:0,0:0:0:0:
371,123,1590530,1,2,0:0:0:0:
445,208,1590709,2,0,P|386:234|280:180,1,180,2|0,0:0|0:0,0:0:0:0:
261,8,1591602,6,0,P|276:53|281:108,2,90,2|0|2,0:0|0:0|0:0,0:0:0:0:
99,193,1592673,1,2,0:0:0:0:
179,137,1592852,2,0,B|225:147|206:173|265:183,1,90,2|2,0:0|0:0,0:0:0:0:
276,330,1593388,1,2,0:0:0:0:
85,330,1593566,2,0,P|139:299|222:289,1,135,2|0,0:0|0:0,0:0:0:0:
471,280,1594459,6,0,P|437:301|385:319,1,90,2|0,0:0|0:0,0:0:0:0:
262,159,1595173,2,0,L|367:183,1,90,2|0,0:0|0:0,0:0:0:0:
192,326,1595709,2,0,B|209:336|209:336|196:301|192:248,1,90,2|2,0:0|0:0,0:0:0:0:
262,159,1596245,1,2,0:0:0:0:
20,123,1596423,2,0,P|44:156|138:176,1,135,2|0,0:0|0:0,0:0:0:0:
399,255,1597316,6,0,P|348:243|314:208,1,90,2|0,0:0|0:0,0:0:0:0:
500,99,1598030,2,0,P|515:149|501:196,1,90,2|0,0:0|0:0,0:0:0:0:
299,87,1598566,2,0,P|334:48|382:36,1,90,2|2,0:0|0:0,0:0:0:0:
402,146,1599102,1,2,0:0:0:0:
306,345,1599280,2,0,L|282:247,1,90,2|2,0:0|0:3,0:0:0:0:
320,218,1599727,1,2,0:3:0:0:
320,218,1599816,1,2,0:3:0:0:
320,218,1600173,6,0,P|246:246|184:262,1,125.999996154785,0|0,3:0|0:0,0:0:0:0:
96,98,1600888,2,0,P|152:127|201:138,1,94.499997116089,8|0,0:0|0:0,0:0:0:0:
258,129,1601245,1,0,3:0:0:0:
138,317,1601423,2,0,P|120:280|113:248,1,62.9999980773926,0|0,3:0|0:0,0:0:0:0:
258,129,1601780,2,0,P|249:159|234:187,1,62.9999980773926,0|0,3:0|0:0,0:0:0:0:
138,317,1602138,1,0,3:0:0:0:
389,376,1602316,5,8,0:0:0:0:
219,334,1602495,2,0,L|365:306,1,125.999996154785,0|0,3:0|0:0,0:0:0:0:
428,309,1602941,1,0,0:0:0:0:
428,309,1603030,38,0,P|401:268|377:174,1,125.999996154785,4|0,0:0|0:0,0:0:0:0:
505,26,1603745,2,0,P|496:81|475:132,1,94.499997116089,8|0,0:0|0:0,0:0:0:0:
467,135,1604102,1,0,3:0:0:0:
298,44,1604280,2,0,L|375:33,1,62.9999980773926,0|0,3:0|0:0,0:0:0:0:
232,169,1604638,1,0,3:0:0:0:
333,199,1604816,1,0,0:0:0:0:
232,169,1604995,1,0,3:0:0:0:
396,116,1605173,5,8,0:0:0:0:
159,244,1605352,1,0,3:0:0:0:
421,353,1605530,2,0,B|441:331|438:304|438:304|372:266|314:334,1,175.499991966248,0|0,3:0|0:0,0:0:0:0:
291,384,1605888,6,0,P|276:264|240:59,1,315,12|0,0:0|0:0,0:0:0:0:
317,31,1606602,5,0,3:0:0:0:
178,135,1606780,1,0,3:0:0:0:
352,133,1606959,1,0,3:0:0:0:
138,54,1607138,1,0,3:0:0:0:
169,273,1607316,5,8,0:0:0:0:
278,105,1607495,1,0,3:0:0:0:
317,319,1607673,1,0,3:0:0:0:
112,177,1607852,1,0,3:0:0:0:
359,176,1608030,1,0,3:0:0:0:
225,384,1608209,1,0,3:0:0:0:
34,275,1608388,5,0,3:0:0:0:
30,253,1608477,1,0,3:0:0:0:
27,230,1608566,1,0,3:0:0:0:
23,208,1608655,1,0,3:0:0:0:
19,185,1608745,37,12,0:0:0:0:
101,327,1608923,1,0,3:0:0:0:
122,115,1609102,1,0,3:0:0:0:
254,281,1609280,5,12,0:0:0:0:
115,213,1609459,1,0,3:0:0:0:
335,160,1609638,1,0,3:0:0:0:
199,91,1609816,5,12,0:0:0:0:
146,305,1609995,1,0,3:0:0:0:
410,189,1610173,1,0,3:0:0:0:
285,384,1610352,5,12,0:0:0:0:
171,201,1610530,1,0,3:0:0:0:
471,319,1610709,1,0,3:0:0:0:
142,315,1610888,5,12,0:0:0:0:
360,78,1611066,1,0,3:0:0:0:
369,310,1611245,5,8,0:0:0:0:
135,69,1611423,1,8,0:0:0:0:
33,257,1612495,37,0,3:0:0:0:
59,281,1612584,1,0,3:0:0:0:
94,283,1612673,2,0,P|154:268|234:292,1,135,0|0,3:0|0:0,0:0:0:0:
290,338,1613030,6,0,B|237:234|237:234|289:163,1,188.999994232178,8|0,0:0|0:0,0:0:0:0:
472,254,1613388,2,0,P|420:296|330:216,1,188.999994232178,0|0,3:0|0:0,0:0:0:0:
401,33,1613745,2,0,P|397:117|408:248,1,188.999994232178,8|0,0:0|0:0,0:0:0:0:
450,331,1614102,1,0,3:0:0:0:
171,358,1614280,6,0,B|131:337|131:337|306:312,1,188.999994232178,8|0,0:0|0:0,0:0:0:0:
354,373,1614638,1,0,3:0:0:0:
93,258,1614816,1,0,3:0:0:0:
287,99,1614995,6,0,P|307:219|194:222,1,251.999992309571,8|0,0:0|3:0,0:0:0:0:
96,138,1615441,1,0,3:0:0:0:
144,73,1615530,2,0,L|137:35,6,31.4999990386963,4|0|0|0|0|0|0,0:0|0:0|0:0|0:0|0:0|0:0|0:0,0:0:0:0:
198,0,1615888,6,0,P|181:76|169:206,1,188.999994232178,4|0,0:0|0:0,0:0:0:0:
114,263,1616245,2,0,P|168:242|263:216,1,125.999996154785,8|0,0:0|0:3,0:0:0:0:
461,353,1616602,2,0,P|373:321|275:309,1,188.999994232178,0|0,3:0|0:0,0:0:0:0:
205,347,1616959,1,8,0:0:0:0:
365,138,1617138,6,0,P|400:215|412:262,1,125.999996154785,0|0,3:0|0:0,0:0:0:0:
427,80,1617495,1,0,3:0:0:0:
319,260,1617673,1,8,0:0:0:0:
128,192,1617852,2,0,P|105:144|86:64,1,125.999996154785,0|0,3:0|3:0,0:0:0:0:
319,260,1618209,2,0,P|316:330|290:392,1,125.999996154785,8|0,0:0|0:0,0:0:0:0:
203,102,1618566,1,8,0:0:0:0:
209,70,1618655,1,0,3:0:0:0:
215,38,1618745,37,0,3:0:0:0:
331,181,1618923,1,2,0:3:0:0:
161,232,1619102,1,8,0:0:0:0:
332,67,1619280,2,0,P|426:51|490:131,1,188.999994232178,2|0,0:3|0:0,0:0:0:0:
508,240,1619638,5,8,0:1:0:0:
508,240,1619816,1,8,0:1:0:0:
282,247,1619995,1,2,0:3:0:0:
418,357,1620173,5,0,3:0:0:0:
291,152,1620352,1,2,0:3:0:0:
433,198,1620530,1,8,0:0:0:0:
156,323,1620709,2,0,B|85:310|85:310|196:276,1,188.999994232178,2|0,0:3|0:0,0:0:0:0:
277,351,1621066,5,8,0:1:0:0:
277,351,1621245,1,8,0:1:0:0:
152,189,1621423,1,2,0:3:0:0:
384,96,1621602,6,0,P|403:167|293:209,1,188.999994232178,12|0,0:0|0:0,0:0:0:0:
220,90,1621959,6,0,B|244:30|244:30|272:171,1,188.999994232178,12|0,0:0|0:0,0:0:0:0:
275,296,1622316,38,0,B|232:282|220:240|220:240|148:241|122:332,1,188.999994232178,12|0,0:0|0:0,0:0:0:0:
332,372,1622673,6,0,P|370:305|313:217,1,188.999994232178,12|0,0:0|0:0,0:0:0:0:
275,296,1623030,5,0,3:0:0:0:
355,131,1623209,1,8,0:0:0:0:
355,131,1623387,1,8,0:0:0:0:
457,300,1623566,1,0,3:0:0:0:
461,81,1623745,5,0,3:0:0:0:
242,124,1623923,1,8,0:0:0:0:
512,221,1624102,1,0,3:0:0:0:
248,271,1624280,1,8,0:0:0:0:
256,261,1624370,1,0,0:0:0:0:
263,251,1624459,5,2,0:0:0:0:
216,233,1624548,1,2,0:0:0:0:
165,236,1624637,1,2,0:0:0:0:
121,263,1624727,1,2,0:0:0:0:
103,310,1624816,6,0,P|140:258|96:143,1,188.999994232178,12|0,0:0|0:0,0:0:0:0:
0,230,1625173,2,0,P|18:287|35:371,1,125.999996154785,0|0,3:0|0:0,0:0:0:0:
235,304,1625530,1,8,0:0:0:0:
228,90,1625709,38,0,P|205:188|199:230,1,125.999996154785,0|0,3:0|0:0,0:0:0:0:
158,52,1626066,1,0,3:0:0:0:
338,204,1626245,1,8,0:0:0:0:
103,222,1626423,2,0,P|76:169|63:91,1,125.999996154785,0|0,3:0|3:0,0:0:0:0:
335,99,1626780,2,0,P|311:236|277:299,1,188.999994232178,8|0,0:0|0:0,0:0:0:0:
203,332,1627137,1,8,0:0:0:0:
169,70,1627316,6,0,P|216:128|238:189,1,125.999996154785,0|0,3:0|0:0,0:0:0:0:
82,368,1627673,2,0,L|211:329,1,125.999996154785,8|0,0:0|0:0,0:0:0:0:
420,360,1628030,2,0,L|452:134,1,188.999994232178,0|0,3:0|0:0,0:0:0:0:
502,120,1628387,1,8,0:0:0:0:
316,285,1628566,6,0,L|288:142,1,125.999996154785,0|0,3:0|0:0,0:0:0:0:
179,5,1628923,1,0,3:0:0:0:
125,224,1629102,1,8,0:0:0:0:
29,75,1629280,2,0,B|119:42|120:138|234:88,1,188.999994232178,0|0,3:0|0:0,0:0:0:0:
283,22,1629637,2,0,P|358:17|318:162,1,251.999992309571,8|8,0:0|0:0,0:0:0:0:
271,240,1630084,1,0,3:0:0:0:
294,226,1630173,5,0,3:0:0:0:
146,316,1630352,1,2,0:3:0:0:
341,361,1630530,1,8,0:0:0:0:
127,186,1630709,2,0,B|7:206|7:206|97:244,1,188.999994232178,2|0,0:3|0:0,0:0:0:0:
214,216,1631066,5,8,0:1:0:0:
214,216,1631245,1,8,0:1:0:0:
166,30,1631423,1,2,0:3:0:0:
214,216,1631602,5,0,3:0:0:0:
420,182,1631780,1,2,0:3:0:0:
300,70,1631959,1,8,0:0:0:0:
432,286,1632137,2,0,P|501:244|481:102,1,188.999994232178,2|0,0:3|0:0,0:0:0:0:
436,108,1632495,37,8,0:1:0:0:
436,108,1632673,1,8,0:1:0:0:
238,319,1632852,1,0,3:0:0:0:
238,319,1632941,1,0,3:0:0:0:
238,319,1633030,1,0,3:0:0:0:
238,319,1633387,5,0,3:0:0:0:
151,136,1633566,1,0,3:0:0:0:
125,341,1633745,1,8,0:0:0:0:
243,102,1633923,1,8,0:0:0:0:
40,287,1634102,1,8,0:0:0:0:
330,153,1634280,1,8,0:0:0:0:
8,169,1634459,5,0,3:0:0:0:
389,288,1634637,1,8,0:0:0:0:
397,295,1634995,5,0,3:0:0:0:
397,295,1635084,1,0,3:0:0:0:
397,295,1635173,2,0,L|408:373,1,62.9999980773926,8|0,0:0|0:0,0:0:0:0:
234,193,1635352,2,0,L|221:264,1,62.9999980773926,8|0,0:0|0:0,0:0:0:0:
461,97,1635530,2,0,L|470:147,6,31.4999990386963,10|0|0|0|0|0|0,0:0|0:0|0:0|0:0|0:0|0:0|0:0,0:0:0:0:
390,54,1635887,5,14,0:2:0:0:
373,216,1636066,1,2,3:2:0:0:
235,77,1636245,1,2,3:2:0:0:
241,256,1636423,5,14,0:2:0:0:
336,126,1636602,1,2,3:2:0:0:
128,121,1636780,1,2,3:2:0:0:
334,216,1636959,37,14,0:2:0:0:
110,280,1637137,1,2,3:2:0:0:
264,342,1637316,1,2,3:2:0:0:
201,161,1637495,5,14,0:2:0:0:
159,370,1637673,1,2,3:2:0:0:
43,231,1637852,1,2,3:2:0:0:
286,258,1638030,5,8,0:0:0:0:
286,258,1638120,1,8,0:0:0:0:
286,258,1638209,2,0,L|276:341,1,62.9999980773926,8|8,0:0|0:0,0:0:0:0:
116,160,1638387,5,8,0:0:0:0:
116,160,1638477,1,8,0:0:0:0:
116,160,1638566,2,0,L|129:250,1,62.9999980773926,8|8,0:0|0:0,0:0:0:0:
283,106,1638745,5,14,0:2:0:0:
112,24,1638923,1,2,3:2:0:0:
198,182,1639102,1,2,3:2:0:0:
302,0,1639280,5,14,0:2:0:0:
344,200,1639459,1,2,3:2:0:0:
445,91,1639637,1,2,3:2:0:0:
244,163,1639816,37,14,0:2:0:0:
457,217,1639995,1,2,3:2:0:0:
266,315,1640173,1,2,3:2:0:0:
354,139,1640352,5,14,0:2:0:0:
387,349,1640530,1,2,3:2:0:0:
181,246,1640709,1,2,3:2:0:0:
420,196,1640887,5,8,0:0:0:0:
420,196,1640977,1,8,0:0:0:0:
420,196,1641066,2,0,L|494:214,1,62.9999980773926,8|8,0:0|0:0,0:0:0:0:
273,322,1641245,5,8,0:0:0:0:
273,322,1641334,1,8,0:0:0:0:
277,326,1641423,2,0,L|349:308,1,62.9999980773926,8|8,0:0|0:0,0:0:0:0:
181,246,1641602,5,14,0:2:0:0:
303,131,1641780,1,2,3:2:0:0:
116,88,1641959,1,2,3:2:0:0:
93,216,1642137,5,14,0:2:0:0:
215,35,1642316,1,2,3:2:0:0:
0,63,1642495,1,2,3:2:0:0:
212,156,1642673,37,14,0:2:0:0:
12,216,1642852,1,2,3:2:0:0:
185,294,1643030,1,2,3:2:0:0:
55,315,1643209,5,14,0:2:0:0:
272,246,1643387,1,2,3:2:0:0:
120,141,1643566,1,2,3:2:0:0:
346,57,1643745,5,8,0:0:0:0:
346,57,1643834,1,8,0:0:0:0:
346,57,1643923,2,0,L|328:146,1,62.9999980773926,8|8,0:0|0:0,0:0:0:0:
199,210,1644102,5,8,0:0:0:0:
199,210,1644191,1,8,0:0:0:0:
199,210,1644280,2,0,L|218:296,1,62.9999980773926,8|8,0:0|0:0,0:0:0:0:
286,326,1644459,5,14,0:2:0:0:
444,162,1644637,1,2,3:2:0:0:
232,108,1644816,1,2,3:2:0:0:
331,342,1644995,5,14,0:2:0:0:
433,114,1645173,1,2,3:2:0:0:
193,138,1645352,1,2,3:2:0:0:
388,345,1645530,37,14,0:2:0:0:
407,72,1645709,1,2,3:2:0:0:
170,186,1645887,1,2,3:2:0:0:
445,323,1646066,5,14,0:2:0:0:
364,39,1646245,1,2,3:2:0:0:
164,243,1646423,1,2,3:2:0:0:
477,174,1646602,5,14,0:2:0:0:
145,87,1646780,1,2,3:2:0:0:
504,189,1646959,5,2,3:2:0:0:
184,373,1647137,1,14,0:2:0:0:
256,192,1647227,12,0,1650173,0:0:0:0:
