osu file format v14

[General]
AudioFilename: audio.ogg
AudioLeadIn: 0
PreviewTime: 11670
Countdown: 0
SampleSet: Normal
StackLeniency: 0.7
Mode: 1
LetterboxInBreaks: 0
WidescreenStoryboard: 1

[Editor]
DistanceSpacing: 0.4
BeatDivisor: 4
GridSize: 16
TimelineZoom: 1.3

[Metadata]
Title:Hoi Sam Cuk Dai (TV Size)
TitleUnicode:開心速遞 (TV Size)
Artist:Various Artists
ArtistUnicode:Various Artists
Creator:Irone OSU
Version:Muzukashii
Source:愛.回家之開心速遞
Tags:HK Hong Kong 香港 情景喜劇 廣東話 中文 Pop Cantopop Canto-pop Chinese Cantonese TVB Come Home Love: Lo And Behold Happy Courier Sitcom sit-com situation comedy Drama Hong Kong 朱俊傑 zyu zeon git 楊熙 joeng hei 何哲圖 ho zit tou 單立文 sin lap man 湯盈盈 tong jing jing 呂慧儀 leoi wai ji 蘇韻姿 sou wan zi 周嘉洛 zau gaa lok 吳偉豪 ng wai hou 滕麗名 tang lai ming 鄭世豪 zeng sai hou 林淑敏 lam suk man 張景淳 zoeng ging seon 群星合唱
BeatmapID:3379544
BeatmapSetID:1655658

[Difficulty]
HPDrainRate:8
CircleSize:2
OverallDifficulty:5
ApproachRate:2
SliderMultiplier:1.4
SliderTickRate:1

[Events]
//Background and Video events
Video,0,"output.mp4"
0,0,"moreon9bg.jpg",0,-40
//Break Periods
//Storyboard Layer 0 (Background)
//Storyboard Layer 1 (Fail)
//Storyboard Layer 2 (Pass)
//Storyboard Layer 3 (Foreground)
//Storyboard Layer 4 (Overlay)
//Storyboard Sound Samples

[TimingPoints]
5956,476.190476190476,4,1,0,60,1,0
13575,-100,4,1,0,75,0,1
26908,-100,4,1,0,75,0,0
28813,-100,4,1,0,75,0,1
43575,-100,4,1,0,75,0,0
44051,-100,4,1,0,85,0,1
46908,-100,4,1,0,60,0,0
55836,-100,4,1,0,50,0,0
56313,-100,4,1,0,40,0,0
56789,-100,4,1,0,30,0,0
57265,-100,4,1,0,20,0,0
57741,-100,4,1,0,10,0,0

[HitObjects]
241,201,5241,5,0,0:0:0:0:
241,201,5479,1,6,0:0:0:0:
241,201,5955,1,2,0:0:0:0:
241,201,6432,1,0,0:0:0:0:
241,201,6670,1,2,0:0:0:0:
241,201,7146,1,0,0:0:0:0:
241,201,7384,1,2,0:0:0:0:
241,201,7622,1,2,0:0:0:0:
246,206,7860,1,0,0:0:0:0:
241,201,8336,1,2,0:0:0:0:
241,201,8575,1,0,0:0:0:0:
240,201,8813,1,0,0:0:0:0:
241,201,9051,1,2,0:0:0:0:
241,201,9289,1,2,0:0:0:0:
240,201,9765,1,0,0:0:0:0:
241,201,10241,1,2,0:0:0:0:
241,201,10479,1,0,0:0:0:0:
241,201,10955,1,0,0:0:0:0:
241,201,11194,1,2,0:0:0:0:
240,201,11670,1,2,0:0:0:0:
241,201,12146,1,0,0:0:0:0:
240,201,12622,1,2,0:0:0:0:
241,201,12860,1,2,0:0:0:0:
241,201,13098,1,0,0:0:0:0:
240,201,13336,1,2,0:0:0:0:
240,201,13575,1,0,0:0:0:0:
241,201,14051,1,6,0:0:0:0:
241,201,14289,1,0,0:0:0:0:
240,201,14527,1,2,0:0:0:0:
241,201,14765,1,0,0:0:0:0:
240,201,14884,1,0,0:0:0:0:
241,201,15003,1,0,0:0:0:0:
240,201,15241,1,2,0:0:0:0:
240,201,15479,1,0,0:0:0:0:
241,201,15955,1,6,0:0:0:0:
241,201,16194,1,0,0:0:0:0:
240,201,16432,1,0,0:0:0:0:
241,201,16670,1,2,0:0:0:0:
241,201,16789,1,2,0:0:0:0:
241,201,16908,1,2,0:0:0:0:
240,201,17146,1,2,0:0:0:0:
240,201,17622,1,0,0:0:0:0:
241,201,17860,1,6,0:0:0:0:
240,201,18098,1,0,0:0:0:0:
240,201,18336,1,2,0:0:0:0:
241,201,18575,1,0,0:0:0:0:
241,201,18694,1,0,0:0:0:0:
241,201,18813,1,0,0:0:0:0:
240,201,19051,1,2,0:0:0:0:
241,201,19289,1,0,0:0:0:0:
241,201,19765,1,6,0:0:0:0:
240,201,20241,1,0,0:0:0:0:
240,201,20479,1,0,0:0:0:0:
241,201,20717,1,2,0:0:0:0:
241,201,20955,1,0,0:0:0:0:
240,201,21194,1,2,0:0:0:0:
241,201,21432,1,0,0:0:0:0:
241,201,21551,1,0,0:0:0:0:
241,201,21789,1,0,0:0:0:0:
240,201,21908,1,0,0:0:0:0:
240,201,22146,1,2,0:0:0:0:
240,201,22622,1,0,0:0:0:0:
240,201,22860,1,2,0:0:0:0:
240,201,23098,1,0,0:0:0:0:
240,201,23336,1,2,0:0:0:0:
240,201,23455,1,2,0:0:0:0:
240,201,23694,1,2,0:0:0:0:
240,201,23813,1,2,0:0:0:0:
240,201,24051,1,0,0:0:0:0:
240,201,24527,1,0,0:0:0:0:
240,201,24765,1,0,0:0:0:0:
240,201,25003,1,2,0:0:0:0:
240,201,25479,1,2,0:0:0:0:
240,201,25955,1,0,0:0:0:0:
240,201,26194,1,2,0:0:0:0:
240,201,26432,1,2,0:0:0:0:
240,201,26670,1,2,0:0:0:0:
240,201,26908,1,0,0:0:0:0:
240,201,27265,1,0,0:0:0:0:
240,201,27384,1,2,0:0:0:0:
240,201,27622,1,0,0:0:0:0:
240,201,27860,1,2,0:0:0:0:
240,201,28098,1,0,0:0:0:0:
240,201,28336,1,2,0:0:0:0:
240,201,28813,1,0,0:0:0:0:
240,201,28932,1,0,0:0:0:0:
240,201,29051,1,0,0:0:0:0:
240,201,29289,1,6,0:0:0:0:
240,201,29765,1,0,0:0:0:0:
240,201,30003,1,0,0:0:0:0:
240,201,30241,1,2,0:0:0:0:
240,201,30479,1,2,0:0:0:0:
240,201,30717,1,0,0:0:0:0:
240,201,31194,1,6,0:0:0:0:
240,201,31432,1,0,0:0:0:0:
240,201,31670,1,0,0:0:0:0:
240,201,31789,1,0,0:0:0:0:
240,201,31908,1,0,0:0:0:0:
240,201,32146,1,2,0:0:0:0:
240,201,32622,1,0,0:0:0:0:
240,201,32860,1,0,0:0:0:0:
240,201,33098,1,6,0:0:0:0:
240,201,33336,1,0,0:0:0:0:
240,201,33575,1,0,0:0:0:0:
240,201,33813,1,2,0:0:0:0:
240,201,33932,1,2,0:0:0:0:
240,201,34051,1,2,0:0:0:0:
240,201,34289,1,2,0:0:0:0:
240,201,34527,1,0,0:0:0:0:
240,201,35003,1,6,0:0:0:0:
240,201,35479,1,0,0:0:0:0:
240,201,35717,1,0,0:0:0:0:
240,201,35955,1,2,0:0:0:0:
240,201,36194,1,0,0:0:0:0:
240,201,36432,1,2,0:0:0:0:
240,201,36670,1,0,0:0:0:0:
240,201,36789,1,0,0:0:0:0:
240,201,37027,1,0,0:0:0:0:
240,201,37146,1,0,0:0:0:0:
240,201,37384,1,2,0:0:0:0:
240,201,37860,1,0,0:0:0:0:
240,201,38098,1,2,0:0:0:0:
240,201,38336,1,0,0:0:0:0:
240,201,38575,1,2,0:0:0:0:
240,201,38694,1,2,0:0:0:0:
240,201,38932,1,2,0:0:0:0:
240,201,39051,1,2,0:0:0:0:
240,201,39289,1,0,0:0:0:0:
240,201,39765,1,2,0:0:0:0:
240,201,40003,1,0,0:0:0:0:
240,201,40241,1,2,0:0:0:0:
240,201,40360,1,2,0:0:0:0:
240,201,40479,1,2,0:0:0:0:
240,201,40717,1,2,0:0:0:0:
240,201,40955,1,0,0:0:0:0:
240,201,41194,1,2,0:0:0:0:
240,201,41432,1,2,0:0:0:0:
240,201,41670,1,0,0:0:0:0:
240,201,41789,1,0,0:0:0:0:
240,201,41908,1,0,0:0:0:0:
240,201,42146,1,2,0:0:0:0:
240,201,42622,1,2,0:0:0:0:
240,201,42860,1,2,0:0:0:0:
240,201,43098,1,0,0:0:0:0:
240,201,43575,1,0,0:0:0:0:
240,201,44051,1,2,0:0:0:0:
240,201,44289,1,0,0:0:0:0:
240,201,44408,1,0,0:0:0:0:
240,201,44527,1,0,0:0:0:0:
240,201,44765,1,0,0:0:0:0:
240,201,45003,1,2,0:0:0:0:
240,201,45241,1,0,0:0:0:0:
240,201,45360,1,0,0:0:0:0:
240,201,45479,1,0,0:0:0:0:
240,201,45717,1,0,0:0:0:0:
240,201,45955,1,2,0:0:0:0:
240,201,46194,1,2,0:0:0:0:
247,201,46313,1,2,0:0:0:0:
240,201,46432,1,2,0:0:0:0:
240,201,46670,1,0,0:0:0:0:
240,201,46908,1,2,0:0:0:0:
240,201,47384,1,2,0:0:0:0:
240,201,47860,1,0,0:0:0:0:
245,195,49289,1,6,0:0:0:0:
241,201,49765,1,2,0:0:0:0:
241,201,50241,1,0,0:0:0:0:
241,201,50479,1,2,0:0:0:0:
241,201,50955,1,0,0:0:0:0:
241,201,51194,1,2,0:0:0:0:
241,201,51432,1,2,0:0:0:0:
246,206,51670,1,0,0:0:0:0:
241,201,52146,1,0,0:0:0:0:
241,201,52384,1,0,0:0:0:0:
240,201,52622,1,2,0:0:0:0:
241,201,52860,1,2,0:0:0:0:
241,201,53098,1,0,0:0:0:0:
240,201,53575,1,2,0:0:0:0:
241,201,54051,1,0,0:0:0:0:
241,201,54289,1,2,0:0:0:0:
241,201,54765,1,0,0:0:0:0:
241,201,55003,1,2,0:0:0:0:
241,201,55241,1,2,0:0:0:0:
240,201,55479,1,0,0:0:0:0:
241,201,55955,1,0,0:0:0:0:
240,201,56194,1,0,0:0:0:0:
240,201,56432,1,2,0:0:0:0:
241,201,56670,1,2,0:0:0:0:
241,201,56908,1,0,0:0:0:0:
240,201,57384,1,2,0:0:0:0:
256,192,57622,12,0,59289,0:0:0:0:
