osu file format v14

[General]
AudioFilename: audio.mp3
AudioLeadIn: 0
PreviewTime: 37207
Countdown: 0
SampleSet: Soft
StackLeniency: 0.5
Mode: 0
LetterboxInBreaks: 0
WidescreenStoryboard: 1

[Editor]
Bookmarks: 22207,23449,78576,89277,113736,156538
DistanceSpacing: 0.1
BeatDivisor: 4
GridSize: 32
TimelineZoom: 1.8

[Metadata]
Title:Hashire Uma Musume
TitleUnicode:走れウマ娘
Artist:Various Artists
ArtistUnicode:Various Artists
Creator:ponbot
Version:wring's Insane!
Source:ウマ娘 プリティーダービー
Tags:Uma musume Pretty Derby horse girls cygames スペシャルウィーク 和氣あず未 サイレンススズカ 高野麻里佳 トウカイテイオー Machico ゴールドシップ 上田 瞳 タマモクロス 大空直美 ウイニングチケット 渡部優衣 駿川たづな 藤井ゆきよ 実況の赤坂さん 明坂聡美 Special Week Azumi Waki Silence Suzuka Marika Kouno Tokai Teio Machico Gold Ship Hitomi Ueda Tamamo Cross Naomi Oozora Winning Ticket Yui Watanabe Tazuna Hayakawa Yukiyo Fujii Jikkyou no Akasaka-san Satomi Akesaka j-pop japanese pop aramaking scaltinof kloyd wring
BeatmapID:3032033
BeatmapSetID:1454027

[Difficulty]
HPDrainRate:5
CircleSize:4
OverallDifficulty:7
ApproachRate:9
SliderMultiplier:1.6
SliderTickRate:1

[Events]
//Background and Video events
0,0,"ta-bo.jpg",0,0
//Break Periods
2,78776,88677
//Storyboard Layer 0 (Background)
//Storyboard Layer 1 (Fail)
//Storyboard Layer 2 (Pass)
//Storyboard Layer 3 (Foreground)
//Storyboard Layer 4 (Overlay)
//Storyboard Sound Samples

[TimingPoints]
615,382.165605095541,4,2,2,50,1,0
615,-133.333333333333,4,2,2,50,0,0
2239,-133.333333333333,4,2,2,15,0,0
2334,-133.333333333333,4,2,2,50,0,0
2430,-133.333333333333,4,2,2,15,0,0
2525,-133.333333333333,4,2,2,50,0,0
2621,-133.333333333333,4,2,2,15,0,0
2716,-133.333333333333,4,2,2,50,0,0
2812,-133.333333333333,4,2,2,15,0,0
2907,-133.333333333333,4,2,2,50,0,0
4150,-133.333333333333,4,2,2,15,0,0
4245,-133.333333333333,4,2,2,50,0,0
4341,-133.333333333333,4,2,2,15,0,0
4436,-133.333333333333,4,2,2,50,0,0
6443,-133.333333333333,4,2,2,60,0,0
6729,-100,4,2,1,60,0,0
22016,-133.333333333333,4,2,1,60,0,0
23544,-133.333333333333,4,2,1,35,0,0
23736,-133.333333333333,4,2,1,60,0,0
25073,-100,4,2,1,60,0,0
27557,-66.6666666666667,4,2,1,60,0,0
27653,-66.6666666666667,4,2,1,5,0,0
27748,-66.6666666666667,4,2,1,60,0,0
28035,-66.6666666666667,4,2,1,5,0,0
28130,-100,4,2,1,60,0,0
30614,-66.6666666666667,4,2,1,60,0,0
30710,-66.6666666666667,4,2,1,5,0,0
30806,-66.6666666666667,4,2,1,60,0,0
31092,-66.6666666666667,4,2,1,5,0,0
31188,-100,4,2,1,60,0,0
37302,-83.3333333333333,4,2,1,80,0,1
39882,-83.3333333333333,4,2,1,5,0,1
39978,-83.3333333333333,4,2,1,80,0,1
40073,-83.3333333333333,4,2,1,5,0,1
40169,-83.3333333333333,4,2,1,80,0,1
42653,-55.5555555555556,4,2,1,80,0,1
43226,-83.3333333333333,4,2,1,80,0,1
45997,-83.3333333333333,4,2,1,5,0,1
46092,-83.3333333333333,4,2,1,80,0,1
46188,-83.3333333333333,4,2,1,5,0,1
46283,-83.3333333333333,4,2,1,80,0,1
49532,-100,4,2,1,80,0,0
58130,-66.6666666666667,4,2,1,80,0,0
58608,-100,4,2,1,80,0,0
61761,-83.3333333333333,4,2,1,80,0,1
65296,-83.3333333333333,4,2,1,5,0,1
65392,-83.3333333333333,4,2,1,80,0,1
65487,-83.3333333333333,4,2,1,5,0,1
65583,-83.3333333333333,4,2,1,80,0,1
66060,-83.3333333333333,4,2,1,5,0,1
66156,-83.3333333333333,4,2,1,80,0,1
66825,-83.3333333333333,4,2,1,40,0,1
66920,-83.3333333333333,4,2,1,80,0,1
67016,-83.3333333333333,4,2,1,40,0,1
67111,-83.3333333333333,4,2,1,80,0,1
73990,-100,4,2,1,60,0,0
77048,-100,4,2,1,60,0,0
78576,-100,4,2,1,30,0,0
89277,-125,4,2,1,55,0,0
92334,-125,4,2,1,55,0,0
101506,-100,4,2,1,60,0,0
137430,-90.9090909090909,4,2,1,60,0,0
138194,-83.3333333333333,4,2,1,80,0,1
141729,-83.3333333333333,4,2,1,5,0,1
141825,-83.3333333333333,4,2,1,80,0,1
141920,-83.3333333333333,4,2,1,5,0,1
142016,-83.3333333333333,4,2,1,80,0,1
143258,-83.3333333333333,4,2,1,40,0,1
143353,-83.3333333333333,4,2,1,80,0,1
143449,-83.3333333333333,4,2,1,40,0,1
143544,-55.5555555555556,4,2,1,80,0,1
144118,-83.3333333333333,4,2,1,80,0,1
150423,-100,4,2,1,60,0,0
159022,-66.6666666666667,4,2,1,60,0,0
159118,-66.6666666666667,4,2,1,5,0,0
159213,-66.6666666666667,4,2,1,60,0,0
159500,-66.6666666666667,4,2,1,5,0,0
159595,-100,4,2,1,60,0,0
168003,-90.9090909090909,4,2,1,60,0,0
168767,-83.3333333333333,4,2,1,80,0,1
171347,-83.3333333333333,4,2,1,5,0,1
171443,-83.3333333333333,4,2,1,80,0,1
171538,-83.3333333333333,4,2,1,5,0,1
171634,-83.3333333333333,4,2,1,80,0,1
174118,-55.5555555555556,4,2,1,80,0,1
174691,-83.3333333333333,4,2,1,80,0,1
177462,-83.3333333333333,4,2,1,5,0,1
177557,-83.3333333333333,4,2,1,80,0,1
177653,-83.3333333333333,4,2,1,5,0,1
177748,-83.3333333333333,4,2,1,80,0,1
186347,-55.5555555555556,4,2,1,80,0,1
186920,-83.3333333333333,4,2,1,80,0,1
193226,-76.9230769230769,4,2,1,80,0,1
195806,-76.9230769230769,4,2,1,5,0,1
195901,-76.9230769230769,4,2,1,80,0,1
195997,-76.9230769230769,4,2,1,5,0,1
196092,-76.9230769230769,4,2,1,80,0,1
198576,-52.6315789473684,4,2,1,80,0,1
199150,-76.9230769230769,4,2,1,80,0,1
201920,-76.9230769230769,4,2,1,5,0,1
202016,-76.9230769230769,4,2,1,80,0,1
202111,-76.9230769230769,4,2,1,5,0,1
202207,-76.9230769230769,4,2,1,80,0,1
205073,-100,4,2,1,80,0,0

[Colours]
Combo1 : 255,0,128
Combo2 : 0,0,255
Combo3 : 128,255,0

[HitObjects]
96,92,615,6,0,P|119:108|155:108,1,60.0000022888184,2|0,0:0|0:0,0:0:0:0:
278,63,997,1,0,0:0:0:0:
303,77,1092,1,0,0:0:0:0:
317,103,1188,1,0,0:0:0:0:
315,132,1283,1,0,0:0:0:0:
301,158,1379,6,0,P|329:147|369:150,1,60.0000022888184,2|0,0:0|0:0,0:0:0:0:
301,280,1761,1,0,0:0:0:0:
274,265,1857,1,0,0:0:0:0:
244,269,1952,1,0,0:0:0:0:
219,286,2048,1,0,0:0:0:0:
204,312,2143,6,0,L|170:307,1,30.0000011444092,2|2,0:0|0:3,0:0:0:0:
128,232,2334,2,0,L|162:227,1,30.0000011444092,0|2,0:0|0:3,0:0:0:0:
274,373,2525,2,0,P|270:357|268:338,1,30.0000011444092,0|2,0:0|0:3,0:0:0:0:
252,159,2716,2,0,P|249:177|246:194,1,30.0000011444092,2|2,0:0|0:3,0:0:0:0:
150,327,2907,6,0,L|85:336,1,60.0000022888184,0|2,0:0|0:0,0:0:0:0:
28,293,3194,1,0,0:0:0:0:
23,283,3290,2,0,L|19:230,2,40.000001525879,2|2|2,0:0|0:0|0:0,0:0:0:0:
95,233,3672,2,0,L|90:181,1,30.0000011444092,2|0,0:0|0:0,0:0:0:0:
134,126,3863,6,0,L|172:131,1,30.0000011444092
228,75,4054,2,0,P|244:72|267:71,1,30.0000011444092,2|0,0:0|0:0,0:0:0:0:
323,134,4245,2,0,P|328:156|340:178,1,30.0000011444092,2|0,0:0|0:0,0:0:0:0:
385,73,4436,2,0,P|390:42|391:-2,1,60.0000022888184,2|2,0:0|0:0,0:0:0:0:
417,1,4723,1,0,0:0:0:0:
445,9,4818,1,0,0:0:0:0:
465,30,4914,1,0,0:0:0:0:
473,58,5009,1,0,0:0:0:0:
424,324,5200,6,0,P|415:296|413:257,1,60.0000022888184,2|0,0:0|0:0,0:0:0:0:
344,221,5487,2,0,P|312:233|275:234,1,60.0000022888184
224,277,5774,2,0,P|193:275|163:261,1,60.0000022888184,0|2,0:0|0:0,0:0:0:0:
95,208,6060,5,0,0:0:0:0:
95,208,6156,2,0,P|94:228|96:247,1,30.0000011444092,10|0,0:0|0:0,0:0:0:0:
178,155,6347,1,10,0:0:0:0:
178,155,6443,2,0,L|179:73,1,60.0000022888184,8|0,0:0|0:0,0:0:0:0:
180,52,6729,6,0,B|136:157|232:120|195:212,1,160,2|0,1:0|0:0,0:0:0:0:
469,354,7493,2,0,B|438:318|468:274|468:274|441:248|424:273,1,120
367,217,7876,2,0,P|374:175|377:132,1,80,2|0,0:0|0:0,0:0:0:0:
482,72,8258,6,0,P|476:115|472:168,1,80,0|2,1:0|0:0,0:0:0:0:
423,214,8544,1,0,0:0:0:0:
409,238,8640,2,0,P|368:244|338:280,1,80,2|2,2:0|0:0,0:0:0:0:
333,297,8927,1,2,0:0:0:0:
338,324,9022,1,2,1:2:0:0:
201,376,9213,1,2,0:0:0:0:
213,350,9309,1,2,0:0:0:0:
212,322,9404,1,0,1:0:0:0:
109,252,9595,1,2,0:0:0:0:
106,223,9691,1,2,0:0:0:0:
121,199,9786,6,0,P|116:159|115:118,1,80,4|0,1:0|0:0,0:0:0:0:
240,45,10169,2,0,P|234:87|234:137,1,80,0|0,1:0|0:0,0:0:0:0:
350,208,10551,2,0,P|354:165|361:120,1,80,0|0,1:0|0:0,0:0:0:0:
496,39,10933,2,0,P|491:78|481:131,1,80,0|0,1:0|0:0,0:0:0:0:
371,51,11315,5,0,1:0:0:0:
350,49,11411,1,0,0:0:0:0:
331,55,11506,1,2,0:0:0:0:
222,91,11697,1,0,1:0:0:0:
204,81,11793,1,0,0:0:0:0:
193,64,11888,1,2,0:0:0:0:
73,70,12079,1,0,1:0:0:0:
55,177,12271,1,2,1:2:0:0:
82,175,12366,1,0,0:0:0:0:
108,184,12462,1,2,1:2:0:0:
124,206,12557,1,0,0:0:0:0:
131,233,12653,1,2,0:0:0:0:
63,332,12844,5,0,1:0:0:0:
89,322,12939,1,0,0:0:0:0:
116,329,13035,1,2,0:0:0:0:
216,363,13226,1,0,1:0:0:0:
238,346,13322,1,0,0:0:0:0:
264,337,13417,1,2,0:0:0:0:
267,227,13608,1,0,1:0:0:0:
371,185,13799,1,2,0:0:0:0:
377,212,13895,1,0,0:0:0:0:
392,235,13990,1,2,1:2:0:0:
418,245,14086,1,0,0:0:0:0:
445,251,14181,1,2,0:0:0:0:
511,138,14372,5,0,1:0:0:0:
367,49,14564,1,0,0:0:0:0:
312,243,14755,2,0,L|410:232,1,80,0|0,1:0|0:0,0:0:0:0:
504,358,15137,2,0,L|406:347,1,80,0|0,1:0|0:0,0:0:0:0:
314,336,15519,1,0,1:0:0:0:
280,228,15710,1,0,1:0:0:0:
398,124,15901,5,0,1:0:0:0:
401,96,15997,1,0,0:0:0:0:
389,70,16092,1,2,0:0:0:0:
263,48,16283,1,0,1:0:0:0:
243,62,16379,1,0,0:0:0:0:
219,59,16474,1,2,0:0:0:0:
116,40,16665,1,0,1:0:0:0:
79,142,16857,1,2,0:0:0:0:
102,163,16952,1,0,0:0:0:0:
124,186,17048,1,2,1:2:0:0:
109,214,17143,1,0,0:0:0:0:
92,241,17239,1,2,0:0:0:0:
9,203,17430,5,0,1:0:0:0:
44,361,17621,1,2,0:0:0:0:
80,344,17716,1,0,0:0:0:0:
119,335,17812,1,2,1:2:0:0:
158,339,17907,1,0,0:0:0:0:
194,355,18003,1,2,0:0:0:0:
241,248,18194,1,0,1:0:0:0:
318,336,18385,1,2,1:2:0:0:
346,350,18481,1,0,0:0:0:0:
377,347,18576,1,0,1:0:0:0:
461,234,18767,5,2,0:0:0:0:
421,221,18863,1,0,0:0:0:0:
399,185,18958,1,0,1:0:0:0:
338,69,19150,1,2,0:0:0:0:
320,84,19245,1,0,0:0:0:0:
297,94,19341,1,2,1:2:0:0:
273,97,19436,1,0,0:0:0:0:
248,94,19532,1,2,0:0:0:0:
162,50,19723,1,0,1:0:0:0:
67,66,19914,1,0,0:0:0:0:
110,168,20105,1,0,1:0:0:0:
205,184,20296,1,0,0:0:0:0:
281,243,20487,5,0,1:0:0:0:
288,270,20583,1,0,0:0:0:0:
283,297,20678,1,2,0:0:0:0:
423,258,20869,1,0,1:0:0:0:
414,229,20965,1,0,0:0:0:0:
419,191,21060,1,2,1:2:0:0:
307,119,21251,1,0,1:0:0:0:
279,101,21347,1,0,0:0:0:0:
245,100,21443,1,0,1:0:0:0:
216,114,21538,1,0,0:0:0:0:
195,138,21634,1,0,1:0:0:0:
192,169,21729,1,0,0:0:0:0:
189,201,21825,1,0,1:0:0:0:
187,232,21920,1,0,0:0:0:0:
185,262,22016,6,0,P|245:252|311:250,1,120.000004577637,2|2,0:0|0:0,0:0:0:0:
387,149,22780,1,2,0:0:0:0:
387,149,23099,2,0,P|363:147|350:146,1,30.0000011444092,2|2,0:0|0:0,0:0:0:0:
301,86,23385,2,0,L|245:91,1,50.0000019073487,2|0,0:0|1:0,0:0:0:0:
108,32,23736,5,2,0:0:0:0:
88,46,23831,1,2,0:0:0:0:
79,68,23927,2,0,P|84:107|92:143,1,60.0000022888184,0|0,0:0|0:0,0:0:0:0:
93,292,24309,2,0,L|123:314,3,30.0000011444092,0|0|0|0,0:0|0:0|0:0|0:0,0:0:0:0:
161,309,24691,2,0,L|191:283,3,30.0000011444092,0|0|0|0,0:0|0:0|0:0|0:0,0:0:0:0:
190,248,25073,6,0,P|231:257|284:259,1,80,4|0,1:2|0:0,0:0:0:0:
452,177,25455,2,0,P|412:184|373:187,1,80,0|0,1:0|0:0,0:0:0:0:
325,102,25837,1,0,1:0:0:0:
276,179,26029,1,0,0:0:0:0:
437,261,26220,2,0,P|395:267|350:271,1,80,0|0,1:0|0:0,0:0:0:0:
219,346,26602,1,0,1:0:0:0:
121,309,26793,1,0,0:0:0:0:
99,206,26984,1,0,1:0:0:0:
181,130,27175,1,0,0:0:0:0:
283,169,27366,5,0,1:0:0:0:
352,79,27557,2,0,P|386:74|412:63,1,60.0000022888184,2|0,0:1|0:0,0:0:0:0:
508,172,27748,5,0,1:0:0:0:
412,260,27939,2,0,P|384:263|349:278,1,60.0000022888184,2|0,0:1|0:0,0:0:0:0:
226,261,28130,5,0,1:0:0:0:
313,353,28322,1,0,0:0:0:0:
221,357,28513,1,0,1:0:0:0:
320,252,28704,1,0,0:0:0:0:
242,166,28895,2,0,P|166:180|82:190,1,160,0|0,1:0|1:0,0:0:0:0:
34,267,29468,1,0,0:0:0:0:
201,290,29659,2,0,P|197:329|195:369,1,80,0|0,1:0|0:0,0:0:0:0:
370,304,30041,2,0,P|373:264|376:207,1,80,0|0,1:0|0:0,0:0:0:0:
332,117,30423,5,0,1:0:0:0:
235,41,30614,2,0,P|205:40|171:33,1,60.0000022888184,2|0,0:1|0:0,0:0:0:0:
47,77,30806,5,0,1:0:0:0:
132,160,30997,2,0,P|165:154|198:152,1,60.0000022888184,2|0,0:1|0:0,0:0:0:0:
316,202,31188,5,0,1:0:0:0:
412,137,31379,1,0,0:0:0:0:
416,226,31570,2,0,P|378:216|331:212,1,80,0|0,1:0|0:0,0:0:0:0:
119,284,31952,1,0,1:0:0:0:
131,292,32048,2,0,P|169:282|228:276,1,80,2|2,0:0|0:0,0:0:0:0:
266,342,32334,1,0,1:0:0:0:
245,196,32525,1,0,0:0:0:0:
123,103,32716,2,0,P|129:59|133:9,1,80,0|0,1:0|0:0,0:0:0:0:
402,46,33099,2,0,P|396:82|390:135,1,80,0|0,1:0|0:0,0:0:0:0:
216,149,33481,6,0,P|210:106|200:55,1,80,0|2,1:0|0:1,0:0:0:0:
306,12,33767,1,0,0:0:0:0:
306,12,33863,2,0,P|310:48|318:100,1,80,2|2,1:0|0:1,0:0:0:0:
118,232,34245,6,0,P|160:182|253:206,1,160,0|2,1:0|1:0,0:0:0:0:
472,343,35009,2,0,B|358:324|437:321|308:302,1,160,0|2,1:0|1:0,0:0:0:0:
180,354,35774,1,2,1:0:0:0:
94,303,35965,1,0,0:0:0:0:
142,215,36156,1,2,1:0:0:0:
227,267,36347,1,0,0:0:0:0:
168,353,36538,6,0,P|129:350|77:351,1,80,2|0,1:0|0:0,0:0:0:0:
26,238,36825,1,0,0:0:0:0:
26,238,36920,2,0,P|69:239|120:236,1,80,2|0,1:0|0:0,0:0:0:0:
205,54,37302,5,4,1:0:0:0:
219,148,37493,1,0,0:0:0:0:
237,242,37685,2,0,P|276:211|318:186,1,95.9999970703126,0|0,1:0|0:0,0:0:0:0:
381,49,38067,5,0,1:0:0:0:
395,143,38258,1,0,0:0:0:0:
413,237,38450,2,0,P|452:206|494:181,1,95.9999970703126,0|0,1:0|0:0,0:0:0:0:
458,74,38831,5,0,1:0:0:0:
300,37,39022,1,0,0:0:0:0:
222,137,39213,1,0,1:0:0:0:
360,126,39404,1,0,0:0:0:0:
409,255,39595,1,0,1:0:0:0:
299,338,39786,2,0,P|305:308|306:274,1,47.9999985351563,10|0,1:0|0:0,0:0:0:0:
233,200,39978,2,0,P|239:225|243:248,1,47.9999985351563,10|0,1:0|0:0,0:0:0:0:
375,354,40169,2,0,P|358:336|326:319,1,47.9999985351563,0|0,1:0|1:0,0:0:0:0:
167,291,40360,5,0,1:0:0:0:
38,212,40551,1,0,0:0:0:0:
104,74,40742,1,0,1:0:0:0:
131,192,40933,1,0,0:0:0:0:
190,124,41124,6,0,P|206:96|232:78,1,47.9999985351563,2|0,1:2|0:0,0:0:0:0:
298,184,41315,2,0,P|282:161|276:133,1,47.9999985351563,2|0,0:0|0:0,0:0:0:0:
325,10,41506,2,0,P|335:38|338:69,1,47.9999985351563,2|0,1:0|0:0,0:0:0:0:
420,83,41697,2,0,P|404:111|378:129,1,47.9999985351563,2|0,0:0|0:0,0:0:0:0:
263,279,41888,1,0,1:0:0:0:
389,269,42079,1,0,0:0:0:0:
180,190,42271,2,0,P|185:173|174:187,1,47.9999985351563,2|0,1:2|0:0,0:0:0:0:
200,76,42462,2,0,P|216:68|204:79,1,47.9999985351563,2|0,0:0|0:0,0:0:0:0:
85,31,42653,6,0,P|89:70|90:115,1,71.9999978027344,2|0,1:0|0:0,0:0:0:0:
6,227,42844,1,2,0:0:0:0:
121,305,43035,6,0,P|121:263|126:221,1,71.9999978027344,2|0,1:0|0:0,0:0:0:0:
250,154,43226,1,2,0:0:0:0:
202,70,43417,5,0,1:0:0:0:
154,153,43608,1,0,0:0:0:0:
108,237,43799,2,0,P|160:240|208:245,1,95.9999970703126,0|0,1:0|0:0,0:0:0:0:
351,153,44181,5,0,1:0:0:0:
303,236,44372,1,0,0:0:0:0:
257,320,44563,2,0,P|309:323|357:328,1,95.9999970703126,0|0,1:0|0:0,0:0:0:0:
365,204,44946,5,0,1:0:0:0:
470,342,45137,1,0,0:0:0:0:
300,377,45328,1,0,1:0:0:0:
199,281,45519,1,0,0:0:0:0:
116,356,45710,1,0,1:0:0:0:
43,226,45901,2,0,P|71:199|87:171,1,47.9999985351563,10|0,0:1|0:0,0:0:0:0:
68,88,46092,2,0,P|72:116|86:149,1,47.9999985351563,10|0,1:0|0:0,0:0:0:0:
109,274,46283,2,0,P|116:246|116:215,1,47.9999985351563,0|0,1:0|1:0,0:0:0:0:
126,34,46474,5,0,1:0:0:0:
223,155,46665,1,0,0:0:0:0:
440,97,46857,2,0,P|416:94|392:90,1,47.9999985351563,2|0,1:0|0:0,0:0:0:0:
292,58,47048,1,0,0:0:0:0:
330,199,47239,2,0,P|354:194|378:190,1,47.9999985351563,2|0,1:0|0:0,0:0:0:0:
509,201,47430,1,0,0:0:0:0:
388,285,47621,2,0,P|373:301|357:324,1,47.9999985351563,2|0,1:0|0:0,0:0:0:0:
228,360,47812,1,0,0:0:0:0:
93,271,48003,5,0,1:0:0:0:
69,240,48099,1,0,0:0:0:0:
68,201,48194,1,2,0:0:0:0:
88,168,48290,1,0,0:0:0:0:
118,144,48385,1,0,1:0:0:0:
136,121,48481,1,0,0:0:0:0:
139,92,48576,1,2,0:0:0:0:
130,64,48672,1,0,0:0:0:0:
109,43,48767,1,0,1:0:0:0:
234,53,48958,6,0,L|297:46,1,47.9999985351563,2|2,0:0|0:0,0:0:0:0:
318,119,49150,2,0,L|376:111,1,47.9999985351563,2|0,1:2|0:0,0:0:0:0:
481,75,49341,2,0,L|489:146,1,47.9999985351563,2|0,0:0|0:0,0:0:0:0:
463,35,49532,6,0,P|469:74|474:128,1,80,4|0,1:0|0:0,0:0:0:0:
426,286,49914,2,0,P|424:250|417:198,1,80,0|0,1:0|0:0,0:0:0:0:
340,372,50296,2,0,B|334:281|288:264|288:264|284:283|265:312,1,160,0|0,1:0|1:0,0:0:0:0:
175,338,50869,1,0,0:0:0:0:
73,295,51060,1,0,1:0:0:0:
209,248,51251,1,0,0:0:0:0:
45,182,51443,1,0,1:0:0:0:
115,109,51634,1,0,0:0:0:0:
318,31,51825,6,0,P|283:38|222:44,1,80,2|2,1:0|0:1,0:0:0:0:
215,166,52111,1,0,0:0:0:0:
215,166,52207,2,0,P|250:159|311:153,1,80,2|2,1:0|0:1,0:0:0:0:
351,303,52589,5,0,1:0:0:0:
271,250,52780,1,0,0:0:0:0:
192,353,52971,2,0,P|182:313|169:265,1,80,0|0,1:0|0:0,0:0:0:0:
99,361,53353,2,0,P|79:283|59:196,1,160,0|0,1:0|1:0,0:0:0:0:
119,14,53927,1,0,0:0:0:0:
173,123,54118,2,0,P|163:142|162:177,1,40,0|0,1:0|0:0,0:0:0:0:
292,143,54309,2,0,P|295:125|288:96,1,40
254,256,54500,1,0,1:0:0:0:
369,216,54691,1,0,0:0:0:0:
493,160,54882,6,0,P|495:116|503:62,1,80,2|2,1:0|0:1,0:0:0:0:
389,27,55169,1,0,0:0:0:0:
389,27,55264,2,0,P|387:66|382:106,1,80,2|2,1:0|0:1,0:0:0:0:
275,307,55646,5,0,1:0:0:0:
303,65,55837,2,0,B|274:107|278:154|310:141|316:183|288:220,1,160,0|0,0:0|0:0,0:0:0:0:
36,355,56411,2,0,P|73:340|119:337,1,80,0|0,1:0|0:0,0:0:0:0:
200,280,56793,2,0,P|238:288|287:317,1,80,0|0,1:0|0:0,0:0:0:0:
363,370,57175,1,0,1:0:0:0:
465,327,57366,1,0,0:0:0:0:
497,191,57557,1,0,1:0:0:0:
350,108,57748,1,0,0:0:0:0:
205,186,57939,5,0,1:0:0:0:
251,91,58130,2,0,P|215:92|172:82,1,60.0000022888184,2|0,0:1|0:0,0:0:0:0:
56,27,58322,5,0,1:0:0:0:
6,178,58513,2,0,P|32:169|74:164,1,60.0000022888184,2|0,0:1|0:0,0:0:0:0:
220,227,58704,5,0,1:0:0:0:
351,167,58895,1,0,0:0:0:0:
290,348,59086,1,2,1:2:0:0:
351,167,59277,1,2,0:0:0:0:
159,82,59468,2,0,B|110:105|110:105|98:159|120:223,1,160,0|2,1:0|1:2,0:0:0:0:
159,321,60041,1,0,0:0:0:0:
15,375,60232,2,0,P|25:330|29:277,1,80,0|0,1:0|1:0,0:0:0:0:
311,105,60614,2,0,P|301:150|297:203,1,80,0|0,1:0|1:0,0:0:0:0:
125,314,60997,6,0,P|121:274|112:231,1,80,2|2,1:0|0:0,0:0:0:0:
208,169,61283,1,2,0:0:0:0:
208,169,61379,2,0,P|212:209|221:252,1,80,2|0,1:0|0:0,0:0:0:0:
487,218,61761,5,4,1:0:0:0:
443,132,61952,1,0,0:0:0:0:
401,45,62143,2,0,P|355:61|300:78,1,95.9999970703126,0|0,1:0|0:0,0:0:0:0:
271,205,62525,5,0,1:0:0:0:
227,119,62716,1,0,0:0:0:0:
185,32,62907,2,0,P|139:48|84:65,1,95.9999970703126,0|0,1:0|0:0,0:0:0:0:
15,147,63290,5,0,1:0:0:0:
8,169,63385,1,2,0:0:0:0:
11,192,63481,1,2,0:0:0:0:
134,272,63672,1,2,1:2:0:0:
145,293,63767,1,0,0:0:0:0:
148,316,63863,1,2,0:0:0:0:
146,339,63958,1,0,0:0:0:0:
134,360,64054,1,2,1:2:0:0:
15,317,64245,1,10,1:0:0:0:
125,159,64436,2,0,B|183:144|172:174|235:161,1,95.9999970703126,10|0,1:0|0:0,0:0:0:0:
292,101,64818,5,0,1:0:0:0:
244,266,65009,1,0,0:0:0:0:
338,309,65200,2,0,P|362:317|393:324,1,47.9999985351563,2|2,1:2|0:0,0:0:0:0:
439,270,65392,2,0,P|473:271|500:263,1,47.9999985351563,2|0,0:0|0:0,0:0:0:0:
401,131,65583,1,0,1:0:0:0:
343,218,65774,1,0,0:0:0:0:
250,186,65965,2,0,B|258:144|258:144|249:126,1,47.9999985351563,2|0,1:2|0:0,0:0:0:0:
180,108,66156,1,0,0:0:0:0:
313,50,66347,1,0,1:0:0:0:
118,3,66538,1,0,0:0:0:0:
272,127,66729,6,0,P|297:131|330:140,1,47.9999985351563,2|0,1:2|0:0,0:0:0:0:
174,92,66920,2,0,P|143:103|113:111,1,47.9999985351563,2|0,0:0|0:0,0:0:0:0:
214,195,67111,2,0,P|257:203|322:216,1,95.9999970703126,2|2,1:0|0:0,0:0:0:0:
128,253,67398,1,0,0:0:0:0:
128,253,67493,2,0,P|82:268|32:279,1,95.9999970703126,2|2,1:0|0:0,0:0:0:0:
218,330,67876,5,0,1:0:0:0:
311,350,68067,1,0,0:0:0:0:
405,366,68258,2,0,L|385:268,1,95.9999970703126,0|0,1:0|0:0,0:0:0:0:
272,161,68640,5,0,1:0:0:0:
365,181,68831,1,0,0:0:0:0:
459,197,69022,2,0,L|439:99,1,95.9999970703126,0|0,1:0|0:0,0:0:0:0:
307,46,69404,5,0,1:0:0:0:
284,27,69500,1,2,0:0:0:0:
255,22,69595,1,2,0:0:0:0:
125,121,69786,1,2,1:2:0:0:
103,140,69882,1,0,0:0:0:0:
77,154,69978,1,2,0:0:0:0:
49,160,70073,1,0,0:0:0:0:
20,156,70169,1,2,1:2:0:0:
122,12,70360,1,10,0:1:0:0:
240,149,70551,2,0,P|251:193|244:252,1,95.9999970703126,10|0,1:0|0:0,0:0:0:0:
156,327,70933,5,0,1:0:0:0:
46,269,71124,1,0,0:0:0:0:
121,200,71315,2,0,P|151:203|197:202,1,47.9999985351563,2|0,1:0|0:0,0:0:0:0:
284,271,71506,1,0,0:0:0:0:
240,100,71697,2,0,P|261:118|296:137,1,47.9999985351563,2|0,1:0|0:0,0:0:0:0:
357,230,71888,1,0,0:0:0:0:
410,38,72079,2,0,P|399:62|390:102,1,47.9999985351563,2|2,1:0|0:0,0:0:0:0:
440,242,72271,1,0,0:0:0:0:
319,367,72462,5,0,1:0:0:0:
281,376,72557,1,2,0:0:0:0:
250,352,72653,1,2,0:0:0:0:
103,325,72844,1,0,1:0:0:0:
87,295,72939,1,0,0:0:0:0:
110,270,73035,1,2,0:0:0:0:
112,236,73130,1,0,0:0:0:0:
87,213,73226,1,2,1:0:0:0:
74,181,73322,1,0,0:0:0:0:
81,148,73417,6,0,P|72:116|71:89,1,47.9999985351563,2|0,0:1|0:0,0:0:0:0:
23,21,73608,2,0,P|68:63|171:38,1,143.999995605469,2|0,1:0|0:0,0:0:0:0:
240,69,73990,5,10,0:0:0:0:
377,14,74181,1,8,0:0:0:0:
480,119,74372,1,8,0:0:0:0:
418,232,74755,1,2,0:0:0:0:
310,193,74946,1,2,0:0:0:0:
310,193,75041,1,0,0:0:0:0:
310,193,75137,1,2,0:0:0:0:
276,300,75328,1,2,0:0:0:0:
384,354,75519,6,0,L|438:359,2,53.3333333333333,10|8|8,0:0|0:0|0:0,0:0:0:0:
276,300,75901,2,0,P|316:292|366:280,1,80,10|0,0:0|0:0,0:0:0:0:
450,138,76283,5,10,0:0:0:0:
414,120,76379,1,0,0:0:0:0:
403,82,76474,1,2,0:0:0:0:
370,60,76570,1,2,0:0:0:0:
331,73,76665,2,0,P|312:88|290:101,1,40,2|0,0:0|0:0,0:0:0:0:
257,26,76857,2,0,P|232:21|207:20,1,40,2|2,0:0|0:0,0:0:0:0:
148,91,77048,1,6,1:0:0:0:
256,192,77143,12,0,78576,0:0:0:0:
397,153,89277,5,0,1:0:0:0:
460,221,89659,1,0,1:0:0:0:
319,191,90041,1,0,1:0:0:0:
332,277,90232,1,0,1:0:0:0:
414,291,90423,1,0,1:0:0:0:
24,149,90806,5,0,1:0:0:0:
87,80,91188,1,0,1:0:0:0:
61,230,91570,1,0,1:0:0:0:
150,214,91761,1,8,1:0:0:0:
169,124,91952,1,8,1:0:0:0:
155,301,92334,5,0,1:0:0:0:
98,153,92716,1,0,1:0:0:0:
373,32,93099,1,0,1:0:0:0:
430,180,93481,1,0,1:0:0:0:
331,309,93863,5,0,1:0:0:0:
130,269,94054,1,2,0:3:0:0:
225,312,94245,1,0,1:0:0:0:
87,169,94436,1,2,0:3:0:0:
225,312,94627,2,0,P|218:294|218:277,1,32,0|0,1:0|0:0,0:0:0:0:
166,176,94818,2,0,P|170:155|178:137,1,32,8|0,1:0|0:0,0:0:0:0:
65,62,95009,2,0,P|67:85|77:110,1,32,8|0,1:0|0:0,0:0:0:0:
77,246,95200,2,0,P|89:262|108:273,1,32,8|0,1:0|0:0,0:0:0:0:
252,61,95392,5,0,1:0:0:0:
260,323,95774,1,0,1:0:0:0:
412,133,96156,1,0,1:0:0:0:
440,218,96347,1,0,1:0:0:0:
444,53,96538,1,0,1:0:0:0:
175,315,96920,5,0,1:0:0:0:
87,292,97111,1,0,0:0:0:0:
65,148,97302,1,0,1:0:0:0:
148,173,97493,1,0,0:0:0:0:
26,232,97685,1,0,1:0:0:0:
174,86,97876,1,8,1:0:0:0:
88,64,98067,1,8,1:0:0:0:
414,29,98449,5,0,1:0:0:0:
326,68,98640,1,0,1:0:0:0:
476,104,98831,1,0,1:0:0:0:
327,195,99213,1,0,1:0:0:0:
229,61,99595,1,0,1:0:0:0:
132,252,99978,5,0,1:0:0:0:
55,135,100169,1,0,1:0:0:0:
142,149,100360,1,0,1:0:0:0:
207,93,100551,1,0,0:0:0:0:
394,149,100742,1,0,1:0:0:0:
433,330,100933,1,0,1:0:0:0:
325,353,101124,1,0,1:0:0:0:
466,228,101315,1,2,0:0:0:0:
256,272,101506,6,0,B|216:268|216:268|189:301,1,80,4|2,1:2|0:3,0:0:0:0:
139,357,101793,1,0,0:0:0:0:
139,357,101888,2,0,L|51:368,1,80,0|2,1:0|0:3,0:0:0:0:
13,223,102271,1,0,1:0:0:0:
38,211,102366,1,0,0:0:0:0:
52,186,102462,1,2,0:3:0:0:
49,158,102557,1,0,0:0:0:0:
31,135,102653,1,0,1:0:0:0:
32,107,102748,1,0,0:0:0:0:
45,82,102844,1,2,0:3:0:0:
69,68,102939,1,0,0:0:0:0:
97,68,103035,6,0,P|134:78|181:83,1,80,0|2,1:0|0:3,0:0:0:0:
318,62,103417,2,0,B|306:41|288:27|256:20|256:20|283:13|308:22,1,120,0|0,1:0|0:0,0:0:0:0:
394,56,103799,1,0,1:0:0:0:
355,179,103990,1,10,1:0:0:0:
483,145,104181,1,10,1:0:0:0:
355,179,104372,1,2,0:0:0:0:
419,279,104564,5,0,1:0:0:0:
407,304,104659,1,0,0:0:0:0:
396,330,104755,1,2,0:3:0:0:
262,372,104946,1,0,1:0:0:0:
238,356,105041,1,0,0:0:0:0:
223,331,105137,2,0,P|219:311|220:287,1,40,2|0,0:3|0:0,0:0:0:0:
237,199,105328,1,0,1:0:0:0:
134,327,105519,2,0,P|126:307|124:274,1,40,2|0,0:3|0:0,0:0:0:0:
60,222,105710,2,0,B|54:175|80:140|80:140|83:119|77:103,1,120,0|0,1:0|0:0,0:0:0:0:
61,35,106092,6,0,P|97:41|151:22,1,80,0|2,1:0|0:3,0:0:0:0:
288,22,106474,2,0,P|252:41|228:79,1,80,0|2,1:0|0:3,0:0:0:0:
229,169,106857,1,0,1:0:0:0:
142,207,107048,1,10,1:0:0:0:
34,325,107239,1,10,1:0:0:0:
69,146,107430,1,10,1:0:0:0:
123,302,107621,5,0,1:0:0:0:
215,277,107812,1,2,0:3:0:0:
246,281,107907,1,0,0:0:0:0:
267,304,108003,1,0,1:0:0:0:
413,127,108194,1,2,0:3:0:0:
377,207,108385,1,0,1:0:0:0:
463,264,108576,1,2,0:3:0:0:
470,295,108672,1,0,0:0:0:0:
459,325,108767,1,0,1:0:0:0:
346,374,108958,1,2,0:3:0:0:
281,200,109150,6,0,B|280:146|306:112|306:112|281:55,1,120,0|0,1:0|0:0,0:0:0:0:
274,42,109532,2,0,P|239:25|196:26,1,80,0|2,1:0|0:3,0:0:0:0:
49,116,109914,1,0,1:0:0:0:
135,170,110105,2,0,P|155:172|180:163,1,40,10|0,1:0|0:0,0:0:0:0:
282,164,110296,2,0,B|304:122|355:124|355:124|368:108|360:88,1,120,10|0,1:0|0:0,0:0:0:0:
350,20,110678,5,0,1:0:0:0:
483,136,110869,1,2,0:3:0:0:
352,207,111060,1,0,1:0:0:0:
332,297,111251,1,2,0:3:0:0:
447,237,111443,1,0,1:0:0:0:
367,123,111634,2,0,B|358:139|365:151|365:151|363:140|369:136,1,40,2|0,0:3|0:0,0:0:0:0:
275,117,111825,2,0,B|257:114|247:125|247:125|257:121|267:125,1,40,0|0,1:0|0:0,0:0:0:0:
215,51,112016,2,0,B|203:44|189:47|189:47|196:46|203:51,1,40,2|0,0:3|0:0,0:0:0:0:
80,115,112207,6,0,P|97:136|119:152,1,40,2|0,1:2|0:0,0:0:0:0:
67,238,112398,2,0,B|93:234|93:234|111:221,1,40,2|0,0:3|0:0,0:0:0:0:
181,300,112589,2,0,P|184:276|177:248,1,40,2|0,1:2|0:0,0:0:0:0:
270,239,112780,2,0,B|256:220|256:220|221:202,1,40,2|0,0:3|0:0,0:0:0:0:
192,144,112971,5,2,1:0:0:0:
97,320,113162,1,2,0:0:0:0:
322,308,113353,5,2,1:0:0:0:
286,191,113544,1,2,0:0:0:0:
398,75,113736,6,0,L|304:87,1,80,6|2,1:0|0:3,0:0:0:0:
423,197,114118,2,0,L|527:208,1,80,0|2,1:0|0:3,0:0:0:0:
271,239,114500,1,0,1:0:0:0:
353,315,114691,1,2,0:3:0:0:
203,336,114882,1,0,1:0:0:0:
174,321,114978,1,0,0:0:0:0:
159,292,115073,1,2,0:3:0:0:
39,266,115264,5,0,1:0:0:0:
33,234,115360,1,0,0:0:0:0:
48,206,115455,1,2,0:3:0:0:
136,135,115646,1,0,1:0:0:0:
139,103,115742,1,0,0:0:0:0:
127,73,115837,1,2,0:3:0:0:
241,39,116029,1,0,1:0:0:0:
247,70,116124,1,0,0:0:0:0:
268,93,116220,1,2,1:0:0:0:
405,81,116411,1,2,1:0:0:0:
433,95,116506,1,2,0:0:0:0:
444,124,116602,1,2,0:3:0:0:
442,233,116793,5,0,1:0:0:0:
359,296,116984,1,2,0:3:0:0:
330,282,117079,1,0,0:0:0:0:
305,302,117175,1,0,1:0:0:0:
280,322,117271,1,0,0:0:0:0:
251,307,117366,1,2,0:3:0:0:
168,213,117557,1,0,1:0:0:0:
84,334,117748,1,2,0:3:0:0:
65,307,117844,1,0,0:0:0:0:
72,276,117939,1,0,1:0:0:0:
75,243,118035,1,0,0:0:0:0:
57,216,118130,1,2,0:3:0:0:
96,89,118322,6,0,P|114:96|138:98,3,40,0|0|2|0,1:0|0:0|0:3|0:0,0:0:0:0:
200,53,118704,2,0,P|218:42|247:39,3,40,0|0|2|0,1:0|0:0|0:3|0:0,0:0:0:0:
302,90,119086,2,0,P|302:114|308:141,1,40,2|0,1:0|0:0,0:0:0:0:
420,61,119277,2,0,P|412:84|408:115,1,40,2|0,0:3|0:0,0:0:0:0:
378,189,119468,2,0,P|389:210|394:241,1,40,2|0,1:0|0:0,0:0:0:0:
493,237,119659,2,0,P|494:262|482:291,1,40,2|0,0:3|0:0,0:0:0:0:
412,345,119850,6,0,P|375:333|310:318,1,80,0|2,1:0|0:3,0:0:0:0:
240,299,120232,1,0,1:0:0:0:
161,358,120423,1,2,0:3:0:0:
85,297,120614,1,2,1:2:0:0:
302,219,120806,2,0,P|225:215|124:184,1,160,2|2,3:3|0:3,0:0:0:0:
11,160,121379,6,0,P|6:119|30:84,1,80,2|2,1:2|0:3,0:0:0:0:
190,24,121761,1,2,1:2:0:0:
235,102,121952,2,0,P|275:97|318:88,1,80,2|2,0:3|1:2,0:0:0:0:
377,25,122334,1,2,1:3:0:0:
468,155,122525,1,2,1:2:0:0:
353,252,122716,1,2,0:3:0:0:
353,252,122812,1,2,0:0:0:0:
353,252,122907,2,0,P|412:245|469:278,1,120,0|0,1:0|0:0,0:0:0:0:
493,329,123290,6,0,P|502:283|517:232,1,80,2|2,1:0|0:3,0:0:0:0:
290,184,123672,1,0,1:0:0:0:
361,337,123863,1,2,0:3:0:0:
212,325,124054,2,0,P|210:283|196:229,1,80,2|2,1:0|0:3,0:0:0:0:
136,151,124436,1,2,1:0:0:0:
39,250,124627,2,0,P|43:204|56:163,1,80,2|0,0:1|1:0,0:0:0:0:
147,43,125009,1,2,0:3:0:0:
167,38,125105,1,0,0:0:0:0:
188,44,125200,6,0,P|230:45|277:35,1,80,2|2,1:0|0:3,0:0:0:0:
318,118,125487,1,2,0:0:0:0:
318,118,125583,2,0,P|358:108|404:107,1,80,2|2,1:0|0:3,0:0:0:0:
474,186,125869,1,2,0:0:0:0:
474,186,125965,2,0,P|468:228|468:283,1,80,0|0,1:0|0:0,0:0:0:0:
358,365,126347,6,0,P|351:297|268:246,1,160,6|0,1:0|1:0,0:0:0:0:
228,116,126920,1,2,0:3:0:0:
159,183,127111,2,0,P|162:225|167:268,1,80,0|2,1:0|0:3,0:0:0:0:
37,238,127493,1,2,1:3:0:0:
34,101,127685,1,2,0:3:0:0:
65,101,127780,1,2,0:0:0:0:
95,90,127876,1,2,1:2:0:0:
115,65,127971,1,2,0:0:0:0:
121,33,128067,1,2,0:3:0:0:
248,26,128258,5,2,1:0:0:0:
240,159,128449,2,0,P|279:150|336:152,1,80,10|10,1:0|1:0,0:0:0:0:
409,84,128831,1,0,0:0:0:0:
480,169,129022,2,0,P|475:209|471:252,1,80,0|2,1:0|0:3,0:0:0:0:
456,272,129309,1,0,0:0:0:0:
430,282,129404,5,2,1:2:0:0:
283,238,129595,1,2,0:3:0:0:
198,342,129786,1,2,1:2:0:0:
169,340,129882,1,0,0:0:0:0:
145,355,129978,1,2,0:3:0:0:
117,352,130073,1,0,0:0:0:0:
89,345,130169,2,0,P|87:318|91:288,1,40,2|0,1:2|0:0,0:0:0:0:
40,233,130360,2,0,P|23:250|8:272,1,40,2|0,0:3|0:0,0:0:0:0:
69,143,130551,6,0,P|101:166|126:201,1,80,2|2,1:2|0:3,0:0:0:0:
271,115,130933,1,0,1:0:0:0:
226,186,131124,1,2,0:3:0:0:
184,57,131315,1,2,1:0:0:0:
217,35,131411,1,2,0:0:0:0:
255,24,131506,1,2,0:3:0:0:
295,24,131602,1,2,0:0:0:0:
331,40,131697,1,2,1:0:0:0:
360,67,131793,1,2,0:0:0:0:
387,95,131888,1,2,0:3:0:0:
425,104,131984,1,2,0:0:0:0:
467,68,132079,6,0,P|456:149|459:219,1,120,0|0,1:0|0:0,0:0:0:0:
473,227,132462,2,0,B|434:244|458:268|420:284,1,80,6|0,1:0|0:0,0:0:0:0:
472,356,132844,5,0,1:0:0:0:
327,282,133035,1,2,0:3:0:0:
187,360,133226,1,0,1:0:0:0:
279,354,133417,5,2,0:3:0:0:
227,270,133608,2,0,P|186:263|141:275,1,80,0|2,1:0|0:3,0:0:0:0:
290,197,133990,2,0,B|303:156|290:117,1,80,0|2,1:0|0:3,0:0:0:0:
276,90,134277,1,0,0:0:0:0:
248,74,134372,1,0,1:0:0:0:
151,82,134564,1,10,1:0:0:0:
420,42,134755,2,0,B|396:72|386:114,1,80,10|0,1:0|0:0,0:0:0:0:
273,294,135137,5,0,1:0:0:0:
351,352,135328,1,2,0:3:0:0:
423,276,135519,2,0,P|415:240|406:195,1,80,0|2,1:0|0:3,0:0:0:0:
247,106,135901,1,0,1:0:0:0:
247,106,136092,6,0,P|222:106|194:110,1,40,2|0,0:0|0:0,0:0:0:0:
247,191,136283,2,0,L|214:223,1,40,2|0,1:2|0:0,0:0:0:0:
329,190,136474,2,0,P|331:215|330:239,1,40,2|0,0:0|0:0,0:0:0:0:
318,353,136665,6,0,P|360:350|418:348,1,80,2|2,1:0|0:3,0:0:0:0:
208,290,137048,2,0,P|160:287|90:281,1,80,2|2,1:0|0:3,0:0:0:0:
402,201,137430,2,0,P|449:197|501:188,1,88.000002685547,2|2,1:0|0:3,0:0:0:0:
215,171,137716,1,2,0:3:0:0:
181,166,137812,2,0,P|133:160|65:153,1,88.000002685547,2|2,1:0|1:0,0:0:0:0:
143,27,138194,5,4,1:0:0:0:
49,94,138385,1,0,0:0:0:0:
137,168,138576,2,0,L|242:156,1,95.9999970703126,0|0,1:0|0:0,0:0:0:0:
392,204,138958,5,0,1:0:0:0:
298,271,139150,1,0,0:0:0:0:
386,345,139341,2,0,L|496:332,1,95.9999970703126,0|0,1:0|0:0,0:0:0:0:
499,213,139723,5,0,1:0:0:0:
510,191,139818,1,2,0:0:0:0:
497,170,139914,1,2,0:0:0:0:
386,72,140105,1,2,1:2:0:0:
348,80,140200,1,0,0:0:0:0:
314,62,140296,1,2,0:0:0:0:
276,72,140392,1,0,0:0:0:0:
242,53,140487,1,2,1:2:0:0:
65,27,140678,1,10,1:0:0:0:
164,187,140869,2,0,P|152:140|150:91,1,95.9999970703126,10|2,1:0|1:0,0:0:0:0:
326,16,141251,5,0,1:0:0:0:
420,137,141443,1,0,0:0:0:0:
350,240,141634,2,0,P|329:230|296:230,1,47.9999985351563,2|0,1:2|0:0,0:0:0:0:
240,157,141825,2,0,P|210:161|188:171,1,47.9999985351563,2|0,0:0|0:0,0:0:0:0:
101,212,142016,5,2,1:2:0:0:
72,328,142207,1,2,0:0:0:0:
226,353,142398,2,0,P|253:347|278:333,1,47.9999985351563,2|0,1:0|0:0,0:0:0:0:
354,245,142589,1,2,0:0:0:0:
406,346,142780,1,0,1:0:0:0:
465,190,142971,1,0,0:0:0:0:
351,94,143162,2,0,P|350:109|354:98,1,47.9999985351563,2|0,1:2|0:0,0:0:0:0:
236,13,143353,2,0,P|238:31|229:16,1,47.9999985351563,2|0,0:0|0:0,0:0:0:0:
160,121,143544,6,0,P|123:118|80:110,1,71.9999978027344,2|0,1:0|0:0,0:0:0:0:
11,6,143736,1,2,0:0:0:0:
6,217,143927,6,0,P|44:213|81:205,1,71.9999978027344,2|0,1:0|0:0,0:0:0:0:
249,104,144118,1,2,0:0:0:0:
205,208,144309,5,0,1:0:0:0:
272,301,144500,1,0,0:0:0:0:
172,358,144691,2,0,P|123:361|61:372,1,95.9999970703126,0|0,1:0|0:0,0:0:0:0:
354,70,145073,5,0,1:0:0:0:
421,163,145264,1,0,0:0:0:0:
321,220,145455,2,0,P|272:223|210:234,1,95.9999970703126,0|0,1:0|0:0,0:0:0:0:
399,352,145837,5,0,1:0:0:0:
411,320,145933,1,2,0:0:0:0:
411,284,146029,1,2,0:0:0:0:
183,258,146220,1,2,1:2:0:0:
145,247,146315,1,0,0:0:0:0:
111,265,146411,1,2,0:0:0:0:
74,254,146506,1,0,0:0:0:0:
41,274,146602,1,2,1:2:0:0:
285,314,146793,1,10,1:0:0:0:
232,152,146984,2,0,P|186:153|115:162,1,95.9999970703126,10|2,1:0|1:0,0:0:0:0:
263,29,147366,5,0,1:0:0:0:
318,108,147557,1,0,0:0:0:0:
436,117,147748,2,0,P|426:141|407:173,1,47.9999985351563,2|0,1:0|0:0,0:0:0:0:
284,215,147939,1,0,0:0:0:0:
418,320,148130,2,0,P|390:312|355:309,1,47.9999985351563,2|0,1:0|0:0,0:0:0:0:
259,198,148322,1,0,0:0:0:0:
177,376,148513,2,0,P|170:342|168:310,1,47.9999985351563,2|0,1:0|0:0,0:0:0:0:
244,171,148704,1,0,0:0:0:0:
349,88,148895,5,0,1:0:0:0:
209,40,149086,1,2,0:0:0:0:
176,33,149181,1,0,0:0:0:0:
142,40,149277,1,0,1:0:0:0:
115,60,149372,1,0,0:0:0:0:
99,89,149468,1,2,0:0:0:0:
97,122,149564,1,0,0:0:0:0:
110,152,149659,1,2,1:2:0:0:
243,217,149850,1,2,1:2:0:0:
273,230,149946,1,2,0:0:0:0:
289,258,150041,1,0,1:0:0:0:
112,303,150232,1,0,3:0:0:0:
284,348,150423,6,0,P|305:360|331:365,3,40,12|0|0|0,1:0|0:0|0:0|0:0,0:0:0:0:
385,317,150806,2,0,P|407:315|431:302,3,40,8|0|0|0,0:1|0:0|0:0|0:0,0:0:0:0:
452,230,151188,2,0,L|471:188,1,40,8|0,0:1|0:0,0:0:0:0:
421,204,151379,2,0,L|446:156,1,40,8|0,0:1|0:0,0:0:0:0:
392,181,151570,2,0,L|416:136,1,40,8|0,0:1|0:0,0:0:0:0:
362,156,151761,2,0,L|385:112,1,40,0|0,0:0|0:0,0:0:0:0:
252,20,151952,6,0,P|229:9|205:8,3,40,12|0|0|0,1:0|0:3|0:3|0:3,0:0:0:0:
146,42,152334,2,0,P|121:46|96:62,3,40,8|0|0|0,0:1|0:3|0:3|0:3,0:0:0:0:
60,129,152716,2,0,L|3:141,1,40,8|0,0:1|0:3,0:0:0:0:
67,175,152907,2,0,L|13:186,1,40,8|0,0:1|0:3,0:0:0:0:
76,216,153099,2,0,L|22:226,1,40,8|0,0:1|0:3,0:0:0:0:
85,257,153290,2,0,L|32:267,1,40,0|0,0:3|0:3,0:0:0:0:
143,334,153481,5,12,1:0:0:0:
156,358,153576,1,0,0:3:0:0:
178,374,153672,1,0,0:3:0:0:
205,377,153767,1,0,0:3:0:0:
233,375,153863,6,2,L|254:327,3,40,8|0|0|0,0:1|0:3|0:3|0:3,0:0:0:0:
288,195,154245,5,12,1:0:0:0:
314,185,154341,1,0,0:3:0:0:
340,192,154436,1,8,0:1:0:0:
357,214,154532,1,0,0:3:0:0:
360,241,154627,6,2,L|339:287,3,40,8|0|0|0,0:1|0:3|0:3|0:3,0:0:0:0:
460,290,155009,5,14,1:0:0:0:
477,258,155105,1,0,0:0:0:0:
485,223,155200,1,0,0:0:0:0:
483,186,155296,1,8,0:1:0:0:
473,151,155392,1,12,1:0:0:0:
453,121,155487,1,0,0:3:0:0:
423,100,155583,1,8,0:1:0:0:
390,85,155678,1,0,0:0:0:0:
354,77,155774,6,0,L|365:124,1,40,6|0,1:0|0:0,0:0:0:0:
303,304,155965,2,0,L|321:268,1,40,12|0,1:2|0:0,0:0:0:0:
251,41,156156,2,0,L|259:80,1,40,12|0,1:2|0:0,0:0:0:0:
184,301,156347,2,0,L|217:254,1,40,12|0,1:2|0:0,0:0:0:0:
292,176,156538,6,0,P|252:172|201:165,1,80,4|0,1:0|0:0,0:0:0:0:
32,236,156920,2,0,P|70:231|117:227,1,80,0|0,1:0|0:0,0:0:0:0:
257,266,157302,1,0,1:0:0:0:
201,168,157494,1,0,0:0:0:0:
125,70,157685,2,0,P|170:67|209:62,1,80,0|0,1:0|0:0,0:0:0:0:
417,70,158067,1,0,1:0:0:0:
309,26,158258,1,0,0:0:0:0:
435,185,158449,1,0,1:0:0:0:
271,254,158640,1,0,0:0:0:0:
329,167,158831,5,0,1:0:0:0:
177,252,159022,2,0,P|162:280|160:318,1,60.0000022888184,2|0,0:1|0:0,0:0:0:0:
260,361,159213,5,0,1:0:0:0:
99,205,159404,2,0,P|105:172|120:138,1,60.0000022888184,2|0,0:1|0:0,0:0:0:0:
295,118,159595,5,0,1:0:0:0:
172,25,159787,1,0,0:0:0:0:
387,55,159978,1,0,1:0:0:0:
197,112,160169,1,0,0:0:0:0:
413,155,160360,2,0,P|344:155|252:181,1,160,2|0,1:2|1:0,0:0:0:0:
471,89,160933,1,0,0:0:0:0:
350,234,161124,2,0,P|346:275|350:328,1,80,0|0,1:0|0:0,0:0:0:0:
197,112,161506,2,0,P|201:71|197:18,1,80,0|0,1:0|0:0,0:0:0:0:
321,222,161888,6,0,P|281:233|239:256,1,80,2|2,1:0|1:0,0:0:0:0:
182,180,162175,1,0,0:0:0:0:
182,180,162271,2,0,P|222:169|264:146,1,80,2|2,1:0|1:0,0:0:0:0:
72,277,162653,6,0,P|69:235|64:183,1,80,0|0,1:0|0:0,0:0:0:0:
106,86,163035,2,0,P|68:73|29:67,1,80,6|0,1:0|0:0,0:0:0:0:
234,37,163417,2,0,B|315:57|286:110|359:128,1,160,0|0,1:0|1:0,0:0:0:0:
483,93,163990,1,0,0:0:0:0:
400,45,164181,1,0,1:0:0:0:
375,220,164372,1,0,0:0:0:0:
464,191,164564,1,0,1:0:0:0:
446,359,164755,1,0,0:0:0:0:
363,310,164946,6,0,P|322:303|270:302,1,80,2|2,1:0|1:0,0:0:0:0:
375,220,165232,1,0,0:0:0:0:
375,220,165328,2,0,P|334:218|281:207,1,80,2|0,1:0|0:0,0:0:0:0:
193,40,165710,5,0,1:0:0:0:
387,94,165901,1,0,0:0:0:0:
228,150,166092,1,0,1:0:0:0:
101,294,166283,1,2,0:0:0:0:
226,254,166474,2,0,B|187:250|151:224|151:224|127:188|131:147,1,160,0|0,1:0|1:0,0:0:0:0:
168,42,167047,1,2,0:0:0:0:
45,104,167238,2,0,P|42:139|49:216,1,80,0|2,1:0|0:0,0:0:0:0:
304,302,167621,2,0,P|307:267|300:190,1,80,0|2,1:0|0:0,0:0:0:0:
261,98,168003,6,0,P|265:68|266:33,2,58.6666684570313,2|0|0,1:0|0:0|0:0,0:0:0:0:
361,20,168385,2,0,P|361:68|370:130,1,88.000002685547,2|2,1:0|0:0,0:0:0:0:
372,121,168672,1,2,0:0:0:0:
380,134,168767,5,4,1:0:0:0:
327,236,168958,1,0,0:0:0:0:
278,341,169150,2,0,L|348:335,1,47.9999985351563,2|0,1:2|0:0,0:0:0:0:
409,331,169341,2,0,L|462:327,1,47.9999985351563,2|0,0:0|0:0,0:0:0:0:
277,68,169532,5,0,1:0:0:0:
224,170,169723,1,0,0:0:0:0:
175,275,169915,2,0,L|245:269,1,47.9999985351563,2|0,1:2|0:0,0:0:0:0:
306,265,170106,2,0,L|359:261,1,47.9999985351563,2|0,0:0|0:0,0:0:0:0:
210,348,170296,5,0,1:0:0:0:
434,258,170487,1,0,0:0:0:0:
208,222,170678,1,0,1:0:0:0:
306,265,170869,1,0,0:0:0:0:
154,133,171060,1,0,1:0:0:0:
381,133,171251,2,0,P|359:144|334:140,1,47.9999985351563,10|0,1:0|0:0,0:0:0:0:
260,33,171443,2,0,P|271:56|293:69,1,47.9999985351563,10|0,1:0|0:0,0:0:0:0:
490,96,171634,2,0,P|470:83|431:79,1,47.9999985351563,0|0,1:0|1:0,0:0:0:0:
249,143,171825,5,0,1:0:0:0:
457,188,172016,1,0,0:0:0:0:
371,43,172207,1,0,1:0:0:0:
297,217,172398,1,0,0:0:0:0:
178,52,172589,6,0,P|178:27|184:0,1,47.9999985351563,2|0,1:2|0:0,0:0:0:0:
110,146,172780,2,0,P|126:165|134:188,1,47.9999985351563,2|0,0:0|0:0,0:0:0:0:
94,59,172971,2,0,P|74:47|52:19,1,47.9999985351563,2|0,1:0|0:0,0:0:0:0:
202,137,173162,2,0,P|226:136|253:144,1,47.9999985351563,2|0,0:0|0:0,0:0:0:0:
50,211,173353,1,0,1:0:0:0:
246,329,173544,1,0,0:0:0:0:
174,252,173736,1,0,1:0:0:0:
200,224,173831,1,0,0:0:0:0:
237,215,173927,1,2,0:0:0:0:
274,223,174022,1,2,0:0:0:0:
307,239,174118,6,0,P|343:241|378:217,1,71.9999978027344,2|0,1:0|0:0,0:0:0:0:
457,321,174309,1,2,0:0:0:0:
499,159,174500,6,0,P|463:161|429:141,1,71.9999978027344,2|0,1:0|0:0,0:0:0:0:
326,9,174691,1,2,0:0:0:0:
411,49,174882,5,0,1:0:0:0:
303,90,175073,1,0,0:0:0:0:
196,133,175264,2,0,L|232:184,1,47.9999985351563,2|0,1:2|0:0,0:0:0:0:
273,234,175455,2,0,L|309:285,1,47.9999985351563,2|0,0:0|0:0,0:0:0:0:
230,17,175646,5,0,1:0:0:0:
122,58,175837,1,0,0:0:0:0:
15,101,176028,2,0,L|51:152,1,47.9999985351563,2|0,1:2|0:0,0:0:0:0:
92,202,176219,2,0,L|128:253,1,47.9999985351563,2|0,0:0|0:0,0:0:0:0:
62,343,176411,5,0,1:0:0:0:
216,248,176602,1,0,0:0:0:0:
284,319,176793,1,0,1:0:0:0:
316,312,176888,1,0,0:0:0:0:
345,328,176984,1,2,0:0:0:0:
435,291,177175,1,0,1:0:0:0:
397,172,177366,2,0,P|387:197|383:231,1,47.9999985351563,10|0,1:0|0:0,0:0:0:0:
269,232,177557,2,0,P|288:215|316:206,1,47.9999985351563,10|0,1:0|0:0,0:0:0:0:
453,116,177748,2,0,P|466:135|479:169,1,47.9999985351563,0|0,1:0|1:0,0:0:0:0:
207,185,177939,5,0,1:0:0:0:
268,24,178130,1,0,0:0:0:0:
328,106,178322,2,0,P|305:119|273:119,1,47.9999985351563,2|0,1:0|0:0,0:0:0:0:
176,56,178513,1,0,0:0:0:0:
239,260,178704,2,0,P|217:248|200:226,1,47.9999985351563,2|0,1:0|0:0,0:0:0:0:
100,90,178895,1,0,0:0:0:0:
19,259,179086,2,0,P|18:226|26:197,1,47.9999985351563,2|0,1:0|0:0,0:0:0:0:
107,10,179277,1,0,0:0:0:0:
122,141,179468,6,0,P|123:189|116:240,1,95.9999970703126,2|2,1:0|0:0,0:0:0:0:
108,255,179755,1,0,0:0:0:0:
112,288,179850,1,0,1:0:0:0:
131,328,179946,1,0,0:0:0:0:
177,351,180041,1,2,0:0:0:0:
234,357,180137,1,2,0:0:0:0:
293,322,180232,1,2,1:0:0:0:
457,189,180423,1,10,1:0:0:0:
257,94,180614,1,10,1:0:0:0:
334,195,180806,1,10,1:0:0:0:
351,161,180901,1,0,1:0:0:0:
354,122,180997,5,6,1:0:0:0:
251,70,181188,1,0,0:0:0:0:
151,12,181379,2,0,L|122:63,1,47.9999985351563,2|0,1:2|0:0,0:0:0:0:
87,119,181570,2,0,L|58:170,1,47.9999985351563,2|0,0:0|0:0,0:0:0:0:
333,320,181761,5,0,1:0:0:0:
230,268,181952,1,0,0:0:0:0:
130,210,182143,2,0,L|101:261,1,47.9999985351563,2|0,1:2|0:0,0:0:0:0:
66,317,182334,2,0,L|37:368,1,47.9999985351563,2|0,0:0|0:0,0:0:0:0:
315,220,182525,5,0,1:0:0:0:
315,220,182621,1,2,0:0:0:0:
315,220,182716,1,2,0:0:0:0:
207,84,182907,1,2,1:2:0:0:
176,60,183003,1,0,0:0:0:0:
138,49,183099,1,2,0:0:0:0:
101,58,183194,1,0,0:0:0:0:
70,82,183290,1,2,1:2:0:0:
130,210,183481,1,10,1:0:0:0:
340,93,183672,2,0,P|372:59|383:13,1,95.9999970703126,10|2,1:0|1:0,0:0:0:0:
267,155,184054,5,0,1:0:0:0:
457,69,184245,1,0,0:0:0:0:
374,203,184436,2,0,P|412:197|435:183,1,47.9999985351563,2|0,1:0|0:0,0:0:0:0:
456,209,184627,2,0,P|428:212|402:219,1,47.9999985351563,2|0,0:1|0:0,0:0:0:0:
326,366,184818,1,0,1:0:0:0:
77,282,185009,1,0,0:0:0:0:
251,286,185200,2,0,P|225:278|189:275,1,47.9999985351563,2|0,1:0|0:0,0:0:0:0:
180,243,185392,2,0,P|207:252|236:254,1,47.9999985351563,2|0,0:1|0:0,0:0:0:0:
271,146,185583,5,0,1:0:0:0:
145,27,185774,1,0,0:0:0:0:
12,148,185965,1,2,1:2:0:0:
43,125,186060,1,0,0:0:0:0:
81,127,186156,1,2,0:0:0:0:
111,150,186251,1,0,0:0:0:0:
126,185,186347,6,0,P|124:217|114:276,1,71.9999978027344,2|0,1:0|0:0,0:0:0:0:
215,357,186538,1,2,0:0:0:0:
216,195,186729,6,0,P|210:160|208:117,1,71.9999978027344,2|0,1:0|0:0,0:0:0:0:
148,15,186920,1,2,0:0:0:0:
313,88,187111,5,0,1:0:0:0:
327,202,187302,1,0,0:0:0:0:
342,316,187493,2,0,L|395:301,1,47.9999985351563,2|0,1:2|0:0,0:0:0:0:
464,280,187685,2,0,L|517:265,1,47.9999985351563,2|0,0:0|0:0,0:0:0:0:
188,138,187876,5,0,1:0:0:0:
202,252,188067,1,0,0:0:0:0:
217,366,188258,2,0,L|270:351,1,47.9999985351563,2|0,1:2|0:0,0:0:0:0:
339,330,188450,2,0,L|392:315,1,47.9999985351563,2|0,0:0|0:0,0:0:0:0:
250,189,188640,5,0,1:0:0:0:
250,189,188736,1,2,0:0:0:0:
250,189,188831,1,2,0:0:0:0:
50,287,189022,1,2,1:2:0:0:
65,251,189118,1,0,0:0:0:0:
41,221,189213,1,2,0:0:0:0:
58,186,189309,1,0,0:0:0:0:
39,152,189404,1,2,1:2:0:0:
176,296,189595,1,10,1:0:0:0:
159,106,189786,2,0,P|174:60|200:13,1,95.9999970703126,10|2,1:0|1:0,0:0:0:0:
402,142,190169,5,0,1:0:0:0:
346,267,190360,1,0,0:0:0:0:
266,109,190551,1,2,1:0:0:0:
266,109,190646,1,0,0:0:0:0:
266,109,190742,1,0,0:0:0:0:
320,182,190933,1,0,1:0:0:0:
172,138,191124,1,0,0:0:0:0:
328,32,191315,1,2,1:0:0:0:
328,32,191411,1,0,0:0:0:0:
328,32,191506,1,0,0:0:0:0:
220,232,191697,5,0,1:0:0:0:
73,197,191888,1,2,0:0:0:0:
55,162,191984,1,2,0:0:0:0:
57,123,192079,1,0,1:0:0:0:
204,42,192271,1,2,0:0:0:0:
211,79,192366,1,2,0:0:0:0:
200,116,192462,2,0,P|249:111|296:118,1,95.9999970703126,2|0,1:0|1:0,0:0:0:0:
503,315,192844,2,0,P|454:320|407:313,1,95.9999970703126,2|0,1:0|1:0,0:0:0:0:
215,364,193226,5,4,1:0:0:0:
211,338,193322,1,0,0:0:0:0:
207,312,193417,1,2,1:3:0:0:
106,285,193608,1,0,1:0:0:0:
102,259,193704,1,0,0:0:0:0:
98,233,193799,1,2,1:3:0:0:
181,171,193990,1,0,1:0:0:0:
177,145,194086,1,0,0:0:0:0:
173,119,194181,1,2,1:3:0:0:
73,87,194372,1,0,1:0:0:0:
69,61,194468,1,0,0:0:0:0:
65,35,194563,1,2,1:3:0:0:
254,53,194755,5,2,1:2:0:0:
276,87,194850,1,2,0:0:0:0:
277,128,194946,1,2,1:3:0:0:
85,186,195137,1,2,1:2:0:0:
77,226,195232,1,0,0:0:0:0:
81,267,195328,1,2,1:3:0:0:
101,302,195423,1,0,0:0:0:0:
136,323,195519,1,2,1:2:0:0:
327,265,195710,2,0,P|303:252|273:248,1,51.999997619629,8|0,1:0|0:0,0:0:0:0:
163,235,195901,2,0,P|197:223|228:193,1,51.999997619629,10|0,1:0|0:0,0:0:0:0:
408,242,196092,2,0,P|433:231|455:216,1,51.999997619629,2|2,1:2|1:2,0:0:0:0:
324,35,196283,5,0,1:0:0:0:
465,94,196474,1,2,0:3:0:0:
224,135,196665,1,0,1:0:0:0:
371,115,196857,1,2,0:3:0:0:
463,217,197048,1,0,1:0:0:0:
303,174,197239,1,2,0:3:0:0:
212,296,197430,1,0,1:0:0:0:
369,238,197621,1,2,0:3:0:0:
477,363,197812,6,0,P|446:353|408:352,1,51.999997619629,2|0,1:0|0:0,0:0:0:0:
289,359,198003,1,2,0:3:0:0:
390,178,198194,2,0,P|366:188|339:209,1,51.999997619629,2|0,1:0|0:0,0:0:0:0:
219,317,198385,1,2,0:3:0:0:
245,96,198576,6,0,P|247:141|258:184,1,75.9999979705811,2|0,1:0|0:0,0:0:0:0:
351,290,198767,1,2,0:3:0:0:
144,280,198958,6,0,P|164:240|171:199,1,75.9999979705811,2|0,1:0|0:0,0:0:0:0:
108,47,199150,1,2,0:3:0:0:
292,27,199341,5,4,1:0:0:0:
292,52,199436,1,0,0:0:0:0:
307,73,199532,1,2,1:3:0:0:
404,109,199723,1,0,1:0:0:0:
422,126,199818,1,0,0:0:0:0:
424,152,199914,1,2,1:3:0:0:
298,189,200105,1,0,1:0:0:0:
302,214,200200,1,0,0:0:0:0:
318,234,200296,1,2,1:3:0:0:
418,259,200487,1,0,1:0:0:0:
438,275,200583,1,0,0:0:0:0:
442,300,200678,1,2,1:3:0:0:
324,368,200869,5,2,1:2:0:0:
287,348,200965,1,2,0:0:0:0:
269,310,201060,1,2,1:3:0:0:
154,233,201251,1,2,1:2:0:0:
154,191,201347,1,0,0:0:0:0:
176,155,201443,1,0,1:3:0:0:
213,137,201538,1,0,0:0:0:0:
254,144,201634,1,2,1:2:0:0:
404,185,201825,2,0,P|387:160|378:129,1,51.999997619629,10|0,1:0|0:0,0:0:0:0:
282,17,202016,2,0,P|264:39|243:54,1,51.999997619629,10|0,1:0|0:0,0:0:0:0:
75,107,202207,2,0,P|69:82|67:53,1,51.999997619629,2|2,1:2|1:2,0:0:0:0:
40,198,202398,5,0,1:0:0:0:
198,164,202589,1,2,0:3:0:0:
23,326,202780,1,0,1:0:0:0:
124,214,202971,1,2,0:3:0:0:
278,256,203162,1,0,1:0:0:0:
108,301,203353,1,2,0:3:0:0:
379,375,203544,1,0,1:0:0:0:
209,320,203736,1,2,0:3:0:0:
248,186,203927,6,0,P|235:139|237:81,1,103.999995239258,2|2,1:0|0:3,0:0:0:0:
210,67,204213,1,2,0:0:0:0:
211,35,204309,1,0,1:0:0:0:
245,11,204404,1,2,0:0:0:0:
286,16,204500,1,0,0:3:0:0:
322,34,204595,1,2,0:0:0:0:
347,67,204691,1,10,1:0:0:0:
418,182,204882,1,10,1:0:0:0:
451,206,204978,1,0,0:0:0:0:
491,202,205073,1,14,1:0:0:0:
