osu file format v14

[General]
AudioFilename: audio.mp3
AudioLeadIn: 0
PreviewTime: 37207
Countdown: 0
SampleSet: Soft
StackLeniency: 0.5
Mode: 0
LetterboxInBreaks: 0
WidescreenStoryboard: 0

[Editor]
Bookmarks: 25073,37302,49532,73990,113736,125965,138194,156538,180997,193226
DistanceSpacing: 0.2
BeatDivisor: 4
GridSize: 4
TimelineZoom: 1.8

[Metadata]
Title:Hashire Uma Musume
TitleUnicode:走れウマ娘
Artist:Various Artists
ArtistUnicode:Various Artists
Creator:ponbot
Version:Hashire aramaki & ponbot!
Source:ウマ娘 プリティーダービー
Tags:Uma musume Pretty Derby horse girls cygames スペシャルウィーク 和氣あず未 サイレンススズカ 高野麻里佳 トウカイテイオー Machico ゴールドシップ 上田 瞳 タマモクロス 大空直美 ウイニングチケット 渡部優衣 駿川たづな 藤井ゆきよ 実況の赤坂さん 明坂聡美 Special Week Azumi Waki Silence Suzuka Marika Kouno Tokai Teio Machico Gold Ship Hitomi Ueda Tamamo Cross Naomi Oozora Winning Ticket Yui Watanabe Tazuna Hayakawa Yukiyo Fujii Jikkyou no Akasaka-san Satomi Akesaka j-pop japanese pop aramaking scaltinof kloyd wring
BeatmapID:2989093
BeatmapSetID:1454027

[Difficulty]
HPDrainRate:7
CircleSize:4
OverallDifficulty:8.5
ApproachRate:9.3
SliderMultiplier:2
SliderTickRate:1

[Events]
//Background and Video events
0,0,"teiou.jpg",0,0
//Break Periods
2,22216,22876
2,78576,88707
//Storyboard Layer 0 (Background)
//Storyboard Layer 1 (Fail)
//Storyboard Layer 2 (Pass)
//Storyboard Layer 3 (Foreground)
//Storyboard Layer 4 (Overlay)
//Storyboard Sound Samples

[TimingPoints]
615,382.165605095541,4,2,2,50,1,0
6729,-50,4,2,1,60,0,0
6825,-50,4,2,1,5,0,0
8258,-50,4,2,1,60,0,0
8353,-50,4,2,1,5,0,0
8640,-50,4,2,1,60,0,0
8927,-66.6666666666667,4,2,1,5,0,0
9022,-50,4,2,1,60,0,0
9786,-66.6666666666667,4,2,1,60,0,0
12462,-200,4,2,1,60,0,0
12748,-200,4,2,1,5,0,0
12844,-66.6666666666667,4,2,1,60,0,0
25073,-66.6666666666667,4,2,1,60,0,0
27557,-40,4,2,1,60,0,0
28130,-66.6666666666667,4,2,1,60,0,0
30614,-40,4,2,1,60,0,0
31188,-66.6666666666667,4,2,1,60,0,0
33672,-50,4,2,1,60,0,0
34245,-66.6666666666667,4,2,1,60,0,0
36920,-50,4,2,1,60,0,0
37302,-50,4,2,1,80,0,1
49532,-66.6666666666667,4,2,1,60,0,0
52016,-50,4,2,1,60,0,0
52589,-66.6666666666667,4,2,1,60,0,0
55073,-50,4,2,1,60,0,0
55646,-66.6666666666667,4,2,1,60,0,0
58130,-40,4,2,1,60,0,0
58704,-66.6666666666667,4,2,1,60,0,0
61379,-50,4,2,1,60,0,0
61761,-50,4,2,1,80,0,1
73608,-100,4,2,1,80,0,1
73990,-83.3333333333333,4,2,1,60,0,0
76283,-100,4,2,1,60,0,0
76952,-100,4,2,1,5,0,0
77048,-100,4,2,1,60,0,0
89277,-125,4,2,1,55,0,0
92143,-125,4,2,1,25,0,0
92334,-125,4,2,1,55,0,0
98258,-125,4,2,1,25,0,0
98449,-125,4,2,1,55,0,0
101506,-100,4,2,1,60,0,0
104181,-300.3003003003,4,2,1,60,0,0
104468,-300.3003003003,4,2,1,5,0,0
104564,-100,4,2,1,60,0,0
110296,-303.030303030303,4,2,1,60,0,0
110583,-100,4,2,1,5,0,0
110678,-100,4,2,1,60,0,0
113736,-66.6666666666667,4,2,1,60,0,0
128640,-200,4,2,1,60,0,0
128927,-66.6666666666667,4,2,1,5,0,0
129022,-66.6666666666667,4,2,1,60,0,0
134755,-200,4,2,1,60,0,0
135041,-66.6666666666667,4,2,1,5,0,0
135137,-66.6666666666667,4,2,1,60,0,0
138194,-50,4,2,1,80,0,1
150423,-100,4,2,1,60,0,0
155774,-66.6666666666667,4,2,1,60,0,0
159022,-40,4,2,1,60,0,0
159595,-66.6666666666667,4,2,1,60,0,0
161124,-50,4,2,1,60,0,0
162653,-333.333333333333,4,2,1,60,0,0
163035,-50,4,2,1,60,0,0
163417,-66.6666666666667,4,2,1,60,0,0
165328,-200,4,2,1,60,0,0
165614,-66.6666666666667,4,2,1,5,0,0
165710,-40,4,2,1,60,0,0
168767,-50,4,2,1,80,0,1
205073,-50,4,2,1,80,0,0

[Colours]
Combo1 : 255,0,128
Combo2 : 0,0,255
Combo3 : 128,255,0

[HitObjects]
108,152,615,5,2,0:0:0:0:
236,120,806,1,0,0:0:0:0:
88,120,997,1,0,0:0:0:0:
80,132,1092,1,0,0:0:0:0:
72,148,1188,2,0,P|80:192|88:228,1,50
172,232,1379,6,0,P|140:276|80:296,1,100,2|0,0:0|0:0,0:0:0:0:
140,300,1665,1,0,0:0:0:0:
180,308,1761,1,0,0:0:0:0:
196,344,1857,1,0,0:0:0:0:
224,316,1952,1,0,0:0:0:0:
264,316,2048,1,0,0:0:0:0:
296,340,2143,6,0,P|328:352|368:352,1,66.6666666666667,2|0,0:0|0:0,0:0:0:0:
386,226,2334,2,0,P|359:247|339:282,1,66.6666666666667
440,360,2525,2,0,P|434:326|414:291,1,66.6666666666667
464,236,2716,5,2,0:0:0:0:
492,268,2812,1,0,0:0:0:0:
492,228,2907,1,0,0:0:0:0:
268,232,3099,5,2,0:0:0:0:
289,196,3195,1,0,0:0:0:0:
251,207,3290,1,2,0:0:0:0:
300,120,3417,5,0,0:0:0:0:
200,120,3544,5,0,0:0:0:0:
249,33,3672,6,0,L|313:14,1,50,2|0,0:0|0:0,0:0:0:0:
324,47,3863,1,0,0:0:0:0:
312,85,3958,1,0,0:0:0:0:
300,120,4054,1,0,0:0:0:0:
337,134,4150,1,0,0:0:0:0:
352,97,4245,1,0,0:0:0:0:
367,59,4341,1,0,0:0:0:0:
404,72,4436,2,0,L|387:119,1,50,2|0,0:0|0:0,0:0:0:0:
425,132,4627,2,0,L|441:84,1,50,2|0,0:0|0:0,0:0:0:0:
478,99,4818,1,0,0:0:0:0:
466,137,4914,1,0,0:0:0:0:
455,175,5009,1,0,0:0:0:0:
443,213,5105,1,0,0:0:0:0:
432,251,5200,5,2,0:0:0:0:
364,207,5392,1,0,0:0:0:0:
324,205,5487,1,0,0:0:0:0:
286,220,5583,1,0,0:0:0:0:
324,229,5678,1,0,0:0:0:0:
352,256,5774,1,0,0:0:0:0:
361,294,5869,1,0,0:0:0:0:
348,332,5965,5,2,0:0:0:0:
296,313,6060,1,0,0:0:0:0:
244,293,6156,1,10,0:0:0:0:
192,274,6251,1,0,0:0:0:0:
212,325,6347,5,10,0:0:0:0:
221,245,6443,5,8,0:0:0:0:
229,165,6538,5,2,0:0:0:0:
238,85,6634,5,0,0:0:0:0:
245,78,6729,6,0,P|193:66|148:51,1,100,2|0,1:0|0:0,0:0:0:0:
348,332,8258,6,0,P|400:320|445:305,1,100,0|0,1:0|0:0,0:0:0:0:
436,128,8640,6,2,B|317:57|303:170|345:206|401:188|412:67|279:108,1,300,2|0,2:0|2:0,2:0:0:0:
207,235,9022,6,2,B|312:202|274:-6|97:-11|2:115|53:286|157:310|317:231,1,600,2|0,1:2|0:0,0:0:0:0:
333,198,9691,5,2,0:0:0:0:
333,198,9786,2,0,P|350:232|349:273,1,75.0000028610231,4|0,1:0|0:0,0:0:0:0:
415,307,9978,2,0,P|387:333|348:345,1,75.0000028610231
289,384,10169,1,0,1:0:0:0:
215,373,10264,1,0,0:0:0:0:
140,362,10360,1,0,0:0:0:0:
136,347,10455,1,0,0:0:0:0:
131,332,10551,6,0,P|126:207|132:152,1,150.000005722046,0|0,1:0|0:0,0:0:0:0:
187,136,10837,1,0,0:0:0:0:
203,209,10933,2,0,P|205:271|202:299,1,75.0000028610231,0|0,1:0|0:0,0:0:0:0:
48,315,11124,2,0,P|45:252|48:225,1,75.0000028610231
0,86,11315,5,0,1:0:0:0:
50,29,11411,1,0,0:0:0:0:
123,18,11506,1,0,0:0:0:0:
183,62,11602,1,0,0:0:0:0:
188,136,11697,1,0,1:0:0:0:
238,191,11793,1,0,0:0:0:0:
312,191,11888,1,0,0:0:0:0:
370,143,11984,1,0,0:0:0:0:
354,69,12079,6,0,P|319:86|299:117,1,75.0000028610231,0|0,1:0|0:0,0:0:0:0:
288,328,12271,2,0,P|291:289|274:256,1,75.0000028610231,2|0,1:2|0:0,0:0:0:0:
97,141,12462,2,0,P|128:163|165:164,1,75,2|0,1:2|0:0,0:0:0:0:
226,122,12844,5,0,1:0:0:0:
160,86,12939,1,0,0:0:0:0:
87,105,13035,1,0,0:0:0:0:
51,170,13130,1,0,0:0:0:0:
62,244,13226,1,0,1:0:0:0:
75,250,13322,1,0,0:0:0:0:
87,257,13417,2,0,L|168:246,1,75.0000028610231
226,122,13608,6,0,B|281:128|281:128|316:164|316:164|379:172,1,150.000005722046,0|0,1:0|0:0,0:0:0:0:
330,238,13895,1,0,0:0:0:0:
301,306,13990,2,0,L|220:295,1,75.0000028610231,0|0,1:0|0:0,0:0:0:0:
410,239,14181,2,0,L|491:228,1,75.0000028610231
345,96,14372,6,0,L|366:202,1,75.0000028610231,0|0,1:0|0:0,0:0:0:0:
424,312,14564,2,0,L|409:238,1,75.0000028610231
226,122,14755,5,0,1:0:0:0:
222,136,14850,1,0,0:0:0:0:
218,150,14946,2,0,L|136:176,1,75.0000028610231
75,198,15137,2,0,B|48:126|73:117|50:52,1,150.000005722046,0|0,1:0|0:0,0:0:0:0:
39,125,15423,1,0,1:0:0:0:
29,199,15519,2,0,L|20:290,1,75.0000028610231,0|0,1:0|0:0,0:0:0:0:
136,96,15710,2,0,L|143:21,1,75.0000028610231,0|0,1:0|0:0,0:0:0:0:
268,212,15901,6,0,B|325:271|408:269,1,150.000005722046,0|0,1:0|0:0,0:0:0:0:
439,203,16188,1,0,0:0:0:0:
368,178,16283,2,0,P|357:218|349:271,1,75.0000028610231,0|0,1:0|0:0,0:0:0:0:
465,349,16474,2,0,P|476:309|484:256,1,75.0000028610231
282,288,16665,2,0,B|225:347|142:345,1,150.000005722046,0|0,1:0|0:0,0:0:0:0:
74,327,16952,1,0,0:0:0:0:
126,273,17048,1,0,1:0:0:0:
118,236,17143,1,0,0:0:0:0:
86,216,17239,1,0,0:0:0:0:
48,213,17334,1,0,0:0:0:0:
17,234,17430,6,0,P|104:248|198:224,1,150.000005722046,0|0,1:0|0:0,0:0:0:0:
186,166,17716,1,0,0:0:0:0:
110,163,17812,2,0,L|-7:158,1,75.0000028610231,0|0,1:0|0:0,0:0:0:0:
37,84,18003,2,0,L|111:87,1,75.0000028610231
267,211,18194,6,0,B|281:127|249:149|264:62,1,150.000005722046,0|0,1:0|1:0,0:0:0:0:
341,102,18481,1,0,0:0:0:0:
347,183,18576,2,0,P|384:187|421:193,1,75.0000028610231,0|0,1:0|0:0,0:0:0:0:
493,123,18767,2,0,P|455:118|418:112,1,75.0000028610231
331,262,18958,5,0,1:0:0:0:
405,274,19054,1,0,0:0:0:0:
478,289,19150,2,0,P|476:327|468:369,1,75.0000028610231
269,384,19341,5,0,1:0:0:0:
207,342,19436,1,0,0:0:0:0:
201,266,19532,1,0,0:0:0:0:
193,191,19627,1,0,0:0:0:0:
201,183,19723,6,0,L|110:168,1,75.0000028610231,0|0,1:0|0:0,0:0:0:0:
51,236,19914,2,0,L|125:248,1,75.0000028610231
269,299,20105,2,0,L|281:224,1,75.0000028610231,0|0,1:0|0:0,0:0:0:0:
213,108,20296,2,0,L|198:199,1,75.0000028610231
133,323,20487,5,0,1:0:0:0:
125,248,20583,1,0,0:0:0:0:
117,173,20678,1,0,0:0:0:0:
108,98,20774,1,0,1:0:0:0:
103,23,20869,1,0,1:0:0:0:
99,30,20965,1,0,0:0:0:0:
96,38,21060,2,0,L|193:27,1,75.0000028610231,0|0,1:0|0:0,0:0:0:0:
347,183,21251,6,0,P|361:147|361:110,1,75.0000028610231,0|0,1:0|0:0,0:0:0:0:
258,94,21443,2,0,P|243:129|243:166,1,75.0000028610231,0|0,1:0|0:0,0:0:0:0:
340,328,21634,6,0,P|325:292|325:255,1,75.0000028610231,0|0,1:0|0:0,0:0:0:0:
402,241,21826,2,0,P|416:276|416:313,1,75.0000028610231,0|0,1:0|0:0,0:0:0:0:
284,384,22016,5,2,0:0:0:0:
103,116,25073,6,0,P|181:102|241:48,1,150.000005722046,4|0,1:2|0:0,0:0:0:0:
83,186,25455,2,0,P|61:94|16:32,1,150.000005722046,0|0,1:0|0:0,0:0:0:0:
280,181,25837,1,0,1:0:0:0:
160,278,26029,2,0,P|193:254|237:253,1,75.0000028610231
431,361,26220,1,0,1:0:0:0:
307,263,26411,2,0,P|340:287|384:288,1,75.0000028610231
508,256,26602,5,0,1:0:0:0:
322,331,26793,1,0,0:0:0:0:
487,128,26984,1,0,1:0:0:0:
417,279,27175,1,0,0:0:0:0:
305,153,27366,1,0,1:0:0:0:
318,145,27557,6,0,P|412:148|514:34,2,250,2|0|2,0:1|1:0|0:1,0:0:0:0:
512,208,28130,1,0,1:0:0:0:
442,5,28322,2,0,P|433:41|407:67,1,75.0000028610231
305,153,28513,2,0,P|267:153|236:173,1,75.0000028610231,0|0,1:0|0:0,0:0:0:0:
218,305,28704,2,0,P|242:333|277:345,1,75.0000028610231
181,232,28895,2,0,P|106:237|42:274,2,150.000005722046,0|0|0,1:0|0:0|1:0,0:0:0:0:
145,360,29468,1,0,0:0:0:0:
0,66,29659,6,0,P|74:60|138:23,1,150.000005722046,0|0,1:0|0:0,0:0:0:0:
184,153,29946,1,0,0:0:0:0:
217,39,30041,2,0,P|185:19|148:18,1,75.0000028610231,0|0,1:0|0:0,0:0:0:0:
116,133,30232,2,0,P|147:152|184:153,1,75.0000028610231
357,144,30423,1,0,1:0:0:0:
123,329,30614,6,0,L|82:82,2,250,2|0|2,0:1|1:0|0:1,0:0:0:0:
253,305,31188,6,0,L|236:405,1,75.0000028610231,0|0,1:0|0:0,0:0:0:0:
72,209,31379,1,0,0:0:0:0:
356,298,31570,2,0,L|338:193,1,75.0000028610231,0|0,1:0|0:0,0:0:0:0:
159,356,31761,1,0,0:0:0:0:
45,318,31952,1,0,1:0:0:0:
45,318,32048,2,0,P|86:295|130:301,1,75.0000028610231
177,257,32239,1,0,0:0:0:0:
225,317,32334,2,0,P|262:314|292:294,1,75.0000028610231,0|0,1:0|0:0,0:0:0:0:
284,169,32525,2,0,L|301:69,1,75.0000028610231
459,205,32716,6,0,P|421:204|390:184,1,75.0000028610231,0|0,1:0|0:0,0:0:0:0:
186,112,32907,2,0,P|167:79|168:42,1,75.0000028610231
384,7,33099,2,0,P|401:39|400:76,1,75.0000028610231,0|0,1:0|0:0,0:0:0:0:
218,245,33290,2,0,P|180:246|148:264,1,75.0000028610231
398,354,33481,1,0,1:0:0:0:
284,71,33672,6,0,B|402:97,1,100,2|0,0:1|0:0,0:0:0:0:
130,277,33863,2,0,B|30:256,1,100,2|0,1:0|0:0,0:0:0:0:
321,160,34054,2,0,B|292:273,1,100,2|0,0:1|0:0,0:0:0:0:
80,362,34245,6,0,B|111:215|3:221|26:74,1,300.000011444092,0|2,1:0|1:0,0:0:0:0:
228,325,34818,1,0,0:0:0:0:
6,290,35009,2,0,P|127:307|65:198,1,300.000011444092,0|2,1:0|1:0,0:0:0:0:
72,197,35774,6,0,L|224:177,1,150.000005722046,2|0,1:0|0:0,0:0:0:0:
423,85,36156,2,0,L|275:105,1,150.000005722046,2|0,1:0|0:0,0:0:0:0:
166,43,36538,2,0,L|260:31,1,75.0000028610231,2|0,1:0|0:0,0:0:0:0:
466,193,36729,1,2,0:0:0:0:
466,193,36825,1,2,0:0:0:0:
355,172,36920,6,0,B|343:123|387:9|496:29|496:156|466:193,1,300,0|0,1:0|0:0,0:0:0:0:
391,267,37302,6,0,B|185:302,1,200,4|0,1:0|0:0,0:0:0:0:
114,315,37589,1,2,0:0:0:0:
101,235,37685,2,0,L|234:212,1,100,0|0,1:0|0:0,0:0:0:0:
298,202,37876,2,0,L|199:218,1,100,2|0,0:0|0:0,0:0:0:0:
35,329,38067,2,0,P|15:224|3:117,1,200,0|0,1:0|0:0,0:0:0:0:
82,119,38353,1,2,0:0:0:0:
96,198,38449,1,0,1:0:0:0:
111,276,38544,1,0,0:0:0:0:
190,262,38640,1,2,0:0:0:0:
178,182,38736,1,2,0:0:0:0:
168,102,38831,6,0,P|224:92|270:108,1,100,0|0,1:0|0:0,0:0:0:0:
360,192,39022,2,0,P|304:202|258:186,1,100,2|0,0:0|0:0,0:0:0:0:
180,88,39213,2,0,P|236:78|282:94,1,100,0|0,1:0|0:0,0:0:0:0:
372,178,39404,2,0,P|316:188|270:172,1,100,2|0,0:0|0:0,0:0:0:0:
116,40,39595,5,0,1:0:0:0:
190,262,39786,1,10,1:0:0:0:
365,92,39978,2,0,B|341:38|281:20|234:71|234:71|302:111|293:202|204:227,1,300,10|0,1:0|0:0,0:0:0:0:
196,143,40360,6,0,P|312:121|431:106,1,200,0|0,1:0|0:0,0:0:0:0:
471,97,40646,1,2,0:0:0:0:
452,175,40742,1,0,1:0:0:0:
431,251,40837,1,0,0:0:0:0:
409,328,40933,1,2,0:0:0:0:
417,322,41029,1,0,0:0:0:0:
426,317,41124,6,0,P|371:220|279:234,1,200,0|0,1:0|0:0,0:0:0:0:
235,280,41411,1,2,0:0:0:0:
232,288,41506,2,0,P|246:341|265:407,1,100,0|0,1:0|0:0,0:0:0:0:
426,317,41697,2,0,L|321:327,1,100,2|0,0:0|0:0,0:0:0:0:
163,348,41888,6,0,P|145:246|162:211,1,100,0|0,1:2|0:0,0:0:0:0:
293,224,42079,2,0,P|293:174|273:129,1,100
187,94,42271,2,0,L|210:201,1,100,2|0,1:2|0:0,0:0:0:0:
143,253,42462,2,0,L|121:155,1,100,2|0,0:0|0:0,0:0:0:0:
257,45,42653,6,0,P|233:5|184:5,1,100,0|0,1:0|0:0,0:0:0:0:
121,155,42844,2,0,P|168:156|193:115,1,100,2|0,0:0|0:0,0:0:0:0:
286,30,43035,6,0,P|276:80|272:129,1,100,0|0,1:0|0:0,0:0:0:0:
395,165,43226,2,0,P|396:117|355:92,1,100,2|0,0:0|0:0,0:0:0:0:
240,202,43417,6,0,P|341:172|430:218,1,200,0|0,1:0|0:0,0:0:0:0:
501,215,43704,1,2,0:0:0:0:
503,229,43799,2,0,P|494:281|485:354,1,100,0|0,1:0|0:0,0:0:0:0:
400,384,43990,2,0,P|406:334|415:285,1,100,2|0,0:0|0:0,0:0:0:0:
342,251,44181,2,0,P|214:227|135:215,1,200,0|0,1:0|0:0,0:0:0:0:
129,295,44468,1,2,0:0:0:0:
208,309,44564,1,0,1:0:0:0:
286,323,44659,1,0,0:0:0:0:
302,244,44755,1,2,0:0:0:0:
320,166,44850,1,2,0:0:0:0:
314,159,44946,6,0,P|219:144|109:129,1,200,0|0,1:0|0:0,0:0:0:0:
40,154,45232,1,2,0:0:0:0:
98,208,45328,2,0,P|150:201|198:144,1,100,0|0,1:0|0:0,0:0:0:0:
212,95,45519,2,0,P|264:102|312:159,1,100,2|0,0:0|0:0,0:0:0:0:
338,202,45710,5,0,1:0:0:0:
116,129,45901,1,10,0:1:0:0:
301,36,46092,2,0,B|255:216|255:216|281:300|378:277,1,300,10|0,1:0|0:0,0:0:0:0:
506,196,46474,6,0,B|417:145|417:145|338:202,1,200,0|0,1:0|0:0,0:0:0:0:
279,290,46761,1,2,0:0:0:0:
271,302,46857,2,0,L|149:285,1,100,0|0,1:0|0:0,0:0:0:0:
92,276,47048,1,2,0:0:0:0:
67,200,47143,1,2,0:0:0:0:
42,123,47239,6,0,B|82:15|202:39,1,200,0|0,1:0|0:0,0:0:0:0:
271,76,47525,1,2,0:0:0:0:
201,115,47621,1,0,1:0:0:0:
188,142,47716,1,0,0:0:0:0:
190,172,47812,1,2,0:0:0:0:
207,196,47907,1,2,0:0:0:0:
232,211,48003,6,0,P|331:194|460:178,1,200,0|0,1:0|0:0,0:0:0:0:
368,129,48290,1,2,0:0:0:0:
355,207,48385,2,0,P|346:256|336:324,1,100,0|0,1:0|0:0,0:0:0:0:
441,180,48576,2,0,P|450:131|460:63,1,100,2|0,0:0|0:0,0:0:0:0:
316,0,48767,5,0,1:0:0:0:
188,142,48958,1,2,0:0:0:0:
260,107,49054,1,2,0:0:0:0:
191,66,49150,2,0,P|142:76|111:114,1,100,2|0,1:2|0:0,0:0:0:0:
164,232,49341,2,0,P|215:217|279:206,1,100,2|0,0:0|0:0,0:0:0:0:
402,354,49532,6,0,L|238:330,2,150.000005722046,4|0|0,1:0|0:0|1:0,0:0:0:0:
173,377,50105,1,0,0:0:0:0:
480,330,50296,2,0,P|476:278|386:278,1,150.000005722046,0|0,1:0|0:0,0:0:0:0:
243,340,50678,2,0,L|280:159,1,150.000005722046,0|0,1:0|0:0,0:0:0:0:
20,120,51060,6,0,P|54:119|118:67,1,75.0000028610231,0|0,1:0|0:0,0:0:0:0:
218,91,51251,2,0,L|237:18,1,75.0000028610231
75,208,51443,2,0,P|45:289|65:392,2,150.000005722046,0|0|0,1:0|0:0|1:0,0:0:0:0:
398,322,52016,6,0,B|405:272|405:272|358:210,1,100,2|0,0:1|0:0,0:0:0:0:
175,297,52207,1,2,1:0:0:0:
175,297,52302,1,0,0:0:0:0:
261,356,52398,2,0,L|276:245,1,100,2|0,0:1|0:0,0:0:0:0:
63,320,52589,5,0,1:0:0:0:
274,256,52780,1,0,0:0:0:0:
200,187,52971,2,0,P|179:156|179:120,1,75.0000028610231,0|0,1:0|0:0,0:0:0:0:
406,158,53162,2,0,P|396:194|368:218,1,75.0000028610231
308,37,53353,2,0,P|380:18|454:5,1,150.000005722046,0|0,1:0|0:0,0:0:0:0:
196,194,53736,1,0,1:0:0:0:
448,310,53927,1,0,0:0:0:0:
185,18,54118,6,0,L|208:111,1,75.0000028610231,0|0,1:0|0:0,0:0:0:0:
364,265,54309,2,0,L|341:172,1,75.0000028610231
77,66,54500,2,0,L|95:138,1,75.0000028610231,0|0,1:0|0:0,0:0:0:0:
461,216,54691,2,0,L|442:143,1,75.0000028610231
86,243,54882,1,0,1:0:0:0:
301,50,55073,6,0,L|276:175,1,100,2|0,0:1|0:0,0:0:0:0:
241,377,55264,1,2,1:0:0:0:
241,377,55360,1,0,0:0:0:0:
300,300,55455,2,0,P|285:263|212:223,1,100,2|0,0:1|0:0,0:0:0:0:
31,187,55646,5,0,1:0:0:0:
136,330,55837,2,0,P|238:301|337:290,1,150.000005722046,0|0,0:0|1:0,0:0:0:0:
152,238,56220,1,0,0:0:0:0:
311,19,56411,2,0,P|348:17|381:0,1,75.0000028610231,0|0,1:0|0:0,0:0:0:0:
165,46,56602,2,0,P|202:48|236:65,1,75.0000028610231
313,103,56793,2,0,P|313:140|330:174,1,75.0000028610231,0|0,1:0|0:0,0:0:0:0:
404,219,56984,2,0,P|403:253|351:317,1,75.0000028610231
213,248,57175,6,0,P|215:210|231:177,1,75.0000028610231,0|0,1:0|0:0,0:0:0:0:
431,134,57366,2,0,P|462:153|483:184,1,75.0000028610231
418,363,57557,2,0,P|385:379|348:383,1,75.0000028610231,0|0,1:0|0:0,0:0:0:0:
304,214,57748,2,0,P|333:197|415:210,1,75.0000028610231
426,37,57939,1,0,1:0:0:0:
385,289,58130,6,0,L|431:-51,2,250,2|0|2,0:1|1:0|0:1,0:0:0:0:
150,155,58704,6,0,L|119:6,1,150.000005722046,0|0,1:0|0:0,0:0:0:0:
52,245,59086,2,0,P|137:208|212:193,1,150.000005722046,2|2,1:2|0:0,0:0:0:0:
414,72,59468,2,0,P|342:55|262:9,1,150.000005722046,0|0,1:0|0:0,0:0:0:0:
343,218,59850,2,0,L|377:386,1,150.000005722046,2|0,1:2|0:0,0:0:0:0:
205,370,60232,6,0,P|242:346|336:341,1,75.0000028610231,0|0,1:0|0:0,0:0:0:0:
512,187,60423,2,0,P|475:211|381:216,1,75.0000028610231,0|0,1:0|0:0,0:0:0:0:
122,246,60614,2,0,L|246:270,1,75.0000028610231,0|0,1:0|0:0,0:0:0:0:
459,313,60806,2,0,L|335:289,1,75.0000028610231,0|0,1:0|0:0,0:0:0:0:
57,361,60997,1,0,1:0:0:0:
307,225,61188,5,2,0:0:0:0:
307,225,61283,1,2,0:0:0:0:
293,330,61379,2,0,B|230:192|333:182|268:39,1,300,2|0,1:2|0:0,0:0:0:0:
190,245,61761,6,0,P|278:207|297:113,1,200,4|0,1:0|0:0,0:0:0:0:
267,38,62048,1,2,0:0:0:0:
203,86,62143,1,2,1:2:0:0:
210,104,62238,1,0,0:0:0:0:
125,90,62334,1,2,0:0:0:0:
122,109,62430,1,0,0:0:0:0:
45,75,62525,6,0,P|70:28|124:11,1,100,0|0,1:0|0:0,0:0:0:0:
169,173,62716,2,0,P|151:232|142:287,1,100,2|0,0:0|0:0,0:0:0:0:
125,90,62907,1,0,1:0:0:0:
203,86,63002,1,2,0:0:0:0:
258,143,63098,1,2,0:0:0:0:
242,221,63194,1,2,0:0:0:0:
226,299,63290,5,0,1:0:0:0:
226,299,63385,1,2,0:0:0:0:
300,342,63481,2,0,P|318:283|327:228,1,100,2|0,0:0|0:0,0:0:0:0:
83,165,63672,5,0,1:0:0:0:
26,224,63767,1,2,0:0:0:0:
155,199,63862,1,2,0:0:0:0:
99,260,63958,1,2,0:0:0:0:
82,154,64054,1,0,1:0:0:0:
114,343,64245,6,0,L|4:367,1,100,10|0,1:0|0:0,0:0:0:0:
282,272,64436,2,0,L|424:303,1,100,10|0,1:0|0:0,0:0:0:0:
164,162,64627,2,0,L|148:64,1,100
415,159,64818,6,0,P|477:148|504:15,1,200,0|0,1:0|0:0,0:0:0:0:
340,183,65105,1,2,0:0:0:0:
347,200,65200,2,0,P|373:264|383:312,1,100,0|0,1:0|0:0,0:0:0:0:
212,320,65392,2,0,P|261:319|304:343,1,100,2|0,0:0|0:0,0:0:0:0:
125,380,65583,5,0,1:0:0:0:
56,340,65678,1,2,0:0:0:0:
15,272,65774,1,2,0:0:0:0:
13,193,65869,1,2,0:0:0:0:
50,123,65965,2,0,P|109:133|176:149,1,100,0|0,1:0|0:0,0:0:0:0:
203,234,66156,2,0,P|192:293|177:359,1,100,2|0,0:0|0:0,0:0:0:0:
392,347,66347,6,0,P|343:357|294:367,1,100,0|0,1:0|0:0,0:0:0:0:
311,278,66538,2,0,P|290:232|309:149,1,100
390,210,66729,2,0,P|438:220|488:228,1,100,2|0,1:2|0:0,0:0:0:0:
487,141,66920,2,0,P|507:95|488:12,1,100,2|0,0:0|0:0,0:0:0:0:
221,115,67111,6,0,P|261:85|340:86,1,100,0|0,1:0|0:0,0:0:0:0:
477,247,67302,2,0,P|438:217|389:209,1,100,2|0,0:0|0:0,0:0:0:0:
116,320,67493,6,0,P|135:274|204:235,1,100,0|0,1:0|0:0,0:0:0:0:
402,303,67685,2,0,P|352:296|306:313,1,100,2|0,0:0|0:0,0:0:0:0:
121,162,67876,6,0,P|21:72|44:1,1,200,0|0,1:0|0:0,0:0:0:0:
118,63,68162,1,2,0:0:0:0:
118,63,68258,2,0,P|162:41|211:45,1,100,0|0,1:0|0:0,0:0:0:0:
279,2,68449,1,2,0:0:0:0:
316,72,68544,1,0,0:0:0:0:
273,140,68640,6,0,L|371:158,1,100,0|0,1:0|0:0,0:0:0:0:
512,273,68831,2,0,L|413:254,1,100,2|0,0:0|0:0,0:0:0:0:
343,341,69022,1,2,1:2:0:0:
264,327,69118,1,0,0:0:0:0:
190,357,69213,1,2,0:0:0:0:
111,343,69309,1,2,0:0:0:0:
37,373,69404,5,0,1:0:0:0:
37,373,69500,1,0,0:0:0:0:
50,295,69595,2,0,P|19:257|24:208,1,100,2|0,0:0|0:0,0:0:0:0:
227,171,69786,5,0,1:0:0:0:
194,243,69882,1,2,0:0:0:0:
165,118,69978,1,2,0:0:0:0:
133,190,70073,1,2,0:0:0:0:
236,168,70169,1,0,1:0:0:0:
101,68,70360,6,0,L|19:10,1,100,10|0,0:1|0:0,0:0:0:0:
278,105,70551,2,0,L|369:63,1,100,10|0,1:0|0:0,0:0:0:0:
196,261,70742,2,0,L|176:359,1,100
384,196,70933,6,0,P|363:121|353:-12,1,200,0|0,1:0|0:0,0:0:0:0:
251,113,71220,1,2,0:0:0:0:
266,120,71315,2,0,P|222:145|173:147,1,100,0|0,1:0|0:0,0:0:0:0:
104,213,71506,2,0,P|54:211|11:186,1,100,2|0,0:0|0:0,0:0:0:0:
266,120,71697,6,0,P|286:194|296:328,1,200,0|0,1:0|0:0,0:0:0:0:
183,354,71984,1,2,0:0:0:0:
195,338,72079,2,0,P|238:313|287:311,1,100,0|0,1:0|0:0,0:0:0:0:
378,353,72271,2,0,P|427:354|470:379,1,100,2|0,0:0|0:0,0:0:0:0:
447,168,72462,6,0,P|336:138|216:92,1,200,0|0,1:0|0:0,0:0:0:0:
176,111,72748,1,2,0:0:0:0:
210,38,72844,2,0,P|261:30|342:5,1,100,0|0,1:0|0:0,0:0:0:0:
218,182,73035,2,0,P|166:189|85:214,1,100,2|0,0:0|0:0,0:0:0:0:
265,356,73226,2,0,P|277:307|285:258,1,100,2|0,1:0|0:0,0:0:0:0:
19,237,73417,2,0,P|26:187|39:139,1,100,2|0,0:1|0:0,0:0:0:0:
190,326,73608,6,0,P|137:384|62:345,1,150,2|0,1:0|0:0,0:0:0:0:
51,372,73990,6,0,L|61:299,1,59.9999981689454,10|0,0:0|0:0,0:0:0:0:
10,296,74181,2,0,L|18:236,1,59.9999981689454,8|0,0:0|0:0,0:0:0:0:
120,200,74372,1,8,0:0:0:0:
346,311,75519,5,10,0:0:0:0:
271,338,75646,5,8,0:0:0:0:
284,258,75774,5,8,0:0:0:0:
402,362,75901,6,0,B|435:324|415:278|415:278|435:324|502:327,1,179.999994506836,10|0,0:0|0:0,0:0:0:0:
496,242,76283,6,2,B|418:268|358:212|358:212|392:168|375:115|375:115|344:92|344:92|351:142|308:176,1,350,10|2,0:0|0:0,0:0:0:0:
261,105,77048,5,6,1:0:0:0:
256,44,89277,5,0,1:0:0:0:
219,115,89659,1,0,1:0:0:0:
252,187,89946,1,0,1:0:0:0:
252,187,90041,1,0,1:0:0:0:
331,193,90423,1,0,1:0:0:0:
402,156,90806,1,0,1:0:0:0:
480,169,91188,1,0,1:0:0:0:
506,244,91570,1,0,1:0:0:0:
469,315,91761,1,8,1:0:0:0:
390,328,91952,2,0,P|352:316|314:305,1,80,8|0,1:0|0:0,0:0:0:0:
252,187,92334,5,0,1:0:0:0:
284,114,92716,1,0,1:0:0:0:
264,36,93003,1,0,1:0:0:0:
264,36,93099,1,0,1:0:0:0:
187,11,93481,1,0,1:0:0:0:
108,28,93863,1,0,1:0:0:0:
70,98,94245,1,0,1:0:0:0:
85,176,94627,1,0,1:0:0:0:
157,209,94818,1,8,1:0:0:0:
201,275,95009,1,8,1:0:0:0:
181,352,95200,1,8,1:0:0:0:
106,382,95392,6,0,L|93:280,1,80,0|0,1:0|0:0,0:0:0:0:
201,275,95774,2,0,L|214:173,1,80,0|0,1:0|0:0,0:0:0:0:
316,384,96060,1,0,1:0:0:0:
316,384,96156,2,0,L|303:282,1,80,0|0,1:0|0:0,0:0:0:0:
411,277,96538,2,0,L|424:175,1,80,0|0,1:0|0:0,0:0:0:0:
308,384,96920,2,0,L|295:282,1,80,0|0,1:0|0:0,0:0:0:0:
193,275,97302,2,0,L|206:173,1,80,0|0,1:0|0:0,0:0:0:0:
262,141,97685,5,0,1:0:0:0:
326,187,97876,1,8,1:0:0:0:
382,130,98067,2,0,P|388:78|392:38,1,80,8|0,1:0|0:0,0:0:0:0:
327,1,98449,5,0,1:0:0:0:
249,22,98640,1,0,0:0:0:0:
171,43,98831,1,0,1:0:0:0:
47,153,99118,1,0,1:0:0:0:
47,153,99213,1,0,1:0:0:0:
125,174,99404,1,0,0:0:0:0:
203,195,99595,1,0,1:0:0:0:
125,216,99786,1,0,0:0:0:0:
281,174,99978,5,0,1:0:0:0:
264,257,100169,1,0,0:0:0:0:
47,153,100360,5,0,1:0:0:0:
64,70,100551,1,0,0:0:0:0:
192,304,100742,5,0,1:0:0:0:
109,287,100933,1,0,0:0:0:0:
281,174,101124,5,0,1:0:0:0:
320,180,101220,1,2,0:0:0:0:
343,212,101315,1,2,0:0:0:0:
345,252,101411,1,2,0:0:0:0:
320,283,101506,6,0,P|316:332|321:383,1,100,4|2,1:2|0:3,0:0:0:0:
404,379,101793,1,0,0:0:0:0:
404,379,101888,2,0,L|487:375,1,50,0|0,1:0|0:0,0:0:0:0:
478,300,102079,2,0,L|428:302,1,50,2|0,0:3|0:0,0:0:0:0:
294,210,102271,5,0,1:0:0:0:
343,212,102366,1,0,0:0:0:0:
369,169,102462,1,2,0:3:0:0:
319,167,102557,1,0,0:0:0:0:
303,119,102653,2,0,L|386:115,1,50,0|0,1:0|0:0,0:0:0:0:
378,78,102844,2,0,L|328:80,1,50,2|0,0:3|0:0,0:0:0:0:
243,0,103035,6,0,P|239:24|236:49,1,50,0|0,1:0|0:0,0:0:0:0:
202,138,103226,2,0,L|152:140,1,50,2|0,0:3|0:0,0:0:0:0:
14,78,103417,1,0,1:0:0:0:
64,21,103513,1,0,0:0:0:0:
52,94,103608,1,2,0:3:0:0:
49,108,103704,1,0,0:0:0:0:
46,122,103799,6,0,L|53:205,1,50,0|0,1:0|0:0,0:0:0:0:
202,138,103990,2,0,L|209:221,1,50,10|0,1:0|0:0,0:0:0:0:
25,190,104181,2,0,L|29:248,1,49.9500012194825,10|0,1:0|0:0,0:0:0:0:
87,295,104564,5,0,1:0:0:0:
159,310,104659,1,0,0:0:0:0:
232,325,104755,1,2,0:3:0:0:
304,340,104850,1,0,0:0:0:0:
377,355,104946,1,0,1:0:0:0:
390,347,105041,1,0,0:0:0:0:
402,338,105137,2,0,L|417:263,1,50,2|0,0:3|0:0,0:0:0:0:
303,160,105328,6,0,L|293:209,1,50,0|0,1:0|0:0,0:0:0:0:
419,333,105519,2,0,L|434:258,1,50,2|0,0:3|0:0,0:0:0:0:
320,155,105710,2,0,L|305:230,1,50,0|0,1:0|0:0,0:0:0:0:
436,328,105901,2,0,L|451:253,1,50,2|0,0:3|0:0,0:0:0:0:
394,89,106092,6,0,P|351:62|292:62,1,100,0|2,1:0|0:3,0:0:0:0:
242,111,106379,1,0,0:0:0:0:
242,111,106474,2,0,L|164:104,1,50,0|0,1:0|0:0,0:0:0:0:
157,173,106665,1,2,0:3:0:0:
231,182,106761,1,0,0:0:0:0:
305,192,106857,6,0,L|383:201,1,50,0|0,1:0|0:0,0:0:0:0:
97,233,107048,2,0,L|47:227,1,50,10|0,1:0|0:0,0:0:0:0:
328,269,107239,2,0,L|406:278,1,50,10|0,1:0|0:0,0:0:0:0:
120,310,107430,2,0,L|70:304,1,50,10|0,1:0|0:0,0:0:0:0:
181,361,107621,6,0,P|193:336|198:311,1,50,0|0,1:0|0:0,0:0:0:0:
182,241,107812,1,2,0:3:0:0:
255,255,107907,1,0,0:0:0:0:
328,269,108003,1,0,1:0:0:0:
401,284,108099,1,0,0:0:0:0:
474,298,108194,1,2,0:3:0:0:
481,285,108290,1,0,0:0:0:0:
488,271,108385,6,0,P|496:221|494:171,1,100,0|2,1:0|0:3,0:0:0:0:
485,96,108672,1,0,0:0:0:0:
485,96,108767,2,0,L|472:17,1,50,0|0,1:0|0:0,0:0:0:0:
410,150,108958,2,0,L|418:199,1,50,2|0,0:3|0:0,0:0:0:0:
317,61,109150,6,0,B|249:36|192:103,1,100,0|2,1:0|0:3,0:0:0:0:
199,150,109436,1,0,0:0:0:0:
277,130,109532,2,0,L|350:147,1,50,0|0,1:0|0:0,0:0:0:0:
306,219,109723,2,0,L|257:207,1,50,2|0,0:3|0:0,0:0:0:0:
237,284,109914,6,0,L|286:296,1,50,0|0,1:0|0:0,0:0:0:0:
337,357,110105,2,0,P|361:319|363:301,1,50,10|0,1:0|0:0,0:0:0:0:
184,223,110296,2,0,P|160:261|158:279,1,49.499999848938,10|0,1:0|0:0,0:0:0:0:
181,342,110678,6,0,L|63:317,1,100,0|2,1:0|0:3,0:0:0:0:
9,306,110965,1,0,0:0:0:0:
5,231,111060,1,0,1:0:0:0:
2,155,111156,1,0,0:0:0:0:
0,80,111251,1,2,0:3:0:0:
13,74,111347,1,0,0:0:0:0:
26,68,111443,6,0,L|92:82,1,50,0|0,1:0|0:0,0:0:0:0:
120,144,111634,2,0,L|186:129,1,50,2|0,0:3|0:0,0:0:0:0:
216,68,111825,1,0,1:0:0:0:
281,31,111920,1,0,0:0:0:0:
356,26,112016,1,2,0:3:0:0:
425,52,112111,1,0,0:0:0:0:
469,112,112207,6,0,P|463:164|458:223,1,100,0|2,1:0|0:3,0:0:0:0:
386,231,112493,1,0,0:0:0:0:
390,155,112589,1,0,1:0:0:0:
320,126,112685,1,0,0:0:0:0:
316,202,112780,2,0,P|311:243|307:290,1,50,2|0,0:3|0:0,0:0:0:0:
250,297,112971,5,2,1:0:0:0:
153,324,113162,5,2,0:0:0:0:
51,260,113353,5,2,1:0:0:0:
44,120,113544,5,2,0:0:0:0:
316,202,113736,6,2,L|299:368,1,150.000005722046,6|2,1:0|0:3,0:0:0:0:
373,369,114022,1,0,0:0:0:0:
445,341,114118,2,0,P|470:305|466:252,1,75.0000028610231,0|0,1:0|0:0,0:0:0:0:
434,188,114309,1,2,0:3:0:0:
430,173,114404,1,0,0:0:0:0:
426,158,114500,2,0,P|370:120|364:66,1,75.0000028610231,0|0,1:0|0:0,0:0:0:0:
442,73,114691,2,0,P|476:59|500:30,1,75.0000028610231,2|0,0:3|0:0,0:0:0:0:
296,62,114882,5,0,1:0:0:0:
278,50,114978,1,0,0:0:0:0:
289,31,115074,1,2,0:3:0:0:
308,42,115169,1,0,0:0:0:0:
180,79,115264,5,0,1:0:0:0:
162,67,115360,1,0,0:0:0:0:
173,48,115456,1,2,0:3:0:0:
192,59,115551,1,0,0:0:0:0:
52,116,115646,2,0,P|28:86|23:50,1,75.0000028610231,0|0,1:0|0:0,0:0:0:0:
141,152,115837,2,0,P|117:181|112:217,1,75.0000028610231,2|0,0:3|0:0,0:0:0:0:
134,290,116029,1,0,1:0:0:0:
297,297,116220,6,0,P|320:326|325:362,1,75.0000028610231,2|0,1:0|0:0,0:0:0:0:
208,261,116411,2,0,P|231:231|236:195,1,75.0000028610231,2|2,1:0|0:0,0:0:0:0:
217,122,116602,1,2,0:3:0:0:
241,51,116697,1,0,0:0:0:0:
183,2,116793,6,0,L|90:16,1,75.0000028610231,0|0,1:0|0:0,0:0:0:0:
252,53,116984,2,0,L|326:41,1,75.0000028610231,2|0,0:3|0:0,0:0:0:0:
148,116,117175,2,0,L|241:130,1,75.0000028610231,0|0,1:0|0:0,0:0:0:0:
79,167,117366,2,0,L|4:155,1,75.0000028610231,2|0,0:3|0:0,0:0:0:0:
298,211,117557,6,0,L|205:225,1,75.0000028610231,0|0,1:0|0:0,0:0:0:0:
367,262,117748,2,0,L|441:250,1,75.0000028610231,2|0,0:3|0:0,0:0:0:0:
170,306,117939,2,0,L|263:320,1,75.0000028610231,0|0,1:0|0:0,0:0:0:0:
101,357,118130,2,0,L|26:345,1,75.0000028610231,2|0,0:3|0:0,0:0:0:0:
97,275,118322,5,0,1:0:0:0:
100,260,118417,1,0,0:0:0:0:
100,244,118513,1,2,0:3:0:0:
64,235,118608,1,0,0:0:0:0:
39,207,118704,5,0,1:0:0:0:
82,173,118799,1,0,0:0:0:0:
136,178,118895,1,2,0:3:0:0:
179,144,118990,1,0,0:0:0:0:
260,127,119086,5,2,1:0:0:0:
258,141,119181,1,0,0:0:0:0:
311,206,119277,1,2,0:3:0:0:
325,208,119372,1,0,0:0:0:0:
348,286,119468,5,2,1:0:0:0:
420,291,119563,1,0,0:0:0:0:
474,242,119659,1,2,0:3:0:0:
475,169,119754,1,0,0:0:0:0:
423,119,119850,6,0,P|409:70|508:20,2,150.000005722046,0|2|0,1:0|0:3|1:0,0:0:0:0:
332,90,120328,1,0,0:0:0:0:
328,75,120423,2,0,P|276:70|249:47,1,75.0000028610231,2|0,0:3|0:0,0:0:0:0:
279,157,120614,2,0,P|274:209|251:236,1,75.0000028610231,2|0,1:2|0:0,0:0:0:0:
186,277,120806,2,0,P|134:282|107:305,1,75.0000028610231,2|0,0:3|0:0,0:0:0:0:
137,195,120997,2,0,P|132:143|109:116,1,75.0000028610231,0|0,1:0|0:0,0:0:0:0:
1,217,121188,2,0,P|19:265|48:286,1,75.0000028610231,2|0,0:3|0:0,0:0:0:0:
148,102,121379,6,0,L|-6:78,1,150.000005722046,2|2,1:2|0:3,0:0:0:0:
167,26,121665,1,0,0:0:0:0:
75,122,121761,2,0,L|147:101,1,75.0000028610231,2|0,1:2|0:0,0:0:0:0:
301,54,121952,2,0,L|229:75,1,75.0000028610231,2|0,0:3|0:0,0:0:0:0:
64,201,122143,1,2,1:2:0:0:
201,293,122334,6,0,P|177:322|173:358,1,75.0000028610231,2|0,1:3|0:0,0:0:0:0:
383,300,122525,2,0,P|359:270|355:234,1,75.0000028610231,2|0,1:2|0:0,0:0:0:0:
320,167,122716,1,2,0:3:0:0:
392,146,122812,1,0,0:0:0:0:
427,80,122907,6,0,L|410:-12,1,75.0000028610231,0|0,1:0|0:0,0:0:0:0:
247,148,123099,2,0,L|233:74,1,75.0000028610231,2|0,0:3|0:0,0:0:0:0:
464,233,123290,2,0,L|426:32,1,150.000005722046,2|2,1:0|0:3,0:0:0:0:
341,161,123576,1,0,0:0:0:0:
350,172,123672,6,0,L|333:264,1,75.0000028610231,0|0,1:0|0:0,0:0:0:0:
159,215,123863,2,0,L|142:307,1,75.0000028610231,2|0,0:3|0:0,0:0:0:0:
188,351,124054,1,2,1:0:0:0:
113,360,124149,1,0,0:0:0:0:
39,370,124245,1,2,0:3:0:0:
30,296,124341,1,0,0:0:0:0:
20,222,124437,5,2,1:0:0:0:
34,226,124532,1,0,0:0:0:0:
48,230,124627,2,0,P|72:198|69:140,1,75.0000028610231,2|0,0:3|0:0,0:0:0:0:
31,76,124818,2,0,P|8:46|2:10,1,75.0000028610231,0|0,1:0|0:0,0:0:0:0:
170,140,125009,1,2,0:3:0:0:
170,140,125105,1,0,0:0:0:0:
170,140,125200,2,0,L|263:127,3,75.0000028610231,2|2|2|2,1:0|0:0|0:3|0:0,0:0:0:0:
395,37,125583,5,2,1:0:0:0:
456,100,125678,1,2,0:0:0:0:
415,177,125774,1,2,0:3:0:0:
327,161,125869,1,2,0:0:0:0:
316,75,125965,1,0,1:0:0:0:
323,82,126347,6,2,P|216:70|99:59,1,225.000008583069,6|2,1:0|0:0,0:0:0:0:
29,104,126729,2,0,P|13:158|85:203,1,150.000005722046,0|2,1:0|0:3,0:0:0:0:
158,172,127016,1,0,0:0:0:0:
236,197,127111,1,0,1:0:0:0:
247,208,127207,1,0,0:0:0:0:
258,218,127302,2,0,L|228:326,1,75.0000028610231,2|0,0:3|0:0,0:0:0:0:
145,327,127493,6,0,L|165:254,1,75.0000028610231,2|0,1:3|0:0,0:0:0:0:
350,181,127685,1,2,0:3:0:0:
329,260,127780,1,2,0:0:0:0:
408,281,127876,1,2,1:2:0:0:
429,202,127972,1,2,0:0:0:0:
450,123,128067,1,2,0:3:0:0:
444,109,128162,1,2,0:0:0:0:
438,95,128258,6,0,L|319:59,1,75.0000028610231,2|0,1:0|0:0,0:0:0:0:
278,159,128449,2,0,L|397:195,1,75.0000028610231,10|0,1:0|0:0,0:0:0:0:
479,302,128640,2,0,L|407:280,1,75,10|0,1:0|0:0,0:0:0:0:
483,378,129022,5,0,1:0:0:0:
476,384,129213,2,0,L|404:362,1,75.0000028610231,2|0,0:3|0:0,0:0:0:0:
324,338,129404,1,0,1:0:0:0:
244,314,129500,1,0,0:0:0:0:
165,290,129595,1,2,0:3:0:0:
85,266,129691,1,0,0:0:0:0:
6,243,129786,1,2,1:2:0:0:
4,258,129882,1,0,0:0:0:0:
2,272,129978,2,0,L|33:163,1,75.0000028610231,2|0,0:3|0:0,0:0:0:0:
109,187,130169,5,2,1:2:0:0:
85,266,130264,1,0,0:0:0:0:
61,346,130360,1,2,0:3:0:0:
71,356,130455,1,0,0:0:0:0:
82,366,130551,2,0,L|154:387,1,75.0000028610231,0|0,1:0|0:0,0:0:0:0:
260,232,130742,2,0,L|188:211,1,75.0000028610231,2|0,0:3|0:0,0:0:0:0:
85,266,130933,2,0,L|157:287,1,75.0000028610231,0|0,1:0|0:0,0:0:0:0:
263,132,131124,2,0,L|191:111,1,75.0000028610231,2|0,0:3|0:0,0:0:0:0:
17,72,131315,5,2,1:0:0:0:
32,13,131411,1,2,0:0:0:0:
90,26,131506,1,2,0:3:0:0:
75,85,131602,1,2,0:0:0:0:
133,98,131697,1,2,1:0:0:0:
148,39,131793,1,2,0:0:0:0:
206,52,131888,1,2,0:3:0:0:
191,111,131984,1,2,0:0:0:0:
249,124,132079,5,0,1:0:0:0:
244,133,132462,2,2,P|354:112|465:93,1,225.000008583069,6|0,1:0|0:0,0:0:0:0:
477,10,132844,1,0,1:0:0:0:
395,21,132939,1,0,0:0:0:0:
313,37,133035,1,2,0:3:0:0:
330,117,133130,1,0,0:0:0:0:
347,197,133226,1,0,1:0:0:0:
369,193,133322,1,0,0:0:0:0:
391,189,133417,1,2,0:3:0:0:
413,185,133513,1,0,0:0:0:0:
435,181,133608,6,0,P|449:241|460:329,1,150.000005722046,0|2,1:0|0:3,0:0:0:0:
381,355,133895,1,0,0:0:0:0:
370,273,133990,2,0,P|332:277|296:285,1,75.0000028610231,0|0,1:0|0:0,0:0:0:0:
306,367,134181,2,0,P|269:375|232:379,1,75.0000028610231,2|0,0:3|0:0,0:0:0:0:
218,297,134372,5,0,1:0:0:0:
204,215,134468,1,0,0:0:0:0:
191,133,134564,2,0,P|227:124|264:120,1,75.0000028610231,10|0,1:0|0:0,0:0:0:0:
370,273,134755,2,0,P|333:281|296:285,1,75.0000028610231,10|0,1:0|0:0,0:0:0:0:
186,218,135137,5,0,1:0:0:0:
204,215,135232,1,0,0:0:0:0:
223,212,135328,1,2,0:3:0:0:
241,210,135423,1,0,0:0:0:0:
260,207,135519,1,0,1:0:0:0:
278,205,135614,1,0,0:0:0:0:
297,202,135710,1,2,0:3:0:0:
316,200,135805,1,0,0:0:0:0:
334,197,135901,2,0,L|431:184,3,75.0000028610231,0|0|2|0,1:0|0:0|0:3|0:0,0:0:0:0:
408,187,136283,2,0,L|417:261,1,75.0000028610231,0|0,1:0|0:0,0:0:0:0:
506,251,136474,2,0,L|496:176,1,75.0000028610231,2|0,0:3|0:0,0:0:0:0:
476,27,136665,5,2,1:0:0:0:
473,41,136761,1,0,0:0:0:0:
488,39,136857,1,2,0:3:0:0:
493,25,136952,1,0,0:0:0:0:
486,11,137048,1,2,1:0:0:0:
471,9,137143,1,0,0:0:0:0:
458,17,137239,1,2,0:3:0:0:
456,31,137334,1,0,0:0:0:0:
461,45,137430,6,0,P|466:74|473:122,1,75.0000028610231,2|0,1:0|0:0,0:0:0:0:
297,202,137621,2,0,P|292:173|285:125,1,75.0000028610231,2|0,0:3|0:0,0:0:0:0:
147,36,137812,1,2,1:0:0:0:
129,116,137907,1,0,0:0:0:0:
111,197,138003,1,2,1:0:0:0:
93,278,138099,1,0,0:0:0:0:
76,358,138194,6,0,P|172:333|279:315,1,200,4|0,1:0|0:0,0:0:0:0:
350,330,138481,1,2,0:0:0:0:
380,256,138576,2,0,P|324:245|262:226,1,100,0|0,1:0|0:0,0:0:0:0:
447,360,138767,2,0,P|460:311|469:262,1,100,2|0,0:0|0:0,0:0:0:0:
198,238,138958,2,0,P|208:193|257:153,1,100,0|0,1:0|0:0,0:0:0:0:
471,159,139150,2,0,P|429:133|380:128,1,100,2|0,0:0|0:0,0:0:0:0:
282,233,139341,1,0,1:0:0:0:
253,159,139436,1,2,0:0:0:0:
272,83,139532,1,2,0:0:0:0:
332,32,139627,1,2,0:0:0:0:
411,25,139723,5,0,1:0:0:0:
411,25,139818,1,0,0:0:0:0:
476,106,139914,2,0,P|426:110|355:143,1,100,2|0,0:0|0:0,0:0:0:0:
360,252,140105,5,0,1:0:0:0:
472,308,140200,1,2,0:0:0:0:
361,331,140296,1,2,0:0:0:0:
438,236,140392,1,2,0:0:0:0:
358,337,140487,1,0,1:0:0:0:
127,198,140678,6,0,L|-9:181,1,100,10|0,1:0|0:0,0:0:0:0:
272,110,140869,2,0,L|305:-1,1,100,10|0,1:0|0:0,0:0:0:0:
276,279,141060,2,0,L|309:397,1,100,2|0,1:0|0:0,0:0:0:0:
240,186,141251,6,0,P|162:113|204:-12,1,200,0|0,1:0|0:0,0:0:0:0:
417,129,141538,1,2,0:0:0:0:
410,149,141634,2,0,P|375:217|334:255,1,100,0|0,1:0|0:0,0:0:0:0:
499,71,141825,2,0,P|440:49|384:4,1,100,2|0,0:0|0:0,0:0:0:0:
291,357,142016,6,0,P|343:331|450:319,1,100,0|0,1:0|0:0,0:0:0:0:
461,164,142207,2,0,L|337:182,1,100,2|0,0:0|0:0,0:0:0:0:
152,222,142398,2,0,L|277:252,1,100,2|0,1:2|0:0,0:0:0:0:
512,370,142589,2,0,P|477:301|436:263,1,100,2|0,0:0|0:0,0:0:0:0:
238,145,142780,5,2,1:2:0:0:
220,156,142876,1,0,0:0:0:0:
210,138,142971,1,0,0:0:0:0:
227,128,143067,1,0,0:0:0:0:
138,197,143162,5,2,1:2:0:0:
118,121,143257,1,0,0:0:0:0:
156,53,143353,1,2,0:0:0:0:
231,32,143448,1,0,0:0:0:0:
300,68,143544,6,0,P|340:117|390:22,1,200,0|2,1:0|0:0,0:0:0:0:
241,323,143927,2,0,P|201:274|151:369,1,200,0|2,1:0|0:0,0:0:0:0:
498,291,144309,6,0,P|406:255|264:214,1,200,0|0,1:0|0:0,0:0:0:0:
233,200,144595,1,2,0:0:0:0:
346,138,144691,2,0,P|386:169|403:215,1,100,0|0,1:0|0:0,0:0:0:0:
246,284,144882,2,0,P|228:330|213:378,1,100,2|0,0:0|0:0,0:0:0:0:
64,267,145073,2,0,P|14:149|60:8,1,200,0|0,1:0|0:0,0:0:0:0:
53,6,145360,1,2,0:0:0:0:
119,47,145455,2,0,P|150:87|161:135,1,100,0|0,1:0|0:0,0:0:0:0:
356,62,145646,2,0,L|225:24,1,100,2|0,0:0|0:0,0:0:0:0:
139,221,145837,5,0,1:0:0:0:
139,221,145933,1,0,0:0:0:0:
219,206,146029,2,0,L|350:244,1,100,2|0,0:0|0:0,0:0:0:0:
503,120,146220,5,0,1:0:0:0:
429,219,146315,1,2,0:0:0:0:
405,136,146411,1,2,0:0:0:0:
507,208,146506,1,2,0:0:0:0:
397,131,146602,1,0,1:0:0:0:
483,287,146793,6,0,L|450:405,1,100,10|0,1:0|0:0,0:0:0:0:
317,149,146984,2,0,L|285:14,1,100,10|0,1:0|0:0,0:0:0:0:
160,278,147175,2,0,L|130:399,1,100,2|0,1:0|0:0,0:0:0:0:
221,116,147366,6,0,P|125:104|75:-48,1,200,0|0,1:0|0:0,0:0:0:0:
0,242,147653,1,2,0:0:0:0:
18,234,147748,2,0,P|77:211|155:212,1,100,0|0,1:0|0:0,0:0:0:0:
287,343,147939,1,2,0:0:0:0:
270,354,148035,1,2,0:0:0:0:
250,358,148130,2,0,P|233:309|220:192,1,100,0|0,1:0|0:0,0:0:0:0:
454,191,148322,2,0,P|471:240|484:357,1,100,2|0,0:0|0:0,0:0:0:0:
197,263,148513,2,0,L|239:106,1,100,0|0,1:0|0:0,0:0:0:0:
364,361,148704,2,0,L|406:204,1,100,2|0,0:0|0:0,0:0:0:0:
404,122,148895,5,0,1:0:0:0:
423,120,148990,1,2,0:0:0:0:
441,112,149086,1,2,0:0:0:0:
455,98,149181,1,2,0:0:0:0:
444,7,149277,1,0,1:0:0:0:
367,29,149372,1,2,0:0:0:0:
327,96,149467,1,2,0:0:0:0:
338,174,149563,1,2,0:0:0:0:
394,228,149659,6,0,P|446:217|523:208,1,100,2|0,1:0|0:0,0:0:0:0:
158,322,149850,2,0,P|106:310|29:301,1,100,2|0,1:0|0:0,0:0:0:0:
302,371,150041,2,0,P|264:227|207:88,1,300,2|0,1:0|0:0,0:0:0:0:
98,18,150423,6,0,P|100:50|112:81,3,50,12|0|0|0,1:0|0:0|0:0|0:0,0:0:0:0:
145,135,150806,2,0,P|169:156|199:169,3,50,8|0|0|0,0:1|0:0|0:0|0:0,0:0:0:0:
260,184,151188,2,0,P|292:181|322:170,1,50,8|0,0:1|0:0,0:0:0:0:
377,137,151379,2,0,P|398:112|411:82,1,50,8|0,0:1|0:0,0:0:0:0:
379,216,151570,2,0,P|371:237|362:294,3,50,8|0|0|0,0:1|0:0|0:0|0:0,0:0:0:0:
401,382,151952,6,0,P|381:356|354:336,3,50,12|0|0|0,1:0|0:3|0:3|0:3,0:3:0:0:
297,308,152334,2,0,P|264:303|232:308,3,50,8|0|0|0,0:1|0:3|0:3|0:3,0:3:0:0:
168,310,152716,2,0,P|143:311|118:307,1,50,8|0,0:1|0:3,0:3:0:0:
47,269,152907,2,0,P|28:252|14:231,1,50,8|0,0:1|0:3,0:3:0:0:
225,183,153099,2,0,P|221:207|208:242,3,50,8|0|0|0,0:1|0:3|0:3|0:3,0:3:0:0:
99,129,153481,6,0,L|87:80,3,50,12|0|0|0,1:0|0:3|0:3|0:3,0:3:0:0:
128,242,153863,2,2,L|139:290,3,50,8|0|0|0,2:1|2:0|2:0|2:0,2:0:0:0:
0,186,154245,2,0,L|48:197,1,50,12|0,1:0|0:3,0:3:0:0:
212,230,154436,2,0,L|261:242,1,50,8|0,0:1|0:3,0:3:0:0:
339,261,154627,2,2,L|387:272,3,50,8|0|0|0,2:1|2:0|2:0|2:0,2:0:0:0:
497,349,155009,6,2,P|474:297|472:253,1,100,12|0,1:0|0:0,0:0:0:0:
361,355,155296,1,8,0:1:0:0:
361,355,155392,2,0,L|409:366,1,50,12|0,1:0|0:3,0:3:0:0:
272,370,155583,2,0,P|286:312|280:275,1,50,8|0,0:1|0:0,0:0:0:0:
222,213,155774,6,2,L|106:181,1,75.0000028610231,4|0,1:0|0:0,0:0:0:0:
44,240,155965,2,0,P|17:326|17:344,1,75.0000028610231,12|0,1:2|0:0,0:0:0:0:
222,213,156156,2,0,P|249:127|249:109,1,75.0000028610231,12|0,1:2|0:0,0:0:0:0:
174,122,156347,1,12,1:2:0:0:
109,83,156443,1,0,0:0:0:0:
70,18,156538,5,4,1:0:0:0:
107,163,156729,1,0,0:0:0:0:
1,270,156920,2,0,L|73:198,1,75.0000028610231,0|0,1:0|0:0,0:0:0:0:
112,167,157111,1,0,0:0:0:0:
254,213,157302,1,0,1:0:0:0:
165,293,157493,1,0,0:0:0:0:
207,329,157588,1,0,0:0:0:0:
262,339,157684,1,0,1:0:0:0:
314,321,157779,1,0,0:0:0:0:
349,278,157875,1,0,0:0:0:0:
254,213,158067,5,0,1:0:0:0:
392,344,158258,1,0,0:0:0:0:
495,207,158449,1,0,1:0:0:0:
314,321,158641,1,0,0:0:0:0:
472,336,158831,5,0,1:0:0:0:
254,213,159022,2,0,B|229:288|314:321|314:321|304:253|374:216,2,250,2|0|2,0:1|1:0|0:1,0:0:0:0:
396,303,159595,5,0,1:0:0:0:
323,123,159786,1,0,0:0:0:0:
171,247,159978,2,0,P|76:253|49:199,1,150.000005722046,0|0,1:0|0:0,0:0:0:0:
152,32,160359,2,0,B|211:122|131:184|131:184|126:180|126:180|65:232|95:326,1,300.000011444092,0|0,1:0|1:0,0:0:0:0:
0,144,160933,1,0,0:0:0:0:
323,123,161124,5,0,1:0:0:0:
171,247,161315,1,0,0:0:0:0:
323,123,161506,1,0,1:0:0:0:
303,318,161697,1,0,0:0:0:0:
476,12,161888,5,2,1:0:0:0:
372,267,162079,2,0,L|495:293,1,100,2|0,1:0|0:0,0:0:0:0:
363,33,162271,2,0,L|240:59,1,100,2|0,1:0|0:0,0:0:0:0:
185,164,162462,2,0,L|62:138,1,100,2|0,1:0|0:0,0:0:0:0:
0,40,162653,6,0,L|57:27,1,44.999998626709,0|0,1:0|0:0,0:0:0:0:
185,164,163035,6,0,P|144:65|70:187,1,300,6|0,1:0|0:0,0:0:0:0:
48,192,163417,6,0,P|134:197|196:247,1,150.000005722046,0|0,1:0|0:0,0:0:0:0:
267,219,163704,1,0,0:0:0:0:
267,219,163799,2,0,P|264:254|248:291,1,75.0000028610231,0|0,1:0|0:0,0:0:0:0:
83,290,163990,2,0,L|-10:267,1,75.0000028610231
132,360,164181,5,0,1:0:0:0:
206,348,164277,1,0,0:0:0:0:
279,336,164372,2,0,L|405:314,1,75.0000028610231
188,106,164564,1,0,1:0:0:0:
177,180,164659,1,0,0:0:0:0:
237,227,164755,1,0,0:0:0:0:
252,224,164850,1,0,0:0:0:0:
267,219,164946,6,0,L|287:107,1,75.0000028610231,0|0,1:0|0:0,0:0:0:0:
422,65,165137,2,0,L|348:78,1,75.0000028610231,2|0,1:0|0:0,0:0:0:0:
177,180,165328,2,0,L|102:166,1,75,2|0,1:0|0:0,0:0:0:0:
8,136,165710,6,0,P|93:-5|219:100,1,375,0|0,1:0|0:0,0:0:0:0:
264,96,166092,1,0,1:0:0:0:
260,120,166188,1,2,0:0:0:0:
256,144,166283,1,2,0:0:0:0:
252,168,166379,1,2,0:0:0:0:
394,195,166474,6,0,P|338:99|251:167,1,250,0|0,1:0|0:0,0:0:0:0:
169,208,166761,1,2,0:0:0:0:
175,232,166857,2,0,P|225:248|299:257,1,125,0|0,1:0|0:0,0:0:0:0:
396,336,167048,2,0,P|333:342|274:360,1,125,2|0,0:0|0:0,0:0:0:0:
180,384,167239,5,0,1:0:0:0:
332,0,167430,1,2,0:0:0:0:
371,264,167621,5,0,1:0:0:0:
141,120,167812,1,2,0:0:0:0:
256,328,168003,5,2,1:0:0:0:
256,328,168385,1,2,1:0:0:0:
452,128,168767,6,0,P|352:139|247:154,1,200,4|0,1:0|0:0,0:0:0:0:
264,232,169054,1,2,0:0:0:0:
344,226,169150,2,0,P|333:126|318:21,1,200,0|2,1:0|0:0,0:0:0:0:
160,44,169436,1,2,0:0:0:0:
160,44,169532,2,0,P|171:144|186:249,1,200,0|0,1:0|0:0,0:0:0:0:
264,232,169819,1,2,0:0:0:0:
253,152,169915,2,0,P|153:163|48:178,1,200,0|2,1:0|0:0,0:0:0:0:
5,238,170200,1,2,0:0:0:0:
12,242,170296,6,0,P|17:292|24:344,1,100,0|0,1:0|0:0,0:0:0:0:
172,143,170487,2,0,P|167:93|160:43,1,100,2|0,0:0|0:0,0:0:0:0:
92,251,170678,2,0,P|97:301|104:353,1,100,0|0,1:0|0:0,0:0:0:0:
253,152,170869,2,0,P|247:102|240:52,1,100,2|0,0:0|0:0,0:0:0:0:
172,260,171060,5,0,1:0:0:0:
461,78,171251,1,10,1:0:0:0:
253,357,171443,2,0,B|219:282|280:209|316:266|386:177|320:83,1,300,10|0,1:0|0:0,0:0:0:0:
253,152,171825,6,0,B|241:215|307:248|312:205|369:231|368:288,1,200,0|0,1:0|0:0,0:0:0:0:
333,358,172111,1,2,0:0:0:0:
409,381,172207,1,0,1:0:0:0:
479,344,172302,1,0,0:0:0:0:
451,268,172398,1,2,0:0:0:0:
502,207,172493,1,2,0:0:0:0:
470,132,172589,2,0,P|423:105|354:77,1,100,0|0,1:0|0:0,0:0:0:0:
333,149,172780,2,0,P|378:169|422:195,1,100,2|0,0:0|0:0,0:0:0:0:
309,278,172971,2,0,P|262:305|193:333,1,100,0|0,1:0|0:0,0:0:0:0:
172,260,173162,2,0,P|217:239|260:214,1,100,2|0,0:0|0:0,0:0:0:0:
255,133,173353,5,0,1:0:0:0:
250,52,173449,1,0,0:0:0:0:
184,7,173544,1,0,0:0:0:0:
105,23,173640,1,0,0:0:0:0:
65,93,173736,1,2,1:2:0:0:
84,138,173831,1,0,0:0:0:0:
133,142,173927,1,2,0:0:0:0:
114,97,174022,1,0,0:0:0:0:
98,117,174118,6,0,P|99:170|104:222,1,100,0|0,1:0|0:0,0:0:0:0:
81,284,174309,2,0,P|126:256|188:269,1,100,2|0,0:0|0:0,0:0:0:0:
328,275,174500,2,0,P|327:222|322:170,1,100,0|0,1:0|0:0,0:0:0:0:
345,108,174691,2,0,P|300:136|238:123,1,100,2|0,0:0|0:0,0:0:0:0:
217,335,174882,6,0,P|356:299|442:298,1,200,0|0,1:0|0:0,0:0:0:0:
457,362,175169,1,2,0:0:0:0:
378,376,175264,2,0,P|331:371|301:330,1,100,0|0,1:0|0:0,0:0:0:0:
412,211,175455,2,0,P|459:216|489:257,1,100,2|0,0:0|0:0,0:0:0:0:
326,217,175646,2,0,P|228:197|130:181,1,200,0|0,1:0|0:0,0:0:0:0:
66,229,175933,1,2,0:0:0:0:
139,261,176029,1,0,1:0:0:0:
167,186,176124,1,0,0:0:0:0:
196,111,176220,1,2,0:0:0:0:
213,101,176315,1,2,0:0:0:0:
230,91,176411,6,0,P|291:80|406:78,1,100,0|0,1:0|0:0,0:0:0:0:
510,196,176602,2,0,P|449:207|334:209,1,100,2|0,0:0|0:0,0:0:0:0:
232,168,176793,2,0,P|293:157|408:155,1,100,0|0,1:0|0:0,0:0:0:0:
512,273,176984,2,0,P|451:284|336:286,1,100,2|0,0:0|0:0,0:0:0:0:
178,258,177175,5,0,1:0:0:0:
512,384,177366,1,10,1:0:0:0:
132,334,177557,2,0,B|80:271|110:201|110:201|58:131,1,200,10|0,1:0|0:0,0:0:0:0:
24,93,177844,1,2,0:0:0:0:
0,168,177939,6,0,P|105:184|233:143,1,200,0|0,1:0|0:0,0:0:0:0:
258,113,178226,1,2,0:0:0:0:
292,40,178322,1,0,1:0:0:0:
282,118,178417,1,0,0:0:0:0:
271,197,178513,1,2,0:0:0:0:
276,205,178608,1,2,0:0:0:0:
281,213,178704,2,0,B|349:215|429:243|429:243|490:230,1,200,0|0,1:0|0:0,0:0:0:0:
493,155,178990,1,2,0:0:0:0:
415,135,179086,2,0,P|402:180|396:251,1,100,0|0,1:0|0:0,0:0:0:0:
446,343,179277,5,2,0:0:0:0:
373,310,179372,1,2,0:0:0:0:
294,294,179468,2,0,B|216:307|169:365|169:365|102:355,1,200,0|0,1:0|0:0,0:0:0:0:
37,343,179755,1,2,0:0:0:0:
30,350,179850,2,0,P|27:301|23:248,1,100,0|0,1:0|0:0,0:0:0:0:
195,139,180041,2,0,P|199:188|201:238,1,100,2|0,0:0|0:0,0:0:0:0:
116,357,180232,6,0,P|111:307|109:257,1,100,2|0,1:0|0:0,0:0:0:0:
281,213,180423,2,0,P|278:163|274:113,1,100,10|0,1:0|0:0,0:0:0:0:
44,169,180614,2,0,P|39:119|37:69,1,100,10|0,1:0|0:0,0:0:0:0:
188,39,180806,2,0,P|192:89|195:139,1,100,10|0,1:0|0:0,0:0:0:0:
271,356,180997,6,0,P|171:318|68:313,1,200,6|0,1:0|0:0,0:0:0:0:
159,233,181283,1,2,0:0:0:0:
159,233,181379,2,0,P|214:219|320:205,1,100,0|0,1:0|0:0,0:0:0:0:
337,235,181570,1,2,0:0:0:0:
411,206,181665,1,2,0:0:0:0:
432,128,181761,2,0,P|421:81|408:20,1,100,0|0,1:0|0:0,0:0:0:0:
341,245,181952,2,0,P|352:292|365:353,1,100,2|0,0:0|0:0,0:0:0:0:
190,251,182143,2,0,P|179:204|166:143,1,100,0|0,1:0|0:0,0:0:0:0:
34,287,182334,2,0,P|45:334|58:395,1,100,2|0,0:0|0:0,0:0:0:0:
152,189,182525,5,0,1:0:0:0:
79,153,182621,1,0,0:0:0:0:
8,115,182716,2,0,P|56:105|156:63,1,100,2|0,0:0|0:0,0:0:0:0:
340,34,182907,5,0,1:0:0:0:
231,56,183003,1,2,0:0:0:0:
339,77,183099,1,2,0:0:0:0:
248,18,183194,1,2,0:0:0:0:
273,146,183290,1,0,1:0:0:0:
502,79,183481,6,0,P|452:82|415:114,1,100,10|0,1:0|0:0,0:0:0:0:
364,336,183672,2,0,P|398:300|404:252,1,100,10|0,1:0|0:0,0:0:0:0:
161,271,183863,2,0,P|131:303|141:386,1,100,2|0,1:0|0:0,0:0:0:0:
40,108,184054,6,0,P|108:178|205:187,1,200,0|0,1:0|0:0,0:0:0:0:
335,194,184341,1,2,0:0:0:0:
335,194,184436,2,0,P|281:278|248:372,1,200,0|2,1:0|0:0,0:0:0:0:
483,9,184818,2,0,L|366:39,1,100,0|0,1:0|0:0,0:0:0:0:
416,243,185009,2,0,L|533:213,1,100,2|0,0:0|0:0,0:0:0:0:
327,105,185200,2,0,P|281:78|187:70,1,100,0|0,1:0|0:0,0:0:0:0:
166,144,185392,2,0,P|117:154|74:180,1,100,2|0,0:0|0:0,0:0:0:0:
115,316,185583,5,0,1:0:0:0:
191,336,185678,1,0,0:0:0:0:
269,353,185774,1,0,0:0:0:0:
346,369,185869,1,0,0:0:0:0:
409,320,185965,1,2,1:2:0:0:
310,334,186060,1,0,0:0:0:0:
211,348,186156,1,2,0:0:0:0:
112,362,186251,1,0,0:0:0:0:
29,306,186347,6,0,P|2:269|2:208,1,100,0|0,1:0|0:0,0:0:0:0:
123,174,186538,2,0,P|133:123|136:74,1,100,2|0,0:0|0:0,0:0:0:0:
285,232,186729,2,0,P|258:195|258:134,1,100,0|0,1:0|0:0,0:0:0:0:
379,100,186920,2,0,P|389:49|392:0,1,100,2|0,0:0|0:0,0:0:0:0:
369,300,187111,6,0,P|457:341|482:262,1,200,0|0,1:0|0:0,0:0:0:0:
301,359,187398,1,2,0:0:0:0:
301,359,187493,2,0,P|252:341|205:330,1,100,0|0,1:0|0:0,0:0:0:0:
168,257,187685,1,2,0:0:0:0:
93,284,187780,1,2,0:0:0:0:
32,231,187876,2,0,P|15:169|4:103,1,100,0|0,1:0|0:0,0:0:0:0:
176,268,188067,2,0,P|192:329|203:395,1,100,2|0,0:0|0:0,0:0:0:0:
310,131,188258,2,0,P|293:69|282:3,1,100,0|0,1:0|0:0,0:0:0:0:
429,287,188449,2,0,P|445:348|456:414,1,100,2|0,0:0|0:0,0:0:0:0:
260,242,188640,5,0,1:0:0:0:
338,220,188736,1,0,0:0:0:0:
414,196,188831,2,0,P|473:185|529:179,1,100,2|0,0:0|0:0,0:0:0:0:
227,99,189022,5,0,1:0:0:0:
330,141,189118,1,2,0:0:0:0:
364,62,189214,1,2,0:0:0:0:
296,148,189309,1,2,0:0:0:0:
282,34,189405,1,0,1:0:0:0:
33,183,189595,6,0,P|1:145|0:96,1,100,10|0,1:0|0:0,0:0:0:0:
165,22,189786,2,0,P|196:59|199:108,1,100,10|0,1:0|0:0,0:0:0:0:
16,368,189978,2,0,P|18:318|49:280,1,100,2|0,1:0|0:0,0:0:0:0:
132,187,190169,6,0,P|259:216|337:242,1,200,0|0,1:0|0:0,0:0:0:0:
511,176,190455,1,2,0:0:0:0:
511,176,190551,2,0,P|464:191|415:200,1,100,0|0,1:0|0:0,0:0:0:0:
325,344,190742,2,0,P|372:360|418:385,1,100,2|0,0:0|0:0,0:0:0:0:
452,109,190933,2,0,P|424:49|377:13,1,100,0|0,1:0|0:0,0:0:0:0:
301,333,191124,2,0,P|350:326|393:301,1,100,2|0,0:0|0:0,0:0:0:0:
331,83,191315,2,0,P|278:92|190:127,1,100,0|0,1:0|0:0,0:0:0:0:
221,310,191506,2,0,P|168:319|80:354,1,100,2|0,0:0|0:0,0:0:0:0:
50,364,191697,5,0,1:0:0:0:
16,293,191792,1,2,0:0:0:0:
34,216,191888,1,2,0:0:0:0:
97,169,191983,1,2,0:0:0:0:
177,165,192079,1,0,1:0:0:0:
253,188,192175,1,2,0:0:0:0:
320,229,192270,1,2,0:0:0:0:
399,226,192366,1,2,0:0:0:0:
464,180,192461,5,0,1:0:0:0:
465,169,192557,1,2,0:0:0:0:
403,116,192653,6,0,B|442:83|442:83|489:93,1,100,0|0,1:0|0:0,0:0:0:0:
495,346,192844,2,0,L|397:325,1,100,0|0,1:0|0:0,0:0:0:0:
283,302,193035,2,0,L|185:281,1,100,0|0,1:0|0:0,0:0:0:0:
97,169,193226,5,4,1:0:0:0:
77,246,193322,1,0,0:0:0:0:
63,324,193417,2,0,P|60:271|55:211,1,100,2|0,1:3|0:0,0:0:0:0:
224,78,193608,5,0,1:0:0:0:
200,170,193704,1,0,0:0:0:0:
183,264,193799,2,0,P|179:200|173:128,1,100,2|0,1:3|0:0,0:0:0:0:
81,166,193990,5,0,1:0:0:0:
59,251,194086,1,0,0:0:0:0:
43,337,194181,2,0,P|40:278|34:212,1,100,2|0,1:3|0:0,0:0:0:0:
220,66,194372,5,0,1:0:0:0:
194,167,194468,1,0,0:0:0:0:
175,271,194563,2,0,P|171:201|165:122,1,100,2|0,1:3|0:0,0:0:0:0:
61,163,194755,5,0,1:0:0:0:
37,256,194851,1,0,0:0:0:0:
19,351,194946,2,0,P|16:286|9:214,1,100,2|0,1:3|0:0,0:0:0:0:
214,53,195137,5,0,1:0:0:0:
185,164,195233,1,0,0:0:0:0:
164,278,195328,2,0,P|160:201|153:115,1,100,2|0,1:3|0:0,0:0:0:0:
345,105,195519,6,0,P|349:182|356:269,1,100,0|0,1:0|0:0,0:0:0:0:
468,356,195710,2,0,P|399:321|320:283,1,100,8|0,1:0|0:0,0:0:0:0:
189,336,195901,2,0,P|253:293|325:244,1,100,10|0,1:0|0:0,0:0:0:0:
498,222,196092,1,2,1:2:0:0:
420,243,196188,1,2,1:2:0:0:
351,204,196283,6,0,P|247:162|122:186,1,200,0|2,1:0|0:3,0:0:0:0:
92,211,196570,1,0,0:0:0:0:
71,287,196665,1,0,1:0:0:0:
133,338,196761,1,0,0:0:0:0:
207,308,196857,1,2,0:3:0:0:
225,301,196952,1,0,0:0:0:0:
242,291,197048,6,0,L|252:192,1,100,0|0,1:0|0:0,0:0:0:0:
171,70,197239,2,0,L|161:169,1,100,2|0,0:3|0:0,0:0:0:0:
340,303,197430,2,0,L|350:204,1,100,0|0,1:0|0:0,0:0:0:0:
269,82,197621,2,0,L|259:181,1,100,2|0,0:3|0:0,0:0:0:0:
425,264,197812,5,0,1:0:0:0:
433,184,197907,1,0,0:0:0:0:
441,104,198003,1,2,0:3:0:0:
450,24,198099,1,0,0:0:0:0:
370,17,198194,2,0,L|360:116,1,100,0|0,1:0|0:0,0:0:0:0:
349,203,198385,1,2,0:3:0:0:
349,203,198481,1,0,0:0:0:0:
349,203,198576,6,0,P|345:154|301:122,1,100,0|0,1:0|0:0,0:0:0:0:
118,90,198767,2,0,P|122:138|166:171,1,100,2|0,0:3|0:0,0:0:0:0:
359,116,198958,2,0,P|321:84|267:93,1,100,0|0,1:0|0:0,0:0:0:0:
108,177,199150,2,0,P|145:208|199:199,1,100,2|0,0:3|0:0,0:0:0:0:
415,215,199341,5,4,1:0:0:0:
435,138,199437,1,0,0:0:0:0:
449,60,199532,2,0,P|452:113|457:173,1,100,2|0,1:3|0:0,0:0:0:0:
288,306,199723,5,0,1:0:0:0:
312,214,199819,1,0,0:0:0:0:
329,120,199914,2,0,P|333:184|339:256,1,100,2|0,1:3|0:0,0:0:0:0:
431,218,200105,5,0,1:0:0:0:
453,133,200201,1,0,0:0:0:0:
469,47,200296,2,0,P|472:106|478:172,1,100,2|0,1:3|0:0,0:0:0:0:
292,318,200487,5,0,1:0:0:0:
318,217,200583,1,0,0:0:0:0:
337,113,200678,2,0,P|341:183|347:262,1,100,2|0,1:3|0:0,0:0:0:0:
451,220,200870,5,0,1:0:0:0:
475,127,200966,1,0,0:0:0:0:
493,32,201061,2,0,P|496:97|503:169,1,100,2|0,1:3|0:0,0:0:0:0:
296,331,201252,5,0,1:0:0:0:
325,220,201348,1,0,0:0:0:0:
346,106,201443,2,0,P|350:183|357:269,1,100,2|0,1:3|0:0,0:0:0:0:
208,384,201634,6,0,P|196:333|188:285,1,100,0|0,1:0|0:0,0:0:0:0:
258,125,201825,2,0,P|219:160|182:191,1,100,10|0,1:0|0:0,0:0:0:0:
8,211,202016,2,0,P|58:226|102:243,1,100,10|0,1:0|0:0,0:0:0:0:
280,244,202207,1,2,1:2:0:0:
280,244,202302,1,2,1:2:0:0:
280,244,202398,6,0,P|296:122|306:-8,1,200,0|2,1:0|0:3,0:0:0:0:
222,36,202685,1,0,0:0:0:0:
212,114,202780,1,0,1:0:0:0:
202,193,202876,1,0,0:0:0:0:
192,272,202971,1,2,0:3:0:0:
184,278,203067,1,0,0:0:0:0:
176,284,203162,6,0,P|112:297|28:197,1,200,0|2,1:0|0:3,0:0:0:0:
61,133,203449,1,0,0:0:0:0:
138,150,203544,1,0,1:0:0:0:
216,167,203640,1,0,0:0:0:0:
294,184,203736,1,2,0:3:0:0:
303,186,203831,1,0,0:0:0:0:
312,188,203927,6,0,P|323:252|333:391,1,200,0|2,1:0|0:3,0:0:0:0:
484,280,204213,1,0,0:0:0:0:
484,280,204309,2,0,P|456:228|382:253,1,100,0|0,1:0|0:0,0:0:0:0:
138,150,204500,2,0,P|194:166|229:96,1,100,2|0,0:3|0:0,0:0:0:0:
316,0,204691,5,10,1:0:0:0:
123,256,204882,1,10,1:0:0:0:
426,361,205073,1,14,1:0:0:0:
