osu file format v14

[General]
AudioFilename: audio.mp3
AudioLeadIn: 0
PreviewTime: 37207
Countdown: 0
SampleSet: Soft
StackLeniency: 0.5
Mode: 0
LetterboxInBreaks: 0
WidescreenStoryboard: 1

[Editor]
Bookmarks: 9786,22016,37302,49532,61761,73990,77048,77430,77812,78194,78576,78958,79341,79723,80105,80487,80869,81251,81634,82016,82398,82780,83162,83544,83927,84309,84691,85073,85455,85837,86220,86602,86984,87366,87748,88130,88513,88895,89277,101506,113736,125965,138194,150423,156538,168767,180997,205073
DistanceSpacing: 0.1
BeatDivisor: 4
GridSize: 4
TimelineZoom: 1.8

[Metadata]
Title:Hashire Uma Musume
TitleUnicode:走れウマ娘
Artist:Various Artists
ArtistUnicode:Various Artists
Creator:ponbot
Version:Collab Hard!
Source:ウマ娘 プリティーダービー
Tags:Uma musume Pretty Derby horse girls cygames スペシャルウィーク 和氣あず未 サイレンススズカ 高野麻里佳 トウカイテイオー Machico ゴールドシップ 上田 瞳 タマモクロス 大空直美 ウイニングチケット 渡部優衣 駿川たづな 藤井ゆきよ 実況の赤坂さん 明坂聡美 Special Week Azumi Waki Silence Suzuka Marika Kouno Tokai Teio Machico Gold Ship Hitomi Ueda Tamamo Cross Naomi Oozora Winning Ticket Yui Watanabe Tazuna Hayakawa Yukiyo Fujii Jikkyou no Akasaka-san Satomi Akesaka j-pop japanese pop aramaking scaltinof kloyd wring
BeatmapID:3030309
BeatmapSetID:1454027

[Difficulty]
HPDrainRate:4.5
CircleSize:3.8
OverallDifficulty:6
ApproachRate:8
SliderMultiplier:1.5
SliderTickRate:1

[Events]
//Background and Video events
0,0,"teiou.jpg",0,0
//Break Periods
2,77247,88527
//Storyboard Layer 0 (Background)
//Storyboard Layer 1 (Fail)
//Storyboard Layer 2 (Pass)
//Storyboard Layer 3 (Foreground)
//Storyboard Layer 4 (Overlay)
//Storyboard Sound Samples

[TimingPoints]
615,382.165605095541,4,2,2,50,1,0
6729,-100,4,2,1,60,0,0
6825,-100,4,2,1,5,0,0
8258,-100,4,2,1,60,0,0
8353,-100,4,2,1,5,0,0
8640,-100,4,2,1,60,0,0
8974,-100,4,2,1,5,0,0
9022,-100,4,2,1,60,0,0
37302,-100,4,2,1,80,0,1
49532,-100,4,2,1,60,0,0
61761,-100,4,2,1,80,0,1
73990,-100,4,2,1,60,0,0
76952,-100,4,2,1,5,0,0
77048,-100,4,2,1,60,0,0
89277,-100,4,2,1,55,0,0
92143,-100,4,2,1,25,0,0
92334,-100,4,2,1,55,0,0
98258,-100,4,2,1,25,0,0
98449,-100,4,2,1,55,0,0
101506,-100,4,2,1,60,0,0
104468,-100,4,2,1,5,0,0
104564,-100,4,2,1,60,0,0
110583,-100,4,2,1,5,0,0
110678,-100,4,2,1,60,0,0
128927,-100,4,2,1,5,0,0
129022,-100,4,2,1,60,0,0
135041,-100,4,2,1,5,0,0
135137,-100,4,2,1,60,0,0
138194,-100,4,2,1,80,0,1
150423,-100,4,2,1,60,0,0
165614,-100,4,2,1,5,0,0
165710,-100,4,2,1,60,0,0
168767,-100,4,2,1,80,0,1
205073,-100,4,2,1,80,0,0

[Colours]
Combo1 : 255,0,128
Combo2 : 0,0,255
Combo3 : 128,255,0

[HitObjects]
127,100,615,6,0,P|118:142|112:190,1,75,2|0,0:0|0:0,0:0:0:0:
53,250,997,2,0,L|4:257,2,37.5
131,307,1379,2,0,P|166:326|228:307,1,75,2|0,0:0|0:0,0:0:0:0:
276,262,1761,1,0,0:0:0:0:
276,262,1857,1,0,0:0:0:0:
276,262,1952,1,0,0:0:0:0:
204,196,2143,6,0,P|209:158|217:122,1,75,2|0,0:0|0:0,0:0:0:0:
306,82,2525,2,0,P|314:118|319:155,1,75,0|2,0:0|0:0,0:0:0:0:
375,241,2907,1,0,0:0:0:0:
375,241,3099,1,2,0:0:0:0:
464,203,3290,2,0,P|472:166|477:129,2,50,2|0|0,0:0|0:0|0:0,0:0:0:0:
501,236,3672,6,0,P|511:297|452:355,1,150,2|0,0:0|0:0,0:0:0:0:
390,279,4245,1,0,0:0:0:0:
338,361,4436,2,0,P|274:355|246:304,1,75,2|2,0:0|0:0,0:0:0:0:
171,363,4818,2,0,P|156:300|196:257,1,75
256,192,5200,12,2,6729,1:0:0:0:
256,192,8258,5,0,1:0:0:0:
432,50,9022,2,2,B|451:82|451:82|418:100|418:100|432:135|432:135|414:167|414:167|422:203|422:203|405:236|405:236|406:279,1,262.5,2|2,1:2|0:0,0:0:0:0:
410,294,9786,5,4,1:0:0:0:
245,368,10169,2,0,P|243:331|256:296,1,75,0|0,1:0|0:0,0:0:0:0:
323,236,10551,1,0,1:0:0:0:
229,82,10933,1,0,1:0:0:0:
287,13,11124,2,0,L|325:27,2,37.5,0|0|0,0:0|0:0|1:0,0:0:0:0:
194,167,11697,2,0,P|158:155|136:125,1,75,0|0,1:0|0:0,0:0:0:0:
153,38,12079,5,0,1:0:0:0:
69,71,12271,1,2,1:2:0:0:
47,158,12462,1,2,1:2:0:0:
10,15,12844,5,0,1:0:0:0:
32,193,13226,2,0,L|106:182,1,75,0|0,1:0|0:0,0:0:0:0:
190,211,13608,2,0,P|223:193|245:163,2,75,0|0|0,1:0|0:0|1:0,0:0:0:0:
106,182,14181,1,0,0:0:0:0:
60,259,14372,6,0,P|101:331|159:315,1,150,0|0,1:0|1:0,0:0:0:0:
235,277,14946,1,0,0:0:0:0:
285,351,15137,1,0,1:0:0:0:
285,351,15232,1,0,0:0:0:0:
285,351,15328,1,0,0:0:0:0:
363,306,15519,1,0,1:0:0:0:
448,333,15710,1,0,1:0:0:0:
372,382,15901,5,0,1:0:0:0:
328,207,16283,2,0,P|362:221|399:222,1,75,0|0,1:0|0:0,0:0:0:0:
486,199,16665,1,0,1:0:0:0:
322,122,17048,1,0,1:0:0:0:
371,46,17239,2,0,L|411:53,2,37.5,0|0|0,0:0|0:0|1:0,0:0:0:0:
284,16,17621,1,0,0:0:0:0:
284,16,17716,1,0,0:0:0:0:
284,16,17812,2,0,P|249:27|226:56,1,75,0|0,1:0|0:0,0:0:0:0:
148,40,18194,1,0,1:0:0:0:
170,127,18385,5,0,1:0:0:0:
81,110,18576,1,0,1:0:0:0:
108,201,18767,1,0,0:0:0:0:
108,201,18958,6,0,L|65:206,2,37.5,0|0|0,1:0|0:0|0:0,0:0:0:0:
174,262,19341,2,0,P|209:253|232:223,1,75,0|0,1:0|0:0,0:0:0:0:
247,135,19723,1,0,1:0:0:0:
278,219,19914,1,0,0:0:0:0:
350,271,20105,2,0,L|424:260,1,75,0|0,1:0|0:0,0:0:0:0:
482,191,20487,6,0,L|501:147,2,37.5,0|0|0,1:0|0:0|0:0,0:0:0:0:
416,129,20869,2,0,L|368:134,2,37.5,0|0|0,1:0|0:0|1:0,0:0:0:0:
395,217,21251,2,0,L|423:255,2,37.5,0|0|0,1:0|0:0|1:0,0:0:0:0:
372,214,21538,1,0,0:0:0:0:
349,209,21634,2,0,L|310:237,2,37.5,0|0|0,1:0|0:0|1:0,0:0:0:0:
352,320,22016,5,2,0:0:0:0:
352,320,23544,1,2,0:0:0:0:
352,320,24309,2,0,B|226:274|276:358|149:375,1,225,2|0,0:0|0:0,0:0:0:0:
61,330,25073,6,0,L|41:245,1,75,4|0,1:2|0:0,0:0:0:0:
139,276,25455,2,0,L|152:189,1,75,0|0,1:0|0:0,0:0:0:0:
64,156,25837,1,0,1:0:0:0:
64,156,26029,1,0,0:0:0:0:
98,64,26220,2,0,P|138:44|191:54,1,75,0|0,1:0|0:0,0:0:0:0:
257,7,26602,6,0,B|283:96|226:72|245:162,1,150,0|0,1:0|1:0,0:0:0:0:
317,215,27175,1,0,0:0:0:0:
363,131,27366,1,0,1:0:0:0:
363,131,27557,2,0,P|418:106|501:151,1,150,2|2,0:1|0:1,0:0:0:0:
451,230,28130,5,0,1:0:0:0:
451,230,28322,1,0,0:0:0:0:
512,312,28513,1,0,1:0:0:0:
512,312,28704,1,0,0:0:0:0:
430,365,28895,2,0,P|345:355|270:354,1,150,0|0,1:0|1:0,0:0:0:0:
218,278,29468,1,0,0:0:0:0:
150,348,29659,6,0,P|80:361|38:304,1,150,0|0,1:0|1:0,0:0:0:0:
50,207,30232,1,0,0:0:0:0:
148,233,30423,1,0,1:0:0:0:
148,233,30614,2,0,P|213:169|206:89,1,150,2|2,0:1|0:1,0:0:0:0:
166,29,31188,6,0,P|127:66|134:127,1,75,0|0,1:0|0:0,0:0:0:0:
29,112,31570,2,0,P|52:160|112:172,1,75,0|0,1:0|0:0,0:0:0:0:
60,274,31952,1,0,1:0:0:0:
60,274,32048,1,0,0:0:0:0:
60,274,32143,1,0,0:0:0:0:
148,233,32334,2,0,P|190:235|229:243,1,75,0|0,1:0|0:0,0:0:0:0:
265,328,32716,6,0,P|320:355|361:347,1,75,0|0,1:0|0:0,0:0:0:0:
407,291,33099,2,0,P|449:247|454:205,1,75,0|0,1:0|0:0,0:0:0:0:
439,143,33481,1,0,1:0:0:0:
439,143,33672,1,2,0:1:0:0:
360,84,33863,2,0,P|318:76|271:73,1,75,2|2,1:0|0:1,0:0:0:0:
200,120,34245,5,0,1:0:0:0:
448,288,35009,1,0,1:0:0:0:
163,383,35774,1,2,1:0:0:0:
202,238,36156,1,2,1:0:0:0:
308,343,36538,1,2,1:0:0:0:
163,383,36920,1,0,1:0:0:0:
22,312,37302,5,4,1:0:0:0:
14,234,37493,1,0,0:0:0:0:
14,234,37685,2,0,L|2:138,1,75,0|0,1:0|0:0,0:0:0:0:
115,289,38067,5,0,1:0:0:0:
106,212,38258,1,0,0:0:0:0:
106,212,38450,2,0,L|94:116,1,75,0|0,1:0|0:0,0:0:0:0:
71,36,38831,6,0,P|108:54|156:50,1,75,0|0,1:0|0:0,0:0:0:0:
191,146,39213,2,0,P|232:143|271:115,1,75,0|0,1:0|0:0,0:0:0:0:
311,34,39595,5,0,1:0:0:0:
404,131,39786,1,10,1:0:0:0:
442,2,39978,1,10,1:0:0:0:
477,208,40360,6,0,P|417:174|333:165,1,150,0|0,1:0|1:0,0:0:0:0:
276,240,40933,1,0,0:0:0:0:
355,296,41124,2,0,P|392:295|425:279,2,75,0|0|0,1:0|0:0|1:0,0:0:0:0:
297,374,41697,1,0,0:0:0:0:
217,318,41888,6,0,P|179:318|146:334,1,75,0|0,1:0|0:0,0:0:0:0:
56,295,42271,2,0,P|53:257|35:225,1,75,0|0,1:0|0:0,0:0:0:0:
19,106,42653,6,0,B|38:100|46:79|46:79|44:99|58:123,1,75,0|2,1:0|0:0,0:0:0:0:
125,208,43035,2,0,B|144:214|152:235|152:235|150:215|158:200,1,75,0|2,1:0|0:0,0:0:0:0:
140,124,43417,5,0,1:0:0:0:
227,132,43608,1,0,0:0:0:0:
227,132,43799,2,0,L|302:109,1,75,0|0,1:0|0:0,0:0:0:0:
193,202,44181,5,0,1:0:0:0:
278,211,44372,1,0,0:0:0:0:
278,211,44563,2,0,L|353:188,1,75,0|0,1:0|0:0,0:0:0:0:
442,219,44946,6,0,P|451:183|443:144,1,75,0|0,1:0|0:0,0:0:0:0:
497,64,45328,2,0,P|477:32|445:9,1,75,0|0,1:0|0:0,0:0:0:0:
312,8,45710,5,0,1:0:0:0:
289,140,45901,1,10,0:1:0:0:
186,54,46092,1,10,1:0:0:0:
67,208,46474,6,0,P|103:186|158:187,1,75,0|0,1:0|0:0,0:0:0:0:
229,209,46857,1,0,1:0:0:0:
229,209,47048,1,0,0:0:0:0:
125,267,47239,6,0,P|168:270|198:299,1,75,0|0,1:0|0:0,0:0:0:0:
239,374,47621,2,0,L|319:383,1,75,0|0,1:0|0:0,0:0:0:0:
409,384,48003,5,0,1:0:0:0:
239,374,48385,1,0,1:0:0:0:
326,331,48576,1,0,0:0:0:0:
409,384,48767,1,0,1:0:0:0:
271,231,48958,6,0,B|304:249|304:249|325:218,2,75,2|2|2,0:0|1:2|0:0,0:0:0:0:
174,249,49532,5,4,1:0:0:0:
203,156,49723,2,0,P|141:93|71:127,1,150
0,192,50296,1,0,1:0:0:0:
0,192,50678,1,0,1:0:0:0:
78,249,50869,1,0,0:0:0:0:
23,330,51060,6,0,P|70:347|127:342,1,75,0|0,1:0|0:0,0:0:0:0:
169,285,51443,2,0,P|216:268|273:273,1,75,0|0,1:0|0:0,0:0:0:0:
311,333,51825,1,0,1:0:0:0:
396,286,52016,2,0,P|408:318|400:371,2,75,2|2|2,0:1|1:0|0:1,0:0:0:0:
338,206,52589,5,0,1:0:0:0:
338,206,52780,1,0,0:0:0:0:
430,174,52971,1,0,1:0:0:0:
430,174,53162,1,0,0:0:0:0:
433,76,53353,2,0,B|357:20|266:59,1,150,0|0,1:0|1:0,0:0:0:0:
194,34,53927,1,0,0:0:0:0:
158,132,54118,6,0,P|123:147|88:158,1,75,0|0,1:0|0:0,0:0:0:0:
245,201,54500,2,0,P|239:238|228:273,1,75,0|0,1:0|0:0,0:0:0:0:
352,160,54882,1,0,1:0:0:0:
352,160,55073,1,2,0:1:0:0:
441,198,55264,1,2,1:0:0:0:
441,198,55455,1,2,0:1:0:0:
408,289,55646,5,0,1:0:0:0:
408,289,55837,2,0,P|329:298|275:346,1,150
187,382,56411,2,0,L|176:305,1,75,0|0,1:0|0:0,0:0:0:0:
80,323,56793,2,0,L|103:236,1,75,0|0,1:0|0:0,0:0:0:0:
158,172,57175,5,0,1:0:0:0:
245,214,57366,1,0,0:0:0:0:
322,155,57557,1,0,1:0:0:0:
234,111,57748,1,0,0:0:0:0:
158,172,57939,1,0,1:0:0:0:
158,172,58130,2,0,P|63:185|-8:198,1,150,2|2,0:1|0:1,0:0:0:0:
0,96,58704,6,0,P|46:50|131:58,1,150,0|2,1:0|1:2,0:0:0:0:
129,152,59277,1,2,0:0:0:0:
224,32,59468,2,0,P|253:88|201:180,1,150,0|2,1:0|1:2,0:0:0:0:
399,250,60232,5,0,1:0:0:0:
399,250,60423,1,0,1:0:0:0:
432,158,60614,1,0,1:0:0:0:
341,120,60806,1,0,1:0:0:0:
299,207,60997,1,0,1:0:0:0:
465,309,61379,1,2,1:2:0:0:
144,348,61761,5,4,1:0:0:0:
229,353,61952,1,0,0:0:0:0:
229,352,62143,2,0,P|248:321|247:284,1,75,0|0,1:0|0:0,0:0:0:0:
136,352,62525,5,0,1:0:0:0:
159,272,62716,1,0,0:0:0:0:
159,272,62907,2,0,P|141:239|109:221,1,75,0|0,1:0|0:0,0:0:0:0:
13,243,63290,5,0,1:0:0:0:
4,267,63385,1,0,0:0:0:0:
8,293,63481,1,0,0:0:0:0:
81,357,63672,2,0,L|192:342,1,112.5,0|0,1:0|0:0,0:0:0:0:
215,353,64054,5,0,1:0:0:0:
260,225,64245,1,10,1:0:0:0:
305,97,64436,2,0,L|223:110,1,75,10|0,1:0|0:0,0:0:0:0:
181,24,64818,6,0,B|209:106|142:172,1,150,0|0,1:0|1:0,0:0:0:0:
52,163,65392,1,0,0:0:0:0:
0,81,65583,2,0,P|1:42|27:4,2,75,0|0|0,1:0|0:0|1:0,0:0:0:0:
52,163,66156,1,0,0:0:0:0:
149,161,66347,6,0,P|166:195|169:232,1,75,0|0,1:0|0:0,0:0:0:0:
256,276,66729,2,0,P|235:306|204:328,1,75,0|0,1:0|0:0,0:0:0:0:
87,358,67111,6,0,B|73:339|84:322|84:322|103:329|108:347,1,75,0|2,1:0|0:0,0:0:0:0:
155,248,67493,2,0,B|152:224|170:215|170:215|183:230|178:248,1,75,0|2,1:0|0:0,0:0:0:0:
256,276,67876,5,0,1:0:0:0:
248,356,68067,1,0,0:0:0:0:
247,355,68258,2,0,P|285:356|317:337,1,75,0|0,1:0|0:0,0:0:0:0:
352,328,68640,5,0,1:0:0:0:
422,377,68831,1,0,0:0:0:0:
422,377,69022,2,0,P|440:345|440:307,1,75,0|0,1:0|0:0,0:0:0:0:
475,217,69404,5,0,1:0:0:0:
448,220,69500,1,0,0:0:0:0:
428,202,69595,1,0,0:0:0:0:
360,131,69786,2,0,L|380:19,1,112.5,0|0,1:0|0:0,0:0:0:0:
397,1,70169,5,0,1:0:0:0:
262,47,70360,1,10,0:1:0:0:
127,94,70551,2,0,L|115:171,1,75,10|0,1:0|0:0,0:0:0:0:
103,264,70933,6,0,P|60:255|35:224,1,75,0|0,1:0|0:0,0:0:0:0:
15,138,71315,1,0,1:0:0:0:
15,138,71506,1,0,0:0:0:0:
101,189,71697,6,0,P|99:150|118:116,1,75,0|0,1:0|0:0,0:0:0:0:
211,101,72079,2,0,P|245:118|265:152,1,75,0|0,1:0|0:0,0:0:0:0:
193,215,72462,5,0,1:0:0:0:
363,84,72844,1,0,1:0:0:0:
284,140,73035,1,0,0:0:0:0:
275,42,73226,1,2,1:0:0:0:
268,233,73417,6,0,B|304:242|304:242|333:218,1,75,2|2,0:1|1:0,0:0:0:0:
416,64,73990,5,10,0:0:0:0:
416,64,74181,1,8,0:0:0:0:
416,64,74372,1,8,0:0:0:0:
480,224,75519,6,0,L|529:235,2,50,10|8|8,0:0|0:0|0:0,0:0:0:0:
444,242,75901,1,10,0:0:0:0:
512,368,76283,6,2,B|454:396|392:356|424:346|376:308|320:330|347:349|276:368|230:323,1,300,10|6,0:0|1:0,0:0:0:0:
216,40,89277,6,0,P|210:90|206:134,1,75,0|0,1:0|0:0,0:0:0:0:
303,129,89659,2,0,P|309:179|313:223,1,75,0|0,1:0|0:0,0:0:0:0:
291,235,89946,1,0,1:0:0:0:
271,266,90041,2,0,P|181:213|114:233,1,150,0|0,1:0|1:0,0:0:0:0:
78,294,90614,1,0,0:0:0:0:
132,375,90806,6,0,P|195:358|281:351,1,150,0|0,1:0|1:0,0:0:0:0:
364,300,91379,1,0,0:0:0:0:
364,300,91570,2,0,L|443:311,2,75,0|8|8,1:0|1:0|1:0,0:0:0:0:
205,183,92334,6,0,P|195:147|196:110,1,75,0|0,1:0|0:0,0:0:0:0:
283,66,92716,2,0,P|293:102|292:139,1,75,0|0,1:0|0:0,0:0:0:0:
325,157,93003,1,0,1:0:0:0:
357,175,93099,2,0,P|444:153|477:102,1,150,0|0,1:0|1:0,0:0:0:0:
448,12,93672,1,0,0:0:0:0:
351,0,93863,6,0,P|278:10|228:65,1,150,0|0,1:0|1:0,0:0:0:0:
258,162,94436,1,0,0:0:0:0:
258,162,94627,2,0,L|181:175,1,75,0|8,1:0|1:0,0:0:0:0:
114,106,95009,2,0,L|37:93,1,75,8|8,1:0|1:0,0:0:0:0:
46,191,95392,6,0,P|16:249|50:344,1,150,0|0,1:0|1:0,0:0:0:0:
128,288,95965,1,0,1:0:0:0:
128,288,96060,1,0,1:0:0:0:
128,288,96156,2,0,L|227:276,1,75,0|0,1:0|0:0,0:0:0:0:
232,371,96538,2,0,L|331:383,1,75,0|0,1:0|0:0,0:0:0:0:
390,329,96920,6,0,P|430:238|406:180,1,150,0|0,1:0|1:0,0:0:0:0:
322,198,97493,1,0,0:0:0:0:
322,198,97685,2,0,L|304:278,2,75,0|8|8,1:0|1:0|1:0,0:0:0:0:
256,16,98449,6,0,P|301:7|341:26,1,75,0|0,1:0|0:0,0:0:0:0:
424,6,98831,2,0,P|446:46|440:89,1,75,0|0,1:0|0:0,0:0:0:0:
462,108,99118,1,0,1:0:0:0:
478,141,99213,2,0,P|397:122|329:169,1,150,0|0,1:0|1:0,0:0:0:0:
384,245,99786,1,0,0:0:0:0:
384,245,99978,6,0,L|293:267,1,75,0|0,1:0|0:0,0:0:0:0:
223,218,100360,1,0,1:0:0:0:
209,314,100551,1,0,0:0:0:0:
132,253,100742,1,0,1:0:0:0:
223,218,100933,1,0,0:0:0:0:
147,155,101124,2,0,L|67:138,1,75,0|2,1:0|0:0,0:0:0:0:
73,139,101506,5,4,1:2:0:0:
12,324,101888,1,0,1:0:0:0:
99,366,102079,1,2,0:3:0:0:
99,366,102175,1,0,0:0:0:0:
99,366,102271,1,0,1:0:0:0:
152,178,102653,5,0,1:0:0:0:
69,223,102844,1,2,0:3:0:0:
69,223,102939,1,0,0:0:0:0:
69,223,103035,1,0,1:0:0:0:
9,37,103417,5,0,1:0:0:0:
96,79,103608,1,2,0:3:0:0:
96,79,103704,1,0,0:0:0:0:
96,79,103800,5,0,1:0:0:0:
215,17,103990,1,10,1:0:0:0:
313,109,104181,1,10,1:0:0:0:
313,109,104564,5,0,1:0:0:0:
313,109,104946,1,0,1:0:0:0:
376,35,105137,1,2,0:3:0:0:
376,35,105232,1,0,0:0:0:0:
376,35,105328,1,0,1:0:0:0:
466,72,105519,2,0,P|489:113|470:224,1,150,2|2,0:3|0:3,0:0:0:0:
467,308,106092,2,0,L|393:279,1,75,0|2,1:0|0:3,0:0:0:0:
326,213,106474,2,0,L|328:175,2,37.5,0|0|2,1:0|0:0|0:3,0:0:0:0:
317,310,106857,5,0,1:0:0:0:
241,198,107048,1,10,1:0:0:0:
241,198,107239,1,10,1:0:0:0:
205,328,107430,1,10,1:0:0:0:
124,383,107621,5,0,1:0:0:0:
45,325,107812,1,2,0:3:0:0:
45,325,107907,1,0,0:0:0:0:
45,325,108003,2,0,L|28:244,1,75,0|2,1:0|0:3,0:0:0:0:
14,155,108385,1,0,1:0:0:0:
98,203,108576,2,0,L|140:211,2,37.5,2|0|0,0:3|0:0|1:0,0:0:0:0:
88,105,108958,1,2,0:3:0:0:
3,55,109150,6,0,P|78:67|132:15,1,150,0|0,1:0|1:0,0:0:0:0:
212,71,109723,1,2,0:3:0:0:
287,8,109914,5,0,1:0:0:0:
261,140,110105,1,10,1:0:0:0:
393,166,110296,1,10,1:0:0:0:
393,166,110678,5,0,1:0:0:0:
393,166,111060,1,0,1:0:0:0:
462,98,111251,1,2,0:3:0:0:
462,98,111347,1,0,0:0:0:0:
462,98,111443,2,0,P|425:66|327:98,1,150,0|0,1:0|1:0,0:0:0:0:
278,168,112016,1,2,0:3:0:0:
197,110,112207,2,0,P|225:180|233:254,2,150,0|0|2,1:0|1:0|1:0,0:0:0:0:
135,36,113162,1,2,0:0:0:0:
135,36,113353,2,0,P|113:58|70:70,1,75,2|2,1:0|0:0,0:0:0:0:
8,144,113736,6,2,P|61:160|103:180,1,75,6|2,1:0|0:3,0:0:0:0:
140,256,114118,1,0,1:0:0:0:
140,256,114213,1,0,0:0:0:0:
140,256,114309,1,2,0:3:0:0:
231,221,114500,2,0,P|252:190|257:150,1,75,0|2,1:0|0:3,0:0:0:0:
180,93,114882,2,0,L|188:46,3,37.5,0|0|2|0,1:0|0:0|0:3|0:0,0:0:0:0:
232,33,115264,5,0,1:0:0:0:
232,33,115360,1,0,0:0:0:0:
232,33,115455,2,0,L|279:41,1,37.5,2|0,0:3|0:0,0:0:0:0:
327,104,115646,2,0,L|374:96,3,37.5,0|0|2|0,1:0|0:0|0:3|0:0,0:0:0:0:
412,87,116029,5,0,1:0:0:0:
376,217,116220,1,2,1:0:0:0:
257,153,116411,1,2,1:0:0:0:
256,153,116793,6,0,P|249:189|247:227,1,75,0|2,1:0|0:3,0:0:0:0:
372,304,117175,2,0,P|334:301|297:294,1,75,0|2,1:0|0:3,0:0:0:0:
205,317,117557,1,0,1:0:0:0:
205,317,117748,1,2,0:3:0:0:
247,227,117939,2,0,P|193:200|121:217,1,112.5,0|0,1:0|0:0,0:0:0:0:
100,232,118322,6,0,L|55:160,1,75,0|2,1:0|0:3,0:0:0:0:
169,117,118704,2,0,L|188:34,1,75,0|2,1:0|0:3,0:0:0:0:
299,84,119086,2,0,L|371:39,1,75,2|2,1:0|0:3,0:0:0:0:
414,152,119468,2,0,L|496:171,1,75,2|2,1:0|0:3,0:0:0:0:
428,264,119850,6,0,P|387:294|346:333,1,75,0|2,1:0|0:3,0:0:0:0:
307,384,120232,1,0,1:0:0:0:
307,384,120328,1,0,0:0:0:0:
307,384,120423,1,2,0:3:0:0:
227,327,120614,1,2,1:2:0:0:
291,253,120806,2,0,P|292:187|288:150,1,75,2|0,0:3|1:0,0:0:0:0:
339,93,121188,1,2,0:3:0:0:
224,32,121379,6,0,P|196:84|212:188,1,150,2|2,1:2|1:2,0:0:0:0:
131,238,121952,1,2,0:3:0:0:
33,233,122143,2,0,P|27:186|27:141,1,75,2|2,1:2|1:3,0:0:0:0:
99,45,122525,2,0,P|104:82|105:119,1,75,2|2,1:2|0:3,0:0:0:0:
26,158,122907,5,0,1:0:0:0:
26,158,123099,1,2,0:3:0:0:
131,238,123290,2,0,P|168:233|204:225,1,75,2|2,1:0|0:3,0:0:0:0:
96,320,123672,5,0,1:0:0:0:
96,320,123864,1,2,0:3:0:0:
204,225,124055,2,0,P|241:229|277:237,1,75,2|2,1:0|0:3,0:0:0:0:
168,144,124436,5,2,1:0:0:0:
303,244,124627,2,0,P|339:183|323:109,1,150,2|2,0:3|0:3,0:0:0:0:
297,80,125105,1,0,0:0:0:0:
261,70,125200,2,0,L|199:60,3,37.5,2|2|2|2,1:0|0:0|0:3|0:0,0:0:0:0:
336,8,125583,2,0,L|398:-2,3,37.5,2|2|2|2,1:0|0:0|0:3|0:0,0:0:0:0:
410,2,125965,5,0,1:0:0:0:
487,61,126156,1,0,0:0:0:0:
454,152,126347,1,6,1:0:0:0:
454,152,126443,1,0,0:0:0:0:
454,152,126538,1,0,0:0:0:0:
359,127,126729,2,0,P|356:165|371:199,1,75,0|2,1:0|0:3,0:0:0:0:
384,295,127111,2,0,L|472:275,1,75,0|2,1:0|0:3,0:0:0:0:
457,278,127493,5,2,1:3:0:0:
421,369,127685,1,2,0:3:0:0:
324,353,127876,2,0,L|291:379,2,37.5,2|2|2,1:2|0:0|0:3,0:0:0:0:
309,256,128258,5,2,1:0:0:0:
400,157,128449,1,10,1:0:0:0:
457,278,128640,1,10,1:0:0:0:
457,278,129022,5,0,1:0:0:0:
373,328,129213,1,2,0:3:0:0:
308,255,129404,2,0,P|307:218|325:186,1,75,0|2,1:0|0:3,0:0:0:0:
402,126,129786,2,0,L|440:139,2,37.5,2|0|2,1:2|0:0|0:3,0:0:0:0:
354,38,130169,2,0,P|324:18|287:11,1,75,2|2,1:2|0:3,0:0:0:0:
198,51,130551,5,0,1:0:0:0:
198,51,130933,1,0,1:0:0:0:
111,33,131124,1,2,0:3:0:0:
111,33,131220,1,0,0:0:0:0:
111,33,131315,6,0,L|123:121,1,75,2|2,1:0|0:3,0:0:0:0:
24,94,131697,2,0,L|19:182,1,75,2|2,1:0|0:3,0:0:0:0:
11,266,132079,6,0,P|57:269|71:364,1,150,0|6,1:0|1:0,0:0:0:0:
77,356,132653,2,0,L|31:366,2,37.5,0|0|0,0:0|0:0|1:0,0:0:0:0:
173,344,133035,1,2,0:3:0:0:
270,337,133226,2,0,L|279:249,1,75,0|2,1:0|0:3,0:0:0:0:
220,183,133608,5,0,1:0:0:0:
316,197,133799,1,2,0:3:0:0:
411,218,133990,2,0,L|422:182,2,37.5,0|0|2,1:0|0:0|0:3,0:0:0:0:
387,312,134372,5,0,1:0:0:0:
316,197,134564,1,10,1:0:0:0:
416,106,134755,2,0,L|499:92,1,75,10|0,1:0|0:0,0:0:0:0:
489,93,135137,5,0,1:0:0:0:
309,20,135519,1,0,1:0:0:0:
332,114,135710,1,2,0:3:0:0:
332,114,135806,1,0,0:0:0:0:
332,114,135901,1,0,1:0:0:0:
255,293,136283,5,0,1:0:0:0:
234,197,136474,1,2,0:3:0:0:
213,101,136665,2,0,B|140:78|151:139|53:116,2,150,2|2|2,1:0|1:0|1:0,0:0:0:0:
285,35,137621,1,2,0:3:0:0:
285,35,137716,1,0,0:0:0:0:
285,35,137812,2,0,P|305:65|308:102,1,75,2|2,1:0|1:0,0:0:0:0:
234,197,138194,5,4,1:0:0:0:
308,261,138385,1,0,0:0:0:0:
402,228,138576,2,0,P|428:189|420:134,1,75,0|0,1:0|0:0,0:0:0:0:
305,142,138958,5,0,1:0:0:0:
231,206,139149,1,0,0:0:0:0:
137,173,139340,2,0,P|111:134|119:79,1,75,0|0,1:0|0:0,0:0:0:0:
160,16,139723,5,0,1:0:0:0:
182,3,139818,1,0,0:0:0:0:
208,0,139914,1,0,0:0:0:0:
290,51,140105,2,0,B|263:107|251:184,1,112.5,0|0,1:0|0:0,0:0:0:0:
249,206,140487,5,0,1:0:0:0:
383,191,140678,1,10,1:0:0:0:
416,321,140869,2,0,P|365:334|328:338,1,75,10|2,1:0|1:0,0:0:0:0:
249,308,141251,6,0,P|164:311|119:380,1,150,0|0,1:0|1:0,0:0:0:0:
29,378,141825,1,0,0:0:0:0:
0,285,142016,2,0,P|-3:243|0:208,2,75,0|0|0,1:0|0:0|1:0,0:0:0:0:
29,378,142589,1,0,0:0:0:0:
103,315,142780,6,0,P|155:307|193:303,1,75,0|0,1:0|0:0,0:0:0:0:
245,374,143162,2,0,P|282:378|319:384,1,75,0|0,1:0|0:0,0:0:0:0:
392,319,143544,6,0,B|398:300|419:292|419:292|399:294|384:286,1,75,0|2,1:0|0:0,0:0:0:0:
298,240,143927,2,0,B|292:221|271:213|271:213|291:215|306:207,1,75,0|2,1:0|0:0,0:0:0:0:
380,145,144309,5,0,1:0:0:0:
462,196,144500,1,0,0:0:0:0:
512,113,144691,2,0,P|507:68|494:21,1,75,0|0,1:0|0:0,0:0:0:0:
322,223,145073,5,0,1:0:0:0:
373,141,145264,1,0,0:0:0:0:
290,91,145455,2,0,P|245:96|198:109,1,75,0|0,1:0|0:0,0:0:0:0:
180,214,145837,5,0,1:0:0:0:
173,239,145933,1,0,0:0:0:0:
167,264,146029,1,0,0:0:0:0:
75,299,146220,2,0,P|58:246|55:190,1,112.5,0|0,1:0|0:0,0:0:0:0:
66,142,146602,5,0,1:0:0:0:
180,214,146793,1,10,1:0:0:0:
265,109,146984,2,0,P|269:71|266:34,1,75,10|2,1:0|1:0,0:0:0:0:
132,12,147366,6,0,P|98:25|76:55,1,75,0|0,1:0|0:0,0:0:0:0:
81,152,147748,1,0,1:0:0:0:
81,152,147939,1,0,0:0:0:0:
158,93,148130,6,0,P|183:142|212:164,1,75,0|0,1:0|0:0,0:0:0:0:
244,240,148513,2,0,P|298:231|328:210,1,75,0|0,1:0|0:0,0:0:0:0:
372,142,148895,5,0,1:0:0:0:
455,334,149277,1,0,1:0:0:0:
460,236,149468,1,0,0:0:0:0:
372,278,149659,1,0,1:0:0:0:
372,142,149850,6,0,P|371:85|361:41,1,75,0|0,1:0|1:0,0:0:0:0:
372,278,150423,5,12,1:0:0:0:
177,264,150806,1,8,0:1:0:0:
334,378,151188,1,8,0:1:0:0:
294,288,151379,1,8,0:1:0:0:
254,198,151570,1,8,0:1:0:0:
59,190,151952,5,12,1:0:0:0:
254,198,152334,1,8,0:1:0:0:
107,69,152716,1,8,0:1:0:0:
136,161,152907,1,8,0:1:0:0:
165,254,153099,1,8,0:1:0:0:
359,265,153481,5,12,1:0:0:0:
359,265,153863,2,2,B|378:225|342:209|321:256|350:325,1,112.5,10|0,0:2|0:2,0:2:0:0:
348,323,154245,5,12,1:0:0:0:
443,343,154436,1,8,0:1:0:0:
346,359,154627,2,2,P|306:324|249:316,1,112.5,10|0,0:2|0:2,0:2:0:0:
226,325,155009,6,2,B|201:233|254:252|246:154,2,150,12|12|4,1:0|1:0|1:0,0:0:0:0:
140,277,155965,1,12,1:2:0:0:
46,249,156156,2,0,P|54:286|54:325,1,75,12|12,1:2|1:2,0:0:0:0:
39,357,156538,6,0,L|69:193,1,150,4|0,1:0|1:0,0:0:0:0:
13,127,157111,1,0,0:0:0:0:
52,37,157302,2,0,P|102:22|140:35,1,75,0|0,1:0|0:0,0:0:0:0:
220,20,157685,1,0,1:0:0:0:
188,112,157876,1,0,0:0:0:0:
217,204,158067,6,0,L|316:217,1,75,0|0,1:0|0:0,0:0:0:0:
358,142,158449,1,0,1:0:0:0:
312,55,158640,1,0,0:0:0:0:
394,0,158831,1,0,1:0:0:0:
394,0,159022,2,0,P|466:14|520:84,1,150,2|2,0:1|0:1,0:0:0:0:
437,128,159595,6,0,B|344:150|271:174,2,150,0|0|0,1:0|1:0|1:0,0:0:0:0:
506,196,160551,1,0,0:0:0:0:
413,226,160742,2,0,P|406:273|410:334,1,75,0|0,1:0|0:0,0:0:0:0:
334,366,161124,5,0,1:0:0:0:
261,279,161315,2,0,P|221:264|179:257,1,75,0|0,0:0|1:0,0:0:0:0:
189,257,161697,5,0,0:0:0:0:
318,191,161888,2,0,P|300:152|275:117,1,75,2|2,1:0|1:0,0:0:0:0:
242,36,162271,2,0,P|199:40|158:53,1,75,2|2,1:0|1:0,0:0:0:0:
96,115,162653,1,0,1:0:0:0:
90,109,163035,6,0,B|79:135|88:161|88:161|95:170|95:170|78:193|82:222|82:222|96:240|95:282,1,150,6|0,1:0|1:0,0:0:0:0:
171,307,163608,1,0,0:0:0:0:
104,378,163799,2,0,P|54:347|49:310,1,75,0|0,1:0|0:0,0:0:0:0:
176,224,164181,1,0,1:0:0:0:
176,224,164372,2,0,P|233:216|275:212,1,75,0|0,0:0|1:0,0:0:0:0:
288,336,164755,1,0,0:0:0:0:
373,288,164946,2,0,L|454:303,1,75,0|2,1:0|1:0,0:0:0:0:
512,208,165328,1,2,1:0:0:0:
397,33,165710,6,0,B|348:106|392:182,1,150,0|0,1:0|1:0,0:0:0:0:
462,139,166283,1,2,0:0:0:0:
346,59,166474,2,0,B|258:53|214:129,1,150,0|0,1:0|1:0,0:0:0:0:
286,168,167048,1,2,0:0:0:0:
129,90,167239,6,0,P|125:138|140:173,1,75,0|2,1:0|0:0,0:0:0:0:
91,250,167621,2,0,P|135:268|173:265,1,75,0|2,1:0|0:0,0:0:0:0:
245,317,168003,1,2,1:0:0:0:
325,139,168385,1,2,1:0:0:0:
161,3,168767,5,4,1:0:0:0:
229,57,168958,1,0,0:0:0:0:
229,57,169150,2,0,P|265:57|296:37,1,75,0|0,1:0|0:0,0:0:0:0:
372,72,169532,5,0,1:0:0:0:
325,139,169723,1,0,0:0:0:0:
325,139,169915,2,0,P|356:158|393:155,1,75,0|0,1:0|0:0,0:0:0:0:
481,116,170296,6,0,L|497:198,1,75,0|0,1:0|0:0,0:0:0:0:
407,232,170678,2,0,L|423:314,1,75,0|0,1:0|0:0,0:0:0:0:
494,369,171060,5,0,1:0:0:0:
360,357,171251,1,10,1:0:0:0:
226,345,171443,1,10,1:0:0:0:
226,345,171825,6,0,P|251:308|181:245,1,150,0|0,1:0|1:0,0:0:0:0:
91,253,172398,1,0,0:0:0:0:
91,253,172589,2,0,P|85:289|103:321,2,75,0|0|0,1:0|0:0|1:0,0:0:0:0:
26,180,173162,1,0,0:0:0:0:
30,81,173353,6,0,P|44:47|73:24,1,75,0|0,1:0|0:0,0:0:0:0:
121,110,173736,2,0,P|157:105|192:119,1,75,0|0,1:0|0:0,0:0:0:0:
195,216,174118,6,0,B|214:222|222:243|222:243|220:223|234:199,1,75,0|2,1:0|0:0,0:0:0:0:
301,114,174500,2,0,B|320:108|328:87|328:87|326:107|334:122,1,75,0|2,1:0|0:0,0:0:0:0:
333,206,174882,5,0,1:0:0:0:
412,179,175073,1,0,0:0:0:0:
412,179,175264,2,0,P|433:209|435:246,1,75,0|0,1:0|0:0,0:0:0:0:
418,321,175646,5,0,1:0:0:0:
350,284,175837,1,0,0:0:0:0:
350,284,176028,2,0,P|334:317|303:337,1,75,0|0,1:0|0:0,0:0:0:0:
206,325,176411,6,0,L|215:238,1,75,0|0,1:0|0:0,0:0:0:0:
296,199,176793,2,0,L|305:112,1,75,0|0,1:0|0:0,0:0:0:0:
313,27,177175,5,0,1:0:0:0:
181,55,177366,1,10,1:0:0:0:
49,84,177557,1,10,1:0:0:0:
49,84,177939,6,0,P|23:110|18:146,1,75,0|0,1:0|0:0,0:0:0:0:
40,241,178322,1,0,1:0:0:0:
40,241,178513,1,0,0:0:0:0:
28,337,178704,6,0,L|100:313,1,75,0|0,1:0|0:0,0:0:0:0:
172,248,179086,1,0,1:0:0:0:
230,325,179277,1,0,0:0:0:0:
264,233,179468,5,0,1:0:0:0:
451,287,179850,1,0,1:0:0:0:
380,353,180041,2,0,P|344:343|323:313,1,75,0|2,0:0|1:0,0:0:0:0:
264,233,180423,6,0,B|303:245|303:245|329:217,1,75,10|10,1:0|1:0,0:0:0:0:
482,102,180997,5,6,1:0:0:0:
404,160,181188,1,0,0:0:0:0:
342,84,181379,2,0,P|301:75|264:69,1,75,0|0,1:0|0:0,0:0:0:0:
212,149,181761,5,0,1:0:0:0:
134,91,181952,1,0,0:0:0:0:
72,167,182143,2,0,P|31:176|-6:182,1,75,0|0,1:0|0:0,0:0:0:0:
16,277,182525,5,0,1:0:0:0:
38,291,182621,1,0,0:0:0:0:
64,292,182716,1,0,0:0:0:0:
143,236,182907,6,0,P|202:246|243:295,1,112.5,0|0,1:0|0:0,0:0:0:0:
247,330,183290,1,0,1:0:0:0:
356,251,183481,1,10,1:0:0:0:
284,136,183672,1,10,1:0:0:0:
279,142,184054,6,0,P|292:183|394:192,1,150,0|0,1:0|1:0,0:0:0:0:
478,159,184627,1,0,0:0:0:0:
478,159,184818,2,0,L|490:239,2,75,0|0|0,1:0|0:0|1:0,0:0:0:0:
512,67,185392,1,0,0:0:0:0:
429,15,185583,6,0,P|392:9|356:22,1,75,0|0,1:0|0:0,0:0:0:0:
259,26,185965,2,0,P|242:59|244:96,1,75,0|0,1:0|0:0,0:0:0:0:
181,180,186347,6,0,B|161:194|144:183|144:183|151:164|169:159,1,75,0|2,1:0|0:0,0:0:0:0:
71,112,186729,2,0,B|47:115|38:97|38:97|53:84|71:88,1,75,0|2,1:0|0:0,0:0:0:0:
156,28,187111,5,0,1:0:0:0:
235,85,187302,1,0,0:0:0:0:
170,158,187493,2,0,P|165:195|162:232,1,75,0|0,1:0|0:0,0:0:0:0:
230,302,187876,5,0,1:0:0:0:
287,223,188067,1,0,0:0:0:0:
360,288,188258,2,0,P|397:292|434:295,1,75,0|0,1:0|0:0,0:0:0:0:
512,236,188640,5,0,1:0:0:0:
512,236,188736,1,0,0:0:0:0:
512,236,188831,1,0,0:0:0:0:
512,138,189022,2,0,B|487:77|414:73,1,112.5,0|0,1:0|0:0,0:0:0:0:
377,73,189404,5,0,1:0:0:0:
325,197,189595,1,10,1:0:0:0:
200,144,189786,1,10,1:0:0:0:
206,150,190169,6,0,P|192:115|165:87,1,75,0|0,1:0|0:0,0:0:0:0:
72,81,190551,1,0,1:0:0:0:
72,81,190742,1,0,0:0:0:0:
123,163,190933,6,0,P|85:164|51:181,1,75,0|0,1:0|0:0,0:0:0:0:
7,267,191315,2,0,P|8:304|25:338,1,75,0|0,1:0|0:0,0:0:0:0:
117,370,191697,5,0,1:0:0:0:
287,275,192079,1,0,1:0:0:0:
218,345,192271,1,0,0:0:0:0:
189,251,192462,2,0,P|191:192|193:160,1,75,0|0,1:0|1:0,0:0:0:0:
304,112,192844,2,0,P|302:149|301:186,1,75,0|0,1:0|1:0,0:0:0:0:
384,240,193226,5,4,1:0:0:0:
384,240,193322,1,0,0:0:0:0:
384,240,193417,2,0,L|446:229,1,37.5,2|0,1:3|0:0,0:0:0:0:
468,223,193608,2,0,P|477:187|469:150,1,75,0|2,1:0|1:3,0:0:0:0:
388,129,193990,5,0,1:0:0:0:
388,129,194086,1,0,0:0:0:0:
388,129,194181,2,0,L|326:118,1,37.5,2|0,1:3|0:0,0:0:0:0:
304,112,194372,2,0,P|294:76|302:39,1,75,0|2,1:0|1:3,0:0:0:0:
220,8,194755,5,0,1:0:0:0:
220,8,194850,1,0,0:0:0:0:
220,8,194946,1,2,1:3:0:0:
129,44,195137,2,0,P|123:91|118:148,1,75,0|2,1:0|1:3,0:0:0:0:
59,194,195519,1,0,1:0:0:0:
179,255,195710,1,8,1:0:0:0:
256,144,195901,1,10,1:0:0:0:
250,136,196283,6,0,P|242:173|232:295,1,150,0|0,1:0|1:0,0:0:0:0:
309,344,196857,1,2,0:3:0:0:
399,306,197048,2,0,L|477:296,2,75,0|2|0,1:0|0:3|1:0,0:0:0:0:
309,344,197621,1,2,0:3:0:0:
330,249,197812,6,0,P|332:212|339:175,1,75,0|2,1:0|0:3,0:0:0:0:
436,175,198194,2,0,P|438:138|445:101,1,75,0|2,1:0|0:3,0:0:0:0:
354,33,198576,6,0,B|346:18|348:-2|348:-2|340:19|321:25,1,75,0|2,1:0|0:3,0:0:0:0:
249,110,198958,2,0,B|240:124|242:144|242:144|234:123|215:117,1,75,0|2,1:0|0:3,0:0:0:0:
138,34,199341,5,4,1:0:0:0:
138,34,199436,1,0,0:0:0:0:
138,34,199532,2,0,L|67:52,1,37.5,2|0,1:3|0:0,0:0:0:0:
54,57,199723,2,0,P|42:94|55:142,1,75,0|2,1:0|1:3,0:0:0:0:
130,198,200105,5,0,1:0:0:0:
130,198,200200,1,0,0:0:0:0:
130,198,200296,2,0,L|201:216,1,37.5,2|0,1:3|0:0,0:0:0:0:
214,221,200487,2,0,P|226:258|213:306,1,75,0|2,1:0|1:3,0:0:0:0:
155,365,200869,5,0,1:0:0:0:
155,365,200965,1,0,0:0:0:0:
155,365,201060,1,2,1:3:0:0:
61,335,201251,2,0,P|55:269|52:231,1,75,0|2,1:0|1:3,0:0:0:0:
130,198,201634,5,0,1:0:0:0:
216,301,201825,1,10,1:0:0:0:
323,220,202016,1,10,1:0:0:0:
317,211,202398,6,0,P|309:260|299:366,1,150,0|0,1:0|1:0,0:0:0:0:
400,368,202971,1,2,0:3:0:0:
412,271,203162,2,0,P|420:222|430:116,1,150,0|0,1:0|1:0,0:0:0:0:
332,109,203736,1,2,0:3:0:0:
235,94,203927,5,0,1:0:0:0:
146,267,204309,1,0,1:0:0:0:
227,213,204500,1,2,0:3:0:0:
137,174,204691,1,10,1:0:0:0:
97,334,204882,1,10,1:0:0:0:
255,289,205073,1,14,1:0:0:0:
