osu file format v14

[General]
AudioFilename: audio.mp3
AudioLeadIn: 0
PreviewTime: 74721
Countdown: 0
SampleSet: Normal
StackLeniency: 0.7
Mode: 1
LetterboxInBreaks: 0
WidescreenStoryboard: 0

[Editor]
DistanceSpacing: 0.9
BeatDivisor: 4
GridSize: 32
TimelineZoom: 4.499998

[Metadata]
Title:GIRLS' LEGEND U
TitleUnicode:GIRLS' LEGEND U
Artist:Various Artists
ArtistUnicode:Various Artists
Creator:shinchikuhome
Version:Inner Oni
Source:ウマ娘 プリティーダービー
Tags:uma musume pretty derby op opening japanese video game pop jpop j-pop rock jrock j-rock cygames special week waki azumi silence suzuka kouno marika tokai teio machico maruzen ski lynn oguri cap takayanagi tomoyo gold ship ueda hitomi vodka ohashi ayaka daiwa scarlet kimura chisa taiki shuttle otsubo yuka glass wonder maeda reina mejiro mcqueen onishi saori el condor pasa takahashi minami symboli rudolf tadokoro azusa air groove aoki ruriko mayano top gun hoshitani mio mejio ryan hashi afumi rice shower iwami manaka agnes tachyon uesaka sumire winning ticket watanabe yui sakura bakushin o misawa sachika super creek yuuki kana haru urara shutou yukina machikanefukukitaru nitta hiyori nice nature maeda kaori king halo saeki iori 和氣あず未 高野麻里佳 高柳知葉 上田瞳 大橋彩香 木村千咲 大坪由佳 前田玲奈 大西沙織 髙橋ミナミ 田所あずさ 青木瑠璃子 星谷美緒 土師亜文 石見舞菜香 上坂すみれ 渡部優衣 三澤紗千香 優木かな 首藤志奈 新田ひより 前田佳織里 佐伯伊織
BeatmapID:4528577
BeatmapSetID:2149646

[Difficulty]
HPDrainRate:4.5
CircleSize:5
OverallDifficulty:6.5
ApproachRate:5
SliderMultiplier:1.4
SliderTickRate:1

[Events]
//Background and Video events
0,0,"BG.jpg",0,-40
//Break Periods
2,55897,63863
2,136677,144643
2,216331,228943
//Storyboard Layer 0 (Background)
//Storyboard Layer 1 (Fail)
//Storyboard Layer 2 (Pass)
//Storyboard Layer 3 (Foreground)
//Storyboard Layer 4 (Overlay)
//Storyboard Sound Samples

[TimingPoints]
655,508.474576271186,4,1,0,70,1,0
6756,508.474576271186,4,1,0,70,1,8
7655,500,4,1,0,70,1,0
9655,521.739130434783,4,1,0,70,1,0
10176,571.428571428571,4,1,0,70,1,8
10747,631.578947368421,4,1,0,70,1,8
11378,749.999999999999,4,1,0,70,1,8
12127,652.173913043478,4,1,0,70,1,0
17344,292.682926829268,4,1,0,80,1,0
18234,292.682926829268,4,1,0,100,1,0
35794,-100,4,1,0,100,0,1
41648,-100,4,1,0,100,0,0
55760,-100,4,1,0,50,0,0
64980,-100,4,1,0,100,0,0
75004,-142.857142857143,4,1,0,70,0,0
75687,-138.888888888889,4,1,0,72,0,0
75784,-135.135135135135,4,1,0,74,0,0
75882,-131.578947368421,4,1,0,76,0,0
75980,-128.205128205128,4,1,0,78,0,0
76077,-125,4,1,0,80,0,0
76175,-121.951219512195,4,1,0,82,0,0
76248,-119.047619047619,4,1,0,84,0,0
76321,-116.279069767442,4,1,0,86,0,0
76394,-113.636363636364,4,1,0,88,0,0
76467,-111.111111111111,4,1,0,90,0,0
76541,-108.695652173913,4,1,0,92,0,0
76614,-106.382978723404,4,1,0,94,0,0
76687,-104.166666666667,4,1,0,96,0,0
76760,-102.040816326531,4,1,0,98,0,0
77063,-100,4,1,0,100,0,1
94331,-100,4,1,0,100,0,0
96087,-100,4,1,0,100,0,1
97843,-100,4,1,0,100,0,0
116575,-100,4,1,0,100,0,1
122429,-100,4,1,0,100,0,0
136541,-100,4,1,0,50,0,0
145760,-100,4,1,0,100,0,0
155784,-142.857142857143,4,1,0,70,0,0
156467,-138.888888888889,4,1,0,72,0,0
156565,-135.135135135135,4,1,0,74,0,0
156663,-131.578947368421,4,1,0,76,0,0
156760,-128.205128205128,4,1,0,78,0,0
156858,-125,4,1,0,80,0,0
156955,-121.951219512195,4,1,0,82,0,0
157028,-119.047619047619,4,1,0,84,0,0
157102,-116.279069767442,4,1,0,86,0,0
157175,-113.636363636364,4,1,0,88,0,0
157248,-111.111111111111,4,1,0,90,0,0
157321,-108.695652173913,4,1,0,92,0,0
157394,-106.382978723404,4,1,0,94,0,0
157467,-104.166666666667,4,1,0,96,0,0
157539,-102.040816326531,4,1,0,98,0,0
157843,-100,4,1,0,100,0,1
178624,-100,4,1,0,100,0,0
178906,-125,4,1,0,60,0,0
183443,-125,4,1,0,70,0,0
188272,-117.647058823529,4,1,0,75,0,0
189440,-111.111111111111,4,1,0,80,0,0
190614,-105.263157894737,4,1,0,85,0,0
191199,-103.092783505155,4,1,0,85,0,0
191492,-101.010101010101,4,1,0,85,0,0
191638,-99.009900990099,4,1,0,85,0,0
191711,-98.0392156862745,4,1,0,85,0,0
191784,-97.0873786407767,4,1,0,86,0,0
191858,-96.1538461538461,4,1,0,87,0,0
191931,-95.2380952380952,4,1,0,88,0,0
192004,-94.3396226415094,4,1,0,90,0,0
192077,-93.4579439252336,4,1,0,92,0,0
192150,-92.5925925925926,4,1,0,94,0,0
192223,-91.743119266055,4,1,0,96,0,0
192297,-90.9090909090909,4,1,0,98,0,0
192370,-90.0900900900901,4,1,0,100,0,0
192663,-86.9565217391304,4,1,0,100,0,0
192965,-95.2380952380952,4,1,0,100,0,1
213746,298.210735586481,4,1,0,100,1,0
213746,-93.4727064978234,4,1,0,100,0,0
214938,-105.263157894737,4,1,0,60,0,0
215535,-117.647058823529,4,1,0,50,0,0
216131,292.682926829268,4,1,0,40,1,0
216131,-133.333333333333,4,1,0,40,0,0
230143,292.682926829268,4,1,0,60,1,0
231305,-100,4,1,0,65,0,0
232475,-100,4,1,0,70,0,0
233646,-100,4,1,0,75,0,0
234817,-100,4,1,0,80,0,0
235988,-100,4,1,0,85,0,0
237451,-125,4,1,0,35,0,0
237524,-123.456790123457,4,1,0,40,0,0
237597,-121.951219512195,4,1,0,45,0,0
237671,-120.481927710843,4,1,0,50,0,0
237744,-119.047619047619,4,1,0,55,0,0
237817,-117.647058823529,4,1,0,60,0,0
237890,-116.279069767442,4,1,0,65,0,0
237963,-114.942528735632,4,1,0,70,0,0
238036,-113.636363636364,4,1,0,75,0,0
238110,-112.359550561798,4,1,0,80,0,0
238183,-111.111111111111,4,1,0,85,0,0
238256,-109.89010989011,4,1,0,90,0,0
238329,-108.695652173913,4,1,0,95,0,0
238475,-107.52688172043,4,1,0,100,0,0
238622,-106.382978723404,4,1,0,100,0,0
238768,-105.263157894737,4,1,0,100,0,0
238914,-104.166666666667,4,1,0,100,0,0
239061,-103.092783505155,4,1,0,100,0,0
239207,-102.040816326531,4,1,0,100,0,0
239353,-101.010101010101,4,1,0,100,0,0
239500,-100,4,1,0,100,0,0
240972,-95.2380952380952,4,1,0,100,0,1
250338,-100,4,1,0,100,0,1
258240,-100,4,1,0,100,0,0
262045,-90.9090909090909,4,1,0,100,0,1
271411,-100,4,1,0,100,0,1
279313,-100,4,1,0,100,0,0

[HitObjects]
256,192,17344,5,8,0:0:0:0:
256,192,17636,1,8,0:0:0:0:
256,192,17929,1,8,0:0:0:0:
256,192,18075,1,0,0:0:0:0:
256,192,18234,1,0,0:0:0:0:
256,192,18380,1,8,0:0:0:0:
256,192,18453,1,8,0:0:0:0:
256,192,18526,1,0,0:0:0:0:
256,192,18599,1,0,0:0:0:0:
256,192,18673,1,0,0:0:0:0:
256,192,18819,1,8,0:0:0:0:
256,192,18892,1,8,0:0:0:0:
256,192,18965,1,0,0:0:0:0:
256,192,19038,1,0,0:0:0:0:
256,192,19112,1,8,0:0:0:0:
256,192,19404,1,4,0:0:0:0:
256,192,19697,1,8,0:0:0:0:
256,192,19990,1,0,0:0:0:0:
256,192,20136,1,0,0:0:0:0:
256,192,20282,1,8,0:0:0:0:
256,192,20429,1,8,0:0:0:0:
256,192,20502,1,8,0:0:0:0:
256,192,20575,1,0,0:0:0:0:
256,192,20721,1,0,0:0:0:0:
256,192,20794,1,0,0:0:0:0:
256,192,20868,1,8,0:0:0:0:
256,192,20941,1,0,0:0:0:0:
256,192,21014,1,8,0:0:0:0:
256,192,21087,1,8,0:0:0:0:
256,192,21160,1,0,0:0:0:0:
256,192,21307,1,0,0:0:0:0:
256,192,21453,1,8,0:0:0:0:
256,192,21526,1,8,0:0:0:0:
256,192,21599,1,8,0:0:0:0:
256,192,21746,1,4,0:0:0:0:
256,192,22038,1,8,0:0:0:0:
256,192,22112,1,8,0:0:0:0:
256,192,22185,1,8,0:0:0:0:
256,192,22331,1,0,0:0:0:0:
256,192,22404,1,0,0:0:0:0:
256,192,22477,1,8,0:0:0:0:
256,192,22624,1,8,0:0:0:0:
256,192,22770,1,0,0:0:0:0:
256,192,22843,1,0,0:0:0:0:
256,192,22916,1,0,0:0:0:0:
256,192,23063,1,8,0:0:0:0:
256,192,23136,1,8,0:0:0:0:
256,192,23209,1,0,0:0:0:0:
256,192,23355,1,0,0:0:0:0:
256,192,23502,1,8,0:0:0:0:
256,192,23575,1,8,0:0:0:0:
256,192,23648,1,0,0:0:0:0:
256,192,23721,1,0,0:0:0:0:
256,192,23794,1,8,0:0:0:0:
256,192,24087,1,4,0:0:0:0:
256,192,24380,1,8,0:0:0:0:
256,192,24526,1,0,0:0:0:0:
256,192,24673,1,8,0:0:0:0:
256,192,24819,1,0,0:0:0:0:
256,192,24965,1,8,0:0:0:0:
256,192,25112,1,0,0:0:0:0:
256,192,25258,1,8,0:0:0:0:
256,192,25404,1,0,0:0:0:0:
256,192,25477,1,0,0:0:0:0:
256,192,25551,1,8,0:0:0:0:
256,192,25697,1,0,0:0:0:0:
256,192,25843,1,8,0:0:0:0:
256,192,25916,1,8,0:0:0:0:
256,192,25990,1,0,0:0:0:0:
256,192,26063,1,0,0:0:0:0:
256,192,26136,1,8,0:0:0:0:
256,192,26209,1,0,0:0:0:0:
256,192,26282,1,8,0:0:0:0:
256,192,27453,1,0,0:0:0:0:
256,192,27526,1,0,0:0:0:0:
256,192,27599,1,8,0:0:0:0:
256,192,27746,1,0,0:0:0:0:
256,192,27892,1,8,0:0:0:0:
256,192,28038,1,8,0:0:0:0:
256,192,28112,1,8,0:0:0:0:
256,192,28185,1,0,0:0:0:0:
256,192,28331,1,8,0:0:0:0:
256,192,28477,1,0,0:0:0:0:
256,192,28551,1,0,0:0:0:0:
256,192,28624,1,0,0:0:0:0:
256,192,28770,1,12,0:0:0:0:
256,192,29941,1,12,0:0:0:0:
256,192,30087,1,0,0:0:0:0:
256,192,30233,1,0,0:0:0:0:
256,192,30380,1,12,0:0:0:0:
256,192,30673,1,0,0:0:0:0:
256,192,30819,1,0,0:0:0:0:
256,192,30965,1,8,0:0:0:0:
256,192,31258,1,8,0:0:0:0:
256,192,31404,1,0,0:0:0:0:
256,192,31551,1,8,0:0:0:0:
256,192,31843,1,8,0:0:0:0:
256,192,31916,1,8,0:0:0:0:
256,192,31990,1,0,0:0:0:0:
256,192,32136,1,8,0:0:0:0:
256,192,32429,1,0,0:0:0:0:
256,192,32721,1,8,0:0:0:0:
256,192,32868,1,0,0:0:0:0:
256,192,32941,1,0,0:0:0:0:
256,192,33014,1,0,0:0:0:0:
256,192,33160,1,8,0:0:0:0:
256,192,33307,1,0,0:0:0:0:
256,192,33453,1,8,0:0:0:0:
256,192,33746,1,8,0:0:0:0:
256,192,34038,1,0,0:0:0:0:
256,192,34185,1,0,0:0:0:0:
256,192,34331,1,8,0:0:0:0:
256,192,34477,1,8,0:0:0:0:
256,192,34551,1,8,0:0:0:0:
256,192,34624,1,8,0:0:0:0:
256,192,34770,1,0,0:0:0:0:
256,192,34916,1,8,0:0:0:0:
256,192,35063,1,0,0:0:0:0:
256,192,35355,1,0,0:0:0:0:
256,192,35502,1,8,0:0:0:0:
256,192,35648,1,8,0:0:0:0:
256,192,35794,1,0,0:0:0:0:
256,192,36087,1,0,0:0:0:0:
256,192,36233,1,0,0:0:0:0:
256,192,36380,1,8,0:0:0:0:
256,192,36526,1,0,0:0:0:0:
256,192,36673,1,8,0:0:0:0:
256,192,36819,1,0,0:0:0:0:
256,192,36965,1,8,0:0:0:0:
256,192,37112,1,0,0:0:0:0:
256,192,37185,1,0,0:0:0:0:
256,192,37258,1,8,0:0:0:0:
256,192,37404,1,0,0:0:0:0:
256,192,37551,1,0,0:0:0:0:
256,192,37697,1,0,0:0:0:0:
256,192,37770,1,0,0:0:0:0:
256,192,37843,1,8,0:0:0:0:
256,192,37990,1,8,0:0:0:0:
256,192,38136,1,0,0:0:0:0:
256,192,38209,1,0,0:0:0:0:
256,192,38282,1,8,0:0:0:0:
256,192,38355,1,0,0:0:0:0:
256,192,38429,1,8,0:0:0:0:
256,192,38502,1,8,0:0:0:0:
256,192,38575,1,8,0:0:0:0:
256,192,38648,1,8,0:0:0:0:
256,192,38721,1,0,0:0:0:0:
256,192,38794,1,0,0:0:0:0:
256,192,38868,1,0,0:0:0:0:
256,192,38941,1,0,0:0:0:0:
256,192,39014,1,8,0:0:0:0:
256,192,39160,1,8,0:0:0:0:
256,192,39307,1,8,0:0:0:0:
256,192,39380,1,0,0:0:0:0:
256,192,39453,1,0,0:0:0:0:
256,192,39526,1,0,0:0:0:0:
256,192,39599,1,8,0:0:0:0:
256,192,39746,1,0,0:0:0:0:
256,192,39892,1,8,0:0:0:0:
256,192,39965,1,8,0:0:0:0:
256,192,40038,1,0,0:0:0:0:
256,192,40112,1,0,0:0:0:0:
256,192,40185,1,8,0:0:0:0:
256,192,40331,1,0,0:0:0:0:
256,192,40477,1,12,0:0:0:0:
256,192,40624,1,0,0:0:0:0:
256,192,40697,1,0,0:0:0:0:
256,192,40770,1,8,0:0:0:0:
256,192,40843,1,8,0:0:0:0:
256,192,40916,1,8,0:0:0:0:
256,192,40990,1,8,0:0:0:0:
256,192,41063,1,0,0:0:0:0:
256,192,41136,1,0,0:0:0:0:
256,192,41209,1,8,0:0:0:0:
256,192,41282,1,8,0:0:0:0:
256,192,41355,1,8,0:0:0:0:
256,192,41502,1,8,0:0:0:0:
256,192,41648,1,4,0:0:0:0:
256,192,41941,1,8,0:0:0:0:
256,192,42233,1,0,0:0:0:0:
256,192,42380,1,0,0:0:0:0:
256,192,42526,1,8,0:0:0:0:
256,192,42673,1,8,0:0:0:0:
256,192,42746,1,8,0:0:0:0:
256,192,42819,1,0,0:0:0:0:
256,192,42965,1,8,0:0:0:0:
256,192,43112,1,0,0:0:0:0:
256,192,43258,1,8,0:0:0:0:
256,192,43331,1,8,0:0:0:0:
256,192,43404,1,0,0:0:0:0:
256,192,43477,1,0,0:0:0:0:
256,192,43551,1,8,0:0:0:0:
256,192,43624,1,8,0:0:0:0:
256,192,43697,1,0,0:0:0:0:
256,192,43843,1,8,0:0:0:0:
256,192,43990,1,0,0:0:0:0:
256,192,44282,1,8,0:0:0:0:
256,192,44502,1,8,0:0:0:0:
256,192,44575,1,0,0:0:0:0:
256,192,44721,1,8,0:0:0:0:
256,192,44794,1,8,0:0:0:0:
256,192,44868,1,0,0:0:0:0:
256,192,45014,1,8,0:0:0:0:
256,192,45307,1,0,0:0:0:0:
256,192,45453,1,8,0:0:0:0:
256,192,45599,1,0,0:0:0:0:
256,192,45746,1,8,0:0:0:0:
256,192,45819,1,8,0:0:0:0:
256,192,45892,1,8,0:0:0:0:
256,192,46038,1,8,0:0:0:0:
256,192,46112,1,8,0:0:0:0:
256,192,46185,1,8,0:0:0:0:
256,192,46331,1,0,0:0:0:0:
256,192,46477,1,0,0:0:0:0:
256,192,46624,1,8,0:0:0:0:
256,192,46770,1,0,0:0:0:0:
256,192,47063,1,0,0:0:0:0:
256,192,47209,1,8,0:0:0:0:
256,192,47355,1,0,0:0:0:0:
256,192,47429,1,0,0:0:0:0:
256,192,47502,1,0,0:0:0:0:
256,192,47648,1,0,0:0:0:0:
256,192,47794,1,8,0:0:0:0:
256,192,47941,1,0,0:0:0:0:
256,192,48087,1,8,0:0:0:0:
256,192,48160,1,8,0:0:0:0:
256,192,48233,1,0,0:0:0:0:
256,192,48380,1,8,0:0:0:0:
256,192,48453,1,0,0:0:0:0:
256,192,48526,1,0,0:0:0:0:
256,192,48599,1,0,0:0:0:0:
256,192,48673,1,8,0:0:0:0:
256,192,48965,1,8,0:0:0:0:
256,192,49112,1,0,0:0:0:0:
256,192,49258,1,8,0:0:0:0:
256,192,49404,1,0,0:0:0:0:
256,192,49551,1,8,0:0:0:0:
256,192,49697,1,0,0:0:0:0:
256,192,49843,1,8,0:0:0:0:
256,192,49990,1,0,0:0:0:0:
256,192,50063,1,0,0:0:0:0:
256,192,50136,1,8,0:0:0:0:
256,192,50282,1,0,0:0:0:0:
256,192,50429,1,8,0:0:0:0:
256,192,50575,1,8,0:0:0:0:
256,192,50648,1,8,0:0:0:0:
256,192,50721,1,0,0:0:0:0:
256,192,50794,1,0,0:0:0:0:
256,192,50868,1,8,0:0:0:0:
256,192,50941,1,8,0:0:0:0:
256,192,51014,1,0,0:0:0:0:
256,192,52038,1,12,0:0:0:0:
256,192,52331,1,12,0:0:0:0:
256,192,52624,1,4,0:0:0:0:
256,192,53209,1,12,0:0:0:0:
256,192,53355,1,12,0:0:0:0:
256,192,53794,1,0,0:0:0:0:
256,192,53941,1,0,0:0:0:0:
224,192,54380,1,12,0:0:0:0:
224,192,54673,1,12,0:0:0:0:
224,192,54965,1,12,0:0:0:0:
256,192,55258,1,8,0:0:0:0:
256,192,55331,1,8,0:0:0:0:
256,192,55404,1,8,0:0:0:0:
256,192,55551,1,8,0:0:0:0:
256,192,55697,1,0,0:0:0:0:
256,192,65063,5,12,0:0:0:0:
256,192,65355,1,0,0:0:0:0:
256,192,65502,1,8,0:0:0:0:
256,192,65794,1,0,0:0:0:0:
256,192,65941,1,8,0:0:0:0:
256,192,66087,1,0,0:0:0:0:
256,192,66233,1,12,0:0:0:0:
256,192,66526,1,0,0:0:0:0:
256,192,66673,1,8,0:0:0:0:
256,192,66965,1,8,0:0:0:0:
256,192,67112,1,8,0:0:0:0:
256,192,67258,1,0,0:0:0:0:
256,192,67331,1,0,0:0:0:0:
256,192,67404,1,8,0:0:0:0:
256,192,67551,1,0,0:0:0:0:
256,192,67697,1,8,0:0:0:0:
256,192,67843,1,0,0:0:0:0:
256,192,67990,1,8,0:0:0:0:
256,192,68063,1,8,0:0:0:0:
256,192,68136,1,0,0:0:0:0:
256,192,68282,1,8,0:0:0:0:
256,192,68429,1,0,0:0:0:0:
256,192,68575,1,8,0:0:0:0:
256,192,68648,1,8,0:0:0:0:
256,192,68721,1,0,0:0:0:0:
256,192,68794,1,0,0:0:0:0:
256,192,68868,1,8,0:0:0:0:
256,192,69014,1,0,0:0:0:0:
256,192,69160,1,8,0:0:0:0:
256,192,69307,1,0,0:0:0:0:
256,192,69380,1,0,0:0:0:0:
256,192,69453,1,8,0:0:0:0:
256,192,69526,1,8,0:0:0:0:
256,192,69599,1,8,0:0:0:0:
256,192,69673,1,8,0:0:0:0:
256,192,69746,1,0,0:0:0:0:
256,192,69892,1,0,0:0:0:0:
256,192,70038,1,0,0:0:0:0:
256,192,70185,1,0,0:0:0:0:
256,192,70331,1,8,0:0:0:0:
256,192,70477,1,0,0:0:0:0:
256,192,70624,1,8,0:0:0:0:
256,192,70770,1,8,0:0:0:0:
256,192,70916,1,0,0:0:0:0:
256,192,71063,1,0,0:0:0:0:
256,192,71209,1,8,0:0:0:0:
256,192,71355,1,0,0:0:0:0:
256,192,71502,1,8,0:0:0:0:
256,192,71575,1,8,0:0:0:0:
256,192,71648,1,0,0:0:0:0:
256,192,71721,1,0,0:0:0:0:
256,192,71794,1,8,0:0:0:0:
256,192,71868,1,8,0:0:0:0:
256,192,71941,1,0,0:0:0:0:
256,192,72087,5,12,0:0:0:0:
256,192,72526,1,12,0:0:0:0:
256,192,72965,1,12,0:0:0:0:
256,192,73404,1,12,0:0:0:0:
256,192,73697,1,0,0:0:0:0:
256,192,73843,1,8,0:0:0:0:
256,192,73916,1,8,0:0:0:0:
256,192,73990,1,0,0:0:0:0:
256,192,74063,1,0,0:0:0:0:
256,192,74136,1,8,0:0:0:0:
256,192,74209,1,8,0:0:0:0:
256,192,74282,1,8,0:0:0:0:
256,192,74429,1,4,0:0:0:0:
256,192,75014,1,8,0:0:0:0:
256,192,75599,1,8,0:0:0:0:
256,192,75697,1,0,0:0:0:0:
256,192,75794,1,0,0:0:0:0:
256,192,75892,1,8,0:0:0:0:
256,192,75990,1,0,0:0:0:0:
256,192,76087,1,0,0:0:0:0:
256,192,76185,1,8,0:0:0:0:
256,192,76258,1,8,0:0:0:0:
256,192,76331,1,0,0:0:0:0:
256,192,76404,1,0,0:0:0:0:
256,192,76477,1,8,0:0:0:0:
256,192,76551,1,8,0:0:0:0:
256,192,76624,1,8,0:0:0:0:
256,192,76697,1,8,0:0:0:0:
256,192,76770,1,4,0:0:0:0:
256,192,77063,1,8,0:0:0:0:
256,192,77136,1,8,0:0:0:0:
256,192,77209,1,0,0:0:0:0:
256,192,77355,1,8,0:0:0:0:
256,192,77502,1,0,0:0:0:0:
256,192,77575,1,0,0:0:0:0:
256,192,77648,1,8,0:0:0:0:
256,192,77794,1,0,0:0:0:0:
256,192,77941,1,8,0:0:0:0:
256,192,78014,1,8,0:0:0:0:
256,192,78087,1,0,0:0:0:0:
256,192,78233,1,8,0:0:0:0:
256,192,78380,1,8,0:0:0:0:
256,192,78453,1,8,0:0:0:0:
256,192,78526,1,0,0:0:0:0:
256,192,78599,1,0,0:0:0:0:
256,192,78673,1,8,0:0:0:0:
256,192,78746,1,0,0:0:0:0:
256,192,78819,1,8,0:0:0:0:
256,192,78965,1,8,0:0:0:0:
256,192,79112,1,0,0:0:0:0:
256,192,79404,1,8,0:0:0:0:
256,192,79477,1,8,0:0:0:0:
256,192,79551,1,0,0:0:0:0:
256,192,79697,1,8,0:0:0:0:
256,192,79843,1,0,0:0:0:0:
256,192,79916,1,0,0:0:0:0:
256,192,79990,1,8,0:0:0:0:
256,192,80063,1,0,0:0:0:0:
256,192,80136,1,8,0:0:0:0:
256,192,80282,1,8,0:0:0:0:
256,192,80355,1,8,0:0:0:0:
256,192,80429,1,0,0:0:0:0:
256,192,80575,1,8,0:0:0:0:
256,192,80721,1,8,0:0:0:0:
256,192,80794,1,8,0:0:0:0:
256,192,80868,1,0,0:0:0:0:
256,192,80941,1,0,0:0:0:0:
256,192,81014,1,8,0:0:0:0:
256,192,81087,1,8,0:0:0:0:
256,192,81160,1,8,0:0:0:0:
256,192,81307,1,8,0:0:0:0:
256,192,81453,1,0,0:0:0:0:
256,192,81746,1,8,0:0:0:0:
256,192,81819,1,8,0:0:0:0:
256,192,81892,1,0,0:0:0:0:
256,192,82038,1,8,0:0:0:0:
256,192,82185,1,8,0:0:0:0:
256,192,82258,1,8,0:0:0:0:
256,192,82331,1,0,0:0:0:0:
256,192,82477,1,0,0:0:0:0:
256,192,82624,1,8,0:0:0:0:
256,192,82697,1,8,0:0:0:0:
256,192,82770,1,0,0:0:0:0:
256,192,82843,1,0,0:0:0:0:
256,192,82916,1,8,0:0:0:0:
256,192,83063,1,8,0:0:0:0:
256,192,83136,1,8,0:0:0:0:
256,192,83209,1,0,0:0:0:0:
256,192,83282,1,0,0:0:0:0:
256,192,83355,1,8,0:0:0:0:
256,192,83429,1,0,0:0:0:0:
256,192,83502,1,8,0:0:0:0:
256,192,83575,1,8,0:0:0:0:
256,192,83648,1,0,0:0:0:0:
256,192,83721,1,0,0:0:0:0:
256,192,83794,1,8,0:0:0:0:
256,192,84014,1,0,0:0:0:0:
256,192,84087,1,8,0:0:0:0:
256,192,84233,1,0,0:0:0:0:
256,192,84307,1,0,0:0:0:0:
256,192,84380,1,8,0:0:0:0:
256,192,84453,1,0,0:0:0:0:
256,192,84526,1,8,0:0:0:0:
256,192,84599,1,8,0:0:0:0:
256,192,84673,1,0,0:0:0:0:
256,192,84819,1,0,0:0:0:0:
256,192,84965,1,8,0:0:0:0:
256,192,85038,1,8,0:0:0:0:
256,192,85112,1,8,0:0:0:0:
256,192,85185,1,0,0:0:0:0:
256,192,85258,1,8,0:0:0:0:
256,192,85331,1,8,0:0:0:0:
256,192,85404,1,0,0:0:0:0:
256,192,85477,1,0,0:0:0:0:
256,192,85551,1,8,0:0:0:0:
256,192,85624,1,8,0:0:0:0:
256,192,85697,1,8,0:0:0:0:
256,192,85770,1,8,0:0:0:0:
256,192,85843,1,0,0:0:0:0:
256,192,85990,1,8,0:0:0:0:
256,192,86136,1,4,0:0:0:0:
256,192,86429,1,8,0:0:0:0:
256,192,86575,1,8,0:0:0:0:
256,192,86721,1,0,0:0:0:0:
256,192,86868,1,8,0:0:0:0:
256,192,87014,1,8,0:0:0:0:
256,192,87160,1,8,0:0:0:0:
256,192,87307,1,0,0:0:0:0:
256,192,87453,1,0,0:0:0:0:
256,192,87526,1,0,0:0:0:0:
256,192,87599,1,8,0:0:0:0:
256,192,87746,1,8,0:0:0:0:
256,192,87819,1,8,0:0:0:0:
256,192,87892,1,0,0:0:0:0:
256,192,88038,1,8,0:0:0:0:
256,192,88185,1,8,0:0:0:0:
256,192,88331,1,8,0:0:0:0:
256,192,88477,1,0,0:0:0:0:
256,192,88770,1,8,0:0:0:0:
256,192,88916,1,8,0:0:0:0:
256,192,88990,1,8,0:0:0:0:
256,192,89063,1,0,0:0:0:0:
256,192,89209,1,0,0:0:0:0:
256,192,89355,1,8,0:0:0:0:
256,192,89429,1,8,0:0:0:0:
256,192,89502,1,0,0:0:0:0:
256,192,89575,1,0,0:0:0:0:
256,192,89648,1,8,0:0:0:0:
256,192,89794,1,0,0:0:0:0:
256,192,89941,1,8,0:0:0:0:
256,192,90087,1,8,0:0:0:0:
256,192,90233,1,0,0:0:0:0:
256,192,90380,1,8,0:0:0:0:
256,192,90453,1,8,0:0:0:0:
256,192,90526,1,8,0:0:0:0:
256,192,90673,1,8,0:0:0:0:
256,192,90819,1,0,0:0:0:0:
256,192,91112,1,8,0:0:0:0:
256,192,91258,1,8,0:0:0:0:
256,192,91404,1,0,0:0:0:0:
256,192,91551,1,8,0:0:0:0:
256,192,91697,1,8,0:0:0:0:
256,192,91843,1,0,0:0:0:0:
256,192,91990,1,8,0:0:0:0:
256,192,92063,1,8,0:0:0:0:
256,192,92136,1,0,0:0:0:0:
256,192,92282,1,8,0:0:0:0:
256,192,92429,1,8,0:0:0:0:
256,192,92502,1,8,0:0:0:0:
256,192,92575,1,0,0:0:0:0:
256,192,92721,1,0,0:0:0:0:
256,192,92868,1,8,0:0:0:0:
256,192,92941,1,8,0:0:0:0:
256,192,93014,1,0,0:0:0:0:
256,192,93160,1,8,0:0:0:0:
256,192,93233,1,8,0:0:0:0:
256,192,93307,1,8,0:0:0:0:
256,192,93380,1,8,0:0:0:0:
256,192,93453,1,0,0:0:0:0:
256,192,93526,1,0,0:0:0:0:
256,192,93599,1,8,0:0:0:0:
256,192,93673,1,8,0:0:0:0:
256,192,93746,1,0,0:0:0:0:
256,192,93819,1,0,0:0:0:0:
256,192,93892,1,8,0:0:0:0:
256,192,93965,1,8,0:0:0:0:
256,192,94038,1,8,0:0:0:0:
256,192,94112,1,8,0:0:0:0:
256,192,94185,1,0,0:0:0:0:
256,192,94258,1,0,0:0:0:0:
256,192,94331,1,8,0:0:0:0:
256,192,94916,1,8,0:0:0:0:
256,192,95502,1,0,0:0:0:0:
256,192,96087,1,12,0:0:0:0:
256,192,96233,1,0,0:0:0:0:
256,192,96380,1,0,0:0:0:0:
256,192,96526,1,8,0:0:0:0:
256,192,96599,1,8,0:0:0:0:
256,192,96673,1,0,0:0:0:0:
256,192,96819,1,8,0:0:0:0:
256,192,96892,1,8,0:0:0:0:
256,192,96965,1,8,0:0:0:0:
256,192,97112,1,0,0:0:0:0:
256,192,97258,1,8,0:0:0:0:
256,192,97331,1,8,0:0:0:0:
256,192,97404,1,0,0:0:0:0:
256,192,97477,1,0,0:0:0:0:
256,192,97551,1,8,0:0:0:0:
256,192,97624,1,0,0:0:0:0:
256,192,97697,1,0,0:0:0:0:
256,192,97843,1,12,0:0:0:0:
256,192,99599,1,8,0:0:0:0:
256,192,99673,1,8,0:0:0:0:
256,192,99746,1,0,0:0:0:0:
256,192,99819,1,0,0:0:0:0:
256,192,99892,1,8,0:0:0:0:
256,192,100185,1,4,0:0:0:0:
256,192,100477,1,8,0:0:0:0:
256,192,100770,1,0,0:0:0:0:
256,192,100916,1,0,0:0:0:0:
256,192,101063,1,8,0:0:0:0:
256,192,101209,1,8,0:0:0:0:
256,192,101282,1,8,0:0:0:0:
256,192,101355,1,0,0:0:0:0:
256,192,101502,1,0,0:0:0:0:
256,192,101575,1,0,0:0:0:0:
256,192,101648,1,8,0:0:0:0:
256,192,101721,1,0,0:0:0:0:
256,192,101794,1,8,0:0:0:0:
256,192,101868,1,8,0:0:0:0:
256,192,101941,1,0,0:0:0:0:
256,192,102087,1,0,0:0:0:0:
256,192,102233,1,8,0:0:0:0:
256,192,102307,1,8,0:0:0:0:
256,192,102380,1,8,0:0:0:0:
256,192,102526,1,4,0:0:0:0:
256,192,102819,1,8,0:0:0:0:
256,192,102892,1,8,0:0:0:0:
256,192,102965,1,8,0:0:0:0:
256,192,103112,1,0,0:0:0:0:
256,192,103185,1,0,0:0:0:0:
256,192,103258,1,8,0:0:0:0:
256,192,103404,1,8,0:0:0:0:
256,192,103551,1,0,0:0:0:0:
256,192,103624,1,0,0:0:0:0:
256,192,103697,1,0,0:0:0:0:
256,192,103843,1,8,0:0:0:0:
256,192,103916,1,8,0:0:0:0:
256,192,103990,1,0,0:0:0:0:
256,192,104136,1,0,0:0:0:0:
256,192,104282,1,8,0:0:0:0:
256,192,104355,1,8,0:0:0:0:
256,192,104429,1,0,0:0:0:0:
256,192,104502,1,0,0:0:0:0:
256,192,104575,1,8,0:0:0:0:
256,192,104868,1,4,0:0:0:0:
256,192,105160,1,8,0:0:0:0:
256,192,105307,1,0,0:0:0:0:
256,192,105453,1,8,0:0:0:0:
256,192,105599,1,0,0:0:0:0:
256,192,105746,1,8,0:0:0:0:
256,192,105892,1,0,0:0:0:0:
256,192,106038,1,8,0:0:0:0:
256,192,106185,1,0,0:0:0:0:
256,192,106258,1,0,0:0:0:0:
256,192,106331,1,8,0:0:0:0:
256,192,106477,1,0,0:0:0:0:
256,192,106624,1,8,0:0:0:0:
256,192,106697,1,8,0:0:0:0:
256,192,106770,1,0,0:0:0:0:
256,192,106843,1,0,0:0:0:0:
256,192,106916,1,8,0:0:0:0:
256,192,106990,1,0,0:0:0:0:
256,192,107063,1,8,0:0:0:0:
256,192,108233,1,0,0:0:0:0:
256,192,108307,1,0,0:0:0:0:
256,192,108380,1,8,0:0:0:0:
256,192,108526,1,0,0:0:0:0:
256,192,108673,1,0,0:0:0:0:
256,192,108819,1,8,0:0:0:0:
256,192,108892,1,8,0:0:0:0:
256,192,108965,1,0,0:0:0:0:
256,192,109112,1,8,0:0:0:0:
256,192,109258,1,0,0:0:0:0:
256,192,109331,1,0,0:0:0:0:
256,192,109404,1,0,0:0:0:0:
256,192,109477,1,0,0:0:0:0:
256,192,109551,1,12,0:0:0:0:
256,192,110721,1,12,0:0:0:0:
256,192,110868,1,0,0:0:0:0:
256,192,111014,1,0,0:0:0:0:
256,192,111160,1,12,0:0:0:0:
256,192,111453,1,8,0:0:0:0:
256,192,111526,1,8,0:0:0:0:
256,192,111599,1,0,0:0:0:0:
256,192,111673,1,0,0:0:0:0:
256,192,111746,1,8,0:0:0:0:
256,192,112038,1,8,0:0:0:0:
256,192,112185,1,0,0:0:0:0:
256,192,112331,1,8,0:0:0:0:
256,192,112624,1,0,0:0:0:0:
256,192,112697,1,0,0:0:0:0:
256,192,112770,1,0,0:0:0:0:
256,192,112916,1,8,0:0:0:0:
256,192,113209,1,0,0:0:0:0:
256,192,113355,1,0,0:0:0:0:
256,192,113502,1,8,0:0:0:0:
256,192,113648,1,8,0:0:0:0:
256,192,113721,1,8,0:0:0:0:
256,192,113794,1,0,0:0:0:0:
256,192,113941,1,8,0:0:0:0:
256,192,114087,1,0,0:0:0:0:
256,192,114233,1,8,0:0:0:0:
256,192,114526,1,8,0:0:0:0:
256,192,114819,1,0,0:0:0:0:
256,192,114965,1,0,0:0:0:0:
256,192,115112,1,8,0:0:0:0:
256,192,115258,1,8,0:0:0:0:
256,192,115331,1,0,0:0:0:0:
256,192,115404,1,0,0:0:0:0:
256,192,115477,1,0,0:0:0:0:
256,192,115551,1,8,0:0:0:0:
256,192,115697,1,8,0:0:0:0:
256,192,115843,1,0,0:0:0:0:
256,192,116136,1,0,0:0:0:0:
256,192,116282,1,8,0:0:0:0:
256,192,116429,1,8,0:0:0:0:
256,192,116575,1,0,0:0:0:0:
256,192,116868,1,0,0:0:0:0:
256,192,117014,1,0,0:0:0:0:
256,192,117160,1,8,0:0:0:0:
256,192,117307,1,0,0:0:0:0:
256,192,117453,1,8,0:0:0:0:
256,192,117599,1,0,0:0:0:0:
256,192,117746,1,8,0:0:0:0:
256,192,117892,1,0,0:0:0:0:
256,192,117965,1,0,0:0:0:0:
256,192,118038,1,8,0:0:0:0:
256,192,118185,1,8,0:0:0:0:
256,192,118258,1,8,0:0:0:0:
256,192,118331,1,0,0:0:0:0:
256,192,118477,1,0,0:0:0:0:
256,192,118624,1,8,0:0:0:0:
256,192,118770,1,0,0:0:0:0:
256,192,118916,1,8,0:0:0:0:
256,192,118990,1,0,0:0:0:0:
256,192,119063,1,0,0:0:0:0:
256,192,119136,1,0,0:0:0:0:
256,192,119209,1,8,0:0:0:0:
256,192,119282,1,8,0:0:0:0:
256,192,119355,1,8,0:0:0:0:
256,192,119429,1,8,0:0:0:0:
256,192,119502,1,0,0:0:0:0:
256,192,119575,1,0,0:0:0:0:
256,192,119648,1,0,0:0:0:0:
256,192,119721,1,0,0:0:0:0:
256,192,119794,1,8,0:0:0:0:
256,192,119941,1,0,0:0:0:0:
256,192,120087,1,8,0:0:0:0:
256,192,120160,1,8,0:0:0:0:
256,192,120233,1,8,0:0:0:0:
256,192,120307,1,0,0:0:0:0:
256,192,120380,1,8,0:0:0:0:
256,192,120526,1,0,0:0:0:0:
256,192,120673,1,8,0:0:0:0:
256,192,120746,1,8,0:0:0:0:
256,192,120819,1,0,0:0:0:0:
256,192,120892,1,0,0:0:0:0:
256,192,120965,1,8,0:0:0:0:
256,192,121112,1,0,0:0:0:0:
256,192,121258,1,12,0:0:0:0:
256,192,121404,1,0,0:0:0:0:
256,192,121477,1,0,0:0:0:0:
256,192,121551,1,8,0:0:0:0:
256,192,121624,1,8,0:0:0:0:
256,192,121697,1,0,0:0:0:0:
256,192,121770,1,0,0:0:0:0:
256,192,121843,1,8,0:0:0:0:
256,192,121916,1,8,0:0:0:0:
256,192,121990,1,8,0:0:0:0:
256,192,122063,1,8,0:0:0:0:
256,192,122136,1,0,0:0:0:0:
256,192,122282,1,8,0:0:0:0:
256,192,122429,1,4,0:0:0:0:
256,192,122721,1,8,0:0:0:0:
256,192,123014,1,0,0:0:0:0:
256,192,123160,1,0,0:0:0:0:
256,192,123307,1,8,0:0:0:0:
256,192,123453,1,8,0:0:0:0:
256,192,123526,1,8,0:0:0:0:
256,192,123599,1,0,0:0:0:0:
256,192,123746,1,8,0:0:0:0:
256,192,123892,1,0,0:0:0:0:
256,192,124038,1,8,0:0:0:0:
256,192,124112,1,8,0:0:0:0:
256,192,124185,1,0,0:0:0:0:
256,192,124258,1,0,0:0:0:0:
256,192,124331,1,8,0:0:0:0:
256,192,124404,1,0,0:0:0:0:
256,192,124477,1,8,0:0:0:0:
256,192,124624,1,0,0:0:0:0:
256,192,124770,1,8,0:0:0:0:
256,192,125063,1,8,0:0:0:0:
256,192,125282,1,8,0:0:0:0:
256,192,125355,1,0,0:0:0:0:
256,192,125502,1,8,0:0:0:0:
256,192,125575,1,8,0:0:0:0:
256,192,125648,1,0,0:0:0:0:
256,192,125794,1,8,0:0:0:0:
256,192,126087,1,0,0:0:0:0:
256,192,126233,1,8,0:0:0:0:
256,192,126380,1,0,0:0:0:0:
256,192,126526,1,8,0:0:0:0:
256,192,126599,1,8,0:0:0:0:
256,192,126673,1,8,0:0:0:0:
256,192,126819,1,8,0:0:0:0:
256,192,126892,1,8,0:0:0:0:
256,192,126965,1,8,0:0:0:0:
256,192,127112,1,0,0:0:0:0:
256,192,127258,1,0,0:0:0:0:
256,192,127404,1,8,0:0:0:0:
256,192,127551,1,0,0:0:0:0:
256,192,127843,1,0,0:0:0:0:
256,192,127990,1,8,0:0:0:0:
256,192,128136,1,8,0:0:0:0:
256,192,128209,1,8,0:0:0:0:
256,192,128282,1,0,0:0:0:0:
256,192,128429,1,0,0:0:0:0:
256,192,128575,1,8,0:0:0:0:
256,192,128721,1,0,0:0:0:0:
256,192,128868,1,8,0:0:0:0:
256,192,128941,1,8,0:0:0:0:
256,192,129014,1,0,0:0:0:0:
256,192,129160,1,8,0:0:0:0:
256,192,129233,1,8,0:0:0:0:
256,192,129307,1,0,0:0:0:0:
256,192,129380,1,0,0:0:0:0:
256,192,129453,1,8,0:0:0:0:
256,192,129746,1,8,0:0:0:0:
256,192,129892,1,0,0:0:0:0:
256,192,130038,1,8,0:0:0:0:
256,192,130185,1,0,0:0:0:0:
256,192,130331,1,8,0:0:0:0:
256,192,130477,1,0,0:0:0:0:
256,192,130624,1,8,0:0:0:0:
256,192,130697,1,0,0:0:0:0:
256,192,130770,1,0,0:0:0:0:
256,192,130843,1,0,0:0:0:0:
256,192,130916,1,8,0:0:0:0:
256,192,131063,1,0,0:0:0:0:
256,192,131209,1,8,0:0:0:0:
256,192,131282,1,8,0:0:0:0:
256,192,131355,1,8,0:0:0:0:
256,192,131429,1,8,0:0:0:0:
256,192,131502,1,0,0:0:0:0:
256,192,131575,1,0,0:0:0:0:
256,192,131648,1,8,0:0:0:0:
256,192,131721,1,8,0:0:0:0:
256,192,131794,1,0,0:0:0:0:
256,192,132819,1,12,0:0:0:0:
256,192,133112,1,12,0:0:0:0:
256,192,133404,1,4,0:0:0:0:
256,192,133990,1,12,0:0:0:0:
256,192,134136,1,12,0:0:0:0:
256,192,134575,1,0,0:0:0:0:
256,192,134721,1,0,0:0:0:0:
256,192,135160,1,12,0:0:0:0:
256,192,135453,1,12,0:0:0:0:
256,192,135746,1,12,0:0:0:0:
256,192,136038,1,0,0:0:0:0:
256,192,136112,1,0,0:0:0:0:
256,192,136185,1,8,0:0:0:0:
256,192,136331,1,8,0:0:0:0:
256,192,136477,1,0,0:0:0:0:
256,192,145843,5,12,0:0:0:0:
256,192,146136,1,0,0:0:0:0:
256,192,146282,1,8,0:0:0:0:
256,192,146575,1,0,0:0:0:0:
256,192,146721,1,8,0:0:0:0:
256,192,146868,1,0,0:0:0:0:
256,192,147014,1,12,0:0:0:0:
256,192,147307,1,0,0:0:0:0:
256,192,147453,1,8,0:0:0:0:
256,192,147746,1,0,0:0:0:0:
256,192,147892,1,8,0:0:0:0:
256,192,147965,1,8,0:0:0:0:
256,192,148038,1,0,0:0:0:0:
256,192,148112,1,0,0:0:0:0:
256,192,148185,1,8,0:0:0:0:
256,192,148331,1,0,0:0:0:0:
256,192,148477,1,8,0:0:0:0:
256,192,148624,1,0,0:0:0:0:
256,192,148770,1,8,0:0:0:0:
256,192,148843,1,8,0:0:0:0:
256,192,148916,1,0,0:0:0:0:
256,192,149063,1,8,0:0:0:0:
256,192,149209,1,0,0:0:0:0:
256,192,149355,1,8,0:0:0:0:
256,192,149429,1,0,0:0:0:0:
256,192,149502,1,8,0:0:0:0:
256,192,149575,1,8,0:0:0:0:
256,192,149648,1,0,0:0:0:0:
256,192,149794,1,8,0:0:0:0:
256,192,149941,1,0,0:0:0:0:
256,192,150087,1,8,0:0:0:0:
256,192,150160,1,8,0:0:0:0:
256,192,150233,1,0,0:0:0:0:
256,192,150307,1,0,0:0:0:0:
256,192,150380,1,0,0:0:0:0:
256,192,150453,1,0,0:0:0:0:
256,192,150526,1,8,0:0:0:0:
256,192,150673,1,0,0:0:0:0:
256,192,150819,1,8,0:0:0:0:
256,192,150965,1,8,0:0:0:0:
256,192,151112,1,0,0:0:0:0:
256,192,151258,1,0,0:0:0:0:
256,192,151404,1,8,0:0:0:0:
256,192,151551,1,8,0:0:0:0:
256,192,151697,1,8,0:0:0:0:
256,192,151843,1,0,0:0:0:0:
256,192,151990,1,8,0:0:0:0:
256,192,152136,1,0,0:0:0:0:
256,192,152282,1,8,0:0:0:0:
256,192,152355,1,8,0:0:0:0:
256,192,152429,1,0,0:0:0:0:
256,192,152502,1,0,0:0:0:0:
256,192,152575,1,8,0:0:0:0:
256,192,152648,1,8,0:0:0:0:
256,192,152721,1,0,0:0:0:0:
256,192,152868,5,12,0:0:0:0:
256,192,153307,1,12,0:0:0:0:
256,192,153746,1,12,0:0:0:0:
256,192,154185,1,12,0:0:0:0:
256,192,154477,1,0,0:0:0:0:
256,192,154624,1,8,0:0:0:0:
256,192,154697,1,8,0:0:0:0:
256,192,154770,1,0,0:0:0:0:
256,192,154843,1,0,0:0:0:0:
256,192,154916,1,8,0:0:0:0:
256,192,154990,1,8,0:0:0:0:
256,192,155063,1,8,0:0:0:0:
256,192,155209,1,4,0:0:0:0:
256,192,155794,1,8,0:0:0:0:
256,192,156380,1,8,0:0:0:0:
256,192,156477,1,0,0:0:0:0:
256,192,156575,1,0,0:0:0:0:
256,192,156673,1,8,0:0:0:0:
256,192,156770,1,0,0:0:0:0:
256,192,156868,1,0,0:0:0:0:
256,192,156965,1,8,0:0:0:0:
256,192,157038,1,8,0:0:0:0:
256,192,157112,1,0,0:0:0:0:
256,192,157185,1,0,0:0:0:0:
256,192,157258,1,8,0:0:0:0:
256,192,157331,1,8,0:0:0:0:
256,192,157404,1,8,0:0:0:0:
256,192,157477,1,8,0:0:0:0:
256,192,157551,1,4,0:0:0:0:
256,192,157843,1,8,0:0:0:0:
256,192,157916,1,0,0:0:0:0:
256,192,157990,1,8,0:0:0:0:
256,192,158136,1,8,0:0:0:0:
256,192,158282,1,8,0:0:0:0:
256,192,158355,1,8,0:0:0:0:
256,192,158429,1,0,0:0:0:0:
256,192,158575,1,0,0:0:0:0:
256,192,158721,1,8,0:0:0:0:
256,192,158794,1,8,0:0:0:0:
256,192,158868,1,0,0:0:0:0:
256,192,158941,1,0,0:0:0:0:
256,192,159014,1,8,0:0:0:0:
256,192,159160,1,8,0:0:0:0:
256,192,159233,1,8,0:0:0:0:
256,192,159307,1,0,0:0:0:0:
256,192,159380,1,0,0:0:0:0:
256,192,159453,1,8,0:0:0:0:
256,192,159526,1,0,0:0:0:0:
256,192,159599,1,8,0:0:0:0:
256,192,159673,1,8,0:0:0:0:
256,192,159746,1,0,0:0:0:0:
256,192,159892,1,8,0:0:0:0:
256,192,160185,1,8,0:0:0:0:
256,192,160258,1,8,0:0:0:0:
256,192,160331,1,0,0:0:0:0:
256,192,160477,1,8,0:0:0:0:
256,192,160624,1,8,0:0:0:0:
256,192,160697,1,8,0:0:0:0:
256,192,160770,1,0,0:0:0:0:
256,192,160843,1,0,0:0:0:0:
256,192,160916,1,8,0:0:0:0:
256,192,161063,1,8,0:0:0:0:
256,192,161136,1,8,0:0:0:0:
256,192,161209,1,0,0:0:0:0:
256,192,161355,1,8,0:0:0:0:
256,192,161502,1,8,0:0:0:0:
256,192,161575,1,0,0:0:0:0:
256,192,161648,1,0,0:0:0:0:
256,192,161721,1,0,0:0:0:0:
256,192,161794,1,8,0:0:0:0:
256,192,161868,1,0,0:0:0:0:
256,192,161941,1,8,0:0:0:0:
256,192,162087,1,8,0:0:0:0:
256,192,162233,1,0,0:0:0:0:
256,192,162526,1,8,0:0:0:0:
256,192,162599,1,8,0:0:0:0:
256,192,162673,1,0,0:0:0:0:
256,192,162819,1,8,0:0:0:0:
256,192,162965,1,8,0:0:0:0:
256,192,163038,1,8,0:0:0:0:
256,192,163112,1,0,0:0:0:0:
256,192,163258,1,0,0:0:0:0:
256,192,163404,1,8,0:0:0:0:
256,192,163477,1,8,0:0:0:0:
256,192,163551,1,0,0:0:0:0:
256,192,163624,1,0,0:0:0:0:
256,192,163697,1,8,0:0:0:0:
256,192,163843,1,8,0:0:0:0:
256,192,163916,1,8,0:0:0:0:
256,192,163990,1,0,0:0:0:0:
256,192,164063,1,0,0:0:0:0:
256,192,164136,1,8,0:0:0:0:
256,192,164209,1,0,0:0:0:0:
256,192,164282,1,8,0:0:0:0:
256,192,164355,1,8,0:0:0:0:
256,192,164429,1,0,0:0:0:0:
256,192,164502,1,0,0:0:0:0:
256,192,164575,1,8,0:0:0:0:
256,192,164794,1,0,0:0:0:0:
256,192,164868,1,8,0:0:0:0:
256,192,165014,1,0,0:0:0:0:
256,192,165087,1,0,0:0:0:0:
256,192,165160,1,8,0:0:0:0:
256,192,165233,1,0,0:0:0:0:
256,192,165307,1,8,0:0:0:0:
256,192,165380,1,8,0:0:0:0:
256,192,165453,1,0,0:0:0:0:
256,192,165599,1,0,0:0:0:0:
256,192,165746,1,8,0:0:0:0:
256,192,165819,1,8,0:0:0:0:
256,192,165892,1,8,0:0:0:0:
256,192,165965,1,0,0:0:0:0:
256,192,166038,1,8,0:0:0:0:
256,192,166112,1,8,0:0:0:0:
256,192,166185,1,0,0:0:0:0:
256,192,166258,1,0,0:0:0:0:
256,192,166331,1,8,0:0:0:0:
256,192,166404,1,8,0:0:0:0:
256,192,166477,1,8,0:0:0:0:
256,192,166551,1,8,0:0:0:0:
256,192,166624,1,0,0:0:0:0:
256,192,166770,1,8,0:0:0:0:
256,192,166916,1,4,0:0:0:0:
256,192,167209,1,8,0:0:0:0:
256,192,167355,1,8,0:0:0:0:
256,192,167502,1,0,0:0:0:0:
256,192,167648,1,8,0:0:0:0:
256,192,167794,1,8,0:0:0:0:
256,192,167941,1,0,0:0:0:0:
256,192,168087,1,8,0:0:0:0:
256,192,168160,1,8,0:0:0:0:
256,192,168233,1,0,0:0:0:0:
256,192,168380,1,8,0:0:0:0:
256,192,168526,1,0,0:0:0:0:
256,192,168599,1,0,0:0:0:0:
256,192,168673,1,8,0:0:0:0:
256,192,168746,1,8,0:0:0:0:
256,192,168819,1,8,0:0:0:0:
256,192,168965,1,8,0:0:0:0:
256,192,169112,1,8,0:0:0:0:
256,192,169258,1,0,0:0:0:0:
256,192,169551,1,8,0:0:0:0:
256,192,169697,1,8,0:0:0:0:
256,192,169770,1,8,0:0:0:0:
256,192,169843,1,0,0:0:0:0:
256,192,169990,1,0,0:0:0:0:
256,192,170063,1,0,0:0:0:0:
256,192,170136,1,8,0:0:0:0:
256,192,170282,1,0,0:0:0:0:
256,192,170429,1,8,0:0:0:0:
256,192,170502,1,8,0:0:0:0:
256,192,170575,1,0,0:0:0:0:
256,192,170721,1,8,0:0:0:0:
256,192,170868,1,0,0:0:0:0:
256,192,171014,1,0,0:0:0:0:
256,192,171087,1,0,0:0:0:0:
256,192,171160,1,0,0:0:0:0:
256,192,171233,1,0,0:0:0:0:
256,192,171307,1,8,0:0:0:0:
256,192,171453,1,8,0:0:0:0:
256,192,171599,1,4,0:0:0:0:
256,192,171892,1,8,0:0:0:0:
256,192,172038,1,8,0:0:0:0:
256,192,172185,1,0,0:0:0:0:
256,192,172331,1,8,0:0:0:0:
256,192,172477,1,8,0:0:0:0:
256,192,172624,1,0,0:0:0:0:
256,192,172770,1,8,0:0:0:0:
256,192,172843,1,8,0:0:0:0:
256,192,172916,1,0,0:0:0:0:
256,192,173063,1,8,0:0:0:0:
256,192,173209,1,8,0:0:0:0:
256,192,173282,1,8,0:0:0:0:
256,192,173355,1,0,0:0:0:0:
256,192,173502,1,0,0:0:0:0:
256,192,173648,1,8,0:0:0:0:
256,192,173721,1,8,0:0:0:0:
256,192,173794,1,0,0:0:0:0:
256,192,173868,1,0,0:0:0:0:
256,192,173941,1,8,0:0:0:0:
256,192,174014,1,8,0:0:0:0:
256,192,174087,1,8,0:0:0:0:
256,192,174160,1,8,0:0:0:0:
256,192,174233,1,0,0:0:0:0:
256,192,174307,1,0,0:0:0:0:
256,192,174380,1,8,0:0:0:0:
256,192,174453,1,8,0:0:0:0:
256,192,174526,1,0,0:0:0:0:
256,192,174599,1,0,0:0:0:0:
256,192,174673,1,8,0:0:0:0:
256,192,174746,1,8,0:0:0:0:
256,192,174819,1,8,0:0:0:0:
256,192,174892,1,8,0:0:0:0:
256,192,174965,1,0,0:0:0:0:
256,192,175038,1,0,0:0:0:0:
256,192,175112,1,8,0:0:0:0:
256,192,175258,1,0,0:0:0:0:
256,192,175404,1,8,0:0:0:0:
256,192,175551,1,0,0:0:0:0:
256,192,175697,1,8,0:0:0:0:
256,192,175770,1,8,0:0:0:0:
256,192,175843,1,8,0:0:0:0:
256,192,175916,1,8,0:0:0:0:
256,192,175990,1,0,0:0:0:0:
256,192,176063,1,0,0:0:0:0:
256,192,176136,1,0,0:0:0:0:
256,192,176209,1,0,0:0:0:0:
256,192,176282,1,8,0:0:0:0:
256,192,176575,1,8,0:0:0:0:
256,192,176721,1,0,0:0:0:0:
256,192,176868,1,8,0:0:0:0:
256,192,177014,1,8,0:0:0:0:
256,192,177087,1,8,0:0:0:0:
256,192,177160,1,0,0:0:0:0:
256,192,177307,1,8,0:0:0:0:
256,192,177380,1,8,0:0:0:0:
256,192,177453,1,0,0:0:0:0:
256,192,177526,1,0,0:0:0:0:
256,192,177599,1,8,0:0:0:0:
256,192,177746,1,0,0:0:0:0:
256,192,177819,1,0,0:0:0:0:
256,192,177892,1,8,0:0:0:0:
256,192,177965,1,0,0:0:0:0:
256,192,178038,1,8,0:0:0:0:
256,192,178112,1,8,0:0:0:0:
256,192,178185,1,0,0:0:0:0:
256,192,178258,1,0,0:0:0:0:
256,192,178331,1,8,0:0:0:0:
256,192,178477,1,0,0:0:0:0:
256,192,178624,1,12,0:0:0:0:
256,192,178916,1,0,0:0:0:0:
256,192,179063,1,0,0:0:0:0:
256,192,179209,1,8,0:0:0:0:
256,192,179355,1,0,0:0:0:0:
256,192,179502,1,8,0:0:0:0:
256,192,179648,1,8,0:0:0:0:
256,192,179941,1,0,0:0:0:0:
256,192,180087,1,8,0:0:0:0:
256,192,180233,1,0,0:0:0:0:
256,192,180526,1,0,0:0:0:0:
256,192,180673,1,8,0:0:0:0:
256,192,180819,1,8,0:0:0:0:
256,192,180965,1,0,0:0:0:0:
256,192,181112,1,0,0:0:0:0:
256,192,181258,1,8,0:0:0:0:
256,192,181404,1,0,0:0:0:0:
256,192,181551,1,8,0:0:0:0:
256,192,181697,1,8,0:0:0:0:
256,192,181843,1,0,0:0:0:0:
256,192,181990,1,0,0:0:0:0:
256,192,182136,1,8,0:0:0:0:
256,192,182282,1,0,0:0:0:0:
256,192,182429,1,8,0:0:0:0:
256,192,182575,1,8,0:0:0:0:
256,192,182721,1,0,0:0:0:0:
256,192,182868,1,0,0:0:0:0:
256,192,183014,1,8,0:0:0:0:
256,192,183160,1,0,0:0:0:0:
256,192,183453,1,0,0:0:0:0:
256,192,183599,1,8,0:0:0:0:
256,192,183746,1,8,0:0:0:0:
256,192,183892,1,0,0:0:0:0:
256,192,184038,1,8,0:0:0:0:
256,192,184185,1,8,0:0:0:0:
256,192,184331,1,0,0:0:0:0:
256,192,184477,1,8,0:0:0:0:
256,192,184624,1,0,0:0:0:0:
256,192,184770,1,0,0:0:0:0:
256,192,184916,1,8,0:0:0:0:
256,192,185063,1,0,0:0:0:0:
256,192,185209,1,0,0:0:0:0:
256,192,185355,1,8,0:0:0:0:
256,192,185502,1,8,0:0:0:0:
256,192,185941,1,8,0:0:0:0:
256,192,186087,1,8,0:0:0:0:
256,192,186233,1,0,0:0:0:0:
256,192,186380,1,0,0:0:0:0:
256,192,186526,1,8,0:0:0:0:
256,192,186673,1,0,0:0:0:0:
256,192,186819,1,8,0:0:0:0:
256,192,187112,1,0,0:0:0:0:
256,192,187258,1,8,0:0:0:0:
256,192,187551,1,0,0:0:0:0:
256,192,187697,1,8,0:0:0:0:
256,192,187843,1,8,0:0:0:0:
256,192,188282,5,8,0:0:0:0:
256,192,188429,1,0,0:0:0:0:
256,192,188575,1,8,0:0:0:0:
256,192,188868,1,0,0:0:0:0:
256,192,189160,1,0,0:0:0:0:
256,192,189453,1,8,0:0:0:0:
256,192,189599,1,0,0:0:0:0:
256,192,189746,1,8,0:0:0:0:
256,192,190038,1,0,0:0:0:0:
256,192,190331,1,0,0:0:0:0:
256,192,190624,1,8,0:0:0:0:
256,192,190770,1,0,0:0:0:0:
256,192,190916,1,8,0:0:0:0:
256,192,191209,1,0,0:0:0:0:
256,192,191502,1,0,0:0:0:0:
256,192,191648,1,8,0:0:0:0:
256,192,191721,1,8,0:0:0:0:
256,192,191794,1,0,0:0:0:0:
256,192,191868,1,0,0:0:0:0:
256,192,191941,1,0,0:0:0:0:
256,192,192014,1,0,0:0:0:0:
256,192,192087,1,8,0:0:0:0:
256,192,192160,1,8,0:0:0:0:
256,192,192233,1,0,0:0:0:0:
256,192,192307,1,0,0:0:0:0:
256,192,192380,1,8,0:0:0:0:
256,192,192673,1,4,0:0:0:0:
256,192,192965,1,8,0:0:0:0:
256,192,193038,1,8,0:0:0:0:
256,192,193112,1,0,0:0:0:0:
256,192,193185,1,0,0:0:0:0:
256,192,193258,1,8,0:0:0:0:
256,192,193331,1,0,0:0:0:0:
256,192,193404,1,8,0:0:0:0:
256,192,193477,1,8,0:0:0:0:
256,192,193551,1,0,0:0:0:0:
256,192,193624,1,0,0:0:0:0:
256,192,193697,1,8,0:0:0:0:
256,192,193770,1,8,0:0:0:0:
256,192,193843,1,0,0:0:0:0:
256,192,193916,1,0,0:0:0:0:
256,192,193990,1,8,0:0:0:0:
256,192,194063,1,0,0:0:0:0:
256,192,194136,1,8,0:0:0:0:
256,192,194209,1,8,0:0:0:0:
256,192,194282,1,0,0:0:0:0:
256,192,194355,1,0,0:0:0:0:
256,192,194429,1,8,0:0:0:0:
256,192,194502,1,8,0:0:0:0:
256,192,194575,1,8,0:0:0:0:
256,192,194648,1,0,0:0:0:0:
256,192,194721,1,8,0:0:0:0:
256,192,194794,1,8,0:0:0:0:
256,192,194868,1,0,0:0:0:0:
256,192,194941,1,0,0:0:0:0:
256,192,195014,1,8,0:0:0:0:
256,192,195307,1,8,0:0:0:0:
256,192,195380,1,0,0:0:0:0:
256,192,195453,1,8,0:0:0:0:
256,192,195526,1,8,0:0:0:0:
256,192,195599,1,0,0:0:0:0:
256,192,195673,1,0,0:0:0:0:
256,192,195746,1,8,0:0:0:0:
256,192,195819,1,0,0:0:0:0:
256,192,195892,1,8,0:0:0:0:
256,192,195965,1,8,0:0:0:0:
256,192,196038,1,0,0:0:0:0:
256,192,196112,1,0,0:0:0:0:
256,192,196185,1,8,0:0:0:0:
256,192,196258,1,8,0:0:0:0:
256,192,196331,1,8,0:0:0:0:
256,192,196404,1,0,0:0:0:0:
256,192,196477,1,8,0:0:0:0:
256,192,196551,1,0,0:0:0:0:
256,192,196624,1,8,0:0:0:0:
256,192,196697,1,8,0:0:0:0:
256,192,196770,1,0,0:0:0:0:
256,192,196843,1,0,0:0:0:0:
256,192,196916,1,8,0:0:0:0:
256,192,196990,1,8,0:0:0:0:
256,192,197063,1,8,0:0:0:0:
256,192,197136,1,8,0:0:0:0:
256,192,197209,1,0,0:0:0:0:
256,192,197355,1,8,0:0:0:0:
256,192,197648,1,0,0:0:0:0:
256,192,197721,1,0,0:0:0:0:
256,192,197794,1,8,0:0:0:0:
256,192,197868,1,0,0:0:0:0:
256,192,197941,1,8,0:0:0:0:
256,192,198014,1,8,0:0:0:0:
256,192,198087,1,0,0:0:0:0:
256,192,198160,1,0,0:0:0:0:
256,192,198233,1,8,0:0:0:0:
256,192,198307,1,0,0:0:0:0:
256,192,198380,1,8,0:0:0:0:
256,192,198453,1,0,0:0:0:0:
256,192,198526,1,8,0:0:0:0:
256,192,198599,1,8,0:0:0:0:
256,192,198673,1,0,0:0:0:0:
256,192,198746,1,0,0:0:0:0:
256,192,198819,1,8,0:0:0:0:
256,192,198892,1,0,0:0:0:0:
256,192,198965,1,8,0:0:0:0:
256,192,199038,1,8,0:0:0:0:
256,192,199112,1,0,0:0:0:0:
256,192,199185,1,0,0:0:0:0:
256,192,199258,1,8,0:0:0:0:
256,192,199331,1,0,0:0:0:0:
256,192,199404,1,8,0:0:0:0:
256,192,199477,1,8,0:0:0:0:
256,192,199551,1,0,0:0:0:0:
256,192,199624,1,0,0:0:0:0:
256,192,199697,1,8,0:0:0:0:
256,192,199990,1,8,0:0:0:0:
256,192,200136,1,0,0:0:0:0:
256,192,200209,1,8,0:0:0:0:
256,192,200282,1,0,0:0:0:0:
256,192,200355,1,0,0:0:0:0:
256,192,200429,1,8,0:0:0:0:
256,192,200575,1,0,0:0:0:0:
256,192,200721,1,8,0:0:0:0:
256,192,200868,1,8,0:0:0:0:
256,192,200941,1,8,0:0:0:0:
256,192,201014,1,0,0:0:0:0:
256,192,201160,1,8,0:0:0:0:
256,192,201233,1,8,0:0:0:0:
256,192,201307,1,8,0:0:0:0:
256,192,201453,1,0,0:0:0:0:
256,192,201526,1,8,0:0:0:0:
256,192,201599,1,8,0:0:0:0:
256,192,201673,1,8,0:0:0:0:
256,192,201746,1,0,0:0:0:0:
256,192,202038,1,4,0:0:0:0:
256,192,202331,1,8,0:0:0:0:
256,192,202404,1,0,0:0:0:0:
256,192,202477,1,8,0:0:0:0:
256,192,202551,1,8,0:0:0:0:
256,192,202624,1,0,0:0:0:0:
256,192,202770,1,0,0:0:0:0:
256,192,202916,1,8,0:0:0:0:
256,192,203063,1,8,0:0:0:0:
256,192,203136,1,0,0:0:0:0:
256,192,203209,1,8,0:0:0:0:
256,192,203355,1,0,0:0:0:0:
256,192,203502,1,8,0:0:0:0:
256,192,203648,1,8,0:0:0:0:
256,192,203721,1,8,0:0:0:0:
256,192,203794,1,0,0:0:0:0:
256,192,203868,1,8,0:0:0:0:
256,192,203941,1,0,0:0:0:0:
256,192,204014,1,0,0:0:0:0:
256,192,204087,1,8,0:0:0:0:
256,192,204233,1,0,0:0:0:0:
256,192,204380,1,8,0:0:0:0:
256,192,204526,1,0,0:0:0:0:
256,192,204599,1,0,0:0:0:0:
256,192,204673,1,8,0:0:0:0:
256,192,204819,1,8,0:0:0:0:
256,192,204892,1,8,0:0:0:0:
256,192,204965,1,0,0:0:0:0:
256,192,205112,1,8,0:0:0:0:
256,192,205185,1,8,0:0:0:0:
256,192,205258,1,0,0:0:0:0:
256,192,205331,1,0,0:0:0:0:
256,192,205404,1,8,0:0:0:0:
256,192,205477,1,8,0:0:0:0:
256,192,205551,1,0,0:0:0:0:
256,192,205697,1,8,0:0:0:0:
256,192,205770,1,8,0:0:0:0:
256,192,205843,1,0,0:0:0:0:
256,192,205990,1,8,0:0:0:0:
256,192,206136,1,0,0:0:0:0:
256,192,206209,1,0,0:0:0:0:
256,192,206282,1,8,0:0:0:0:
256,192,206355,1,0,0:0:0:0:
256,192,206429,1,8,0:0:0:0:
256,192,206502,1,8,0:0:0:0:
256,192,206575,1,0,0:0:0:0:
256,192,206648,1,0,0:0:0:0:
256,192,206721,1,8,0:0:0:0:
256,192,207014,1,0,0:0:0:0:
256,192,207160,1,12,0:0:0:0:
256,192,207307,1,0,0:0:0:0:
256,192,207453,1,0,0:0:0:0:
256,192,207599,1,8,0:0:0:0:
256,192,207673,1,8,0:0:0:0:
256,192,207746,1,0,0:0:0:0:
256,192,207892,1,12,0:0:0:0:
256,192,208038,1,0,0:0:0:0:
256,192,208112,1,0,0:0:0:0:
256,192,208185,1,0,0:0:0:0:
256,192,208331,1,12,0:0:0:0:
256,192,208477,1,0,0:0:0:0:
256,192,208624,1,0,0:0:0:0:
256,192,208770,1,8,0:0:0:0:
256,192,208916,1,0,0:0:0:0:
256,192,209063,1,12,0:0:0:0:
256,192,209209,1,0,0:0:0:0:
256,192,209282,1,0,0:0:0:0:
256,192,209355,1,0,0:0:0:0:
256,192,209502,1,12,0:0:0:0:
256,192,209648,1,0,0:0:0:0:
256,192,209794,1,0,0:0:0:0:
256,192,209941,1,8,0:0:0:0:
256,192,210014,1,8,0:0:0:0:
256,192,210087,1,0,0:0:0:0:
256,192,210233,1,12,0:0:0:0:
256,192,210380,1,0,0:0:0:0:
256,192,210453,1,0,0:0:0:0:
256,192,210526,1,0,0:0:0:0:
256,192,210673,1,12,0:0:0:0:
256,192,210819,1,0,0:0:0:0:
256,192,210916,1,0,0:0:0:0:
256,192,211014,1,0,0:0:0:0:
256,192,211112,1,8,0:0:0:0:
256,192,211209,1,8,0:0:0:0:
256,192,211307,1,8,0:0:0:0:
256,192,211404,1,0,0:0:0:0:
256,192,211477,1,0,0:0:0:0:
256,192,211551,1,0,0:0:0:0:
256,192,211624,1,0,0:0:0:0:
256,192,211697,1,8,0:0:0:0:
256,192,211770,1,8,0:0:0:0:
256,192,211843,1,0,0:0:0:0:
256,192,211916,1,0,0:0:0:0:
256,192,211990,1,8,0:0:0:0:
256,192,212063,1,8,0:0:0:0:
256,192,212136,1,8,0:0:0:0:
256,192,212209,1,0,0:0:0:0:
256,192,212282,1,8,0:0:0:0:
256,192,212355,1,8,0:0:0:0:
256,192,212429,1,0,0:0:0:0:
256,192,212502,1,0,0:0:0:0:
256,192,212575,1,8,0:0:0:0:
256,192,212648,1,8,0:0:0:0:
256,192,212721,1,0,0:0:0:0:
256,192,212794,1,8,0:0:0:0:
256,192,212868,1,0,0:0:0:0:
256,192,212941,1,0,0:0:0:0:
256,192,213014,1,8,0:0:0:0:
256,192,213087,1,0,0:0:0:0:
256,192,213160,1,8,0:0:0:0:
256,192,213233,1,8,0:0:0:0:
256,192,213307,1,0,0:0:0:0:
256,192,213380,1,0,0:0:0:0:
256,192,213453,1,8,0:0:0:0:
256,192,213526,1,8,0:0:0:0:
256,192,213599,1,8,0:0:0:0:
256,192,213673,1,8,0:0:0:0:
256,192,213746,1,0,0:0:0:0:
256,192,214938,1,0,0:0:0:0:
256,192,215535,1,8,0:0:0:0:
256,192,216131,1,0,0:0:0:0:
256,192,230143,5,0,0:0:0:0:
256,192,230435,1,8,0:0:0:0:
256,192,230582,1,8,0:0:0:0:
256,192,230728,1,0,0:0:0:0:
256,192,230874,1,8,0:0:0:0:
256,192,231021,1,8,0:0:0:0:
256,192,231167,1,0,0:0:0:0:
256,192,231313,1,8,0:0:0:0:
256,192,231386,1,8,0:0:0:0:
256,192,231460,1,0,0:0:0:0:
256,192,231606,1,8,0:0:0:0:
256,192,231752,1,8,0:0:0:0:
256,192,231825,1,8,0:0:0:0:
256,192,231899,1,0,0:0:0:0:
256,192,232045,1,0,0:0:0:0:
256,192,232191,1,8,0:0:0:0:
256,192,232264,1,8,0:0:0:0:
256,192,232338,1,0,0:0:0:0:
256,192,232411,1,0,0:0:0:0:
256,192,232484,1,8,0:0:0:0:
256,192,232557,1,0,0:0:0:0:
256,192,232630,1,8,0:0:0:0:
256,192,232777,1,0,0:0:0:0:
256,192,232923,1,8,0:0:0:0:
256,192,232996,1,8,0:0:0:0:
256,192,233069,1,0,0:0:0:0:
256,192,233216,1,0,0:0:0:0:
256,192,233362,1,8,0:0:0:0:
256,192,233508,1,0,0:0:0:0:
256,192,233655,1,8,0:0:0:0:
256,192,233728,1,8,0:0:0:0:
256,192,233801,1,0,0:0:0:0:
256,192,233874,1,0,0:0:0:0:
256,192,233947,1,0,0:0:0:0:
256,192,234094,1,8,0:0:0:0:
256,192,234167,1,8,0:0:0:0:
256,192,234240,1,0,0:0:0:0:
256,192,234386,1,0,0:0:0:0:
256,192,234533,1,8,0:0:0:0:
256,192,234679,1,0,0:0:0:0:
256,192,234825,1,8,0:0:0:0:
256,192,234899,1,8,0:0:0:0:
256,192,234972,1,0,0:0:0:0:
256,192,235118,1,8,0:0:0:0:
256,192,235264,1,8,0:0:0:0:
256,192,235338,1,8,0:0:0:0:
256,192,235411,1,0,0:0:0:0:
256,192,235557,1,0,0:0:0:0:
256,192,235703,1,8,0:0:0:0:
256,192,235850,1,0,0:0:0:0:
256,192,235996,1,8,0:0:0:0:
256,192,236069,1,8,0:0:0:0:
256,192,236143,1,0,0:0:0:0:
256,192,236289,1,8,0:0:0:0:
256,192,236435,1,8,0:0:0:0:
256,192,236508,1,8,0:0:0:0:
256,192,236582,1,0,0:0:0:0:
256,192,236655,1,0,0:0:0:0:
256,192,236728,1,0,0:0:0:0:
256,192,236874,1,8,0:0:0:0:
256,192,237021,1,0,0:0:0:0:
256,192,237167,1,0,0:0:0:0:
256,192,237460,1,8,0:0:0:0:
256,192,237533,1,8,0:0:0:0:
256,192,237606,1,0,0:0:0:0:
256,192,237679,1,0,0:0:0:0:
256,192,237752,1,8,0:0:0:0:
256,192,237825,1,8,0:0:0:0:
256,192,237899,1,0,0:0:0:0:
256,192,237972,1,0,0:0:0:0:
256,192,238045,1,8,0:0:0:0:
256,192,238118,1,8,0:0:0:0:
256,192,238191,1,0,0:0:0:0:
256,192,238264,1,0,0:0:0:0:
256,192,238338,1,8,0:0:0:0:
256,192,238484,1,0,0:0:0:0:
256,192,238630,1,0,0:0:0:0:
256,192,238777,1,8,0:0:0:0:
256,192,238923,1,0,0:0:0:0:
256,192,239069,1,0,0:0:0:0:
256,192,239216,1,8,0:0:0:0:
256,192,239362,1,0,0:0:0:0:
256,192,239508,1,8,0:0:0:0:
256,192,239606,1,0,0:0:0:0:
256,192,239703,1,0,0:0:0:0:
256,192,239801,1,8,0:0:0:0:
256,192,239899,1,0,0:0:0:0:
256,192,239996,1,0,0:0:0:0:
256,192,240094,1,8,0:0:0:0:
256,192,240191,1,8,0:0:0:0:
256,192,240289,1,8,0:0:0:0:
256,192,240386,1,0,0:0:0:0:
256,192,240484,1,8,0:0:0:0:
256,192,240582,1,8,0:0:0:0:
256,192,240679,1,4,0:0:0:0:
256,192,240972,5,8,0:0:0:0:
256,192,241045,1,8,0:0:0:0:
256,192,241118,1,0,0:0:0:0:
256,192,241191,1,0,0:0:0:0:
256,192,241264,1,8,0:0:0:0:
256,192,241338,1,0,0:0:0:0:
256,192,241411,1,8,0:0:0:0:
256,192,241484,1,8,0:0:0:0:
256,192,241557,1,0,0:0:0:0:
256,192,241630,1,0,0:0:0:0:
256,192,241703,1,8,0:0:0:0:
256,192,241777,1,0,0:0:0:0:
256,192,241850,1,8,0:0:0:0:
256,192,241923,1,8,0:0:0:0:
256,192,241996,1,0,0:0:0:0:
256,192,242069,1,0,0:0:0:0:
256,192,242143,1,0,0:0:0:0:
256,192,242216,1,0,0:0:0:0:
256,192,242289,1,8,0:0:0:0:
256,192,242362,1,8,0:0:0:0:
256,192,242435,1,8,0:0:0:0:
256,192,242508,1,0,0:0:0:0:
256,192,242582,1,8,0:0:0:0:
256,192,242655,1,8,0:0:0:0:
256,192,242728,1,0,0:0:0:0:
256,192,242801,1,0,0:0:0:0:
256,192,242874,1,8,0:0:0:0:
256,192,242947,1,0,0:0:0:0:
256,192,243021,1,8,0:0:0:0:
256,192,243167,1,0,0:0:0:0:
256,192,243240,1,0,0:0:0:0:
256,192,243313,1,8,0:0:0:0:
256,192,243386,1,8,0:0:0:0:
256,192,243460,1,0,0:0:0:0:
256,192,243533,1,0,0:0:0:0:
256,192,243606,1,8,0:0:0:0:
256,192,243679,1,0,0:0:0:0:
256,192,243752,1,8,0:0:0:0:
256,192,243825,1,8,0:0:0:0:
256,192,243899,1,0,0:0:0:0:
256,192,243972,1,8,0:0:0:0:
256,192,244045,1,0,0:0:0:0:
256,192,244118,1,0,0:0:0:0:
256,192,244191,1,8,0:0:0:0:
256,192,244264,1,8,0:0:0:0:
256,192,244338,1,0,0:0:0:0:
256,192,244411,1,0,0:0:0:0:
256,192,244484,1,8,0:0:0:0:
256,192,244557,1,0,0:0:0:0:
256,192,244630,1,8,0:0:0:0:
256,192,244703,1,8,0:0:0:0:
256,192,244777,1,0,0:0:0:0:
256,192,244850,1,0,0:0:0:0:
256,192,244923,1,8,0:0:0:0:
256,192,244996,1,0,0:0:0:0:
256,192,245069,1,8,0:0:0:0:
256,192,245216,1,0,0:0:0:0:
256,192,245362,1,8,0:0:0:0:
256,192,245508,1,0,0:0:0:0:
256,192,245582,1,0,0:0:0:0:
256,192,245655,1,8,0:0:0:0:
256,192,245728,1,8,0:0:0:0:
256,192,245801,1,0,0:0:0:0:
256,192,245874,1,0,0:0:0:0:
256,192,245947,1,8,0:0:0:0:
256,192,246021,1,0,0:0:0:0:
256,192,246094,1,8,0:0:0:0:
256,192,246167,1,8,0:0:0:0:
256,192,246240,1,0,0:0:0:0:
256,192,246313,1,0,0:0:0:0:
256,192,246386,1,8,0:0:0:0:
256,192,246460,1,0,0:0:0:0:
256,192,246533,1,8,0:0:0:0:
256,192,246606,1,8,0:0:0:0:
256,192,246679,1,0,0:0:0:0:
256,192,246752,1,8,0:0:0:0:
256,192,246825,1,0,0:0:0:0:
256,192,246899,1,0,0:0:0:0:
256,192,246972,1,8,0:0:0:0:
256,192,247045,1,8,0:0:0:0:
256,192,247118,1,0,0:0:0:0:
256,192,247191,1,8,0:0:0:0:
256,192,247264,1,0,0:0:0:0:
256,192,247338,1,0,0:0:0:0:
256,192,247411,1,8,0:0:0:0:
256,192,247484,1,8,0:0:0:0:
256,192,247557,1,8,0:0:0:0:
256,192,247630,1,8,0:0:0:0:
256,192,247703,1,0,0:0:0:0:
256,192,247996,1,8,0:0:0:0:
256,192,248142,1,0,0:0:0:0:
256,192,248216,1,0,0:0:0:0:
256,192,248289,1,8,0:0:0:0:
256,192,248362,1,8,0:0:0:0:
256,192,248435,1,0,0:0:0:0:
256,192,248508,1,0,0:0:0:0:
256,192,248582,1,8,0:0:0:0:
256,192,248655,1,0,0:0:0:0:
256,192,248728,1,8,0:0:0:0:
256,192,248801,1,0,0:0:0:0:
256,192,248874,1,8,0:0:0:0:
256,192,248947,1,8,0:0:0:0:
256,192,249021,1,8,0:0:0:0:
256,192,249094,1,0,0:0:0:0:
256,192,249167,1,8,0:0:0:0:
256,192,249240,1,8,0:0:0:0:
256,192,249313,1,0,0:0:0:0:
256,192,249386,1,0,0:0:0:0:
256,192,249460,1,8,0:0:0:0:
256,192,249606,1,8,0:0:0:0:
256,192,249752,1,0,0:0:0:0:
256,192,249899,1,0,0:0:0:0:
256,192,250045,1,12,0:0:0:0:
256,192,250338,1,8,0:0:0:0:
256,192,250484,1,8,0:0:0:0:
256,192,250630,1,8,0:0:0:0:
256,192,250777,1,0,0:0:0:0:
256,192,250923,1,8,0:0:0:0:
256,192,251069,1,0,0:0:0:0:
256,192,251216,1,8,0:0:0:0:
256,192,251289,1,8,0:0:0:0:
256,192,251362,1,0,0:0:0:0:
256,192,251508,1,8,0:0:0:0:
256,192,251655,1,8,0:0:0:0:
256,192,251728,1,8,0:0:0:0:
256,192,251801,1,0,0:0:0:0:
256,192,251874,1,0,0:0:0:0:
256,192,251947,1,8,0:0:0:0:
256,192,252021,1,0,0:0:0:0:
256,192,252094,1,8,0:0:0:0:
256,192,252240,1,8,0:0:0:0:
256,192,252386,1,0,0:0:0:0:
256,192,252679,1,8,0:0:0:0:
256,192,252752,1,8,0:0:0:0:
256,192,252825,1,0,0:0:0:0:
256,192,252972,1,8,0:0:0:0:
256,192,253118,1,0,0:0:0:0:
256,192,253264,1,8,0:0:0:0:
256,192,253338,1,0,0:0:0:0:
256,192,253411,1,0,0:0:0:0:
256,192,253484,1,0,0:0:0:0:
256,192,253557,1,8,0:0:0:0:
256,192,253703,1,0,0:0:0:0:
256,192,253850,1,8,0:0:0:0:
256,192,253996,1,8,0:0:0:0:
256,192,254142,1,0,0:0:0:0:
256,192,254216,1,0,0:0:0:0:
256,192,254289,1,0,0:0:0:0:
256,192,254362,1,0,0:0:0:0:
256,192,254435,1,8,0:0:0:0:
256,192,254582,1,8,0:0:0:0:
256,192,254728,1,0,0:0:0:0:
256,192,255021,1,8,0:0:0:0:
256,192,255167,1,8,0:0:0:0:
256,192,255313,1,0,0:0:0:0:
256,192,255460,1,8,0:0:0:0:
256,192,255606,1,8,0:0:0:0:
256,192,255752,1,0,0:0:0:0:
256,192,255899,1,8,0:0:0:0:
256,192,255972,1,8,0:0:0:0:
256,192,256045,1,0,0:0:0:0:
256,192,256191,1,8,0:0:0:0:
256,192,256338,1,8,0:0:0:0:
256,192,256411,1,8,0:0:0:0:
256,192,256484,1,0,0:0:0:0:
256,192,256557,1,0,0:0:0:0:
256,192,256630,1,8,0:0:0:0:
256,192,256703,1,0,0:0:0:0:
256,192,256777,1,8,0:0:0:0:
256,192,256850,1,8,0:0:0:0:
256,192,256923,1,0,0:0:0:0:
256,192,257069,1,8,0:0:0:0:
256,192,257142,1,8,0:0:0:0:
256,192,257216,1,0,0:0:0:0:
256,192,257289,1,0,0:0:0:0:
256,192,257362,1,8,0:0:0:0:
256,192,257435,1,0,0:0:0:0:
256,192,257508,1,0,0:0:0:0:
256,192,257582,1,0,0:0:0:0:
256,192,257655,1,8,0:0:0:0:
256,192,257728,1,0,0:0:0:0:
256,192,257801,1,8,0:0:0:0:
256,192,257874,1,8,0:0:0:0:
256,192,257947,1,0,0:0:0:0:
256,192,258021,1,0,0:0:0:0:
256,192,258094,1,8,0:0:0:0:
256,192,258167,1,0,0:0:0:0:
256,192,258240,1,8,0:0:0:0:
256,192,258825,1,8,0:0:0:0:
256,192,259411,1,4,0:0:0:0:
256,192,259703,1,8,0:0:0:0:
256,192,259850,1,0,0:0:0:0:
256,192,259996,1,8,0:0:0:0:
256,192,260069,1,8,0:0:0:0:
256,192,260142,1,0,0:0:0:0:
256,192,260289,1,8,0:0:0:0:
256,192,260435,1,8,0:0:0:0:
256,192,260508,1,0,0:0:0:0:
256,192,260582,1,8,0:0:0:0:
256,192,260655,1,8,0:0:0:0:
256,192,260728,1,0,0:0:0:0:
256,192,260874,1,8,0:0:0:0:
256,192,261021,1,8,0:0:0:0:
256,192,261094,1,8,0:0:0:0:
256,192,261167,1,0,0:0:0:0:
256,192,261240,1,0,0:0:0:0:
256,192,261313,1,8,0:0:0:0:
256,192,261386,1,0,0:0:0:0:
256,192,261460,1,8,0:0:0:0:
256,192,261533,1,8,0:0:0:0:
256,192,261606,1,0,0:0:0:0:
256,192,261679,1,0,0:0:0:0:
256,192,261752,1,8,0:0:0:0:
256,192,262045,1,8,0:0:0:0:
256,192,262118,1,8,0:0:0:0:
256,192,262191,1,0,0:0:0:0:
256,192,262264,1,0,0:0:0:0:
256,192,262338,1,8,0:0:0:0:
256,192,262411,1,0,0:0:0:0:
256,192,262484,1,8,0:0:0:0:
256,192,262557,1,8,0:0:0:0:
256,192,262630,1,0,0:0:0:0:
256,192,262703,1,0,0:0:0:0:
256,192,262777,1,8,0:0:0:0:
256,192,262850,1,0,0:0:0:0:
256,192,262923,1,8,0:0:0:0:
256,192,262996,1,8,0:0:0:0:
256,192,263069,1,0,0:0:0:0:
256,192,263142,1,0,0:0:0:0:
256,192,263216,1,0,0:0:0:0:
256,192,263289,1,0,0:0:0:0:
256,192,263362,1,8,0:0:0:0:
256,192,263435,1,8,0:0:0:0:
256,192,263508,1,0,0:0:0:0:
256,192,263582,1,0,0:0:0:0:
256,192,263655,1,8,0:0:0:0:
256,192,263728,1,8,0:0:0:0:
256,192,263801,1,8,0:0:0:0:
256,192,263874,1,0,0:0:0:0:
256,192,263947,1,8,0:0:0:0:
256,192,264021,1,0,0:0:0:0:
256,192,264094,1,8,0:0:0:0:
256,192,264167,1,8,0:0:0:0:
256,192,264240,1,0,0:0:0:0:
256,192,264313,1,0,0:0:0:0:
256,192,264386,1,8,0:0:0:0:
256,192,264460,1,0,0:0:0:0:
256,192,264533,1,8,0:0:0:0:
256,192,264606,1,8,0:0:0:0:
256,192,264679,1,0,0:0:0:0:
256,192,264752,1,0,0:0:0:0:
256,192,264825,1,8,0:0:0:0:
256,192,264899,1,8,0:0:0:0:
256,192,264972,1,0,0:0:0:0:
256,192,265045,1,8,0:0:0:0:
256,192,265118,1,0,0:0:0:0:
256,192,265191,1,0,0:0:0:0:
256,192,265264,1,8,0:0:0:0:
256,192,265338,1,0,0:0:0:0:
256,192,265411,1,8,0:0:0:0:
256,192,265484,1,8,0:0:0:0:
256,192,265557,1,0,0:0:0:0:
256,192,265630,1,0,0:0:0:0:
256,192,265703,1,8,0:0:0:0:
256,192,265777,1,8,0:0:0:0:
256,192,265850,1,8,0:0:0:0:
256,192,265923,1,0,0:0:0:0:
256,192,265996,1,8,0:0:0:0:
256,192,266069,1,8,0:0:0:0:
256,192,266142,1,0,0:0:0:0:
256,192,266216,1,0,0:0:0:0:
256,192,266289,1,8,0:0:0:0:
256,192,266362,1,8,0:0:0:0:
256,192,266435,1,0,0:0:0:0:
256,192,266508,1,0,0:0:0:0:
256,192,266582,1,0,0:0:0:0:
256,192,266655,1,0,0:0:0:0:
256,192,266728,1,8,0:0:0:0:
256,192,266801,1,8,0:0:0:0:
256,192,266874,1,0,0:0:0:0:
256,192,266947,1,0,0:0:0:0:
256,192,267021,1,8,0:0:0:0:
256,192,267094,1,0,0:0:0:0:
256,192,267167,1,8,0:0:0:0:
256,192,267240,1,8,0:0:0:0:
256,192,267313,1,0,0:0:0:0:
256,192,267386,1,0,0:0:0:0:
256,192,267460,1,8,0:0:0:0:
256,192,267533,1,0,0:0:0:0:
256,192,267606,1,8,0:0:0:0:
256,192,267679,1,8,0:0:0:0:
256,192,267752,1,0,0:0:0:0:
256,192,267825,1,8,0:0:0:0:
256,192,267899,1,0,0:0:0:0:
256,192,267972,1,0,0:0:0:0:
256,192,268045,1,8,0:0:0:0:
256,192,268118,1,8,0:0:0:0:
256,192,268191,1,0,0:0:0:0:
256,192,268264,1,8,0:0:0:0:
256,192,268338,1,0,0:0:0:0:
256,192,268411,1,0,0:0:0:0:
256,192,268484,1,8,0:0:0:0:
256,192,268557,1,8,0:0:0:0:
256,192,268630,1,0,0:0:0:0:
256,192,268703,1,0,0:0:0:0:
256,192,268777,1,8,0:0:0:0:
256,192,268850,1,0,0:0:0:0:
256,192,268923,1,0,0:0:0:0:
256,192,268996,1,0,0:0:0:0:
256,192,269069,1,8,0:0:0:0:
256,192,269142,1,8,0:0:0:0:
256,192,269216,1,0,0:0:0:0:
256,192,269289,1,0,0:0:0:0:
256,192,269362,1,8,0:0:0:0:
256,192,269435,1,0,0:0:0:0:
256,192,269508,1,8,0:0:0:0:
256,192,269582,1,8,0:0:0:0:
256,192,269655,1,0,0:0:0:0:
256,192,269728,1,0,0:0:0:0:
256,192,269801,1,8,0:0:0:0:
256,192,269874,1,0,0:0:0:0:
256,192,269947,1,8,0:0:0:0:
256,192,270021,1,8,0:0:0:0:
256,192,270094,1,8,0:0:0:0:
256,192,270167,1,0,0:0:0:0:
256,192,270240,1,8,0:0:0:0:
256,192,270313,1,8,0:0:0:0:
256,192,270386,1,0,0:0:0:0:
256,192,270460,1,0,0:0:0:0:
256,192,270533,1,8,0:0:0:0:
256,192,270606,1,8,0:0:0:0:
256,192,270679,1,8,0:0:0:0:
256,192,270752,1,8,0:0:0:0:
256,192,270825,1,0,0:0:0:0:
256,192,270899,1,0,0:0:0:0:
256,192,270972,1,0,0:0:0:0:
256,192,271045,1,0,0:0:0:0:
256,192,271118,1,8,0:0:0:0:
256,192,271411,1,8,0:0:0:0:
256,192,271557,1,8,0:0:0:0:
256,192,271703,1,8,0:0:0:0:
256,192,271850,1,0,0:0:0:0:
256,192,271996,1,8,0:0:0:0:
256,192,272142,1,0,0:0:0:0:
256,192,272289,1,8,0:0:0:0:
256,192,272362,1,8,0:0:0:0:
256,192,272435,1,0,0:0:0:0:
256,192,272582,1,8,0:0:0:0:
256,192,272728,1,0,0:0:0:0:
256,192,273021,1,0,0:0:0:0:
256,192,273094,1,0,0:0:0:0:
256,192,273167,1,8,0:0:0:0:
256,192,273313,1,8,0:0:0:0:
256,192,273460,1,0,0:0:0:0:
256,192,273752,1,8,0:0:0:0:
256,192,273899,1,8,0:0:0:0:
256,192,274045,1,0,0:0:0:0:
256,192,274191,1,0,0:0:0:0:
256,192,274338,1,8,0:0:0:0:
256,192,274484,1,0,0:0:0:0:
256,192,274630,1,8,0:0:0:0:
256,192,274703,1,8,0:0:0:0:
256,192,274777,1,0,0:0:0:0:
256,192,274923,1,0,0:0:0:0:
256,192,275069,1,8,0:0:0:0:
256,192,275142,1,8,0:0:0:0:
256,192,275216,1,0,0:0:0:0:
256,192,275289,1,0,0:0:0:0:
256,192,275362,1,0,0:0:0:0:
256,192,275435,1,0,0:0:0:0:
256,192,275508,1,8,0:0:0:0:
256,192,275655,1,8,0:0:0:0:
256,192,275801,1,0,0:0:0:0:
256,192,276094,1,8,0:0:0:0:
256,192,276240,1,8,0:0:0:0:
256,192,276386,1,0,0:0:0:0:
256,192,276533,1,8,0:0:0:0:
256,192,276679,1,8,0:0:0:0:
256,192,276825,1,0,0:0:0:0:
256,192,276972,1,8,0:0:0:0:
256,192,277045,1,8,0:0:0:0:
256,192,277118,1,0,0:0:0:0:
256,192,277264,1,8,0:0:0:0:
256,192,277411,1,8,0:0:0:0:
256,192,277484,1,8,0:0:0:0:
256,192,277557,1,0,0:0:0:0:
256,192,277703,1,0,0:0:0:0:
256,192,277850,1,8,0:0:0:0:
256,192,277923,1,8,0:0:0:0:
256,192,277996,1,0,0:0:0:0:
256,192,278069,1,0,0:0:0:0:
256,192,278142,1,8,0:0:0:0:
256,192,278216,1,0,0:0:0:0:
256,192,278289,1,8,0:0:0:0:
256,192,278362,1,0,0:0:0:0:
256,192,278435,1,0,0:0:0:0:
256,192,278508,1,0,0:0:0:0:
256,192,278582,1,8,0:0:0:0:
256,192,278655,1,8,0:0:0:0:
256,192,278728,1,0,0:0:0:0:
256,192,278801,1,0,0:0:0:0:
256,192,278874,1,8,0:0:0:0:
256,192,278947,1,0,0:0:0:0:
256,192,279021,1,8,0:0:0:0:
256,192,279094,1,8,0:0:0:0:
256,192,279167,1,0,0:0:0:0:
256,192,279240,1,0,0:0:0:0:
256,192,279313,1,8,0:0:0:0:
256,192,279899,1,8,0:0:0:0:
256,192,280484,1,4,0:0:0:0:
256,192,280777,1,8,0:0:0:0:
256,192,281069,1,0,0:0:0:0:
256,192,281216,1,0,0:0:0:0:
256,192,281362,1,8,0:0:0:0:
256,192,281508,1,8,0:0:0:0:
256,192,281582,1,8,0:0:0:0:
256,192,281655,1,0,0:0:0:0:
256,192,281728,1,0,0:0:0:0:
256,192,281801,1,0,0:0:0:0:
256,192,281947,1,8,0:0:0:0:
256,192,282094,1,8,0:0:0:0:
256,192,282167,1,8,0:0:0:0:
256,192,282240,1,0,0:0:0:0:
256,192,282386,1,0,0:0:0:0:
256,192,282533,1,8,0:0:0:0:
256,192,282606,1,8,0:0:0:0:
256,192,282679,1,0,0:0:0:0:
256,192,282752,1,0,0:0:0:0:
256,192,282825,1,12,0:0:0:0:
256,192,283118,1,8,0:0:0:0:
256,192,283411,1,8,0:0:0:0:
256,192,283703,1,8,0:0:0:0:
256,192,283850,1,0,0:0:0:0:
256,192,284142,1,0,0:0:0:0:
256,192,284216,1,0,0:0:0:0:
256,192,284289,1,8,0:0:0:0:
256,192,284435,1,0,0:0:0:0:
256,192,284582,1,8,0:0:0:0:
256,192,284728,1,8,0:0:0:0:
