osu file format v14

[General]
AudioFilename: audio.mp3
AudioLeadIn: 0
PreviewTime: 74881
Countdown: 0
SampleSet: Soft
StackLeniency: 0.7
Mode: 0
LetterboxInBreaks: 0
WidescreenStoryboard: 0

[Editor]
Bookmarks: 216100,225466
DistanceSpacing: 0.9
BeatDivisor: 4
GridSize: 32
TimelineZoom: 2.1

[Metadata]
Title:GIRLS' LEGEND U
TitleUnicode:GIRLS' LEGEND U
Artist:Various Artists
ArtistUnicode:Various Artists
Creator:Yuuma
Version:Special
Source:ウマ娘 プリティーダービー
Tags:uma musume pretty derby op opening japanese anime pop jpop j-pop cygames special week waki azumi silence suzuka kouno marika tokai teio machico maruzen ski lynn oguri cap takayanagi tomoyo gold ship ueda hitomi vodka ohashi ayaka daiwa scarlet kimura chisa taiki shuttle otsubo yuka glass wonder maeda reina mejiro mcqueen onishi saori el condor pasa takahashi minami symboli rudolf tadokoro azusa air groove aoki ruriko mayano top gun hoshitani mio mejio ryan hashi afumi rice shower iwami manaka agnes tachyon uesaka sumire wining ticket watanabe yui sakura bakushin o misawa sachika super creek yuuki kana haru urara shutou yukina machikanefukukitaru nitta hiyori nice nature maeda kaori king halo saeki iori
BeatmapID:3048435
BeatmapSetID:1486797

[Difficulty]
HPDrainRate:6
CircleSize:4
OverallDifficulty:9
ApproachRate:9.4
SliderMultiplier:2
SliderTickRate:1

[Events]
//Background and Video events
0,0,"maya.jpg",0,0
//Break Periods
2,216393,224926
//Storyboard Layer 0 (Background)
//Storyboard Layer 1 (Fail)
//Storyboard Layer 2 (Pass)
//Storyboard Layer 3 (Foreground)
//Storyboard Layer 4 (Overlay)
//Storyboard Sound Samples

[TimingPoints]
680,508.474576271186,4,2,1,60,1,0
7680,500,4,2,1,60,1,0
9680,521.739130434783,4,2,1,60,1,0
10201,571.428571428571,4,2,1,60,1,0
10772,631.578947368421,4,2,1,60,1,0
11403,749.999999999999,4,2,1,60,1,0
12152,652.173913043478,4,2,1,60,1,0
17369,292.682926829268,4,2,1,60,1,0
17369,-142.857142857143,4,2,1,60,0,0
18247,292.682926829268,4,2,1,60,1,0
18247,-100,4,2,1,70,0,0
19417,-100,4,2,1,80,0,0
22051,-83.3333333333333,4,2,1,80,0,0
24100,-100,4,2,1,80,0,0
26442,-142.857142857143,4,2,1,50,0,0
27612,-100,4,2,1,60,0,0
28783,-285.714285714284,4,2,1,70,0,0
29954,-125,4,2,1,70,0,0
30978,-125,4,2,1,60,0,0
34051,-90.9090909090909,4,2,1,60,0,0
34490,-125,4,2,1,60,0,0
35807,-100,4,2,1,70,0,0
39320,-100,4,2,1,80,0,0
39612,-76.9230769230769,4,2,1,80,0,0
39905,-100,4,2,1,80,0,0
40198,-76.9230769230769,4,2,1,80,0,0
40490,-111.111111111111,4,2,1,60,0,0
41661,-125,4,2,1,70,0,0
52051,-100,4,2,1,70,0,0
55710,-142.857142857143,4,2,1,60,0,0
65076,-111.111111111111,4,2,1,70,0,0
67417,-100,4,2,1,70,0,0
72100,-66.6666666666667,4,2,1,70,0,0
72539,-76.9230769230769,4,2,1,70,0,0
72978,-90.9090909090909,4,2,1,70,0,0
73417,-111.111111111111,4,2,1,70,0,0
73856,-142.857142857143,4,2,1,70,0,0
74442,-200,4,2,1,70,0,0
75539,-200,4,2,1,5,0,0
75612,-200,4,2,1,70,0,0
76125,-200,4,2,1,5,0,0
76198,-200,4,2,1,70,0,0
76710,-200,4,2,1,5,0,0
76783,-83.3333333333333,4,2,1,80,0,1
86149,-100,4,2,1,80,0,1
94344,-142.857142857143,4,2,1,80,0,1
95442,-142.857142857143,4,2,1,5,0,1
95515,-500.000000000003,4,2,1,80,0,1
95881,-500.000000000003,4,2,1,5,0,1
95954,-100,4,2,1,80,0,1
97856,-100,4,2,1,80,0,0
100198,-100,4,2,1,80,0,0
102832,-83.3333333333333,4,2,1,80,0,0
104881,-100,4,2,1,80,0,0
107222,-100,4,2,1,50,0,0
108393,-100,4,2,1,60,0,0
109564,-285.714285714284,4,2,1,70,0,0
110734,-125,4,2,1,70,0,0
111759,-125,4,2,1,60,0,0
114832,-90.9090909090909,4,2,1,60,0,0
115271,-125,4,2,1,60,0,0
116588,-100,4,2,1,70,0,0
120393,-76.9230769230769,4,2,1,80,0,0
120686,-100,4,2,1,80,0,0
120978,-76.9230769230769,4,2,1,80,0,0
121271,-111.111111111111,4,2,1,60,0,0
122442,-125,4,2,1,70,0,0
131807,-100,4,2,1,70,0,0
136490,-142.857142857143,4,2,1,60,0,0
145856,-111.111111111111,4,2,1,70,0,0
148198,-100,4,2,1,70,0,0
152881,-66.6666666666667,4,2,1,70,0,0
153320,-76.9230769230769,4,2,1,70,0,0
153759,-90.9090909090909,4,2,1,70,0,0
154198,-111.111111111111,4,2,1,70,0,0
154637,-142.857142857143,4,2,1,70,0,0
155807,-200,4,2,1,60,0,0
156320,-200,4,2,1,5,0,0
156393,-200,4,2,1,60,0,0
156905,-200,4,2,1,5,0,0
156978,-200,4,2,1,60,0,0
157490,-200,4,2,1,5,0,0
157564,-83.3333333333333,4,2,1,80,0,1
166929,-100,4,2,1,80,0,1
176295,-83.3333333333333,4,2,1,80,0,1
178637,-166.666666666667,4,2,1,65,0,0
189173,-125,4,2,1,70,0,0
190344,-100,4,2,1,75,0,0
191515,-100,4,2,1,80,0,0
209076,-76.9230769230769,4,2,1,80,0,0
210246,-71.4285714285714,4,2,1,80,0,0
211417,-66.6666666666667,4,2,1,80,0,0
213759,-133.333333333333,4,2,1,60,0,0
214856,-133.333333333333,4,2,1,5,0,0
214929,-200,4,2,1,50,0,0
225466,-333.333333333333,4,2,1,60,0,0
227807,-142.857142857143,4,2,1,60,0,0
230149,-111.111111111111,4,2,1,65,0,0
232490,-111.111111111111,4,2,1,70,0,0
234832,-111.111111111111,4,2,1,75,0,0
238344,-111.111111111111,4,2,1,70,0,0
240686,-83.3333333333333,4,2,1,80,0,1
250051,-100,4,2,1,80,0,1
258246,-142.857142857143,4,2,1,80,0,1
259344,-142.857142857143,4,2,1,5,0,1
259417,-83.3333333333333,4,2,1,80,0,1
259637,-83.3333333333333,4,2,1,5,0,1
259710,-83.3333333333333,4,2,1,80,0,1
261759,-71.4285714285714,4,2,1,80,0,1
271125,-83.3333333333333,4,2,1,80,0,1
279320,-142.857142857143,4,2,1,80,0,1
280417,-142.857142857143,4,2,1,5,0,1
280490,-83.3333333333333,4,2,1,80,0,1
282832,-66.6666666666667,4,2,1,80,0,0
283051,-66.6666666666667,4,2,1,5,0,0
283125,-666.666666666658,4,2,1,80,0,0
285905,-666.666666666658,4,2,1,40,0,0

[Colours]
Combo1 : 255,223,125
Combo2 : 255,140,85
Combo3 : 255,128,255
Combo4 : 90,162,248

[HitObjects]
256,192,14108,12,0,16472,0:0:0:0:
113,226,17369,6,0,B|102:176|102:176|113:144|113:144|100:90,2,139.999995727539,2|2|2,0:0|0:0|0:0,0:0:0:0:
133,315,18100,1,0,0:0:0:0:
420,253,18247,5,10,0:0:0:0:
202,181,18393,1,10,0:0:0:0:
202,181,18466,1,10,0:0:0:0:
202,181,18539,1,10,0:0:0:0:
286,311,18686,1,0,3:0:0:0:
430,118,18832,2,0,P|436:167|436:180,1,50,0|0,3:0|3:0,0:0:0:0:
227,254,18978,2,0,P|220:205|220:197,1,50,2|2,3:2|3:2,0:0:0:0:
321,89,19125,2,0,B|299:161|357:168|325:238,1,150,2|0,3:2|0:0,0:0:0:0:
286,311,19417,6,0,P|217:297|161:295,1,100,6|0,3:2|0:0,0:0:0:0:
41,179,19710,2,0,P|90:174|139:162,1,100,8|0,0:0|0:0,0:0:0:0:
368,84,20003,1,2,3:2:0:0:
210,49,20149,1,0,3:0:0:0:
353,166,20295,1,10,0:0:0:0:
135,232,20442,1,2,0:0:0:0:
299,29,20588,6,0,P|277:215|277:261,1,200,2|8,3:2|0:0,0:0:0:0:
290,325,21027,1,2,0:0:0:0:
153,131,21173,1,2,3:2:0:0:
116,267,21320,1,2,3:2:0:0:
373,215,21466,1,10,0:0:0:0:
339,86,21612,1,2,0:0:0:0:
263,302,21759,1,6,3:2:0:0:
263,302,22051,6,0,P|326:352|415:318,1,179.999994506836,10|0,0:0|0:0,0:0:0:0:
478,259,22344,1,2,3:2:0:0:
241,171,22490,1,0,3:0:0:0:
395,84,22637,1,10,0:0:0:0:
345,273,22783,6,0,L|333:145,1,119.999996337891,2|0,0:0|3:0,0:0:0:0:
126,54,23076,1,10,0:0:0:0:
120,82,23149,1,8,0:0:0:0:
115,111,23222,1,10,0:0:0:0:
348,16,23368,1,0,3:0:0:0:
263,152,23515,1,2,3:2:0:0:
19,69,23661,1,0,3:2:0:0:
182,19,23807,2,0,B|198:67|182:99|182:99|192:112|192:112|170:150|199:212,1,179.999994506836,10|0,0:0|0:0,0:0:0:0:
241,270,24100,6,0,P|305:306|337:296,1,100,14|0,0:0|0:0,0:0:0:0:
494,127,24393,2,0,P|430:91|398:101,1,100,8|0,0:0|0:0,0:0:0:0:
85,177,24686,1,10,0:0:0:0:
313,221,24832,1,0,3:0:0:0:
65,180,24978,1,10,0:0:0:0:
314,60,25125,1,2,3:2:0:0:
160,338,25271,5,10,0:0:0:0:
121,93,25417,1,0,3:0:0:0:
300,315,25564,1,8,0:0:0:0:
314,60,25710,1,2,0:0:0:0:
122,269,25856,6,0,L|70:260,1,50,2|2,3:2|3:2,0:0:0:0:
368,186,26003,2,0,L|433:172,1,50,2|2,3:2|3:2,0:0:0:0:
180,20,26149,1,10,0:0:0:0:
131,9,26222,1,10,0:0:0:0:
93,39,26295,1,10,0:0:0:0:
92,88,26368,1,10,0:0:0:0:
130,119,26441,1,10,0:0:0:0:
436,201,27466,5,0,3:0:0:0:
436,201,27539,1,0,3:0:0:0:
436,201,27612,2,0,L|448:306,2,100,4|0|8,3:2|3:0|0:0,0:0:0:0:
351,362,28051,6,0,L|330:157,1,200,4|0,3:2|3:0,0:0:0:0:
183,117,28490,2,0,L|171:222,1,100,8|0,0:0|3:0,0:0:0:0:
159,294,28710,1,0,3:0:0:0:
159,294,28783,6,0,B|288:328|263:172|405:214,1,262.499991989136,6|0,3:2|0:0,0:0:0:0:
407,223,29954,5,14,0:0:0:0:
183,117,30100,1,2,3:2:0:0:
353,286,30246,1,2,3:2:0:0:
373,1,30393,6,0,P|353:79|351:172,1,160,14|0,0:0|0:0,0:0:0:0:
407,223,30832,1,0,3:0:0:0:
420,220,30905,1,0,3:0:0:0:
433,217,30978,6,0,L|514:202,1,80,2|0,1:2|0:0,0:0:0:0:
260,133,31271,5,2,3:2:0:0:
213,225,31417,1,10,0:0:0:0:
264,316,31564,2,0,L|345:301,1,80,2|0,1:2|0:0,0:0:0:0:
449,100,31856,5,2,3:2:0:0:
338,208,32003,1,10,0:0:0:0:
209,50,32149,1,2,1:2:0:0:
209,50,32442,5,2,1:2:0:0:
352,116,32588,1,10,0:0:0:0:
203,186,32734,1,2,1:2:0:0:
368,120,32881,1,2,0:0:0:0:
194,47,33027,1,2,3:2:0:0:
295,185,33173,1,10,0:0:0:0:
372,22,33320,1,2,3:2:0:0:
372,22,33393,1,0,3:0:0:0:
372,22,33466,6,0,L|463:9,1,80,2|0,3:2|0:0,0:0:0:0:
202,139,33759,2,0,L|122:150,1,80,10|0,0:0|0:0,0:0:0:0:
429,311,34051,6,0,L|438:167,1,110.000003356934,2|0,3:2|3:0,0:0:0:0:
441,106,34344,1,10,0:0:0:0:
200,338,34490,6,0,B|188:269|188:269|201:244|201:244|191:182,1,160,2|2,3:2|3:2,0:0:0:0:
169,57,34929,1,10,0:0:0:0:
315,185,35076,2,0,L|321:84,1,80,2|0,0:0|3:0,0:0:0:0:
73,86,35368,5,2,0:0:0:0:
263,33,35515,1,10,0:0:0:0:
57,224,35661,1,2,0:0:0:0:
320,106,35807,6,0,P|334:177|335:218,1,100,2|2,0:0|0:3,0:0:0:0:
106,142,36100,2,0,P|109:92|121:43,1,100,8|2,0:0|0:3,0:0:0:0:
242,256,36393,1,10,0:0:0:0:
282,20,36539,1,8,0:0:0:0:
144,244,36686,1,10,0:0:0:0:
105,14,36832,1,10,0:0:0:0:
344,118,36978,5,10,0:0:0:0:
68,160,37125,1,8,0:0:0:0:
322,231,37271,1,8,0:0:0:0:
48,163,37417,1,10,0:0:0:0:
282,20,37564,5,8,0:0:0:0:
210,295,37710,1,8,0:0:0:0:
111,37,37856,1,8,0:0:0:0:
214,317,38003,1,8,0:0:0:0:
354,64,38149,6,0,P|433:46|454:46,1,100,2|2,3:2|0:0,0:0:0:0:
358,261,38442,1,10,0:0:0:0:
195,174,38588,1,2,3:2:0:0:
195,174,38661,1,2,3:2:0:0:
195,174,38734,2,0,P|162:164|138:165,3,50,2|10|10|10,3:2|0:0|0:0|0:0,0:0:0:0:
65,201,39027,2,0,P|32:211|8:210,3,50,10|2|2|2,0:0|0:0|0:0|0:0,0:0:0:0:
79,112,39320,6,0,L|93:216,1,100,2|0,3:2|0:0,0:0:0:0:
290,353,39612,2,0,L|312:184,1,129.999994049073,6|0,0:0|0:0,0:0:0:0:
367,166,39832,1,8,0:0:0:0:
367,166,39905,6,0,L|359:98,1,50,2|0,3:2|3:0,0:0:0:0:
191,267,40051,1,0,3:0:0:0:
469,192,40198,2,0,L|451:61,1,129.999994049073,6|0,0:0|0:0,0:0:0:0:
251,26,40490,6,0,P|230:16|208:13,3,44.999998626709,2|2|2|2,0:0|0:0|0:0|0:0,0:0:0:0:
156,85,40783,2,0,P|135:94|113:97,3,44.999998626709,2|2|2|2,3:2|3:2|3:2|3:2,0:0:0:0:
28,57,41076,1,2,3:2:0:0:
28,57,41149,1,2,3:2:0:0:
28,57,41222,6,0,P|20:100|20:114,1,44.999998626709,2|2,3:2|3:2,0:0:0:0:
34,194,41368,2,0,P|41:234|48:249,1,44.999998626709,2|2,3:2|3:2,0:0:0:0:
88,324,41515,2,0,P|112:356|122:364,1,44.999998626709,2|2,3:2|3:2,0:0:0:0:
289,277,41661,6,0,P|210:279|142:241,2,160,6|10|2,3:2|0:0|3:2,0:0:0:0:
393,214,42393,1,2,3:2:0:0:
301,143,42539,1,8,0:0:0:0:
493,76,42686,6,0,P|501:151|511:264,1,160,6|2,3:2|3:2,0:0:0:0:
398,115,43125,1,10,0:0:0:0:
289,277,43271,6,0,B|211:294|234:215|135:229,1,160,6|2,3:2|3:2,0:0:0:0:
19,251,43710,1,10,0:0:0:0:
235,159,43856,2,0,L|229:220,1,40,10|8,0:0|0:0,0:0:0:0:
141,346,44003,6,0,L|117:162,2,160,6|10|2,3:2|0:0|3:2,0:0:0:0:
289,277,44734,1,2,3:2:0:0:
426,365,44881,1,10,0:0:0:0:
459,118,45027,5,6,3:2:0:0:
459,118,45320,1,2,3:2:0:0:
397,265,45466,1,10,0:0:0:0:
266,46,45612,5,6,3:2:0:0:
356,175,45759,2,0,P|396:193|447:188,1,80,2|0,0:0|3:0,0:0:0:0:
266,46,46051,2,0,P|226:28|175:33,1,80,10|0,0:0|0:0,0:0:0:0:
28,181,46344,5,6,3:2:0:0:
207,125,46490,1,2,3:2:0:0:
30,64,46637,1,10,0:0:0:0:
104,258,46783,6,0,L|122:80,1,160,6|0,3:2|3:0,0:0:0:0:
28,181,47222,1,8,0:0:0:0:
185,332,47368,6,0,B|267:341|249:273|336:282,1,160,6|2,3:2|3:2,0:0:0:0:
253,203,47807,1,10,0:0:0:0:
436,259,47954,1,2,3:2:0:0:
343,86,48100,2,0,L|330:179,1,80,2|2,0:0|3:2,0:0:0:0:
170,258,48393,1,10,0:0:0:0:
144,132,48539,1,10,0:0:0:0:
144,132,48612,1,8,0:0:0:0:
144,132,48686,6,0,P|183:132|219:114,1,80,14|0,0:0|0:0,0:0:0:0:
329,20,48978,2,0,P|309:54|306:93,1,80,10|0,0:0|0:0,0:0:0:0:
333,236,49271,2,0,P|313:201|280:179,1,80,10|2,0:0|3:2,0:0:0:0:
144,132,49564,1,10,0:0:0:0:
306,93,49710,1,2,0:0:0:0:
258,252,49856,5,2,0:0:0:0:
35,208,50003,1,10,0:0:0:0:
35,208,50076,1,10,0:0:0:0:
35,208,50149,1,10,0:0:0:0:
242,162,50295,1,10,0:0:0:0:
69,300,50442,1,10,0:0:0:0:
27,81,50588,1,10,0:0:0:0:
27,81,50661,1,10,0:0:0:0:
27,81,50734,1,10,0:0:0:0:
168,223,50881,1,10,0:0:0:0:
212,49,51027,5,2,3:2:0:0:
211,48,52051,6,0,P|239:89|236:138,1,100,2|0,1:2|0:0,0:0:0:0:
94,252,52344,2,0,P|115:207|159:185,1,100,2|0,1:2|0:0,0:0:0:0:
370,208,52637,2,0,P|278:255|237:228,1,150,2|0,1:2|0:0,0:0:0:0:
240,225,52929,2,0,P|246:264|250:311,1,75,0|8,3:0|0:0,0:0:0:0:
55,97,53222,5,2,1:2:0:0:
55,97,53368,2,0,P|37:219|34:296,1,200,2|8,1:2|0:0,0:0:0:0:
134,375,53807,1,2,0:0:0:0:
301,181,53954,2,0,P|211:155|189:156,1,100,2|0,1:2|3:0,0:0:0:0:
213,288,54246,1,8,0:0:0:0:
364,359,54393,6,0,P|413:352|459:332,1,100,2|0,1:2|0:0,0:0:0:0:
408,146,54686,2,0,P|382:236|383:258,1,100,2|0,1:2|0:0,0:0:0:0:
216,372,54978,6,0,P|216:295|171:220,1,150,2|0,1:2|0:0,0:0:0:0:
100,199,55271,1,8,0:0:0:0:
78,200,55344,1,8,0:0:0:0:
57,207,55417,1,8,0:0:0:0:
40,220,55490,1,8,0:0:0:0:
26,237,55564,2,0,P|14:278|17:290,1,50,8|8,0:0|0:0,0:0:0:0:
216,372,55710,6,0,B|373:388|309:238|473:255,1,279.999991455078,2|2,0:0|0:0,0:0:0:0:
451,253,56588,2,0,P|396:249|356:218,1,93.3333304850261,2|2,0:0|0:0,0:0:0:0:
282,194,56881,2,0,B|247:161|247:161|262:47,2,139.999995727539,2|2|2,1:2|0:0|0:0,0:0:0:0:
429,164,57661,2,0,B|464:131|464:131|449:17,1,139.999995727539,2|0,0:0|0:0,0:0:0:0:
366,2,58051,1,6,0:0:0:0:
258,69,58246,6,0,P|188:128|130:113,2,139.999995727539,2|2|2,0:0|0:0|0:0,0:0:0:0:
173,34,58929,1,2,3:2:0:0:
127,28,59027,1,2,3:2:0:0:
85,48,59124,1,2,3:2:0:0:
60,86,59222,2,0,L|75:198,1,93.3333304850261,2|2,3:2|0:0,0:0:0:0:
129,259,59515,2,0,P|106:262|86:274,2,46.6666652425131,2|2|2,1:2|3:2|3:2,3:2:0:0:
223,285,59807,5,2,3:2:0:0:
223,285,59905,2,0,P|265:300|276:299,1,46.6666652425131,2|2,3:2|3:2,0:0:0:0:
348,254,60100,1,2,3:2:0:0:
348,254,60198,2,0,P|390:239|401:240,1,46.6666652425131,2|2,3:2|3:2,0:0:0:0:
462,289,60393,6,0,P|403:336|382:197,1,279.999991455078,2|2,1:2|0:0,0:0:0:0:
465,112,61271,2,0,P|403:90|370:93,1,93.3333304850261,2|0,0:0|0:0,0:0:0:0:
288,124,61564,2,0,P|226:146|193:143,1,93.3333304850261,2|0,0:0|0:0,0:0:0:0:
109,93,61856,1,2,0:0:0:0:
289,1,62149,1,2,0:0:0:0:
376,91,62344,2,0,P|395:181|391:239,1,139.999995727539,2|0,0:0|0:0,0:0:0:0:
368,317,62734,1,6,0:0:0:0:
234,285,62929,6,0,P|203:277|179:278,1,46.6666652425131,2|2,0:0|0:0,0:0:0:0:
107,320,63125,2,0,P|45:306|43:232,1,139.999995727539,2|2,0:0|0:0,0:0:0:0:
109,121,63612,1,2,3:2:0:0:
109,121,63710,2,0,P|118:178|114:195,1,46.6666652425131,2|0,3:2|3:2,0:0:0:0:
29,166,63905,2,0,P|21:120|38:68,1,93.3333304850261,2|2,3:2|0:0,0:0:0:0:
117,38,64198,2,0,L|179:32,2,46.6666652425131,2|2|2,3:2|3:2|3:2,0:0:0:0:
188,112,64490,5,2,3:2:0:0:
188,112,64588,2,0,L|250:106,1,46.6666652425131,2|2,3:2|3:2,0:0:0:0:
279,23,64783,1,2,3:2:0:0:
279,23,64881,2,0,L|341:17,1,46.6666652425131,2|2,3:2|3:2,0:0:0:0:
402,114,65076,6,0,L|412:232,1,89.9999972534181,14|0,0:0|3:0,0:0:0:0:
499,59,65368,1,2,3:2:0:0:
301,218,65515,6,0,L|197:203,1,89.9999972534181,10|0,0:0|3:0,0:0:0:0:
363,303,65807,1,2,3:2:0:0:
509,148,65954,2,0,L|498:53,1,89.9999972534181,10|0,0:0|3:0,0:0:0:0:
143,25,66246,6,0,P|127:75|142:131,1,89.9999972534181,10|0,0:0|3:0,0:0:0:0:
322,136,66539,1,2,3:2:0:0:
43,168,66686,6,0,P|78:206|134:221,1,89.9999972534181,8|0,0:0|3:0,0:0:0:0:
322,136,66978,2,0,P|331:102|330:81,1,44.999998626709,2|2,3:2|0:0,0:0:0:0:
208,74,67125,1,10,0:0:0:0:
211,125,67198,1,8,0:0:0:0:
215,177,67271,1,8,0:0:0:0:
219,228,67344,1,8,0:0:0:0:
223,280,67417,6,0,L|230:379,1,100,14|2,0:0|0:0,0:0:0:0:
505,256,67710,2,0,L|512:157,1,100,10|2,0:0|0:0,0:0:0:0:
275,50,68003,5,10,0:0:0:0:
331,282,68149,1,2,3:2:0:0:
132,87,68295,5,10,0:0:0:0:
85,328,68442,1,2,3:2:0:0:
307,138,68588,6,0,P|356:140|410:159,1,100,10|2,0:0|0:0,0:0:0:0:
273,372,68881,2,0,P|224:370|170:351,1,100,10|2,0:0|0:0,0:0:0:0:
1,117,69173,6,0,L|14:184,1,50,10|2,0:0|0:0,0:0:0:0:
191,270,69320,2,0,L|202:204,1,50,2|2,3:2|0:2,0:0:0:0:
280,8,69466,2,0,L|293:75,3,50,10|2|2|2,0:0|0:0|0:0|0:0,0:0:0:0:
227,127,69759,6,0,L|124:103,1,100,14|2,0:0|0:0,0:0:0:0:
336,319,70051,1,10,0:0:0:0:
409,72,70198,1,10,0:0:0:0:
231,250,70344,1,10,0:0:0:0:
493,164,70490,1,10,0:0:0:0:
241,41,70637,1,10,0:0:0:0:
444,281,70783,1,10,0:0:0:0:
327,19,70929,5,10,0:0:0:0:
179,305,71076,1,10,0:0:0:0:
413,128,71222,2,0,L|514:114,1,100,10|0,0:0|0:0,0:0:0:0:
143,13,71515,5,10,0:0:0:0:
132,35,71588,1,10,0:0:0:0:
125,58,71661,1,10,0:0:0:0:
124,83,71734,1,10,0:0:0:0:
126,107,71807,2,0,L|138:214,1,100,10|0,0:0|3:0,0:0:0:0:
344,330,72100,6,0,P|484:337|424:222,1,300.000011444092,6|8,3:2|0:0,0:0:0:0:
374,44,72539,6,0,B|356:105|381:158|381:158|365:239|365:239|327:188,1,259.999988098145,6|0,3:2|3:0,0:0:0:0:
48,112,72978,6,0,B|122:34|196:55|196:55|168:67|153:128,1,220.000006713867,6|0,3:2|3:0,0:0:0:0:
210,326,73417,6,0,B|96:367|96:367|73:340|47:329,1,179.999994506836,6|2,3:2|3:2,0:0:0:0:
256,192,73856,5,10,0:0:0:0:
48,112,74003,2,0,L|58:178,1,34.9999989318848,10|8,0:0|0:0,0:0:0:0:
210,326,74149,2,0,L|216:271,1,34.9999989318848,10|8,0:0|0:0,0:0:0:0:
191,77,74295,2,0,L|184:139,1,34.9999989318848,10|8,0:0|0:0,0:0:0:0:
85,305,74442,5,2,0:0:0:0:
441,260,75027,6,0,P|409:279|301:207,1,175,2|0,0:0|0:0,0:0:0:0:
223,237,75612,6,0,P|221:200|338:142,1,175,2|0,0:0|0:0,0:0:0:0:
351,59,76198,6,0,P|383:76|375:206,1,175,2|0,0:0|0:0,0:0:0:0:
302,220,76783,6,0,L|178:200,1,119.999996337891,14|0,0:0|0:0,0:0:0:0:
16,34,77076,2,0,L|28:160,1,119.999996337891,10|2,0:0|0:0,0:0:0:0:
216,330,77368,1,10,0:0:0:0:
241,88,77515,1,2,0:0:0:0:
83,333,77661,1,10,0:0:0:0:
39,100,77807,1,2,0:0:0:0:
287,65,77954,6,0,P|305:147|289:190,1,119.999996337891,10|0,0:0|0:0,0:0:0:0:
183,368,78246,2,0,P|165:286|181:243,1,119.999996337891,10|2,0:0|0:0,0:0:0:0:
382,117,78539,1,8,0:0:0:0:
213,148,78686,1,2,0:0:0:0:
402,232,78832,1,8,0:0:0:0:
249,301,78978,1,2,0:0:0:0:
160,53,79125,1,8,0:0:0:0:
160,53,79417,6,0,L|137:194,1,119.999996337891,10|2,0:0|0:0,0:0:0:0:
376,69,79710,1,10,0:0:0:0:
221,257,79856,1,2,0:0:0:0:
284,5,80003,1,10,0:0:0:0:
328,303,80149,1,2,0:0:0:0:
117,119,80295,5,10,0:0:0:0:
431,188,80442,1,2,0:0:0:0:
117,119,80588,1,10,0:0:0:0:
446,44,80734,5,2,0:0:0:0:
281,344,80881,2,0,L|269:218,1,119.999996337891,8|2,0:0|0:0,0:0:0:0:
129,0,81173,2,0,L|117:119,1,119.999996337891,10|0,0:0|0:0,0:0:0:0:
27,328,81466,2,0,P|96:359|143:340,1,119.999996337891,8|0,0:0|0:0,0:0:0:0:
343,62,81759,5,10,0:0:0:0:
286,354,81905,1,2,0:0:0:0:
155,87,82051,1,10,0:0:0:0:
307,371,82198,5,2,0:0:0:0:
255,34,82344,1,10,0:0:0:0:
170,342,82490,1,2,0:0:0:0:
236,43,82637,5,10,0:0:0:0:
361,317,82783,1,2,0:0:0:0:
99,187,82929,1,10,0:0:0:0:
425,206,83076,5,2,0:0:0:0:
130,85,83222,1,10,0:0:0:0:
333,327,83368,1,2,0:0:0:0:
274,34,83515,5,10,0:0:0:0:
449,336,83661,1,2,0:0:0:0:
474,2,83807,1,10,0:0:0:0:
474,2,84100,6,0,P|457:74|450:145,1,119.999996337891,10|2,0:0|0:0,0:0:0:0:
429,360,84393,2,0,P|375:309|317:267,1,119.999996337891,10|2,0:0|0:0,0:0:0:0:
141,142,84686,2,0,P|211:120|276:91,1,119.999996337891,10|2,0:0|0:0,0:0:0:0:
381,45,84978,5,10,0:0:0:0:
338,281,85125,1,8,0:0:0:0:
338,281,85198,1,8,0:0:0:0:
338,281,85271,1,10,0:0:0:0:
253,101,85417,1,10,0:0:0:0:
445,201,85564,1,10,0:0:0:0:
245,317,85710,5,2,3:2:0:0:
366,157,85856,1,2,3:2:0:0:
401,338,86003,1,2,3:2:0:0:
445,201,86149,6,0,P|390:250|319:236,1,150,6|0,3:2|0:0,0:0:0:0:
266,162,86442,2,0,P|210:136|158:148,1,100,10|2,0:0|0:0,0:0:0:0:
236,317,86734,1,2,3:2:0:0:
390,138,86881,1,2,3:2:0:0:
316,376,87027,1,10,0:0:0:0:
253,135,87173,1,2,0:0:0:0:
82,338,87320,6,0,P|149:381|237:303,1,200,2|10,3:2|0:0,0:0:0:0:
154,69,87759,2,0,B|134:103|134:103|153:275,1,200,2|2,0:0|3:2,0:0:0:0:
378,309,88198,1,10,0:0:0:0:
407,56,88344,1,2,0:0:0:0:
275,242,88490,1,2,3:2:0:0:
275,242,88783,6,0,P|357:217|392:211,1,100,10|2,0:0|0:0,0:0:0:0:
244,46,89076,2,0,P|204:112|186:160,1,100,2|2,3:2|3:2,0:0:0:0:
50,163,89368,2,0,P|28:113|15:45,1,100,10|0,0:0|0:0,0:0:0:0:
298,143,89661,5,2,3:2:0:0:
26,288,89807,1,2,0:0:0:0:
103,46,89954,1,10,0:0:0:0:
237,345,90100,1,2,0:0:0:0:
0,152,90246,5,2,3:2:0:0:
328,232,90393,1,10,0:0:0:0:
328,232,90466,1,10,0:0:0:0:
328,232,90539,1,10,0:0:0:0:
32,338,90686,1,2,3:2:0:0:
201,60,90832,2,0,L|84:43,1,100,6|0,3:2|3:0,0:0:0:0:
198,326,91125,5,10,0:0:0:0:
426,148,91271,1,2,3:2:0:0:
147,224,91417,1,2,0:0:0:0:
473,263,91564,5,2,3:2:0:0:
219,122,91710,1,10,0:0:0:0:
503,178,91856,1,2,3:2:0:0:
301,344,92003,5,10,0:0:0:0:
332,53,92149,1,2,3:2:0:0:
332,53,92295,1,2,3:2:0:0:
196,344,92442,5,10,0:0:0:0:
169,48,92588,1,2,3:2:0:0:
169,48,92734,1,2,3:2:0:0:
301,344,92881,2,0,P|317:288|295:232,1,100,8|0,0:0|0:0,0:0:0:0:
201,29,93173,5,2,3:2:0:0:
126,336,93320,1,2,3:2:0:0:
302,46,93466,1,2,3:2:0:0:
19,226,93612,1,2,3:2:0:0:
392,129,93759,1,2,3:2:0:0:
37,67,93905,1,2,3:2:0:0:
263,324,94051,5,2,3:2:0:0:
149,16,94198,1,2,3:2:0:0:
149,16,94271,1,0,3:0:0:0:
149,16,94344,6,0,B|105:55|100:107|131:155|131:155|155:122|187:98|238:87|297:109|268:131|288:153|328:162|415:137|415:137|375:145|338:101,1,524.999983978272,6|0,0:0|0:0,0:0:0:0:
382,43,95515,6,0,P|406:42|441:59,1,60,2|2,0:0|0:0,0:0:0:0:
245,78,96100,5,10,0:0:0:0:
439,242,96246,1,2,3:2:0:0:
197,297,96393,1,10,0:0:0:0:
361,122,96539,1,2,3:2:0:0:
99,77,96686,5,10,0:0:0:0:
99,77,96759,1,10,0:0:0:0:
99,77,96832,1,10,0:0:0:0:
99,77,96905,1,10,0:0:0:0:
99,77,96978,1,10,0:0:0:0:
279,215,97125,2,0,L|297:322,1,100,10|0,0:0|0:0,0:0:0:0:
74,268,97417,5,10,0:0:0:0:
65,265,97490,1,10,0:0:0:0:
57,262,97563,1,10,0:0:0:0:
51,260,97636,1,10,0:0:0:0:
43,258,97710,2,0,P|17:230|10:211,1,50,10|8,0:0|0:0,0:0:0:0:
99,77,97856,5,2,0:0:0:0:
211,88,99612,6,0,P|184:78|151:80,3,50,10|0|0|0,0:0|3:0|3:0|3:0,0:0:0:0:
130,118,99905,2,0,L|152:287,1,150,10|0,0:0|0:0,0:0:0:0:
197,348,100198,6,0,P|281:327|325:320,1,100,6|0,3:2|0:0,0:0:0:0:
465,183,100490,2,0,P|373:161|339:156,1,100,8|0,0:0|0:0,0:0:0:0:
187,199,100783,1,2,3:2:0:0:
385,262,100929,1,0,3:0:0:0:
254,99,101076,1,10,0:0:0:0:
294,324,101222,1,2,0:0:0:0:
378,76,101368,6,0,P|456:79|440:199,1,200,2|8,3:2|0:0,0:0:0:0:
385,262,101807,1,2,0:0:0:0:
233,125,101954,1,0,3:2:0:0:
341,161,102100,1,0,3:0:0:0:
143,263,102246,1,10,0:0:0:0:
259,237,102393,1,2,0:0:0:0:
119,94,102539,1,6,3:2:0:0:
119,94,102832,6,0,P|89:215|96:279,1,179.999994506836,8|0,0:0|0:0,0:0:0:0:
113,342,103125,1,2,3:2:0:0:
211,194,103271,1,0,3:0:0:0:
45,137,103417,1,10,0:0:0:0:
199,294,103564,6,0,L|335:263,1,119.999996337891,2|0,0:0|3:0,0:0:0:0:
206,79,103856,1,10,0:0:0:0:
206,79,103929,1,8,0:0:0:0:
206,79,104003,1,10,0:0:0:0:
89,239,104149,1,0,3:0:0:0:
306,116,104295,1,2,3:2:0:0:
126,44,104442,1,2,0:0:0:0:
281,236,104588,2,0,P|395:208|401:130,1,179.999994506836,10|0,0:0|0:0,0:0:0:0:
474,93,104881,6,0,P|402:70|361:68,1,100,14|0,0:0|0:0,0:0:0:0:
211,194,105173,2,0,P|134:213|95:210,1,100,8|0,0:0|3:0,0:0:0:0:
273,13,105466,1,10,0:0:0:0:
338,249,105612,1,0,3:0:0:0:
145,71,105759,1,10,0:0:0:0:
106,311,105905,1,0,3:0:0:0:
306,134,106051,5,10,0:0:0:0:
25,186,106198,1,0,3:0:0:0:
338,249,106344,1,8,0:0:0:0:
10,189,106490,1,2,3:2:0:0:
333,58,106637,6,0,L|406:73,1,50,0|0,3:0|3:0,0:0:0:0:
244,298,106783,2,0,L|230:237,1,50,0|0,3:0|3:0,0:0:0:0:
136,38,106929,2,0,L|123:115,1,50,8|8,0:0|0:0,0:0:0:0:
76,308,107076,2,0,L|17:319,1,50,8|8,0:0|0:0,0:0:0:0:
0,152,107222,1,8,0:0:0:0:
360,62,108246,5,0,3:0:0:0:
360,62,108320,1,0,3:0:0:0:
360,62,108393,2,0,B|408:41|408:41|465:50,2,100,4|0|8,3:2|3:0|0:0,0:0:0:0:
435,174,108832,6,0,B|341:214|341:214|233:193,1,200,4|0,3:2|3:0,0:0:0:0:
101,75,109271,2,0,P|118:128|105:176,1,100,8|0,0:0|3:0,0:0:0:0:
61,253,109490,1,0,3:0:0:0:
61,253,109564,6,0,B|190:219|165:375|307:333,1,262.499991989136,6|0,3:2|0:0,0:0:0:0:
388,314,110734,5,14,0:0:0:0:
233,106,110881,1,2,3:2:0:0:
203,358,111027,1,2,3:2:0:0:
407,172,111173,6,0,L|250:200,1,160,14|0,0:0|0:0,0:0:0:0:
139,265,111612,1,0,3:0:0:0:
139,265,111686,1,0,3:0:0:0:
139,265,111759,6,0,P|126:229|128:186,1,80,2|0,1:2|0:0,0:0:0:0:
297,77,112051,5,2,3:2:0:0:
195,50,112198,1,10,0:0:0:0:
297,77,112344,2,0,P|314:124|295:169,1,80,2|0,1:2|0:0,0:0:0:0:
153,244,112637,5,2,3:2:0:0:
220,134,112783,1,10,0:0:0:0:
249,305,112929,1,2,1:2:0:0:
249,305,113222,5,2,1:2:0:0:
87,237,113368,1,10,0:0:0:0:
187,222,113515,1,2,1:2:0:0:
121,363,113661,1,2,0:0:0:0:
0,262,113807,1,2,3:2:0:0:
187,222,113954,1,10,0:0:0:0:
340,318,114100,1,2,3:2:0:0:
340,318,114173,1,0,3:0:0:0:
340,318,114246,6,0,L|354:228,1,80,2|0,3:2|0:0,0:0:0:0:
208,62,114539,2,0,L|221:154,1,80,10|0,0:0|0:0,0:0:0:0:
432,210,114832,6,0,P|391:155|334:158,1,110.000003356934,2|0,3:2|3:0,0:0:0:0:
230,250,115125,1,10,0:0:0:0:
94,54,115271,6,0,P|66:125|74:226,1,160,2|2,3:2|3:2,0:0:0:0:
112,327,115710,1,10,0:0:0:0:
319,213,115856,2,0,L|325:112,1,80,2|0,0:0|3:0,0:0:0:0:
107,81,116149,5,2,0:0:0:0:
307,21,116295,1,10,0:0:0:0:
119,219,116442,1,2,0:0:0:0:
323,133,116588,6,0,P|386:141|437:159,1,100,2|2,0:0|0:3,0:0:0:0:
135,55,116881,2,0,P|77:39|22:36,1,100,8|2,0:0|0:3,0:0:0:0:
160,279,117173,1,10,0:0:0:0:
248,39,117320,1,8,0:0:0:0:
284,297,117466,1,10,0:0:0:0:
148,51,117612,1,10,0:0:0:0:
137,318,117759,5,10,0:0:0:0:
284,56,117905,1,8,0:0:0:0:
317,327,118051,1,8,0:0:0:0:
117,130,118198,1,10,0:0:0:0:
398,202,118344,5,8,0:0:0:0:
115,326,118490,1,8,0:0:0:0:
265,51,118637,1,8,0:0:0:0:
325,348,118783,1,8,0:0:0:0:
117,130,118929,6,0,P|70:111|-4:100,1,100,2|2,3:2|0:0,0:0:0:0:
30,297,119222,1,10,0:0:0:0:
207,227,119368,1,2,0:0:0:0:
207,227,119442,1,2,0:0:0:0:
207,227,119515,2,0,P|240:217|264:218,3,50,2|10|10|10,3:2|0:0|0:0|0:0,0:0:0:0:
334,272,119807,2,0,P|367:282|391:281,3,50,10|2|2|2,0:0|0:0|0:0|0:0,0:0:0:0:
493,238,120100,6,0,L|479:134,1,100,2|0,3:2|0:0,0:0:0:0:
264,353,120393,2,0,L|244:188,1,129.999994049073,6|0,0:0|0:0,0:0:0:0:
313,155,120612,1,8,0:0:0:0:
313,155,120686,6,0,L|388:139,1,50,2|0,3:2|3:0,0:0:0:0:
163,298,120832,1,0,3:0:0:0:
63,98,120978,2,0,L|235:64,1,129.999994049073,6|0,0:0|0:0,0:0:0:0:
402,14,121271,6,0,P|411:38|409:75,3,44.999998626709,2|2|2|2,0:0|0:0|0:0|0:0,0:0:0:0:
375,132,121564,2,0,P|395:140|417:143,3,44.999998626709,2|2|2|2,3:2|3:2|3:2|3:2,0:0:0:0:
313,64,121856,1,2,3:2:0:0:
313,64,121929,1,2,3:2:0:0:
313,64,122003,6,0,P|291:105|290:119,1,44.999998626709,2|2,3:2|3:2,0:0:0:0:
160,155,122149,2,0,P|181:173|211:174,1,44.999998626709,2|2,3:2|3:2,0:0:0:0:
339,243,122295,2,0,P|319:224|288:217,1,44.999998626709,2|2,3:2|3:2,0:0:0:0:
124,80,122442,6,0,L|101:258,2,160,6|10|2,3:2|0:0|3:2,0:0:0:0:
292,25,123173,1,2,3:2:0:0:
197,176,123319,1,8,0:0:0:0:
448,39,123466,6,0,L|474:229,1,160,6|2,3:2|3:2,0:0:0:0:
489,295,123905,1,10,0:0:0:0:
337,176,124051,6,0,B|259:159|282:238|183:224,1,160,6|2,3:2|3:2,0:0:0:0:
112,144,124490,1,10,0:0:0:0:
324,303,124637,2,0,L|330:242,1,40,10|8,0:0|0:0,0:0:0:0:
203,110,124783,6,0,L|191:300,2,160,6|10|2,3:2|0:0|3:2,0:0:0:0:
361,40,125515,1,2,3:2:0:0:
304,239,125661,1,10,0:0:0:0:
212,19,125807,5,6,3:2:0:0:
212,19,126100,1,2,3:2:0:0:
384,133,126246,1,10,0:0:0:0:
158,228,126393,5,6,3:2:0:0:
310,53,126539,2,0,P|325:94|322:153,1,80,2|0,0:0|3:0,0:0:0:0:
195,321,126832,2,0,P|177:281|182:230,1,80,10|0,0:0|0:0,0:0:0:0:
421,195,127125,5,6,3:2:0:0:
206,118,127271,1,2,3:2:0:0:
312,265,127417,1,10,0:0:0:0:
383,49,127564,6,0,B|407:132|407:132|380:228,1,160,6|0,3:2|3:0,0:0:0:0:
341,357,128003,1,8,0:0:0:0:
240,136,128149,6,0,P|165:124|121:192,1,160,6|2,3:2|3:2,0:0:0:0:
99,328,128588,1,10,0:0:0:0:
301,255,128734,1,2,3:2:0:0:
76,143,128881,2,0,L|89:236,1,80,2|2,0:0|3:2,0:0:0:0:
212,335,129173,1,10,0:0:0:0:
282,109,129320,1,10,0:0:0:0:
282,109,129393,1,8,0:0:0:0:
282,109,129466,6,0,L|199:95,1,80,14|0,0:0|0:0,0:0:0:0:
322,318,129759,2,0,L|240:306,1,80,10|0,0:0|0:0,0:0:0:0:
451,159,130051,2,0,L|362:146,1,80,10|2,0:0|3:2,0:0:0:0:
452,314,130344,1,10,0:0:0:0:
237,198,130490,1,2,0:0:0:0:
411,56,130637,5,2,0:0:0:0:
347,285,130783,1,10,0:0:0:0:
347,285,130856,1,10,0:0:0:0:
347,285,130929,1,10,0:0:0:0:
257,68,131076,1,10,0:0:0:0:
199,302,131222,1,10,0:0:0:0:
334,147,131368,1,10,0:0:0:0:
334,147,131442,1,10,0:0:0:0:
334,147,131515,1,10,0:0:0:0:
170,47,131661,1,10,0:0:0:0:
265,224,131807,5,2,3:2:0:0:
265,224,132832,6,0,L|371:198,1,100,2|0,1:2|0:0,0:0:0:0:
162,138,133124,2,0,L|46:117,1,100,2|0,1:2|0:0,0:0:0:0:
281,242,133417,2,0,L|442:203,1,150,2|0,1:2|0:0,0:0:0:0:
461,194,133710,2,0,P|472:150|439:97,1,100,0|8,3:0|0:0,0:0:0:0:
282,46,134003,5,2,1:2:0:0:
184,88,134149,2,0,P|166:210|163:287,1,200,2|8,1:2|0:0,0:0:0:0:
279,352,134588,1,2,0:0:0:0:
366,189,134734,2,0,P|276:163|254:164,1,100,2|0,1:2|3:0,0:0:0:0:
163,286,135027,1,8,0:0:0:0:
279,352,135173,6,0,L|303:211,1,100,2|0,1:2|0:0,0:0:0:0:
146,171,135466,2,0,L|136:62,1,100,2|0,1:2|0:0,0:0:0:0:
297,26,135759,6,0,P|354:17|403:88,1,150,2|0,1:2|0:0,0:0:0:0:
385,165,136051,1,8,0:0:0:0:
361,169,136125,1,8,0:0:0:0:
341,172,136198,1,8,0:0:0:0:
321,176,136271,1,8,0:0:0:0:
301,180,136344,2,0,L|249:192,1,50,8|8,0:0|0:0,0:0:0:0:
292,372,136490,6,0,B|139:388|203:238|60:253,1,279.999991455078,2|2,0:0|0:0,0:0:0:0:
60,252,137368,2,0,P|107:252|146:228,1,93.3333304850261,2|2,0:0|0:0,0:0:0:0:
230,194,137661,2,0,B|265:161|265:161|253:69,2,139.999995727539,2|2|2,1:2|0:0|0:0,0:0:0:0:
83,164,138442,2,0,B|48:131|48:131|59:39,1,139.999995727539,2|0,0:0|0:0,0:0:0:0:
146,2,138832,1,6,0:0:0:0:
254,69,139027,6,0,P|298:120|366:121,2,139.999995727539,2|2|2,0:0|0:0|0:0,0:0:0:0:
339,34,139710,1,2,3:2:0:0:
385,28,139807,1,2,3:2:0:0:
427,48,139905,1,2,3:2:0:0:
452,86,140003,2,0,L|439:178,1,93.3333304850261,2|2,3:2|0:0,0:0:0:0:
383,258,140295,2,0,P|406:262|425:273,2,46.6666652425131,2|2|2,1:2|3:2|3:2,3:2:0:0:
289,285,140588,5,2,3:2:0:0:
289,284,140686,2,0,P|268:296|245:299,1,46.6666652425131,2|2,3:2|3:2,0:0:0:0:
164,254,140881,1,2,3:2:0:0:
164,254,140978,2,0,P|143:242|120:239,1,46.6666652425131,2|2,3:2|3:2,0:0:0:0:
50,289,141173,6,0,P|164:317|143:201,1,279.999991455078,2|2,1:2|0:0,0:0:0:0:
46,112,142051,1,2,0:0:0:0:
223,123,142344,2,0,P|266:143|312:144,1,93.3333304850261,2|0,0:0|0:0,0:0:0:0:
403,93,142637,1,2,0:0:0:0:
223,1,142929,1,2,0:0:0:0:
135,91,143125,2,0,P|118:158|119:228,1,139.999995727539,2|0,0:0|0:0,0:0:0:0:
144,317,143515,1,6,0:0:0:0:
277,285,143710,6,0,P|300:278|323:276,1,46.6666652425131,2|2,0:0|0:0,0:0:0:0:
405,320,143905,2,0,P|468:304|473:238,1,139.999995727539,2|2,0:0|0:0,0:0:0:0:
403,121,144393,1,2,3:2:0:0:
403,120,144490,2,0,P|395:142|393:166,1,46.6666652425131,2|0,3:2|3:2,0:0:0:0:
483,165,144686,2,0,P|491:120|478:75,1,93.3333304850261,2|2,3:2|0:0,0:0:0:0:
395,38,144978,2,0,L|348:33,2,46.6666652425131,2|2|2,3:2|3:2|3:2,0:0:0:0:
324,112,145271,5,2,3:2:0:0:
324,112,145368,2,0,L|277:107,1,46.6666652425131,2|2,3:2|3:2,0:0:0:0:
233,23,145564,1,2,3:2:0:0:
233,23,145661,2,0,L|186:18,1,46.6666652425131,2|2,3:2|3:2,0:0:0:0:
91,83,145856,6,0,P|82:124|103:172,1,89.9999972534181,14|0,0:0|3:0,0:0:0:0:
315,202,146149,1,2,3:2:0:0:
46,263,146295,6,0,P|86:286|147:275,1,89.9999972534181,10|0,0:0|3:0,0:0:0:0:
248,104,146588,1,2,3:2:0:0:
228,368,146734,2,0,L|235:271,1,89.9999972534181,10|0,0:0|3:0,0:0:0:0:
410,47,147027,6,0,L|424:157,1,89.9999972534181,10|0,0:0|3:0,0:0:0:0:
443,289,147320,1,2,3:2:0:0:
248,104,147466,6,0,L|240:224,1,89.9999972534181,8|0,0:0|3:0,0:0:0:0:
228,368,147759,2,0,P|200:370|176:353,1,44.999998626709,2|2,3:2|0:0,0:0:0:0:
64,236,147905,1,10,0:0:0:0:
84,193,147978,1,8,0:0:0:0:
123,167,148051,1,8,0:0:0:0:
168,158,148125,1,8,0:0:0:0:
211,165,148198,6,0,L|323:183,1,100,14|2,0:0|0:0,0:0:0:0:
506,35,148490,2,0,L|397:64,1,100,10|2,0:0|0:0,0:0:0:0:
486,265,148783,5,10,0:0:0:0:
308,60,148929,1,2,3:2:0:0:
294,326,149076,5,10,0:0:0:0:
408,45,149222,1,2,3:2:0:0:
405,344,149368,6,0,P|414:293|395:230,1,100,10|2,0:0|0:0,0:0:0:0:
205,73,149661,2,0,P|181:120|187:194,1,100,10|2,0:0|0:0,0:0:0:0:
180,289,149954,6,0,L|238:276,1,50,10|2,0:0|0:0,0:0:0:0:
378,151,150100,2,0,L|314:167,1,50,2|2,3:2|0:2,0:0:0:0:
279,370,150246,2,0,L|327:358,3,50,10|2|2|2,0:0|0:0|0:0|0:0,0:0:0:0:
353,348,150539,6,0,B|365:301|365:301|348:251,1,100,14|2,0:0|0:0,0:0:0:0:
205,73,150832,1,10,0:0:0:0:
166,335,150978,1,10,0:0:0:0:
359,111,151125,1,10,0:0:0:0:
99,206,151271,1,10,0:0:0:0:
371,299,151417,1,10,0:0:0:0:
302,21,151564,1,10,0:0:0:0:
228,308,151710,5,10,0:0:0:0:
470,185,151856,1,10,0:0:0:0:
205,73,152003,2,0,L|104:87,1,100,10|0,0:0|0:0,0:0:0:0:
277,370,152295,5,10,0:0:0:0:
294,352,152368,1,10,0:0:0:0:
308,332,152442,1,10,0:0:0:0:
316,309,152515,1,10,0:0:0:0:
322,285,152588,2,0,L|312:176,1,100,10|0,0:0|3:0,0:0:0:0:
137,30,152881,6,0,B|104:97|155:144|155:144|174:202|129:243|129:243|93:222|113:181,1,300.000011444092,6|8,3:2|0:0,0:0:0:0:
320,67,153320,6,0,B|430:61|390:163|510:151|510:151|485:150|467:128,1,259.999988098145,6|0,3:2|3:0,0:0:0:0:
373,355,153759,6,0,B|373:323|354:295|354:295|369:270|369:270|350:200|350:200|396:223|391:250,1,220.000006713867,6|0,3:2|3:0,0:0:0:0:
163,348,154198,6,0,P|87:359|60:262,1,179.999994506836,6|2,3:2|3:2,0:0:0:0:
240,133,154637,5,10,0:0:0:0:
134,277,154783,2,0,L|129:221,1,34.9999989318848,10|8,0:0|0:0,0:0:0:0:
339,230,154929,2,0,L|345:175,1,34.9999989318848,10|8,0:0|0:0,0:0:0:0:
144,121,155075,2,0,L|138:66,1,34.9999989318848,10|8,0:0|0:0,0:0:0:0:
308,47,155222,5,2,0:0:0:0:
71,260,155807,6,0,P|103:279|211:207,1,175,2|0,0:0|0:0,0:0:0:0:
289,237,156392,6,0,P|291:200|174:142,1,175,2|0,0:0|0:0,0:0:0:0:
161,59,156978,6,0,P|129:76|137:206,1,175,2|0,0:0|0:0,0:0:0:0:
209,220,157564,6,0,L|333:200,1,119.999996337891,14|0,0:0|0:0,0:0:0:0:
450,36,157856,2,0,P|480:86|463:158,1,119.999996337891,10|2,0:0|0:0,0:0:0:0:
254,295,158148,1,10,0:0:0:0:
512,221,158295,1,2,0:0:0:0:
271,113,158441,1,10,0:0:0:0:
451,338,158587,1,2,0:0:0:0:
451,338,158734,6,0,P|385:318|325:308,1,119.999996337891,10|0,0:0|0:0,0:0:0:0:
102,153,159026,2,0,P|167:133|237:120,1,119.999996337891,10|2,0:0|0:0,0:0:0:0:
440,188,159319,1,8,0:0:0:0:
196,275,159466,1,2,0:0:0:0:
376,73,159612,1,8,0:0:0:0:
327,352,159758,1,2,0:0:0:0:
226,75,159905,1,8,0:0:0:0:
226,75,160197,6,0,B|203:129|203:129|214:190,1,119.999996337891,10|2,0:0|0:0,0:0:0:0:
267,351,160490,1,10,0:0:0:0:
307,116,160636,1,2,0:0:0:0:
147,357,160783,1,10,0:0:0:0:
119,99,160929,1,2,0:0:0:0:
267,351,161075,5,10,0:0:0:0:
283,24,161222,1,2,0:0:0:0:
103,273,161368,1,10,0:0:0:0:
430,141,161514,5,2,0:0:0:0:
111,23,161661,2,0,L|91:164,1,119.999996337891,8|2,0:0|0:0,0:0:0:0:
370,318,161953,2,0,L|355:190,1,119.999996337891,10|0,0:0|0:0,0:0:0:0:
73,272,162246,2,0,P|142:304|189:285,1,119.999996337891,8|0,0:0|0:0,0:0:0:0:
321,54,162539,5,10,0:0:0:0:
265,364,162685,1,2,0:0:0:0:
154,90,162831,1,10,0:0:0:0:
300,357,162978,5,2,0:0:0:0:
350,68,163124,1,10,0:0:0:0:
182,339,163270,1,2,0:0:0:0:
237,19,163417,5,10,0:0:0:0:
375,321,163563,1,2,0:0:0:0:
113,130,163709,1,10,0:0:0:0:
442,183,163856,5,2,0:0:0:0:
116,249,164002,1,10,0:0:0:0:
435,321,164148,1,2,0:0:0:0:
260,44,164295,5,10,0:0:0:0:
300,375,164441,1,2,0:0:0:0:
424,54,164587,1,10,0:0:0:0:
424,54,164880,6,0,P|433:115|437:208,1,119.999996337891,10|2,0:0|0:0,0:0:0:0:
364,369,165173,2,0,P|297:333|240:277,1,119.999996337891,10|2,0:0|0:0,0:0:0:0:
157,155,165466,2,0,P|225:125|292:104,1,119.999996337891,10|2,0:0|0:0,0:0:0:0:
444,68,165758,5,10,0:0:0:0:
386,340,165905,1,8,0:0:0:0:
386,340,165978,1,8,0:0:0:0:
386,340,166051,1,10,0:0:0:0:
225,71,166197,1,10,0:0:0:0:
250,336,166344,1,10,0:0:0:0:
377,111,166490,5,2,3:2:0:0:
409,353,166636,2,0,L|336:334,1,59.9999981689454,2|2,3:2|3:2,0:0:0:0:
197,160,166783,2,0,L|137:171,1,59.9999981689454,2|2,3:2|3:2,0:0:0:0:
49,345,166929,6,0,P|97:353|153:318,1,100,6|0,3:2|0:0,0:0:0:0:
299,183,167222,2,0,P|306:128|275:86,1,100,10|2,0:0|0:0,0:0:0:0:
107,171,167514,1,2,3:2:0:0:
300,288,167661,1,2,3:2:0:0:
306,73,167807,1,10,0:0:0:0:
191,288,167953,1,2,0:0:0:0:
171,85,168100,6,0,L|49:60,1,100,2|2,3:2|0:0,0:0:0:0:
191,288,168393,1,10,0:0:0:0:
306,73,168539,2,0,B|381:66|381:66|432:99|508:106,1,200,2|2,0:0|3:2,0:0:0:0:
399,234,168978,1,10,0:0:0:0:
300,44,169124,1,2,0:0:0:0:
264,286,169270,1,2,3:2:0:0:
264,286,169563,6,0,P|226:316|165:347,1,100,10|2,0:0|0:0,0:0:0:0:
42,200,169856,2,0,P|73:144|110:103,1,100,2|2,3:2|3:2,0:0:0:0:
275,15,170148,2,0,P|294:48|294:118,1,100,10|0,0:0|0:0,0:0:0:0:
174,348,170441,5,2,3:2:0:0:
422,162,170587,1,2,0:0:0:0:
143,60,170734,1,10,0:0:0:0:
324,358,170880,1,2,0:0:0:0:
372,47,171026,5,2,3:2:0:0:
226,283,171173,1,10,0:0:0:0:
226,283,171246,1,10,0:0:0:0:
226,283,171319,1,10,0:0:0:0:
156,31,171466,1,2,3:2:0:0:
336,204,171612,2,0,L|434:189,1,100,6|0,3:2|3:0,0:0:0:0:
252,13,171905,5,10,0:0:0:0:
177,274,172051,1,2,3:2:0:0:
369,104,172197,1,2,0:0:0:0:
106,58,172344,5,2,3:2:0:0:
361,273,172490,1,10,0:0:0:0:
87,201,172636,1,2,3:2:0:0:
74,200,172710,1,8,0:0:0:0:
63,204,172783,5,10,0:0:0:0:
367,124,172929,1,2,3:2:0:0:
367,124,173075,1,2,3:2:0:0:
206,356,173222,5,10,0:0:0:0:
152,56,173368,1,2,3:2:0:0:
152,56,173514,1,2,3:2:0:0:
319,343,173661,2,0,L|337:234,1,100,8|0,0:0|0:0,0:0:0:0:
334,28,173954,5,2,3:2:0:0:
208,359,174100,1,2,3:2:0:0:
165,32,174246,1,2,3:2:0:0:
331,352,174393,5,2,3:2:0:0:
300,21,174539,1,2,3:2:0:0:
435,335,174686,1,2,3:2:0:0:
450,36,174832,5,2,3:2:0:0:
450,36,174905,1,0,3:0:0:0:
450,36,174978,1,2,3:2:0:0:
450,36,175051,1,0,3:0:0:0:
450,36,175124,5,2,3:2:0:0:
360,287,175271,1,8,0:0:0:0:
255,42,175417,5,2,3:2:0:0:
236,324,175564,1,10,0:0:0:0:
40,57,175710,5,2,3:2:0:0:
111,361,175856,1,8,0:0:0:0:
111,361,175929,1,8,0:0:0:0:
111,361,176003,2,0,L|126:305,1,50,8|8,0:0|0:0,0:0:0:0:
226,111,176149,2,0,L|236:191,1,50,8|8,0:0|0:0,0:0:0:0:
371,336,176295,6,0,P|449:380|449:253,1,239.999992675781,2|10,3:2|0:0,0:0:0:0:
365,138,176734,1,2,0:0:0:0:
237,292,176881,1,10,0:0:0:0:
468,178,177027,1,2,1:2:0:0:
224,79,177173,1,10,0:0:0:0:
374,302,177320,1,2,1:2:0:0:
348,42,177466,5,10,0:0:0:0:
266,294,177612,1,2,1:2:0:0:
136,56,177759,1,10,0:0:0:0:
181,330,177905,6,0,L|106:312,1,59.9999981689454,8|8,0:0|0:0,0:0:0:0:
338,254,178051,2,0,L|413:236,1,59.9999981689454,8|8,0:0|0:0,0:0:0:0:
182,132,178198,2,0,L|107:114,1,59.9999981689454,8|8,0:0|0:0,0:0:0:0:
337,23,178344,2,0,P|362:120|355:139,1,119.999996337891,8|8,0:0|0:0,0:0:0:0:
282,346,178637,5,4,3:2:0:0:
282,346,178929,5,2,3:2:0:0:
186,315,179076,1,2,3:2:0:0:
186,215,179222,1,2,3:2:0:0:
282,184,179368,1,2,3:2:0:0:
340,265,179515,1,2,3:2:0:0:
282,346,179661,6,0,P|198:319|150:311,1,119.999996337891,2|2,3:2|3:2,0:0:0:0:
72,320,180100,1,2,3:2:0:0:
220,189,180246,2,0,P|143:210|87:238,1,119.999996337891,2|2,3:2|3:2,0:0:0:0:
72,320,180686,1,2,3:2:0:0:
26,155,180832,1,2,3:2:0:0:
195,93,180978,5,6,3:2:0:0:
137,174,181125,1,2,3:2:0:0:
195,255,181271,1,2,3:2:0:0:
291,224,181417,1,2,3:2:0:0:
291,124,181564,5,2,3:2:0:0:
291,224,181710,1,2,3:2:0:0:
195,255,181856,1,2,3:2:0:0:
137,174,182003,6,0,L|110:108,2,59.9999981689454,2|2|2,3:2|3:2|3:2,0:0:0:0:
195,93,182442,2,0,L|184:20,2,59.9999981689454,2|2|2,3:2|3:2|3:2,0:0:0:0:
291,124,182881,1,2,3:2:0:0:
377,72,183027,1,2,3:2:0:0:
291,124,183173,1,2,3:2:0:0:
441,159,183320,5,6,3:2:0:0:
512,229,183466,1,2,3:2:0:0:
466,319,183612,1,2,3:2:0:0:
368,303,183759,1,2,3:2:0:0:
262,159,183905,5,2,3:2:0:0:
192,230,184051,1,2,3:2:0:0:
238,319,184197,1,2,3:2:0:0:
336,303,184344,1,2,3:2:0:0:
352,205,184490,6,0,P|358:174|347:137,2,59.9999981689454,2|2|2,3:2|3:2|3:2,0:0:0:0:
256,167,184929,1,2,3:2:0:0:
160,205,185076,2,0,P|154:174|165:137,2,59.9999981689454,2|2|2,3:2|3:2|3:2,0:0:0:0:
256,167,185515,1,2,3:2:0:0:
256,352,185661,1,6,3:2:0:0:
256,352,185954,5,2,3:2:0:0:
160,329,186100,1,2,3:2:0:0:
64,306,186246,1,2,3:2:0:0:
179,247,186393,5,2,3:2:0:0:
275,224,186539,1,2,3:2:0:0:
371,201,186685,1,2,3:2:0:0:
256,142,186832,6,0,L|116:103,1,119.999996337891,2|2,3:2|3:2,0:0:0:0:
305,34,187271,2,0,P|348:49|377:126,1,119.999996337891,2|2,3:2|3:2,0:0:0:0:
367,217,187710,1,2,3:2:0:0:
282,293,187856,1,2,3:2:0:0:
470,250,188003,1,6,3:2:0:0:
470,250,188295,6,0,P|473:199|476:171,1,59.9999981689454,2|0,3:2|3:0,0:0:0:0:
383,335,188588,2,0,P|376:256|363:203,1,119.999996337891,2|2,3:2|3:2,0:0:0:0:
316,143,189027,1,2,3:2:0:0:
238,300,189173,1,6,3:2:0:0:
238,300,189466,6,0,P|280:285|315:281,1,80,2|2,3:2|3:2,0:0:0:0:
165,225,189759,2,0,P|90:202|20:201,1,120,2|0,3:2|0:0,0:0:0:0:
33,213,190051,1,2,3:2:0:0:
153,318,190198,1,2,3:2:0:0:
189,98,190344,6,0,P|171:147|191:210,1,100,6|0,3:2|3:0,0:0:0:0:
369,272,190637,1,10,3:2:0:0:
423,102,190783,1,10,3:2:0:0:
423,102,190856,1,0,0:0:0:0:
423,102,190929,2,0,P|438:152|421:211,1,100,10|0,3:2|3:0,0:0:0:0:
278,210,191222,2,0,L|169:190,1,100,10|10,3:2|3:2,0:0:0:0:
143,187,191442,1,10,3:2:0:0:
143,187,191515,1,8,3:2:0:0:
157,12,191661,6,0,L|167:70,5,50,10|8|10|8|10|8,0:0|0:0|0:0|0:0|0:0|0:0,0:0:0:0:
238,20,192100,5,10,0:0:0:0:
293,30,192173,1,8,0:0:0:0:
326,75,192246,1,10,0:0:0:0:
321,131,192319,1,8,0:0:0:0:
279,169,192392,1,10,0:0:0:0:
229,214,192466,1,10,0:0:0:0:
222,281,192539,1,10,0:0:0:0:
262,335,192612,1,10,0:0:0:0:
329,348,192686,6,0,L|441:331,1,100,6|0,0:0|0:0,0:0:0:0:
351,157,192978,5,10,0:0:0:0:
99,248,193125,1,2,0:0:0:0:
99,248,193271,1,2,3:2:0:0:
246,248,193417,1,2,3:2:0:0:
154,74,193564,2,0,L|167:176,1,100,10|0,0:0|0:0,0:0:0:0:
319,356,193856,6,0,L|330:242,1,100,2|2,3:2|0:0,0:0:0:0:
341,109,194149,1,10,0:0:0:0:
173,289,194295,2,0,P|83:267|57:263,1,100,2|0,0:0|3:0,0:0:0:0:
236,108,194588,2,0,P|294:86|346:75,1,100,2|8,3:2|0:0,0:0:0:0:
269,324,194881,1,2,0:0:0:0:
146,156,195027,1,0,3:0:0:0:
146,156,195320,5,10,0:0:0:0:
426,206,195466,1,2,0:0:0:0:
426,206,195612,1,2,3:2:0:0:
276,229,195759,1,2,3:2:0:0:
355,43,195905,2,0,L|367:171,1,100,10|0,0:0|0:0,0:0:0:0:
388,317,196198,5,2,3:2:0:0:
254,118,196344,1,2,0:0:0:0:
203,347,196490,1,10,0:0:0:0:
76,179,196637,2,0,P|51:120|59:78,1,100,2|0,0:0|3:0,0:0:0:0:
250,44,196929,1,2,3:2:0:0:
250,44,197076,2,0,P|272:110|263:151,1,100,8|0,0:0|0:0,0:0:0:0:
121,280,197368,1,0,3:0:0:0:
121,280,197661,5,10,0:0:0:0:
378,223,197807,1,2,0:0:0:0:
378,223,197954,1,2,3:2:0:0:
231,178,198100,1,2,3:2:0:0:
274,374,198246,2,0,L|290:257,1,100,10|0,0:0|0:0,0:0:0:0:
401,64,198539,5,2,3:2:0:0:
444,299,198686,1,2,0:0:0:0:
444,299,198832,1,10,0:0:0:0:
291,79,198978,5,2,0:0:0:0:
247,308,199125,1,2,3:2:0:0:
247,308,199271,1,2,3:2:0:0:
141,78,199417,5,10,0:0:0:0:
356,192,199564,1,2,0:0:0:0:
137,312,199710,1,2,3:2:0:0:
137,312,200003,6,0,B|114:269|114:269|120:218,1,100,10|2,0:0|0:0,0:0:0:0:
270,118,200295,1,2,3:2:0:0:
270,118,200442,1,2,3:2:0:0:
141,78,200588,2,0,P|65:94|25:106,1,100,10|0,0:0|0:0,0:0:0:0:
228,268,200881,5,2,3:2:0:0:
250,9,201027,1,0,3:0:0:0:
391,226,201173,2,0,P|416:235|443:234,2,50,10|10|10,0:0|0:0|0:0,0:0:0:0:
149,136,201466,1,10,0:0:0:0:
396,68,201612,1,10,0:0:0:0:
396,68,201686,1,10,0:0:0:0:
396,68,201759,2,0,L|388:137,3,50,10|2|2|2,0:0|3:2|3:2|3:2,0:0:0:0:
475,135,202051,6,0,P|449:202|370:199,1,150,6|0,0:0|0:0,0:0:0:0:
309,157,202344,2,0,P|276:146|251:146,3,50,10|2|2|2,0:0|0:0|0:0|0:0,0:0:0:0:
192,194,202637,2,0,P|148:218|84:206,1,100,2|0,3:2|3:0,0:0:0:0:
70,35,202929,2,0,P|114:11|178:23,1,100,8|2,0:0|0:0,0:0:0:0:
326,77,203222,6,0,B|243:85|243:85|215:106|215:106|134:116,1,200,2|8,3:2|0:0,0:0:0:0:
55,259,203661,1,2,0:0:0:0:
55,259,203734,1,2,0:0:0:0:
55,259,203807,2,0,L|46:200,1,50,2|2,3:2|0:0,0:0:0:0:
187,155,203954,2,0,L|182:209,1,50,2|2,3:2|0:0,0:0:0:0:
168,331,204100,1,10,0:0:0:0:
301,166,204246,6,0,B|412:164|354:266|471:269,1,200,2|2,0:0|0:0,0:0:0:0:
432,112,204686,1,8,0:0:0:0:
301,281,204832,2,0,P|234:265|195:263,1,100,2|0,0:0|3:0,0:0:0:0:
230,87,205125,2,0,P|307:69|346:67,1,100,2|8,3:2|0:0,0:0:0:0:
104,244,205417,6,0,P|38:182|82:77,1,200,2|2,0:0|0:0,0:0:0:0:
216,37,205856,2,0,L|202:174,1,100,10|2,0:0|0:0,0:0:0:0:
302,278,206149,5,2,3:2:0:0:
302,278,206222,1,2,0:0:0:0:
302,278,206295,2,0,L|228:259,1,50,10|10,0:0|0:0,0:0:0:0:
417,213,206442,2,0,L|474:202,1,50,10|2,0:0|0:0,0:0:0:0:
312,81,206588,2,0,L|307:130,1,50,2|2,0:0|0:0,0:0:0:0:
192,203,206734,6,0,P|98:204|69:115,1,200,6|8,0:0|0:0,0:0:0:0:
218,9,207173,2,0,B|245:57|221:98|221:98|234:108|234:108|204:158|241:223,1,200,2|2,3:2|3:2,0:0:0:0:
328,343,207612,1,10,0:0:0:0:
356,162,207759,1,10,0:0:0:0:
356,162,207832,1,10,0:0:0:0:
356,162,207905,6,0,L|454:147,1,100,2|2,3:2|3:2,0:0:0:0:
256,283,208198,2,0,L|158:298,1,100,10|2,0:0|3:2,0:0:0:0:
369,272,208490,2,0,L|384:370,1,100,2|2,0:0|3:2,0:0:0:0:
248,172,208783,2,0,L|233:74,1,100,10|2,0:0|0:0,0:0:0:0:
157,298,209076,6,0,P|65:337|77:186,1,259.999988098145,6|8,1:2|0:0,0:0:0:0:
208,48,209515,2,0,B|220:82|254:41|218:-2|180:18|158:42|157:127|227:97|250:154|183:247,1,259.999988098145,2|0,1:2|0:0,0:0:0:0:
27,214,209954,2,0,P|78:164|142:173,1,129.999994049073,10|0,0:0|0:0,0:0:0:0:
238,331,210246,6,0,B|305:313|305:313|378:323|378:323|433:285|433:285|501:272,1,279.999991455078,6|8,1:2|0:0,0:0:0:0:
445,133,210686,2,0,B|365:139|354:227|354:227|309:150|197:194,1,279.999991455078,2|0,1:2|0:0,0:0:0:0:
205,17,211125,2,0,P|124:92|126:132,1,139.999995727539,10|0,0:0|0:0,0:0:0:0:
46,210,211417,5,2,3:2:0:0:
46,210,211490,1,0,3:2:0:0:
46,210,211564,1,0,3:2:0:0:
46,210,211637,1,0,3:2:0:0:
46,210,211710,2,0,P|68:253|127:261,3,75.0000028610231,0|0|2|0,3:0|3:0|3:2|3:0,0:0:0:0:
168,329,212003,5,2,3:2:0:0:
168,329,212076,1,0,3:2:0:0:
168,329,212149,1,0,3:2:0:0:
168,329,212222,1,0,3:2:0:0:
168,329,212295,2,0,P|194:288|171:233,3,75.0000028610231,0|0|0|0,3:2|3:2|3:2|3:0,0:0:0:0:
211,164,212588,6,0,P|162:161|126:208,1,75.0000028610231,8|0,0:0|0:0,0:0:0:0:
302,345,212734,2,0,P|350:347|386:300,1,75.0000028610231,10|2,0:0|0:0,0:0:0:0:
373,88,212881,5,10,0:0:0:0:
469,338,213027,1,10,0:0:0:0:
483,53,213173,5,10,0:0:0:0:
343,356,213320,1,10,0:0:0:0:
271,27,213466,5,10,0:0:0:0:
223,375,213612,1,10,0:0:0:0:
120,231,213759,6,0,B|78:167|43:177|14:183|-24:121|11:72|50:60|84:72|84:72|106:40|155:44|190:61|195:116|207:148|98:155|93:216|165:284,1,562.500021457673,2|0,0:0|0:0,0:0:0:0:
167,278,214929,6,0,P|230:250|381:240,2,200,2|2|2,0:0|0:0|0:0,0:0:0:0:
43,112,225466,6,0,B|4:148|-4:191|-11:247|9:301|68:324|136:308|169:241|163:176|131:126,1,419.999987182618,4|0,0:3|0:0,0:0:0:0:
202,280,227807,6,0,B|235:230|227:157|227:157|275:226|275:226|300:146|300:146|317:220|358:253,1,419.999987182618,4|0,0:3|0:0,0:0:0:0:
445,226,228978,6,0,B|472:235|490:262|490:262|517:188|501:146|451:107|451:107|388:133|376:206|399:275,1,419.999987182618,4|0,0:3|0:0,0:0:0:0:
448,359,230149,5,8,0:0:0:0:
448,359,230442,5,2,0:0:0:0:
308,331,230588,1,10,0:0:0:0:
402,223,230734,1,2,0:0:0:0:
387,302,230881,5,2,0:0:0:0:
247,274,231027,1,10,0:0:0:0:
341,166,231173,1,2,0:0:0:0:
325,246,231320,5,10,0:0:0:0:
185,218,231466,1,2,0:0:0:0:
185,218,231612,1,2,0:0:0:0:
279,110,231759,5,10,0:0:0:0:
251,250,231905,1,2,0:0:0:0:
251,250,232051,1,2,0:0:0:0:
143,155,232198,2,0,L|26:138,1,89.9999972534181,10|2,0:0|0:0,0:0:0:0:
183,64,232490,5,10,0:0:0:0:
251,250,232637,1,2,3:2:0:0:
379,99,232783,1,2,3:2:0:0:
163,177,232929,5,10,0:0:0:0:
358,211,233076,1,2,3:2:0:0:
291,24,233222,1,2,3:2:0:0:
251,250,233368,2,0,L|232:359,1,89.9999972534181,10|2,0:0|3:2,0:0:0:0:
358,211,233661,5,10,0:0:0:0:
101,116,233807,1,2,3:2:0:0:
101,116,233954,1,2,3:2:0:0:
379,99,234100,5,10,0:0:0:0:
85,200,234246,1,2,3:2:0:0:
85,200,234393,1,2,3:2:0:0:
291,24,234539,2,0,L|310:133,1,89.9999972534181,10|2,0:0|3:2,0:0:0:0:
468,255,234832,6,0,P|418:329|325:281,1,179.999994506836,4|2,0:0|3:2,0:0:0:0:
221,164,235271,2,0,P|263:196|278:265,2,89.9999972534181,10|0|0,0:0|3:0|3:0,0:0:0:0:
164,349,235710,2,0,P|228:343|254:303,1,89.9999972534181,8|0,0:0|3:0,0:0:0:0:
383,223,236003,6,0,L|371:133,1,89.9999972534181,12|0,0:0|3:0,0:0:0:0:
185,252,236295,1,0,3:0:0:0:
398,131,236442,1,8,0:0:0:0:
185,66,236588,2,0,L|173:155,1,89.9999972534181,0|0,3:0|3:0,0:0:0:0:
106,319,236881,2,0,P|165:342|197:328,1,89.9999972534181,8|0,0:0|3:0,0:0:0:0:
383,223,237173,6,0,L|443:212,3,44.999998626709,0|0|0|0,3:0|0:0|0:0|0:0,0:0:0:0:
290,170,237466,2,0,L|279:110,3,44.999998626709,0|0|0|0,3:0|0:0|0:0|0:0,0:0:0:0:
237,263,237759,2,0,L|177:274,3,44.999998626709,0|0|0|0,3:0|0:0|0:0|0:0,0:0:0:0:
330,316,238051,1,8,0:0:0:0:
330,316,238125,1,8,0:0:0:0:
330,316,238198,1,8,0:0:0:0:
330,316,238271,1,8,0:0:0:0:
330,316,238344,5,0,3:0:0:0:
372,89,238490,1,0,3:0:0:0:
436,290,238637,1,0,3:0:0:0:
381,60,238783,1,8,0:0:0:0:
237,263,238929,5,0,3:0:0:0:
440,155,239076,1,0,3:0:0:0:
249,37,239222,2,0,L|237:139,1,89.9999972534181,8|0,0:0|0:0,0:0:0:0:
209,358,239515,5,0,3:0:0:0:
209,358,239612,2,0,P|167:342|157:326,1,59.9999981689454,8|8,0:0|0:0,0:0:0:0:
86,252,239807,5,8,0:0:0:0:
86,252,239905,2,0,P|120:223|139:222,1,59.9999981689454,8|8,0:0|0:0,0:0:0:0:
239,198,240100,6,0,P|246:242|237:259,2,59.9999981689454,8|8|8,0:0|0:0|0:3,0:0:0:0:
150,114,240393,2,0,P|120:170|135:224,1,119.999996337891,8|0,0:3|0:0,0:0:0:0:
209,358,240686,6,0,L|333:338,1,119.999996337891,14|0,0:0|0:0,0:0:0:0:
501,92,240978,2,0,L|365:65,1,119.999996337891,10|2,0:0|0:0,0:0:0:0:
201,181,241271,1,10,0:0:0:0:
447,234,241417,1,2,0:0:0:0:
241,62,241564,1,10,0:0:0:0:
385,312,241710,1,2,0:0:0:0:
374,36,241856,6,0,L|395:162,1,119.999996337891,10|0,0:0|0:0,0:0:0:0:
252,335,242149,2,0,L|235:215,1,119.999996337891,10|2,0:0|0:0,0:0:0:0:
103,64,242442,1,8,0:0:0:0:
58,306,242588,1,2,0:0:0:0:
214,69,242734,1,8,0:0:0:0:
277,316,242881,1,2,0:0:0:0:
26,159,243027,1,8,0:0:0:0:
26,159,243320,6,0,P|73:205|141:198,1,119.999996337891,10|2,0:0|0:0,0:0:0:0:
328,124,243612,1,10,0:0:0:0:
130,59,243759,1,2,0:0:0:0:
351,149,243905,1,10,0:0:0:0:
102,253,244051,1,2,0:0:0:0:
276,27,244198,5,10,0:0:0:0:
340,324,244344,1,2,0:0:0:0:
276,27,244490,1,10,0:0:0:0:
140,344,244637,5,2,0:0:0:0:
115,28,244783,2,0,B|80:79|80:79|87:136,1,119.999996337891,8|2,0:0|0:0,0:0:0:0:
286,360,245076,2,0,B|319:311|319:311|312:250,1,119.999996337891,10|0,0:0|0:0,0:0:0:0:
383,45,245368,2,0,P|314:14|267:33,1,119.999996337891,8|0,0:0|0:0,0:0:0:0:
92,151,245661,5,10,0:0:0:0:
387,178,245807,1,2,0:0:0:0:
118,66,245954,1,10,0:0:0:0:
373,283,246100,5,2,0:0:0:0:
237,18,246246,1,10,0:0:0:0:
289,321,246393,1,2,0:0:0:0:
384,30,246539,5,10,0:0:0:0:
423,330,246686,1,2,0:0:0:0:
289,46,246832,1,10,0:0:0:0:
193,333,246978,5,2,0:0:0:0:
364,67,247125,1,10,0:0:0:0:
302,361,247271,1,2,0:0:0:0:
159,51,247417,5,10,0:0:0:0:
210,361,247564,1,2,0:0:0:0:
271,28,247710,1,10,0:0:0:0:
271,28,248003,6,0,P|301:92|273:165,1,119.999996337891,10|2,0:0|0:0,0:0:0:0:
300,342,248295,2,0,P|222:325|188:249,1,119.999996337891,10|2,0:0|0:0,0:0:0:0:
18,195,248588,2,0,P|64:149|153:144,1,119.999996337891,10|2,0:0|0:0,0:0:0:0:
329,161,248881,5,10,0:0:0:0:
116,250,249027,1,8,0:0:0:0:
116,250,249100,1,8,0:0:0:0:
116,250,249173,1,10,0:0:0:0:
271,28,249320,1,10,0:0:0:0:
274,265,249466,1,10,0:0:0:0:
118,76,249612,6,0,L|130:8,1,59.9999981689454,2|2,3:2|3:2,0:0:0:0:
334,159,249759,2,0,L|401:146,1,59.9999981689454,2|2,3:2|3:2,0:0:0:0:
151,284,249905,2,0,L|79:268,1,59.9999981689454,2|2,3:2|3:2,0:0:0:0:
220,87,250051,6,0,P|257:34|347:44,1,150,6|0,3:2|0:0,0:0:0:0:
383,106,250344,2,0,L|397:230,1,100,10|2,0:0|0:0,0:0:0:0:
512,59,250637,1,2,3:2:0:0:
482,254,250783,1,2,3:2:0:0:
299,115,250929,1,10,0:0:0:0:
511,154,251076,1,2,0:0:0:0:
369,327,251222,6,0,P|293:348|202:253,1,200,2|10,3:2|0:0,0:0:0:0:
307,63,251661,2,0,B|314:139|314:139|295:176|295:176|299:260,1,200,2|2,0:0|3:2,0:0:0:0:
218,99,252100,1,10,0:0:0:0:
391,218,252246,1,2,0:0:0:0:
203,312,252393,1,2,3:2:0:0:
203,312,252686,6,0,P|190:261|191:206,1,100,10|2,0:0|0:0,0:0:0:0:
410,346,252978,2,0,P|422:290|421:235,1,100,2|2,3:2|3:2,0:0:0:0:
150,146,253271,2,0,P|148:196|161:251,1,100,10|0,0:0|0:0,0:0:0:0:
325,274,253564,5,2,3:2:0:0:
236,68,253710,1,2,0:0:0:0:
175,285,253856,1,10,0:0:0:0:
324,101,254003,1,2,0:0:0:0:
380,351,254149,5,2,3:2:0:0:
203,166,254295,1,10,0:0:0:0:
203,166,254368,1,10,0:0:0:0:
203,166,254442,1,10,0:0:0:0:
441,225,254588,1,2,3:2:0:0:
441,225,254661,1,8,0:0:0:0:
441,225,254734,2,0,L|427:110,1,100,6|0,3:2|3:0,0:0:0:0:
214,325,255027,5,10,0:0:0:0:
478,303,255173,1,2,3:2:0:0:
216,164,255320,1,2,0:0:0:0:
461,120,255466,5,2,3:2:0:0:
336,356,255612,1,10,0:0:0:0:
233,76,255759,1,2,3:2:0:0:
127,330,255905,5,10,0:0:0:0:
428,247,256051,1,2,3:2:0:0:
428,247,256198,1,2,3:2:0:0:
96,243,256344,5,10,0:0:0:0:
372,79,256490,1,2,3:2:0:0:
372,79,256637,1,2,3:2:0:0:
225,367,256783,2,0,L|215:258,1,100,8|0,0:0|0:0,0:0:0:0:
187,29,257076,5,2,3:2:0:0:
118,349,257222,1,2,3:2:0:0:
272,39,257368,1,2,3:2:0:0:
323,346,257515,5,2,3:2:0:0:
86,124,257661,1,2,3:2:0:0:
456,220,257807,1,2,3:2:0:0:
251,18,257954,5,2,3:2:0:0:
317,360,258100,1,2,3:2:0:0:
317,360,258173,1,0,3:0:0:0:
317,360,258246,6,0,B|386:405|460:318|410:243|316:238|293:335|293:335|231:368|170:333|204:306|130:262|55:299,1,524.999983978272,6|0,0:0|0:0,0:0:0:0:
79,319,259418,6,0,P|152:309|145:218,1,179.999994506836,6|0,0:0|0:0,0:0:0:0:
85,152,259710,5,10,0:0:0:0:
226,369,259856,1,2,0:0:0:0:
258,90,260003,1,10,0:0:0:0:
325,359,260149,1,2,3:2:0:0:
422,44,260296,1,10,0:0:0:0:
440,357,260442,1,2,3:2:0:0:
244,118,260588,6,0,P|221:182|211:243,1,119.999996337891,2|2,3:2|3:2,0:0:0:0:
510,290,260881,1,10,0:0:0:0:
510,290,261027,2,0,P|496:213|474:161,1,119.999996337891,2|2,3:2|0:0,0:0:0:0:
262,333,261320,5,8,0:0:0:0:
209,359,261393,1,8,0:0:0:0:
150,355,261466,1,8,0:0:0:0:
102,320,261539,1,8,0:0:0:0:
80,265,261612,1,8,0:0:0:0:
90,207,261685,1,8,0:0:0:0:
130,163,261759,6,0,B|196:138|196:138|265:146,1,139.999995727539,6|0,0:0|0:0,0:0:0:0:
510,290,262051,2,0,P|441:340|373:313,1,139.999995727539,10|2,0:0|0:0,0:0:0:0:
387,35,262344,1,2,3:2:0:0:
433,263,262490,1,2,3:2:0:0:
224,93,262637,1,10,0:0:0:0:
191,339,262783,1,2,3:2:0:0:
375,137,262929,6,0,L|512:112,1,139.999995727539,2|0,0:0|3:2,0:0:0:0:
321,364,263222,1,10,0:0:0:0:
155,105,263368,2,0,P|141:173|134:243,1,139.999995727539,2|0,0:0|3:2,0:0:0:0:
414,304,263661,2,0,P|406:234|393:165,1,139.999995727539,2|8,3:2|0:0,0:0:0:0:
131,84,263954,6,0,P|111:170|97:363,1,279.999991455078,2|0,0:0|3:0,0:0:0:0:
343,166,264393,1,10,0:0:0:0:
343,166,264539,2,0,P|244:132|204:150,1,139.999995727539,2|0,0:0|3:0,0:0:0:0:
59,245,264832,1,2,3:2:0:0:
301,308,264978,1,10,0:0:0:0:
346,48,265125,1,2,3:2:0:0:
184,288,265271,5,2,3:2:0:0:
428,166,265417,1,2,3:2:0:0:
195,24,265564,1,10,0:0:0:0:
309,267,265710,2,0,P|325:183|339:125,1,139.999995727539,2|0,0:0|3:0,0:0:0:0:
51,83,266003,2,0,P|71:150|89:217,1,139.999995727539,2|8,3:2|0:0,0:0:0:0:
288,375,266295,1,8,0:0:0:0:
288,375,266368,1,8,0:0:0:0:
288,375,266442,2,0,P|372:367|404:316,1,139.999995727539,2|0,0:0|3:0,0:0:0:0:
258,52,266734,5,10,0:0:0:0:
183,346,266881,1,2,0:0:0:0:
450,196,267027,1,2,3:2:0:0:
137,93,267173,5,2,3:2:0:0:
377,359,267320,1,10,0:0:0:0:
415,27,267466,1,2,3:2:0:0:
115,228,267612,5,2,3:2:0:0:
468,293,267759,1,2,3:2:0:0:
225,32,267905,1,10,0:0:0:0:
305,365,268051,5,2,0:0:0:0:
438,55,268198,1,2,3:2:0:0:
110,141,268344,1,2,3:2:0:0:
472,206,268490,5,10,0:0:0:0:
105,334,268637,1,2,0:0:0:0:
334,15,268783,1,2,3:2:0:0:
334,15,269076,6,0,P|367:74|351:140,1,139.999995727539,10|2,0:0|3:2,0:0:0:0:
68,187,269368,2,0,P|102:128|168:108,1,139.999995727539,2|2,3:2|3:2,0:0:0:0:
351,331,269661,2,0,P|282:330|233:283,1,139.999995727539,10|2,0:0|0:0,0:0:0:0:
334,15,269954,5,2,3:2:0:0:
313,249,270100,1,8,0:0:0:0:
313,249,270173,1,8,0:0:0:0:
312,249,270246,2,0,L|396:226,1,69.9999978637696,10|0,0:0|0:0,0:0:0:0:
159,75,270393,2,0,L|139:162,1,69.9999978637696,10|0,0:0|0:0,0:0:0:0:
94,327,270539,1,10,0:0:0:0:
264,137,270686,1,10,0:0:0:0:
264,137,270759,1,8,0:0:0:0:
264,137,270832,1,8,0:0:0:0:
307,329,270978,1,8,0:0:0:0:
307,329,271051,1,8,0:0:0:0:
307,329,271125,6,0,P|374:338|409:225,1,179.999994506836,6|0,3:2|0:0,0:0:0:0:
492,220,271417,2,0,L|472:99,1,119.999996337891,10|2,0:0|0:0,0:0:0:0:
358,40,271710,1,2,3:2:0:0:
337,254,271856,1,2,3:2:0:0:
229,65,272003,1,10,0:0:0:0:
350,267,272149,1,2,0:0:0:0:
151,152,272295,6,0,P|143:218|140:299,1,119.999996337891
352,136,272588,1,10,0:0:0:0:
191,44,272734,2,0,P|82:55|46:176,1,239.999992675781,2|2,0:0|3:2,0:0:0:0:
140,271,273173,1,10,0:0:0:0:
274,71,273320,1,2,0:0:0:0:
298,313,273466,1,2,3:2:0:0:
298,313,273759,6,0,L|436:283,1,119.999996337891,10|2,0:0|0:0,0:0:0:0:
167,174,274051,2,0,L|33:146,1,119.999996337891,2|2,3:2|3:2,0:0:0:0:
319,34,274344,2,0,P|340:79|330:157,1,119.999996337891,10|0,0:0|0:0,0:0:0:0:
174,345,274637,5,2,3:2:0:0:
247,89,274783,1,2,0:0:0:0:
343,338,274929,1,10,0:0:0:0:
129,194,275076,1,2,0:0:0:0:
379,178,275222,5,2,3:2:0:0:
167,359,275368,1,10,0:0:0:0:
167,359,275442,1,10,0:0:0:0:
167,359,275515,1,10,0:0:0:0:
251,73,275661,1,2,3:2:0:0:
251,73,275734,1,8,0:0:0:0:
251,73,275807,2,0,L|266:208,1,119.999996337891,6|0,3:2|3:0,0:0:0:0:
357,360,276100,5,10,0:0:0:0:
400,73,276246,1,2,3:2:0:0:
261,340,276393,1,2,0:0:0:0:
280,58,276539,5,2,3:2:0:0:
380,355,276686,1,10,0:0:0:0:
175,122,276832,1,2,3:2:0:0:
459,218,276978,5,10,0:0:0:0:
148,295,277125,1,2,3:2:0:0:
148,295,277271,1,2,3:2:0:0:
295,49,277417,5,10,0:0:0:0:
356,348,277564,1,2,3:2:0:0:
356,348,277710,1,2,3:2:0:0:
126,101,277856,2,0,L|2:129,1,119.999996337891,8|0,0:0|0:0,0:0:0:0:
206,365,278149,5,2,3:2:0:0:
242,22,278295,1,2,3:2:0:0:
322,363,278442,1,2,3:2:0:0:
146,27,278588,5,2,3:2:0:0:
451,218,278734,1,2,3:2:0:0:
93,328,278881,1,2,3:2:0:0:
346,22,279027,5,2,3:2:0:0:
437,360,279173,1,2,3:2:0:0:
437,360,279246,1,0,3:0:0:0:
437,360,279320,6,0,B|481:307|459:253|459:253|410:221|377:145|454:86|560:130|562:247|475:242|399:279|346:276|307:214,1,524.999983978272,6|0,0:0|0:0,0:0:0:0:
268,137,280490,6,0,P|206:196|235:276,1,179.999994506836,6|0,0:0|0:0,0:0:0:0:
310,334,280783,1,10,0:0:0:0:
345,52,280929,1,0,0:0:0:0:
186,343,281076,1,10,0:0:0:0:
150,20,281222,1,2,0:0:0:0:
324,346,281368,1,8,0:0:0:0:
357,10,281515,1,2,0:0:0:0:
167,359,281661,5,10,0:0:0:0:
137,361,281734,1,10,0:0:0:0:
108,352,281807,1,10,0:0:0:0:
86,333,281880,1,10,0:0:0:0:
73,306,281954,2,0,L|62:185,1,119.999996337891,10|2,0:0|0:0,0:0:0:0:
233,36,282246,5,10,0:0:0:0:
186,343,282393,1,10,0:0:0:0:
411,65,282539,2,0,L|401:143,1,59.9999981689454,10|8,0:0|0:0,0:0:0:0:
317,368,282686,2,0,L|301:305,1,59.9999981689454,10|8,0:0|0:0,0:0:0:0:
137,105,282832,6,0,P|41:91|61:185,1,225.000008583069,4|0,0:0|0:0,0:0:0:0:
126,228,283125,6,0,B|205:266|277:206|236:178|300:131|380:156,1,284.999991302491,2|2,0:0|0:0,0:0:0:0:
