osu file format v14

[General]
AudioFilename: audio.mp3
AudioLeadIn: 0
PreviewTime: 74881
Countdown: 0
SampleSet: Soft
StackLeniency: 0.7
Mode: 0
LetterboxInBreaks: 0
WidescreenStoryboard: 1

[Editor]
Bookmarks: 216100,225466
DistanceSpacing: 0.9
BeatDivisor: 4
GridSize: 16
TimelineZoom: 2.1

[Metadata]
Title:GIRLS' LEGEND U
TitleUnicode:GIRLS' LEGEND U
Artist:Various Artists
ArtistUnicode:Various Artists
Creator:Yuuma
Version:Extra
Source:ウマ娘 プリティーダービー
Tags:uma musume pretty derby op opening japanese anime pop jpop j-pop cygames special week waki azumi silence suzuka kouno marika tokai teio machico maruzen ski lynn oguri cap takayanagi tomoyo gold ship ueda hitomi vodka ohashi ayaka daiwa scarlet kimura chisa taiki shuttle otsubo yuka glass wonder maeda reina mejiro mcqueen onishi saori el condor pasa takahashi minami symboli rudolf tadokoro azusa air groove aoki ruriko mayano top gun hoshitani mio mejio ryan hashi afumi rice shower iwami manaka agnes tachyon uesaka sumire wining ticket watanabe yui sakura bakushin o misawa sachika super creek yuuki kana haru urara shutou yukina machikanefukukitaru nitta hiyori nice nature maeda kaori king halo saeki iori
BeatmapID:3056495
BeatmapSetID:1486797

[Difficulty]
HPDrainRate:5.5
CircleSize:3.8
OverallDifficulty:8
ApproachRate:9.2
SliderMultiplier:1.8
SliderTickRate:1

[Events]
//Background and Video events
0,0,"teimajy.jpg",0,0
//Break Periods
2,216393,224896
//Storyboard Layer 0 (Background)
//Storyboard Layer 1 (Fail)
//Storyboard Layer 2 (Pass)
//Storyboard Layer 3 (Foreground)
//Storyboard Layer 4 (Overlay)
//Storyboard Sound Samples

[TimingPoints]
680,508.474576271186,4,2,1,60,1,0
7680,500,4,2,1,60,1,0
9680,521.739130434783,4,2,1,60,1,0
10201,571.428571428571,4,2,1,60,1,0
10772,631.578947368421,4,2,1,60,1,0
11403,749.999999999999,4,2,1,60,1,0
12152,652.173913043478,4,2,1,60,1,0
17369,292.682926829268,4,2,1,60,1,0
17369,-142.857142857143,4,2,1,60,0,0
18247,292.682926829268,4,2,1,60,1,0
18247,-100,4,2,1,70,0,0
19417,-100,4,2,1,80,0,0
22051,-83.3333333333333,4,2,1,80,0,0
24100,-100,4,2,1,80,0,0
26442,-142.857142857143,4,2,1,50,0,0
27612,-100,4,2,1,60,0,0
28783,-285.714285714284,4,2,1,70,0,0
29954,-125,4,2,1,70,0,0
30978,-125,4,2,1,60,0,0
34051,-90.9090909090909,4,2,1,60,0,0
34490,-125,4,2,1,60,0,0
35807,-100,4,2,1,70,0,0
39320,-100,4,2,1,80,0,0
39612,-76.9230769230769,4,2,1,80,0,0
39905,-100,4,2,1,80,0,0
40198,-76.9230769230769,4,2,1,80,0,0
40490,-111.111111111111,4,2,1,60,0,0
41661,-125,4,2,1,70,0,0
52051,-100,4,2,1,70,0,0
55710,-142.857142857143,4,2,1,60,0,0
58051,-200,4,2,1,60,0,0
60393,-142.857142857143,4,2,1,60,0,0
62734,-200,4,2,1,60,0,0
65076,-111.111111111111,4,2,1,70,0,0
67417,-100,4,2,1,70,0,0
72100,-66.6666666666667,4,2,1,70,0,0
72539,-76.9230769230769,4,2,1,70,0,0
72978,-90.9090909090909,4,2,1,70,0,0
73417,-111.111111111111,4,2,1,70,0,0
73856,-142.857142857143,4,2,1,70,0,0
74442,-200,4,2,1,70,0,0
75539,-200,4,2,1,5,0,0
75612,-200,4,2,1,70,0,0
76125,-200,4,2,1,5,0,0
76198,-200,4,2,1,70,0,0
76710,-200,4,2,1,5,0,0
76783,-83.3333333333333,4,2,1,80,0,1
86149,-100,4,2,1,80,0,1
94344,-142.857142857143,4,2,1,80,0,1
95515,-500.000000000003,4,2,1,80,0,1
95954,-100,4,2,1,80,0,1
97856,-100,4,2,1,80,0,0
100198,-100,4,2,1,80,0,0
102832,-83.3333333333333,4,2,1,80,0,0
104881,-100,4,2,1,80,0,0
107222,-100,4,2,1,50,0,0
108393,-100,4,2,1,60,0,0
109564,-285.714285714284,4,2,1,70,0,0
110734,-125,4,2,1,70,0,0
111759,-125,4,2,1,60,0,0
114832,-90.9090909090909,4,2,1,60,0,0
115271,-125,4,2,1,60,0,0
116588,-100,4,2,1,70,0,0
120393,-76.9230769230769,4,2,1,80,0,0
120686,-100,4,2,1,80,0,0
120978,-76.9230769230769,4,2,1,80,0,0
121271,-111.111111111111,4,2,1,60,0,0
122442,-125,4,2,1,70,0,0
131807,-100,4,2,1,70,0,0
136490,-142.857142857143,4,2,1,60,0,0
138832,-200,4,2,1,60,0,0
141173,-142.857142857143,4,2,1,60,0,0
143515,-200,4,2,1,60,0,0
145856,-111.111111111111,4,2,1,70,0,0
148198,-100,4,2,1,70,0,0
152881,-66.6666666666667,4,2,1,70,0,0
153320,-76.9230769230769,4,2,1,70,0,0
153759,-90.9090909090909,4,2,1,70,0,0
154198,-111.111111111111,4,2,1,70,0,0
154637,-142.857142857143,4,2,1,70,0,0
155807,-200,4,2,1,60,0,0
156320,-200,4,2,1,5,0,0
156393,-200,4,2,1,60,0,0
156905,-200,4,2,1,5,0,0
156978,-200,4,2,1,60,0,0
157490,-200,4,2,1,5,0,0
157564,-83.3333333333333,4,2,1,80,0,1
166929,-100,4,2,1,80,0,1
176295,-83.3333333333333,4,2,1,80,0,1
178637,-166.666666666667,4,2,1,65,0,0
189173,-125,4,2,1,70,0,0
190344,-100,4,2,1,75,0,0
191515,-100,4,2,1,80,0,0
209076,-76.9230769230769,4,2,1,80,0,0
210246,-71.4285714285714,4,2,1,80,0,0
211417,-66.6666666666667,4,2,1,80,0,0
213759,-133.333333333333,4,2,1,60,0,0
214856,-133.333333333333,4,2,1,5,0,0
214929,-200,4,2,1,50,0,0
225466,-333.333333333333,4,2,1,60,0,0
227807,-200,4,2,1,60,0,0
230149,-111.111111111111,4,2,1,65,0,0
232490,-111.111111111111,4,2,1,70,0,0
234832,-111.111111111111,4,2,1,75,0,0
238344,-111.111111111111,4,2,1,70,0,0
240686,-83.3333333333333,4,2,1,80,0,1
250051,-100,4,2,1,80,0,1
258246,-142.857142857143,4,2,1,80,0,1
259344,-142.857142857143,4,2,1,5,0,1
259417,-83.3333333333333,4,2,1,80,0,1
261759,-83.3333333333333,4,2,1,80,0,1
271125,-100,4,2,1,80,0,1
279320,-142.857142857143,4,2,1,80,0,1
280417,-142.857142857143,4,2,1,5,0,1
280490,-83.3333333333333,4,2,1,80,0,1
282832,-66.6666666666667,4,2,1,80,0,0
283051,-66.6666666666667,4,2,1,5,0,0
283125,-666.666666666658,4,2,1,80,0,0
285905,-666.666666666658,4,2,1,40,0,0

[Colours]
Combo1 : 255,115,115
Combo2 : 204,153,255
Combo3 : 89,172,255
Combo4 : 159,159,159

[HitObjects]
256,192,14108,12,0,16554,0:0:0:0:
338,325,17369,6,0,P|401:327|453:295,2,125.999996154785,2|2|2,0:0|0:0|0:0,0:0:0:0:
269,176,18100,1,0,0:0:0:0:
175,311,18247,5,10,0:0:0:0:
265,267,18393,1,10,0:0:0:0:
265,267,18466,1,10,0:0:0:0:
265,267,18539,2,0,L|258:172,1,90,10|0,0:0|3:0,0:0:0:0:
90,85,18832,2,0,L|76:186,1,90,0|2,3:0|3:2,0:0:0:0:
69,253,19051,1,2,3:2:0:0:
69,253,19125,2,0,P|127:212|199:232,1,135,2|0,3:2|0:0,0:0:0:0:
265,267,19417,6,0,P|343:287|399:207,1,180,6|8,3:2|0:0,0:0:0:0:
233,65,20003,2,0,P|271:35|325:35,1,90,2|0,3:2|3:0,0:0:0:0:
308,168,20295,2,0,L|196:154,1,90,10|2,0:0|0:0,0:0:0:0:
98,21,20588,6,0,B|104:84|104:84|85:122|85:122|94:221,1,180,2|8,3:2|0:0,0:0:0:0:
111,307,21027,1,2,0:0:0:0:
183,146,21173,1,2,3:2:0:0:
183,146,21320,1,2,3:2:0:0:
213,300,21466,1,10,0:0:0:0:
213,300,21612,1,2,0:0:0:0:
280,123,21759,1,6,3:2:0:0:
280,123,22051,6,0,P|298:173|287:230,1,107.999996704102,10|0,0:0|0:0,0:0:0:0:
105,299,22344,2,0,P|87:249|98:192,1,107.999996704102,2|0,3:2|3:0,0:0:0:0:
176,63,22637,1,10,0:0:0:0:
288,225,22783,6,0,L|164:241,1,107.999996704102,2|0,0:0|3:0,0:0:0:0:
349,111,23076,1,10,0:0:0:0:
349,111,23149,1,8,0:0:0:0:
349,111,23222,2,0,L|462:124,1,107.999996704102,10|0,0:0|3:0,0:0:0:0:
385,283,23515,1,2,3:2:0:0:
245,192,23661,1,0,3:2:0:0:
245,192,23807,2,0,L|256:311,1,107.999996704102,10|0,0:0|0:0,0:0:0:0:
112,361,24100,6,0,P|34:328|50:229,1,180,14|8,0:0|0:0,0:0:0:0:
249,77,24686,1,10,0:0:0:0:
168,256,24832,1,0,3:0:0:0:
146,76,24978,1,10,0:0:0:0:
270,237,25125,1,2,3:2:0:0:
350,47,25271,6,0,L|245:30,1,90,10|0,0:0|3:0,0:0:0:0:
116,177,25564,2,0,L|232:158,1,90,8|2,0:0|0:0,0:0:0:0:
431,125,25856,2,0,L|441:59,3,45,2|2|2|2,3:2|3:2|3:2|3:2,0:0:0:0:
507,180,26149,1,10,0:0:0:0:
487,207,26222,1,10,0:0:0:0:
458,224,26295,1,10,0:0:0:0:
425,227,26368,1,10,0:0:0:0:
393,215,26442,1,10,0:0:0:0:
71,55,27466,5,0,3:0:0:0:
71,55,27539,1,0,3:0:0:0:
71,55,27612,2,0,L|55:150,2,90,4|0|8,3:2|3:0|0:0,0:0:0:0:
172,101,28051,2,0,L|143:293,1,180,4|0,3:2|3:0,0:0:0:0:
80,352,28490,2,0,P|22:333|7:289,1,90,8|0,0:0|3:0,0:0:0:0:
42,228,28710,1,0,3:0:0:0:
42,228,28783,6,0,B|166:208|106:340|244:313,1,236.249992790222,6|0,3:2|0:0,0:0:0:0:
318,293,29954,5,14,0:0:0:0:
349,118,30100,1,2,3:2:0:0:
334,305,30246,1,2,3:2:0:0:
255,124,30393,2,0,L|89:149,1,144,14|0,0:0|0:0,0:0:0:0:
46,208,30832,5,0,3:0:0:0:
46,208,30905,1,0,3:0:0:0:
46,208,30978,2,0,L|38:298,1,72,2|0,1:2|0:0,0:0:0:0:
170,357,31271,1,2,3:2:0:0:
251,336,31417,1,10,0:0:0:0:
299,267,31564,2,0,L|292:195,1,72,2|0,1:2|0:0,0:0:0:0:
174,108,31856,1,2,3:2:0:0:
161,244,32003,1,10,0:0:0:0:
282,103,32149,1,2,1:2:0:0:
282,103,32442,6,0,P|319:103|362:125,1,72,2|10,1:2|0:0,0:0:0:0:
299,219,32734,1,2,1:2:0:0:
181,152,32881,2,0,P|144:152|101:174,1,72,2|2,0:0|3:2,0:0:0:0:
166,262,33173,2,0,L|179:352,1,72,10|2,0:0|3:2,0:0:0:0:
199,356,33393,1,0,3:0:0:0:
199,356,33466,6,0,P|248:334|276:331,1,72,2|0,3:2|0:0,0:0:0:0:
347,244,33759,2,0,P|305:218|252:212,1,72,10|0,0:0|0:0,0:0:0:0:
461,310,34051,2,0,L|470:206,1,99.0000030212403,2|0,3:2|3:0,0:0:0:0:
453,116,34344,1,10,0:0:0:0:
347,244,34490,6,0,L|330:79,1,144,2|2,3:2|3:2,0:0:0:0:
264,39,34929,1,10,0:0:0:0:
179,174,35076,1,2,0:0:0:0:
179,174,35368,1,2,0:0:0:0:
332,100,35515,1,10,0:0:0:0:
185,6,35661,1,2,0:0:0:0:
270,177,35807,6,0,P|314:204|357:200,1,90,2|2,0:0|0:3,0:0:0:0:
396,30,36100,2,0,P|352:3|309:7,1,90,8|2,0:0|0:3,0:0:0:0:
136,84,36393,1,10,0:0:0:0:
332,100,36539,1,8,0:0:0:0:
64,173,36686,1,10,0:0:0:0:
243,72,36832,1,10,0:0:0:0:
6,12,36978,6,0,L|19:125,1,90,10|8,0:0|0:0,0:0:0:0:
157,282,37271,2,0,L|169:174,1,90,8|10,0:0|0:0,0:0:0:0:
315,4,37564,1,8,0:0:0:0:
355,213,37710,1,8,0:0:0:0:
211,52,37856,1,8,0:0:0:0:
183,261,38003,1,8,0:0:0:0:
328,89,38149,6,0,P|372:84|413:101,1,90,2|2,3:2|0:0,0:0:0:0:
473,225,38442,1,10,0:0:0:0:
347,270,38588,1,2,3:2:0:0:
347,270,38661,1,2,3:2:0:0:
347,270,38734,2,0,L|338:331,2,45,2|10|10,3:2|0:0|0:0,0:0:0:0:
234,197,39027,2,0,B|186:192|186:192|149:212,1,90,10|2,0:0|0:0,0:0:0:0:
126,241,39246,1,2,0:0:0:0:
126,241,39320,6,0,P|70:265|18:182,1,135,2|0,3:2|0:0,0:0:0:0:
5,137,39612,1,6,0:0:0:0:
111,60,39759,1,0,0:0:0:0:
111,60,39832,1,8,0:0:0:0:
111,60,39905,6,0,L|117:137,2,45,2|0|0,3:2|3:0|3:0,0:0:0:0:
225,33,40198,2,0,L|242:200,1,116.999994644165,6|0,0:0|0:0,0:0:0:0:
273,313,40490,6,0,P|258:327|227:335,3,40.4999987640381,2|2|2|2,0:0|0:0|0:0|0:0,0:0:0:0:
357,344,40783,2,0,P|363:314|357:277,3,40.4999987640381,2|2|2|2,3:2|3:2|3:2|3:2,0:0:0:0:
445,271,41076,1,2,3:2:0:0:
379,182,41222,1,2,3:2:0:0:
379,182,41295,1,2,3:2:0:0:
379,182,41368,2,0,L|330:194,1,40.4999987640381,2|2,3:2|3:2,0:0:0:0:
255,236,41515,2,0,L|203:228,1,40.4999987640381,2|2,3:2|3:2,0:0:0:0:
126,203,41661,6,0,B|120:144|120:144|128:126|128:126|122:61,2,144,6|10|2,3:2|0:0|3:2,0:0:0:0:
49,307,42393,2,0,P|80:333|130:335,1,72,2|8,3:2|0:0,0:0:0:0:
255,236,42686,6,0,P|300:196|402:207,1,144,6|2,3:2|3:2,0:0:0:0:
475,224,43125,1,10,0:0:0:0:
419,361,43271,2,0,L|407:275,1,72,6|0,3:2|0:0,0:0:0:0:
369,93,43564,1,2,3:2:0:0:
330,212,43710,1,10,0:0:0:0:
256,94,43856,1,10,0:0:0:0:
256,94,43929,1,8,0:0:0:0:
256,94,44003,6,0,P|243:154|239:186,1,72,6|0,3:2|0:0,0:0:0:0:
123,232,44295,2,0,P|116:196|108:161,1,72,10|0,0:0|0:0,0:0:0:0:
267,275,44588,1,2,3:2:0:0:
119,339,44734,1,2,3:2:0:0:
241,164,44881,1,10,0:0:0:0:
319,368,45027,6,0,L|173:346,1,144,6|2,3:2|3:2,0:0:0:0:
51,243,45466,2,0,L|139:229,1,72,10|6,0:0|3:2,0:0:0:0:
326,119,45759,2,0,P|329:79|308:44,1,72,2|0,0:0|3:0,0:0:0:0:
213,71,46051,2,0,P|210:111|231:146,1,72,10|0,0:0|0:0,0:0:0:0:
401,244,46344,5,6,3:2:0:0:
446,67,46490,1,2,3:2:0:0:
499,263,46637,1,10,0:0:0:0:
326,119,46783,2,0,P|309:190|302:292,1,144,6|0,3:2|3:0,0:0:0:0:
324,357,47222,1,8,0:0:0:0:
144,132,47368,6,0,P|165:202|172:288,1,144,6|2,3:2|3:2,0:0:0:0:
133,371,47807,1,10,0:0:0:0:
133,371,47954,1,2,3:2:0:0:
270,274,48100,2,0,L|346:260,1,72,2|2,0:0|3:2,0:0:0:0:
120,205,48393,2,0,L|44:191,1,72,10|10,0:0|0:0,0:0:0:0:
20,186,48612,1,8,0:0:0:0:
20,186,48686,6,0,P|14:132|15:103,1,72,14|0,0:0|0:0,0:0:0:0:
211,24,48978,2,0,P|222:83|223:114,1,72,10|0,0:0|0:0,0:0:0:0:
147,277,49271,1,10,0:0:0:0:
116,92,49417,1,2,3:2:0:0:
266,245,49564,1,10,0:0:0:0:
285,37,49710,1,2,0:0:0:0:
398,241,49856,5,2,0:0:0:0:
223,134,50003,2,0,L|176:144,2,36,10|10|10,0:0|0:0|0:0,0:0:0:0:
360,72,50295,1,10,0:0:0:0:
298,274,50442,1,10,0:0:0:0:
478,136,50588,2,0,L|470:79,2,36,10|10|10,0:0|0:0|0:0,0:0:0:0:
491,292,50881,1,10,0:0:0:0:
314,163,51027,1,2,3:2:0:0:
314,163,52051,6,0,P|273:201|216:204,1,90,2|0,1:2|0:0,0:0:0:0:
123,251,52344,2,0,P|110:196|136:145,1,90,2|0,1:2|0:0,0:0:0:0:
89,45,52637,2,0,P|176:44|230:113,1,180,2|0,1:2|3:0,0:0:0:0:
240,207,53076,1,0,0:0:0:0:
120,165,53222,1,2,1:2:0:0:
309,75,53368,6,0,B|409:72|369:154|472:150,1,180,2|8,1:2|0:0,0:0:0:0:
457,43,53807,1,2,0:0:0:0:
327,180,53954,2,0,B|285:250|341:312|341:312|361:288|348:259,1,180,2|8,1:2|0:0,0:0:0:0:
243,139,54393,6,0,P|224:180|223:236,1,90,2|0,1:2|0:0,0:0:0:0:
213,359,54686,2,0,P|186:322|138:293,1,90,2|0,1:2|0:0,0:0:0:0:
37,223,54978,2,0,P|82:218|131:191,1,90,2|0,1:2|0:0,0:0:0:0:
243,139,55271,1,8,0:0:0:0:
243,139,55344,1,8,0:0:0:0:
243,139,55417,2,0,P|249:108|245:78,3,45,8|8|8|8,0:0|0:0|0:0|0:0,0:0:0:0:
197,35,55710,6,0,P|98:9|69:147,1,251.999992309571,2|2,0:0|0:0,0:0:0:0:
150,297,56588,2,0,P|198:283|248:280,1,83.9999974365235,2|2,0:0|0:0,0:0:0:0:
310,311,56881,2,0,P|358:327|418:259,1,125.999996154785,2|2,1:2|0:0,0:0:0:0:
456,97,57466,1,2,0:0:0:0:
356,126,57661,2,0,B|323:111|323:111|222:130,1,125.999996154785
171,170,58051,6,0,B|181:151|263:154|245:29|199:13|150:21|121:56|121:56|85:39|41:38|6:81|-1:149|52:185|124:165|150:187|160:221,1,540,6|2,0:0|3:2,0:0:0:0:
179,293,60100,1,2,3:2:0:0:
266,324,60393,6,0,B|319:341|319:341|395:271|358:139|358:139|376:198|430:213,1,377.999988464356,2|2,1:2|0:0,0:0:0:0:
432,71,61564,2,0,P|371:30|317:42,2,125.999996154785,2|2|2,0:0|0:0|0:0,0:0:0:0:
358,139,62344,2,0,P|296:144|248:106,1,125.999996154785
183,45,62734,6,0,B|178:65|153:87|81:67|26:103|34:171|69:214|113:213|149:196|149:196|179:231|227:239|274:223|291:98|209:101|199:82,1,540,6|2,0:0|3:2,0:0:0:0:
183,45,64783,1,2,3:2:0:0:
322,38,65076,6,0,B|347:115|347:115|318:190,1,161.999995056153,14|2,0:0|3:2,0:0:0:0:
421,232,65515,2,0,B|366:292|366:292|286:305,1,161.999995056153,10|2,0:0|3:2,0:0:0:0:
208,374,65954,2,0,L|139:292,1,80.9999975280763,10|0,0:0|3:0,0:0:0:0:
55,113,66246,6,0,P|24:158|74:258,1,161.999995056153,10|2,0:0|3:2,0:0:0:0:
45,341,66686,2,0,P|99:345|161:252,1,161.999995056153,8|2,0:0|3:2,0:0:0:0:
248,235,67125,1,10,0:0:0:0:
234,197,67198,1,8,0:0:0:0:
204,170,67271,1,8,0:0:0:0:
165,160,67344,1,8,0:0:0:0:
126,170,67417,6,0,L|137:275,1,90,14|2,0:0|0:0,0:0:0:0:
317,372,67710,2,0,L|326:282,1,90,10|2,0:0|0:0,0:0:0:0:
236,86,68003,2,0,L|247:191,1,90,10|2,0:0|3:2,0:0:0:0:
427,288,68295,2,0,L|436:198,1,90,10|2,0:0|3:2,0:0:0:0:
433,66,68588,6,0,P|373:64|340:86,1,90,10|2,0:0|0:0,0:0:0:0:
211,60,68881,2,0,P|209:120|231:153,1,90,10|2,0:0|0:0,0:0:0:0:
205,282,69173,2,0,P|265:284|298:262,1,90,10|2,0:0|3:2,0:0:0:0:
427,288,69466,2,0,P|429:228|407:195,1,90,10|2,0:0|0:0,0:0:0:0:
437,37,69759,6,0,B|342:29|376:114|276:108,1,180,14|10,0:0|0:0,0:0:0:0:
161,59,70198,1,10,0:0:0:0:
316,231,70344,2,0,P|321:177|319:134,1,90,10|10,0:0|0:0,0:0:0:0:
285,10,70637,1,10,0:0:0:0:
209,186,70783,1,10,0:0:0:0:
74,24,70929,5,10,0:0:0:0:
95,246,71076,1,10,0:0:0:0:
161,59,71222,2,0,L|259:70,1,90,10|0,0:0|0:0,0:0:0:0:
398,150,71515,2,0,L|460:139,3,45,10|10|10|10,0:0|0:0|0:0|0:0,0:0:0:0:
326,109,71807,2,0,P|317:181|340:214,1,90,10|0,0:0|3:0,0:0:0:0:
438,315,72100,6,0,B|453:290|487:292|487:292|450:268|371:270|408:361|298:348,1,270.000010299683,6|8,3:2|0:0,0:0:0:0:
117,200,72539,2,0,B|61:289|121:376|121:376|148:291,1,233.999989288331,6|0,3:2|3:0,0:0:0:0:
401,134,72978,2,0,P|430:49|332:32,1,198.000006042481,6|0,3:2|3:0,0:0:0:0:
164,43,73417,2,0,B|37:66|37:66|70:105,1,161.999995056153,6|2,3:2|3:2,0:0:0:0:
194,193,73856,5,10,0:0:0:0:
272,45,74003,1,10,0:0:0:0:
272,45,74076,1,8,0:0:0:0:
272,45,74149,2,0,L|278:95,1,31.4999990386963,10|8,0:0|0:0,0:0:0:0:
352,202,74295,2,0,L|363:155,1,31.4999990386963,10|8,0:0|0:0,0:0:0:0:
454,120,74442,1,2,0:0:0:0:
454,120,75027,6,0,B|484:159|471:206|432:206|427:254|466:296,2,180,2|2|2,0:0|0:0|0:0,0:0:0:0:
164,43,76783,6,0,P|144:117|140:178,1,107.999996704102,14|0,0:0|0:0,0:0:0:0:
163,303,77076,1,10,0:0:0:0:
163,303,77222,1,2,0:0:0:0:
282,120,77368,1,10,0:0:0:0:
304,222,77515,1,2,0:0:0:0:
282,120,77661,2,0,P|209:104|165:104,1,107.999996704102,10|2,0:0|0:0,0:0:0:0:
281,331,77954,6,0,P|354:316|398:289,1,107.999996704102,10|0,0:0|0:0,0:0:0:0:
474,215,78246,1,10,0:0:0:0:
318,114,78393,2,0,L|302:234,1,107.999996704102,2|8,0:0|0:0,0:0:0:0:
179,368,78686,2,0,L|164:260,1,107.999996704102,2|8,0:0|0:0,0:0:0:0:
136,116,78978,1,2,0:0:0:0:
61,278,79125,1,8,0:0:0:0:
61,278,79417,5,10,0:0:0:0:
232,225,79564,1,2,0:0:0:0:
103,100,79710,1,10,0:0:0:0:
154,287,79856,1,2,0:0:0:0:
291,145,80003,1,10,0:0:0:0:
96,194,80149,1,2,0:0:0:0:
236,339,80295,6,0,P|256:286|237:231,1,107.999996704102,10|2,0:0|0:0,0:0:0:0:
188,147,80588,1,10,0:0:0:0:
63,308,80734,2,0,L|174:285,1,107.999996704102,2|8,0:0|0:0,0:0:0:0:
291,145,81027,1,2,0:0:0:0:
291,145,81173,2,0,L|396:166,1,107.999996704102,10|0,0:0|0:0,0:0:0:0:
451,292,81466,1,8,0:0:0:0:
451,292,81759,6,0,L|462:178,1,107.999996704102,10|2,0:0|0:0,0:0:0:0:
474,65,82051,1,10,0:0:0:0:
332,253,82198,6,0,L|321:139,1,107.999996704102,2|10,0:0|0:0,0:0:0:0:
309,26,82490,1,2,0:0:0:0:
206,215,82637,5,10,0:0:0:0:
155,24,82783,1,2,0:0:0:0:
155,24,82929,1,10,0:0:0:0:
119,272,83076,5,2,0:0:0:0:
22,78,83222,1,10,0:0:0:0:
22,78,83368,1,2,0:0:0:0:
228,120,83515,5,10,0:0:0:0:
33,220,83661,1,2,0:0:0:0:
73,8,83807,1,10,0:0:0:0:
89,16,84100,6,0,P|111:104|113:134,1,107.999996704102,10|2,0:0|0:0,0:0:0:0:
102,281,84393,2,0,P|167:217|192:201,1,107.999996704102,10|2,0:0|0:0,0:0:0:0:
325,138,84686,2,0,P|237:113|210:99,1,107.999996704102,10|2,0:0|0:0,0:0:0:0:
432,30,84978,6,0,B|449:83|449:83|439:134,1,107.999996704102,10|8,0:0|0:0,0:0:0:0:
425,170,85198,1,8,0:0:0:0:
425,170,85271,2,0,B|408:223|408:223|417:274,1,107.999996704102,10|10,0:0|0:0,0:0:0:0:
507,227,85564,1,10,0:0:0:0:
356,91,85710,2,0,P|267:74|236:194,1,215.999993408203,2|2,3:2|3:2,0:0:0:0:
307,294,86149,1,6,3:2:0:0:
306,294,86442,6,0,P|319:251|313:207,1,90,10|2,0:0|0:0,0:0:0:0:
207,337,86734,1,2,3:2:0:0:
140,239,86881,1,2,3:2:0:0:
140,239,87027,2,0,P|184:218|235:222,1,90,10|2,0:0|0:0,0:0:0:0:
98,366,87320,6,0,P|21:328|24:243,1,180,2|10,3:2|0:0,0:0:0:0:
102,88,87759,2,0,L|115:294,1,180,2|2,0:0|3:2,0:0:0:0:
241,338,88198,2,0,L|254:242,1,90,10|2,0:0|0:0,0:0:0:0:
277,73,88490,1,2,3:2:0:0:
277,73,88783,6,0,P|314:97|372:107,1,90,10|2,0:0|0:0,0:0:0:0:
481,233,89076,2,0,P|409:247|371:283,1,90,2|2,3:2|3:2,0:0:0:0:
211,214,89368,2,0,P|289:192|321:166,1,90,10|0,0:0|0:0,0:0:0:0:
439,49,89661,6,0,L|453:159,1,90,2|2,3:2|0:0,0:0:0:0:
459,314,89954,1,10,0:0:0:0:
358,109,90100,1,2,0:0:0:0:
301,288,90246,1,2,3:2:0:0:
450,138,90393,2,0,P|478:127|499:124,2,45,10|10|10,0:0|0:0|0:0,0:0:0:0:
375,335,90686,1,2,3:2:0:0:
240,173,90832,1,6,3:2:0:0:
240,173,91125,6,0,L|246:278,1,90,10|2,0:0|3:2,0:0:0:0:
254,364,91417,1,2,0:0:0:0:
65,333,91564,6,0,L|71:228,1,90,2|10,3:2|0:0,0:0:0:0:
79,142,91856,1,2,3:2:0:0:
170,332,92003,5,10,0:0:0:0:
186,107,92149,1,2,3:2:0:0:
186,107,92295,1,2,3:2:0:0:
312,295,92442,5,10,0:0:0:0:
100,239,92588,1,2,3:2:0:0:
100,239,92734,1,2,3:2:0:0:
269,52,92881,2,0,P|287:98|267:165,1,90,8|0,0:0|0:0,0:0:0:0:
203,352,93173,5,2,3:2:0:0:
203,352,93320,2,0,P|185:306|205:239,1,90,2|2,3:2|3:2,0:0:0:0:
362,103,93612,1,2,3:2:0:0:
293,335,93759,1,2,3:2:0:0:
163,115,93905,1,2,3:2:0:0:
411,246,94051,1,2,3:2:0:0:
116,329,94198,1,2,3:2:0:0:
269,52,94344,1,6,0:0:0:0:
269,52,95515,6,0,L|275:113,1,54,2|2,0:0|0:0,0:0:0:0:
294,253,96100,1,10,0:0:0:0:
175,91,96246,1,2,3:2:0:0:
374,170,96393,1,10,0:0:0:0:
183,273,96539,1,2,3:2:0:0:
63,96,96686,5,10,0:0:0:0:
63,96,96759,1,10,0:0:0:0:
63,96,96832,2,0,L|70:43,2,45,10|10|10,0:0|0:0|0:0,0:0:0:0:
46,237,97125,1,10,0:0:0:0:
175,91,97271,1,0,0:0:0:0:
206,80,97344,1,0,0:0:0:0:
239,84,97417,1,10,0:0:0:0:
267,103,97490,1,10,0:0:0:0:
284,132,97564,2,0,L|289:176,3,45,10|10|10|8,0:0|0:0|0:0|0:0,0:0:0:0:
300,265,97856,1,2,0:0:0:0:
422,85,99612,6,0,L|436:186,1,90,10|0,0:0|3:0,0:0:0:0:
443,253,99832,1,0,3:0:0:0:
443,253,99905,2,0,P|385:212|313:232,1,135,10|0,0:0|0:0,0:0:0:0:
247,267,100198,6,0,P|169:287|113:207,1,180,6|8,3:2|0:0,0:0:0:0:
339,36,100783,2,0,L|451:51,1,90,2|0,3:2|3:0,0:0:0:0:
353,183,101076,2,0,L|232:167,1,90,10|2,0:0|0:0,0:0:0:0:
105,38,101368,6,0,B|112:111|112:111|105:138|105:138|112:216,1,180,2|8,3:2|0:0,0:0:0:0:
126,309,101807,1,2,0:0:0:0:
264,267,101954,1,0,3:2:0:0:
264,267,102100,1,0,3:0:0:0:
153,172,102246,1,10,0:0:0:0:
153,172,102393,1,2,0:0:0:0:
213,343,102539,1,6,3:2:0:0:
213,343,102832,6,0,L|222:220,1,107.999996704102,8|0,0:0|0:0,0:0:0:0:
412,113,103125,2,0,L|429:243,1,107.999996704102,2|0,3:2|3:0,0:0:0:0:
445,345,103417,1,10,0:0:0:0:
317,139,103564,6,0,P|266:131|204:170,1,107.999996704102,2|0,0:0|3:0,0:0:0:0:
212,342,103856,1,10,0:0:0:0:
212,342,103929,1,8,0:0:0:0:
212,342,104003,2,0,P|259:367|312:359,1,107.999996704102,10|0,0:0|3:0,0:0:0:0:
426,220,104295,1,2,3:2:0:0:
270,271,104442,1,2,0:0:0:0:
270,271,104588,2,0,L|260:163,1,107.999996704102,10|0,0:0|0:0,0:0:0:0:
176,50,104881,6,0,P|102:33|65:135,1,180,14|8,0:0|0:0,0:0:0:0:
56,112,105466,1,10,0:0:0:0:
106,269,105612,1,0,3:0:0:0:
174,78,105759,1,10,0:0:0:0:
232,245,105905,1,0,3:0:0:0:
300,71,106051,6,0,P|350:78|403:94,1,90,10|0,0:0|3:0,0:0:0:0:
353,296,106344,2,0,P|309:318|251:322,1,90,8|2,0:0|3:2,0:0:0:0:
106,269,106637,2,0,P|97:233|101:213,3,45,0|0|0|0,3:0|3:0|3:0|3:0,0:0:0:0:
22,181,106929,1,8,0:0:0:0:
41,153,107003,1,8,0:0:0:0:
69,136,107076,1,8,0:0:0:0:
102,131,107149,1,8,0:0:0:0:
135,139,107222,1,8,0:0:0:0:
401,98,108246,5,0,3:0:0:0:
401,98,108320,1,0,3:0:0:0:
401,98,108393,2,0,P|413:137|399:194,2,90,4|0|8,3:2|3:0|0:0,0:0:0:0:
330,233,108832,2,0,P|380:301|463:280,1,180,4|0,3:2|3:0,0:0:0:0:
326,143,109271,2,0,L|218:155,1,90,8|0,0:0|3:0,0:0:0:0:
159,160,109490,1,0,3:0:0:0:
159,160,109564,6,0,B|118:64|160:-14|160:-14|186:49,1,236.249992790222,6|0,3:2|0:0,0:0:0:0:
236,106,110734,5,14,0:0:0:0:
51,159,110881,1,2,3:2:0:0:
250,223,111027,1,2,3:2:0:0:
105,352,111173,2,0,L|121:181,1,144,14|0,0:0|0:0,0:0:0:0:
236,106,111612,5,0,3:0:0:0:
236,106,111686,1,0,3:0:0:0:
236,106,111759,2,0,L|322:120,1,72,2|0,1:2|0:0,0:0:0:0:
438,191,112051,1,2,3:2:0:0:
409,275,112198,1,10,0:0:0:0:
321,298,112344,2,0,L|247:288,1,72,2|0,1:2|0:0,0:0:0:0:
118,239,112637,1,2,3:2:0:0:
269,192,112783,1,10,0:0:0:0:
133,129,112929,1,2,1:2:0:0:
133,129,113222,6,0,L|120:222,1,72,2|10,1:2|0:0,0:0:0:0:
227,89,113515,1,2,1:2:0:0:
318,233,113661,2,0,L|302:157,1,72,2|2,0:0|3:2,0:0:0:0:
219,279,113954,2,0,P|181:295|137:285,1,72,10|2,0:0|3:2,0:0:0:0:
125,281,114173,1,0,3:0:0:0:
125,281,114246,6,0,P|76:259|48:256,1,72,2|0,3:2|0:0,0:0:0:0:
124,105,114539,2,0,P|147:131|161:165,1,72,10|0,0:0|0:0,0:0:0:0:
318,233,114832,2,0,P|336:182|334:130,1,99.0000030212403,2|0,3:2|3:0,0:0:0:0:
303,28,115125,1,10,0:0:0:0:
152,240,115271,6,0,P|123:181|135:75,1,144,2|2,3:2|3:2,0:0:0:0:
182,8,115710,1,10,0:0:0:0:
248,169,115856,1,2,0:0:0:0:
248,169,116149,1,2,0:0:0:0:
86,70,116295,1,10,0:0:0:0:
303,28,116442,1,2,0:0:0:0:
166,224,116588,6,0,L|153:132,1,90,2|2,0:0|0:3,0:0:0:0:
368,86,116881,2,0,L|356:198,1,90,8|2,0:0|0:3,0:0:0:0:
253,308,117173,1,10,0:0:0:0:
226,95,117320,1,8,0:0:0:0:
372,282,117466,1,10,0:0:0:0:
392,71,117612,1,10,0:0:0:0:
253,308,117759,6,0,L|165:294,1,90,10|8,0:0|0:0,0:0:0:0:
385,184,118051,2,0,L|478:165,1,90,8|10,0:0|0:0,0:0:0:0:
226,95,118344,1,8,0:0:0:0:
253,308,118490,1,8,0:0:0:0:
340,76,118637,1,8,0:0:0:0:
372,282,118783,1,8,0:0:0:0:
226,95,118929,6,0,P|184:77|140:82,1,90,2|2,3:2|0:0,0:0:0:0:
161,253,119222,1,10,0:0:0:0:
322,182,119368,1,2,0:0:0:0:
322,182,119442,1,2,0:0:0:0:
322,182,119515,2,0,P|345:173|372:171,2,45,2|10|10,3:2|0:0|0:0,0:0:0:0:
418,330,119807,2,0,P|370:352|324:346,1,90,10|2,0:0|0:0,0:0:0:0:
248,329,120027,1,2,0:0:0:0:
248,329,120100,6,0,L|236:184,1,135,2|0,3:2|0:0,0:0:0:0:
227,108,120393,1,6,0:0:0:0:
362,261,120539,1,0,0:0:0:0:
362,261,120612,1,8,0:0:0:0:
362,261,120686,6,0,L|416:253,2,45,2|0|0,3:2|3:0|3:0,0:0:0:0:
236,193,120978,2,0,L|120:208,1,116.999994644165,6|0,0:0|0:0,0:0:0:0:
46,156,121271,6,0,P|39:136|41:116,3,40.4999987640381,2|2|2|2,0:0|0:0|0:0|0:0,0:0:0:0:
130,98,121564,2,0,P|132:78|125:58,3,40.4999987640381,2|2|2|2,3:2|3:2|3:2|3:2,0:0:0:0:
47,19,121856,1,2,3:2:0:0:
119,208,122003,1,2,3:2:0:0:
119,208,122076,1,2,3:2:0:0:
119,208,122149,2,0,L|172:202,1,40.4999987640381,2|2,3:2|3:2,0:0:0:0:
265,104,122295,2,0,B|262:82|262:82|249:57,1,40.4999987640381,2|2,3:2|3:2,0:0:0:0:
267,261,122442,6,0,P|347:254|378:187,2,144,6|10|2,3:2|0:0|3:2,0:0:0:0:
171,354,123173,2,0,P|143:328|142:271,1,72,2|8,3:2|0:0,0:0:0:0:
233,134,123466,2,0,L|222:289,1,144,6|2,3:2|3:2,0:0:0:0:
126,201,123905,1,10,0:0:0:0:
313,350,124051,2,0,L|319:267,1,72,6|0,3:2|0:0,0:0:0:0:
328,121,124344,1,2,3:2:0:0:
422,259,124490,1,10,0:0:0:0:
440,91,124637,1,10,0:0:0:0:
440,91,124710,1,8,0:0:0:0:
440,91,124783,6,0,P|477:103|515:109,1,72,6|0,3:2|0:0,0:0:0:0:
323,246,125076,2,0,P|279:231|235:225,1,72,10|0,0:0|0:0,0:0:0:0:
307,71,125368,1,2,3:2:0:0:
423,241,125515,1,2,3:2:0:0:
442,56,125661,1,10,0:0:0:0:
307,215,125807,6,0,P|230:202|161:217,1,144,6|2,3:2|3:2,0:0:0:0:
83,278,126246,2,0,P|48:301|-2:303,1,72,10|6,0:0|3:2,0:0:0:0:
60,111,126539,2,0,P|57:151|78:186,1,72,2|0,0:0|3:0,0:0:0:0:
168,92,126832,2,0,P|182:124|179:160,1,72,10|0,0:0|0:0,0:0:0:0:
83,278,127125,5,6,3:2:0:0:
277,194,127271,1,2,3:2:0:0:
93,142,127417,1,10,0:0:0:0:
162,337,127564,2,0,B|232:343|224:283|301:292,1,144,6|0,3:2|3:0,0:0:0:0:
402,317,128003,1,8,0:0:0:0:
324,137,128149,6,0,P|230:141|200:202,1,144,6|2,3:2|3:2,0:0:0:0:
293,291,128588,1,10,0:0:0:0:
293,291,128734,1,2,3:2:0:0:
472,237,128881,2,0,L|456:143,1,72,2|2,0:0|3:2,0:0:0:0:
338,45,129173,2,0,L|322:142,1,72,10|10,0:0|0:0,0:0:0:0:
324,137,129393,1,8,0:0:0:0:
324,137,129466,6,0,P|279:154|228:149,1,72,14|0,0:0|0:0,0:0:0:0:
171,261,129759,2,0,P|147:233|143:174,1,72,10|0,0:0|0:0,0:0:0:0:
46,110,130051,1,10,0:0:0:0:
258,52,130198,1,2,3:2:0:0:
138,199,130344,1,10,0:0:0:0:
80,3,130490,1,2,0:0:0:0:
252,204,130637,5,2,0:0:0:0:
338,45,130783,2,0,L|346:-7,2,36,10|10|10,0:0|0:0|0:0,0:0:0:0:
359,226,131076,1,10,0:0:0:0:
227,37,131222,1,10,0:0:0:0:
138,199,131368,2,0,L|130:142,2,36,10|10|10,0:0|0:0|0:0,0:0:0:0:
333,133,131661,1,10,0:0:0:0:
105,31,131807,1,2,3:2:0:0:
157,332,132832,6,0,P|85:314|57:314,1,90,2|0,1:2|0:0,0:0:0:0:
307,257,133125,2,0,P|352:239|400:234,1,90,2|0,1:2|0:0,0:0:0:0:
170,301,133417,2,0,P|90:267|67:163,1,180,2|0,1:2|3:0,0:0:0:0:
175,206,133856,1,8,0:0:0:0:
277,154,134003,1,2,1:2:0:0:
83,14,134149,6,0,B|46:81|46:81|63:186,1,180,2|8,1:2|0:0,0:0:0:0:
170,301,134588,1,2,0:0:0:0:
277,154,134734,2,0,P|230:79|142:111,1,180,2|8,1:2|0:0,0:0:0:0:
265,279,135173,6,0,P|309:281|355:245,1,90,2|0,1:2|0:0,0:0:0:0:
458,238,135466,2,0,P|444:193|396:164,1,90,2|0,1:2|0:0,0:0:0:0:
335,80,135759,2,0,P|300:133|304:171,1,90,2|0,1:2|0:0,0:0:0:0:
346,257,136051,1,8,0:0:0:0:
346,257,136125,1,8,0:0:0:0:
346,257,136198,2,0,P|352:288|348:318,3,45,8|8|8|8,0:0|0:0|0:0|0:0,0:0:0:0:
327,339,136490,6,0,P|228:365|199:227,1,251.999992309571,2|2,0:0|0:0,0:0:0:0:
296,25,137368,2,0,P|312:68|292:124,1,83.9999974365235,2|2,0:0|0:0,0:0:0:0:
288,188,137661,2,0,B|240:158|240:158|166:167,1,125.999996154785,2|2,1:2|0:0,0:0:0:0:
41,188,138246,1,2,0:0:0:0:
74,281,138442,2,0,B|122:311|122:311|196:302,1,125.999996154785
279,289,138832,6,0,B|283:267|309:245|381:265|434:229|427:161|392:118|348:119|312:136|312:136|283:101|234:93|188:109|170:234|252:231|262:250,1,540,6|2,0:0|3:2,0:0:0:0:
279,289,140881,1,2,3:2:0:0:
354,334,141173,6,0,P|503:333|444:143,1,377.999988464356,2|2,1:2|0:0,0:0:0:0:
331,43,142344,2,0,L|193:29,2,125.999996154785,2|2|2,0:0|0:0|0:0,0:0:0:0:
348,139,143125,2,0,L|210:125,1,125.999996154785
127,99,143515,6,0,B|116:114|35:103|39:229|84:250|133:247|166:215|166:215|200:236|244:241|283:202|298:135|247:94|174:106|147:92|140:68,1,540,6|2,0:0|3:2,0:0:0:0:
140,69,145564,1,2,3:2:0:0:
277,12,145856,6,0,P|316:66|260:164,1,161.999995056153,14|2,0:0|3:2,0:0:0:0:
204,307,146295,2,0,P|165:253|221:155,1,161.999995056153,10|2,0:0|3:2,0:0:0:0:
340,214,146734,2,0,P|288:239|238:218,1,80.9999975280763,10|0,0:0|3:0,0:0:0:0:
70,124,147027,6,0,P|180:86|235:86,1,161.999995056153,10|2,0:0|3:2,0:0:0:0:
440,188,147466,2,0,P|330:150|275:150,1,161.999995056153,8|2,0:0|3:2,0:0:0:0:
118,214,147905,1,10,0:0:0:0:
121,244,147978,1,8,0:0:0:0:
125,274,148051,1,8,0:0:0:0:
129,304,148125,1,8,0:0:0:0:
133,334,148198,6,0,P|201:367|212:363,1,90,14|2,0:0|0:0,0:0:0:0:
348,368,148490,2,0,P|342:292|333:285,1,90,10|2,0:0|0:0,0:0:0:0:
270,165,148783,2,0,P|207:207|205:218,1,90,10|2,0:0|3:2,0:0:0:0:
133,334,149076,2,0,P|201:367|212:363,1,90,10|2,0:0|3:2,0:0:0:0:
336,287,149368,6,0,L|435:273,1,90,10|2,0:0|0:0,0:0:0:0:
428,91,149661,2,0,L|441:181,1,90,10|2,0:0|0:0,0:0:0:0:
242,273,149954,2,0,L|229:183,1,90,10|2,0:0|3:2,0:0:0:0:
332,76,150246,2,0,L|242:88,1,90,10|2,0:0|0:0,0:0:0:0:
146,244,150539,6,0,P|50:247|23:176,1,180,14|10,0:0|0:0,0:0:0:0:
94,49,150978,1,10,0:0:0:0:
229,183,151125,2,0,P|286:178|320:146,1,90,10|10,0:0|0:0,0:0:0:0:
262,13,151417,1,10,0:0:0:0:
111,164,151564,1,10,0:0:0:0:
322,108,151710,5,10,0:0:0:0:
94,49,151856,1,10,0:0:0:0:
218,274,152003,2,0,L|233:165,1,90,10|0,0:0|0:0,0:0:0:0:
392,30,152295,2,0,L|400:75,3,45,10|10|10|10,0:0|0:0|0:0|0:0,0:0:0:0:
470,121,152588,2,0,P|480:178|455:208,1,90,10|0,0:0|3:0,0:0:0:0:
506,329,152881,6,0,B|415:376|359:274|359:274|330:320|266:313,1,270.000010299683,6|8,3:2|0:0,0:0:0:0:
97,140,153320,2,0,B|68:122|65:73|65:73|135:41|188:87|171:165,1,233.999989288331,6|0,3:2|3:0,0:0:0:0:
141,319,153759,2,0,B|70:302|70:302|222:261,1,198.000006042481,6|0,3:2|3:0,0:0:0:0:
403,155,154198,2,0,P|387:85|279:80,1,161.999995056153,6|2,3:2|3:2,0:0:0:0:
256,192,154637,5,10,0:0:0:0:
169,107,154783,1,10,0:0:0:0:
169,107,154856,1,8,0:0:0:0:
169,107,154929,2,0,L|176:56,1,31.4999990386963,10|8,0:0|0:0,0:0:0:0:
93,200,155076,2,0,L|100:230,1,31.4999990386963,10|8,0:0|0:0,0:0:0:0:
9,124,155222,1,2,0:0:0:0:
9,124,155807,6,0,B|-21:163|-8:210|31:210|36:258|-3:300,2,180,2|2|2,0:0|0:0|0:0,0:0:0:0:
349,34,157564,6,0,P|377:105|348:163,1,107.999996704102,14|0,0:0|0:0,0:0:0:0:
255,112,157856,1,10,0:0:0:0:
298,283,158003,1,2,0:0:0:0:
255,112,158149,1,10,0:0:0:0:
393,242,158295,1,2,0:0:0:0:
205,299,158442,2,0,L|88:283,1,107.999996704102,10|2,0:0|0:0,0:0:0:0:
255,112,158734,6,0,L|275:236,1,107.999996704102,10|0,0:0|0:0,0:0:0:0:
381,345,159027,1,10,0:0:0:0:
368,175,159173,2,0,P|426:171|480:208,1,107.999996704102,2|8,0:0|0:0,0:0:0:0:
381,345,159466,2,0,P|323:349|269:312,1,107.999996704102,2|8,0:0|0:0,0:0:0:0:
175,187,159759,1,2,0:0:0:0:
78,344,159905,1,8,0:0:0:0:
78,344,160198,5,10,0:0:0:0:
252,254,160344,1,2,0:0:0:0:
88,139,160490,1,10,0:0:0:0:
176,323,160637,1,2,0:0:0:0:
216,108,160783,1,10,0:0:0:0:
82,299,160929,1,2,0:0:0:0:
15,105,161076,6,0,P|95:76|121:85,1,107.999996704102,10|2,0:0|0:0,0:0:0:0:
274,175,161368,1,10,0:0:0:0:
82,299,161515,2,0,L|88:175,1,107.999996704102,2|8,0:0|0:0,0:0:0:0:
225,44,161807,1,2,0:0:0:0:
225,44,161954,2,0,L|239:160,1,107.999996704102,10|0,0:0|0:0,0:0:0:0:
267,333,162246,1,8,0:0:0:0:
267,333,162539,6,0,L|388:308,1,107.999996704102,10|2,0:0|0:0,0:0:0:0:
476,290,162832,1,10,0:0:0:0:
195,237,162978,6,0,L|316:212,1,107.999996704102,2|10,0:0|0:0,0:0:0:0:
404,194,163271,1,2,0:0:0:0:
267,333,163417,5,10,0:0:0:0:
225,109,163564,1,2,0:0:0:0:
225,109,163710,1,10,0:0:0:0:
367,283,163856,5,2,0:0:0:0:
409,59,164003,1,10,0:0:0:0:
409,59,164149,1,2,0:0:0:0:
255,246,164295,5,10,0:0:0:0:
216,16,164442,1,2,0:0:0:0:
411,136,164588,1,10,0:0:0:0:
418,154,164881,6,0,P|368:128|303:134,1,107.999996704102,10|2,0:0|0:0,0:0:0:0:
211,302,165173,2,0,P|258:271|285:212,1,107.999996704102,10|2,0:0|0:0,0:0:0:0:
186,48,165466,2,0,P|188:104|226:157,1,107.999996704102,10|2,0:0|0:0,0:0:0:0:
418,154,165759,6,0,L|432:37,1,107.999996704102,10|8,0:0|0:0,0:0:0:0:
415,25,165978,1,8,0:0:0:0:
415,25,166051,2,0,L|297:37,1,107.999996704102,10|10,0:0|0:0,0:0:0:0:
282,227,166344,1,10,0:0:0:0:
96,150,166490,2,0,B|142:106|142:106|302:135,1,215.999993408203,2|2,3:2|3:2,0:0:0:0:
418,154,166929,1,6,3:2:0:0:
418,154,167222,6,0,P|432:212|410:261,1,90,10|2,0:0|0:0,0:0:0:0:
380,345,167515,1,2,3:2:0:0:
265,293,167661,1,2,3:2:0:0:
265,293,167807,2,0,P|205:274|169:278,1,90,10|2,0:0|0:0,0:0:0:0:
313,118,168100,6,0,L|328:230,1,90,2|2,3:2|0:0,0:0:0:0:
146,201,168393,1,10,0:0:0:0:
146,201,168539,2,0,L|173:13,1,180,2|2,0:0|3:2,0:0:0:0:
295,83,168978,2,0,P|335:102|391:99,1,90,10|2,0:0|0:0,0:0:0:0:
479,52,169271,1,2,3:2:0:0:
479,52,169564,6,0,L|501:157,1,90,10|2,0:0|0:0,0:0:0:0:
502,274,169856,2,0,L|400:240,1,90,2|2,3:2|3:2,0:0:0:0:
298,182,170149,2,0,L|377:110,1,90,10|0,0:0|0:0,0:0:0:0:
479,52,170442,6,0,L|501:157,1,90,2|2,3:2|0:0,0:0:0:0:
416,245,170734,1,10,0:0:0:0:
345,42,170881,1,2,0:0:0:0:
497,140,171027,1,2,3:2:0:0:
497,140,171100,1,0,0:0:0:0:
497,140,171173,1,10,0:0:0:0:
319,225,171320,1,10,0:0:0:0:
371,27,171466,1,2,3:2:0:0:
416,245,171612,2,0,L|400:346,1,90,6|0,3:2|3:0,0:0:0:0:
269,146,171905,6,0,P|199:120|166:132,1,90,10|2,0:0|3:2,0:0:0:0:
83,165,172198,1,2,0:0:0:0:
230,264,172344,6,0,P|300:290|333:278,1,90,2|10,3:2|0:0,0:0:0:0:
416,245,172637,1,2,3:2:0:0:
416,245,172710,1,8,0:0:0:0:
416,245,172783,5,10,0:0:0:0:
356,33,172929,1,2,3:2:0:0:
289,207,173076,1,2,3:2:0:0:
451,112,173222,5,10,0:0:0:0:
213,64,173368,1,2,3:2:0:0:
402,206,173515,1,2,3:2:0:0:
208,266,173661,2,0,P|163:260|123:240,1,90,8|0,0:0|0:0,0:0:0:0:
299,78,173954,5,2,3:2:0:0:
299,78,174100,2,0,P|314:118|304:168,1,90,2|2,3:2|3:2,0:0:0:0:
246,356,174393,1,2,3:2:0:0:
204,103,174539,1,2,3:2:0:0:
367,277,174686,1,2,3:2:0:0:
92,372,174832,2,0,L|111:264,1,90,2|2,3:2|3:2,0:0:0:0:
242,27,175125,5,2,3:2:0:0:
272,318,175271,1,8,0:0:0:0:
427,87,175417,5,2,3:2:0:0:
397,357,175564,1,10,0:0:0:0:
294,143,175710,6,0,P|240:150|206:164,1,90,2|8,3:2|0:0,0:0:0:0:
185,193,175929,1,8,0:0:0:0:
185,193,176003,2,0,P|151:211|128:214,3,45,8|8|8|8,0:0|0:0|0:0|0:0,0:0:0:0:
61,204,176295,6,0,P|45:141|45:89,1,107.999996704102,2|0,3:2|0:0,0:0:0:0:
277,37,176588,2,0,P|293:100|293:152,1,107.999996704102,10|2,0:0|0:0,0:0:0:0:
196,315,176881,1,10,0:0:0:0:
169,107,177027,1,2,1:2:0:0:
307,292,177173,1,10,0:0:0:0:
314,53,177320,1,2,1:2:0:0:
418,298,177466,6,0,P|497:281|513:254,1,107.999996704102,10|2,0:0|1:2,0:0:0:0:
444,53,177759,2,0,P|365:70|349:97,1,107.999996704102,10|8,0:0|0:0,0:0:0:0:
305,163,177978,1,8,0:0:0:0:
305,163,178051,2,0,L|291:279,1,107.999996704102,8|8,0:0|0:0,0:0:0:0:
146,364,178344,2,0,L|133:256,1,107.999996704102,8|8,0:0|0:0,0:0:0:0:
103,42,178637,5,4,3:2:0:0:
103,42,178929,2,0,P|128:61|160:66,1,53.9999983520508,2|2,3:2|3:2,0:0:0:0:
233,36,179222,1,2,3:2:0:0:
182,159,179368,2,0,P|209:139|220:112,1,53.9999983520508,2|2,3:2|3:2,0:0:0:0:
300,93,179661,2,0,P|330:126|334:192,1,107.999996704102,2|2,3:2|3:2,0:0:0:0:
273,254,180100,1,2,3:2:0:0:
321,84,180246,2,0,P|351:117|355:183,1,107.999996704102,2|2,3:2|3:2,0:0:0:0:
273,254,180686,1,2,3:2:0:0:
203,169,180832,1,2,3:2:0:0:
103,222,180978,5,6,3:2:0:0:
129,332,181125,1,2,3:2:0:0:
129,332,181271,2,0,L|189:319,1,53.9999983520508,2|2,3:2|3:2,0:0:0:0:
273,254,181564,1,2,3:2:0:0:
273,254,181710,2,0,L|333:241,1,53.9999983520508,2|2,3:2|3:2,0:0:0:0:
421,296,182003,1,2,3:2:0:0:
421,296,182149,2,0,L|411:361,1,53.9999983520508,2|2,3:2|3:2,0:0:0:0:
500,229,182442,2,0,L|491:175,2,53.9999983520508,2|2|2,3:2|3:2|3:2,0:0:0:0:
389,184,182881,1,2,3:2:0:0:
389,184,183027,2,0,L|397:130,1,53.9999983520508,2|2,3:2|3:2,0:0:0:0:
475,51,183320,5,6,3:2:0:0:
385,26,183466,1,2,3:2:0:0:
385,26,183612,2,0,P|341:16|316:20,2,53.9999983520508,2|2|2,3:2|3:2|3:2,0:0:0:0:
331,119,184051,2,0,P|304:118|278:109,2,53.9999983520508,2|2|2,3:2|3:2|3:2,0:0:0:0:
211,34,184490,2,0,P|167:24|142:28,2,53.9999983520508,2|2|2,3:2|3:2|3:2,0:0:0:0:
157,127,184929,2,0,P|130:126|104:117,2,53.9999983520508,2|2|2,3:2|3:2|3:2,0:0:0:0:
278,109,185368,1,2,3:2:0:0:
211,34,185515,1,2,3:2:0:0:
157,127,185661,6,0,L|171:222,1,80.9999975280763,6|0,3:2|0:0,0:0:0:0:
172,247,185954,2,0,B|146:240|146:240|110:248,2,53.9999983520508,2|2|2,3:2|3:2|3:2,0:0:0:0:
262,276,186393,2,0,B|288:283|288:283|324:275,2,53.9999983520508,2|2|2,3:2|3:2|3:2,0:0:0:0:
248,183,186832,6,0,P|271:158|245:81,1,107.999996704102,2|2,3:2|3:2,0:0:0:0:
357,189,187271,2,0,P|423:179|439:140,1,107.999996704102,2|2,3:2|3:2,0:0:0:0:
314,277,187710,2,0,P|338:302|362:312,1,53.9999983520508,2|2,3:2|3:2,0:0:0:0:
447,271,188003,1,6,3:2:0:0:
447,271,188295,6,0,P|453:226|461:195,1,53.9999983520508,2|0,3:2|3:0,0:0:0:0:
314,277,188588,2,0,P|309:203|299:169,1,107.999996704102,2|2,3:2|3:2,0:0:0:0:
261,88,189027,1,2,3:2:0:0:
146,253,189173,1,6,3:2:0:0:
146,253,189466,6,0,P|188:236|216:235,1,72,2|2,3:2|3:2,0:0:0:0:
397,126,189759,2,0,P|322:93|247:88,1,144,2|2,3:2|3:2,0:0:0:0:
174,139,190198,1,2,3:2:0:0:
41,69,190344,6,0,L|22:157,1,90,6|0,3:2|3:0,0:0:0:0:
187,23,190637,1,10,3:2:0:0:
214,234,190783,1,10,3:2:0:0:
214,234,190856,1,0,0:0:0:0:
214,234,190929,2,0,L|120:222,1,90,10|0,3:2|3:0,0:0:0:0:
311,111,191222,2,0,L|405:99,1,90,10|10,3:2|3:2,0:0:0:0:
436,95,191442,1,10,3:2:0:0:
436,95,191515,1,8,3:2:0:0:
460,240,191661,6,0,P|451:263|418:286,5,45,10|8|10|8|10|8,0:0|0:0|0:0|0:0|0:0|0:0,0:0:0:0:
335,324,192100,2,0,L|341:376,1,45,10|8,0:0|0:0,0:0:0:0:
217,275,192246,2,0,L|223:210,1,45,10|8,0:0|0:0,0:0:0:0:
108,317,192393,1,10,0:0:0:0:
63,311,192466,1,10,0:0:0:0:
30,282,192539,1,10,0:0:0:0:
17,240,192612,1,10,0:0:0:0:
29,197,192686,6,0,L|40:97,1,90,6|0,0:0|0:0,0:0:0:0:
221,230,192978,1,10,0:0:0:0:
221,230,193125,2,0,L|213:129,1,90,2|2,0:0|3:2,0:0:0:0:
142,28,193417,1,2,3:2:0:0:
142,28,193564,2,0,P|201:2|242:8,1,90,10|0,0:0|0:0,0:0:0:0:
406,126,193856,6,0,P|351:151|310:146,1,90,2|2,3:2|0:0,0:0:0:0:
339,46,194149,1,10,0:0:0:0:
212,122,194295,2,0,P|205:167|231:219,1,90,2|0,0:0|3:0,0:0:0:0:
366,325,194588,2,0,P|398:265|390:228,1,90,2|8,3:2|0:0,0:0:0:0:
322,149,194881,1,2,0:0:0:0:
255,302,195027,1,0,3:0:0:0:
255,302,195320,5,10,0:0:0:0:
166,234,195466,2,0,B|146:222|146:222|66:232,1,90,2|2,0:0|3:2,0:0:0:0:
244,322,195759,1,2,3:2:0:0:
333,254,195905,2,0,B|353:242|353:242|433:252,1,90,10|0,0:0|0:0,0:0:0:0:
236,338,196198,5,2,3:2:0:0:
263,162,196344,1,2,0:0:0:0:
380,338,196490,1,10,0:0:0:0:
400,129,196637,2,0,P|352:100|310:102,1,90,2|0,0:0|3:0,0:0:0:0:
213,196,196929,1,2,3:2:0:0:
213,196,197076,2,0,L|228:301,1,90,8|0,0:0|0:0,0:0:0:0:
88,123,197368,1,0,3:0:0:0:
88,123,197661,5,10,0:0:0:0:
199,60,197807,2,0,P|218:105|211:156,1,90,2|2,0:0|3:2,0:0:0:0:
186,263,198100,1,2,3:2:0:0:
75,326,198246,2,0,P|56:281|63:230,1,90,10|0,0:0|0:0,0:0:0:0:
88,123,198539,5,2,3:2:0:0:
186,263,198686,1,2,0:0:0:0:
259,114,198832,1,10,0:0:0:0:
181,171,198978,1,2,0:0:0:0:
346,248,199125,2,0,L|443:229,1,90,2|2,3:2|3:2,0:0:0:0:
331,69,199417,1,10,0:0:0:0:
265,218,199564,1,2,0:0:0:0:
174,76,199710,1,2,3:2:0:0:
174,76,200003,6,0,P|148:166|148:185,1,90,10|2,0:0|0:0,0:0:0:0:
320,162,200295,2,0,P|346:252|346:271,1,90,2|2,3:2|3:2,0:0:0:0:
135,337,200588,2,0,P|143:292|160:251,1,90,10|0,0:0|0:0,0:0:0:0:
233,143,200881,5,2,3:2:0:0:
264,321,201027,1,0,3:0:0:0:
413,209,201173,2,0,L|471:218,2,45,10|10|10,0:0|0:0|0:0,0:0:0:0:
307,223,201466,1,10,0:0:0:0:
233,143,201612,1,10,0:0:0:0:
233,143,201686,1,10,0:0:0:0:
233,143,201759,2,0,L|226:84,3,45,10|2|2|2,0:0|3:2|3:2|3:2,0:0:0:0:
163,40,202051,6,0,P|138:80|146:129,1,90,6|0,0:0|0:0,0:0:0:0:
102,273,202344,2,0,P|168:250|192:247,1,90,10|2,0:0|0:0,0:0:0:0:
263,112,202637,2,0,P|307:122|350:137,1,90,2|0,3:2|3:0,0:0:0:0:
328,265,202929,1,8,0:0:0:0:
445,229,203076,1,2,0:0:0:0:
304,352,203222,6,0,P|236:298|252:214,1,180,2|8,3:2|0:0,0:0:0:0:
343,96,203661,1,2,0:0:0:0:
343,96,203807,2,0,P|367:152|352:202,1,90,2|2,3:2|3:2,0:0:0:0:
223,100,204100,1,10,0:0:0:0:
157,195,204246,6,0,P|78:173|-12:99,1,180,2|2,0:0|0:0,0:0:0:0:
72,25,204686,1,8,0:0:0:0:
212,10,204832,2,0,L|224:115,1,90,2|0,0:0|3:0,0:0:0:0:
124,252,205125,2,0,L|136:145,1,90,2|8,3:2|0:0,0:0:0:0:
325,42,205417,6,0,P|386:47|390:161,1,180,2|2,0:0|0:0,0:0:0:0:
308,275,205856,1,10,0:0:0:0:
491,217,206003,1,2,0:0:0:0:
317,130,206149,1,2,3:2:0:0:
317,130,206222,1,2,0:0:0:0:
317,130,206295,2,0,L|311:194,1,45,10|10,0:0|0:0,0:0:0:0:
419,317,206442,2,0,L|412:266,3,45,10|2|2|2,0:0|0:0|0:0|0:0,0:0:0:0:
329,307,206734,6,0,P|237:328|190:243,1,180,6|8,0:0|0:0,0:0:0:0:
254,45,207173,2,0,B|290:84|290:84|253:136|277:240,1,180,2|2,3:2|3:2,0:0:0:0:
372,160,207612,1,10,0:0:0:0:
401,51,207759,1,10,0:0:0:0:
401,51,207832,1,10,0:0:0:0:
401,51,207905,6,0,L|492:41,1,90,2|2,3:2|3:2,0:0:0:0:
282,169,208198,2,0,L|373:159,1,90,10|2,0:0|3:2,0:0:0:0:
172,33,208490,2,0,L|181:122,1,90,2|2,0:0|3:2,0:0:0:0:
88,199,208783,2,0,L|97:288,1,90,10|2,0:0|0:0,0:0:0:0:
216,359,209076,6,0,B|256:346|256:346|320:379|385:318|385:318|364:346|374:390,1,233.999989288331,6|8,1:2|0:0,0:0:0:0:
419,198,209515,2,0,P|321:164|317:280,1,233.999989288331,2|0,1:2|0:0,0:0:0:0:
491,356,209954,2,0,B|500:305|500:305|495:292|495:292|503:241,1,116.999994644165,10|0,0:0|0:0,0:0:0:0:
435,79,210246,6,0,B|351:51|301:134|301:134|306:204|215:218,1,251.999992309571,6|8,1:2|0:0,0:0:0:0:
129,183,210686,2,0,B|91:174|91:174|61:101|138:46|206:79|224:157,1,251.999992309571,2|0,1:2|0:0,0:0:0:0:
288,291,211125,2,0,P|194:273|177:243,1,125.999996154785,10|0,0:0|0:0,0:0:0:0:
291,85,211417,5,2,3:2:0:0:
307,81,211490,1,0,3:2:0:0:
324,82,211564,1,0,3:2:0:0:
340,86,211637,1,0,3:2:0:0:
355,94,211710,2,0,P|362:131|360:169,3,67.5000025749208,0|0|2|0,3:0|3:0|3:2|3:0,0:0:0:0:
319,238,212003,2,0,P|312:275|314:313,7,67.5000025749208,2|0|0|0|0|0|0|0,3:2|3:2|3:2|3:2|3:2|3:2|3:2|3:0,0:0:0:0:
389,356,212588,5,8,0:0:0:0:
427,113,212734,1,10,0:0:0:0:
292,334,212881,1,10,0:0:0:0:
293,75,213027,1,10,0:0:0:0:
181,334,213173,1,10,0:0:0:0:
131,76,213320,1,10,0:0:0:0:
282,288,213466,1,10,0:0:0:0:
35,185,213612,1,10,0:0:0:0:
292,84,213759,6,0,B|323:71|323:71|350:71|350:71|381:56|381:56|348:142|404:232|404:232|301:166|168:205,1,506.250019311906,2|0,0:0|0:0,0:0:0:0:
162,233,214929,2,0,P|130:252|44:164,2,180,2|2|2,0:0|0:0|0:0,0:0:0:0:
40,128,225466,6,0,B|106:182|106:182|162:114|162:114|107:192|107:192|118:313,1,377.999988464356,4|0,0:3|0:0,0:0:0:0:
347,159,227807,2,0,B|301:232|314:289|359:349|412:352|470:264|457:213|429:157,2,360,4|4|8,0:3|0:3|0:0,0:0:0:0:
347,158,230442,6,0,L|450:141,1,80.9999975280763,2|10,0:0|0:0,0:0:0:0:
317,69,230734,1,2,0:0:0:0:
182,192,230881,6,0,L|79:174,1,80.9999975280763,2|10,0:0|0:0,0:0:0:0:
212,102,231173,1,2,0:0:0:0:
324,248,231320,5,10,0:0:0:0:
345,65,231466,1,2,0:0:0:0:
345,65,231612,1,2,0:0:0:0:
219,227,231759,5,10,0:0:0:0:
204,41,231905,1,2,0:0:0:0:
204,41,232051,1,2,0:0:0:0:
323,171,232198,2,0,P|334:219|316:257,1,80.9999975280763,10|2,0:0|0:0,0:0:0:0:
168,167,232490,6,0,L|67:178,1,80.9999975280763,10|2,0:0|3:2,0:0:0:0:
169,276,232783,1,2,3:2:0:0:
323,247,232929,6,0,L|424:258,1,80.9999975280763,10|2,0:0|3:2,0:0:0:0:
322,356,233222,1,2,3:2:0:0:
160,356,233368,2,0,L|169:270,1,80.9999975280763,10|2,0:0|3:2,0:0:0:0:
307,105,233661,5,10,0:0:0:0:
327,315,233807,1,2,3:2:0:0:
327,315,233954,1,2,3:2:0:0:
199,117,234100,5,10,0:0:0:0:
186,337,234246,1,2,3:2:0:0:
186,337,234393,1,2,3:2:0:0:
405,215,234539,2,0,P|349:185|310:191,1,80.9999975280763,10|2,0:0|3:2,0:0:0:0:
199,117,234832,6,0,P|128:176|41:153,1,161.999995056153,4|2,0:0|3:2,0:0:0:0:
108,61,235271,2,0,P|66:45|28:53,2,80.9999975280763,10|0|0,0:0|3:0|3:0,0:0:0:0:
63,168,235710,2,0,L|73:268,1,80.9999975280763,8|0,0:0|3:0,0:0:0:0:
213,352,236003,6,0,L|225:260,1,80.9999975280763,12|0,0:0|3:0,0:0:0:0:
216,142,236295,1,0,3:0:0:0:
130,293,236442,1,8,0:0:0:0:
316,147,236588,2,0,L|331:258,1,80.9999975280763,0|0,3:0|3:0,0:0:0:0:
429,356,236881,2,0,L|441:264,1,80.9999975280763,8|0,0:0|3:0,0:0:0:0:
502,163,237173,6,0,P|472:146|446:149,3,40.4999987640381,0|0|0|0,3:0|0:0|0:0|0:0,0:0:0:0:
390,100,237466,2,0,P|373:130|376:156,3,40.4999987640381,0|0|0|0,3:0|0:0|0:0|0:0,0:0:0:0:
327,212,237759,2,0,P|357:229|383:226,3,40.4999987640381,0|0|0|0,3:0|0:0|0:0|0:0,0:0:0:0:
439,275,238051,2,0,P|456:245|453:219,3,40.4999987640381,8|8|8|8,0:0|0:0|0:0|0:0,0:0:0:0:
502,163,238344,6,0,L|490:72,2,80.9999975280763,0|0|0,3:0|3:0|3:0,0:0:0:0:
390,100,238783,1,8,0:0:0:0:
282,155,238929,2,0,L|271:235,1,80.9999975280763,0|0,3:0|3:0,0:0:0:0:
171,95,239222,2,0,P|122:79|67:87,1,80.9999975280763,8|0,0:0|0:0,0:0:0:0:
104,224,239515,5,0,3:0:0:0:
104,224,239612,2,0,P|147:236|177:227,1,53.9999983520508
202,315,239807,1,8,0:0:0:0:
202,315,239905,2,0,P|233:283|241:253,1,53.9999983520508
330,277,240100,2,0,P|318:233|296:212,2,53.9999983520508,8|8|8,0:0|0:0|0:3,0:0:0:0:
358,147,240393,2,0,P|315:135|285:144,2,53.9999983520508,8|0|0,0:3|0:0|0:0,0:0:0:0:
246,70,240686,6,0,P|215:152|223:174,1,107.999996704102,14|0,0:0|0:0,0:0:0:0:
330,277,240978,2,0,L|436:258,1,107.999996704102,10|2,0:0|0:0,0:0:0:0:
351,87,241271,1,10,0:0:0:0:
351,87,241417,1,2,0:0:0:0:
219,166,241564,2,0,L|102:150,1,107.999996704102,10|2,0:0|0:0,0:0:0:0:
115,341,241856,6,0,P|184:331|225:293,1,107.999996704102,10|0,0:0|0:0,0:0:0:0:
318,182,242149,1,10,0:0:0:0:
128,45,242295,2,0,P|116:96|112:165,1,107.999996704102,2|8,0:0|0:0,0:0:0:0:
233,290,242588,2,0,P|228:231|213:181,1,107.999996704102,2|8,0:0|0:0,0:0:0:0:
34,93,242881,1,2,0:0:0:0:
75,269,243027,1,8,0:0:0:0:
75,269,243320,5,10,0:0:0:0:
205,153,243466,1,2,0:0:0:0:
27,187,243612,1,10,0:0:0:0:
140,333,243759,1,2,0:0:0:0:
108,135,243905,1,10,0:0:0:0:
0,314,244051,1,2,0:0:0:0:
218,260,244198,6,0,L|203:142,1,107.999996704102,10|2,0:0|0:0,0:0:0:0:
92,235,244490,1,10,0:0:0:0:
190,369,244637,2,0,L|319:339,1,107.999996704102,2|8,0:0|0:0,0:0:0:0:
404,221,244929,1,2,0:0:0:0:
404,221,245076,2,0,L|296:200,1,107.999996704102,10|0,0:0|0:0,0:0:0:0:
458,365,245368,1,8,0:0:0:0:
458,365,245661,6,0,B|477:312|477:312|469:251,1,107.999996704102,10|2,0:0|0:0,0:0:0:0:
449,144,245954,1,10,0:0:0:0:
317,256,246100,6,0,B|298:203|298:203|306:142,1,107.999996704102,2|10,0:0|0:0,0:0:0:0:
323,23,246393,1,2,0:0:0:0:
449,144,246539,5,10,0:0:0:0:
229,84,246686,1,2,0:0:0:0:
229,84,246832,1,10,0:0:0:0:
400,228,246978,5,2,0:0:0:0:
159,269,247125,1,10,0:0:0:0:
159,269,247271,1,2,0:0:0:0:
340,115,247417,5,10,0:0:0:0:
289,333,247564,1,2,0:0:0:0:
156,141,247710,1,10,0:0:0:0:
167,126,248003,6,0,P|149:73|148:18,1,107.999996704102,10|2,0:0|0:0,0:0:0:0:
177,257,248295,2,0,P|140:299|92:327,1,107.999996704102,10|2,0:0|0:0,0:0:0:0:
286,183,248588,2,0,P|340:193|389:220,1,107.999996704102,10|2,0:0|0:0,0:0:0:0:
446,274,248807,1,0,0:0:0:0:
446,274,248881,5,10,0:0:0:0:
372,76,249027,1,8,0:0:0:0:
372,76,249100,1,8,0:0:0:0:
372,76,249173,1,10,0:0:0:0:
309,282,249320,1,10,0:0:0:0:
496,183,249466,2,0,P|505:116|499:70,1,107.999996704102,10|2,0:0|3:2,0:0:0:0:
259,112,249759,1,2,3:2:0:0:
386,218,249905,1,2,3:2:0:0:
432,17,250051,1,6,3:2:0:0:
432,17,250344,6,0,L|316:27,1,90,10|2,0:0|0:0,0:0:0:0:
236,32,250637,1,2,3:2:0:0:
315,169,250783,1,2,3:2:0:0:
315,169,250929,2,0,L|197:183,1,90,10|2,0:0|0:0,0:0:0:0:
57,71,251222,6,0,P|150:72|124:161,1,180,2|10,3:2|0:0,0:0:0:0:
62,247,251661,2,0,B|52:168|52:168|63:147|63:147|53:36,1,180,2|2,0:0|3:2,0:0:0:0:
182,13,252100,2,0,L|195:136,1,90,10|2,0:0|0:0,0:0:0:0:
207,253,252393,1,2,3:2:0:0:
207,253,252686,6,0,P|129:236|78:233,1,90,10|2,0:0|0:0,0:0:0:0:
350,187,252978,2,0,P|410:170|461:165,1,90,2|2,3:2|3:2,0:0:0:0:
310,364,253271,2,0,L|299:258,1,90,10|0,0:0|0:0,0:0:0:0:
260,79,253564,6,0,L|249:201,1,90,2|2,3:2|0:0,0:0:0:0:
201,331,253856,1,10,0:0:0:0:
160,125,254003,1,2,0:0:0:0:
300,274,254149,1,2,3:2:0:0:
319,56,254295,2,0,P|347:45|368:42,2,45,10|10|10,0:0|0:0|0:0,0:0:0:0:
222,240,254588,1,2,3:2:0:0:
222,240,254661,1,8,0:0:0:0:
222,240,254734,2,0,P|179:263|106:270,1,90,6|0,3:2|3:0,0:0:0:0:
44,77,255027,6,0,L|152:93,1,90,10|2,0:0|3:2,0:0:0:0:
267,140,255320,1,2,0:0:0:0:
138,271,255466,6,0,L|246:255,1,90,2|10,3:2|0:0,0:0:0:0:
361,208,255759,1,2,3:2:0:0:
226,63,255905,5,10,0:0:0:0:
187,290,256051,1,2,3:2:0:0:
187,290,256198,1,2,3:2:0:0:
346,99,256344,5,10,0:0:0:0:
385,326,256490,1,2,3:2:0:0:
385,326,256637,1,2,3:2:0:0:
226,63,256783,2,0,P|199:127|211:169,1,90,8|0,0:0|0:0,0:0:0:0:
266,354,257076,5,2,3:2:0:0:
266,354,257222,2,0,P|277:297|250:241,1,90,2|2,3:2|3:2,0:0:0:0:
153,97,257515,1,2,3:2:0:0:
190,314,257661,1,2,3:2:0:0:
319,111,257807,1,2,3:2:0:0:
291,355,257954,1,2,3:2:0:0:
226,63,258100,1,2,3:2:0:0:
135,343,258246,1,6,0:0:0:0:
135,343,259417,6,0,P|204:318|256:312,1,107.999996704102,6|0,0:0|0:0,0:0:0:0:
453,186,259710,2,0,P|386:165|344:161,1,107.999996704102,10|2,0:0|0:0,0:0:0:0:
186,225,260003,1,10,0:0:0:0:
186,225,260149,1,2,3:2:0:0:
348,362,260295,2,0,L|334:245,1,107.999996704102,10|2,0:0|3:2,0:0:0:0:
257,28,260588,6,0,L|241:149,1,107.999996704102,2|2,3:2|3:2,0:0:0:0:
224,282,260881,1,10,0:0:0:0:
104,66,261027,2,0,P|69:123|73:168,1,107.999996704102,2|2,3:2|0:0,0:0:0:0:
107,315,261320,1,8,0:0:0:0:
107,315,261393,1,8,0:0:0:0:
107,315,261466,2,0,P|149:332|184:325,3,53.9999983520508,8|8|8|8,0:0|0:0|0:0|0:0,0:0:0:0:
224,282,261759,6,0,P|302:258|341:258,1,107.999996704102,6|0,0:0|0:0,0:0:0:0:
481,98,262051,1,10,0:0:0:0:
377,21,262198,2,0,P|352:80|364:147,1,107.999996704102,2|2,0:0|3:2,0:0:0:0:
456,260,262490,1,2,3:2:0:0:
263,170,262637,1,10,0:0:0:0:
481,98,262783,1,2,3:2:0:0:
357,329,262929,6,0,L|339:203,1,107.999996704102,2|0,0:0|3:2,0:0:0:0:
249,87,263222,1,10,0:0:0:0:
137,320,263368,2,0,L|155:207,1,107.999996704102,2|0,0:0|3:2,0:0:0:0:
331,12,263661,2,0,L|350:146,1,107.999996704102,2|8,3:2|0:0,0:0:0:0:
357,329,263954,2,0,B|248:339|294:224|163:233,1,215.999993408203,2|0,0:0|3:0,0:0:0:0:
38,90,264393,5,10,0:0:0:0:
38,90,264539,2,0,P|15:171|7:222,1,107.999996704102,2|0,0:0|3:0,0:0:0:0:
197,318,264832,1,2,3:2:0:0:
149,110,264978,1,10,0:0:0:0:
85,303,265125,1,2,3:2:0:0:
265,98,265271,6,0,P|278:165|278:227,1,107.999996704102,2|2,3:2|3:2,0:0:0:0:
197,318,265564,1,10,0:0:0:0:
384,251,265710,2,0,P|454:221|522:214,1,107.999996704102,2|0,0:0|3:0,0:0:0:0:
180,164,266003,2,0,P|110:134|42:127,1,107.999996704102,2|8,3:2|0:0,0:0:0:0:
326,50,266295,1,8,0:0:0:0:
326,50,266368,1,8,0:0:0:0:
326,50,266442,2,0,L|311:201,1,107.999996704102,2|0,0:0|3:0,0:0:0:0:
225,363,266734,5,10,0:0:0:0:
177,103,266881,1,2,0:0:0:0:
330,316,267027,1,2,3:2:0:0:
331,28,267173,5,2,3:2:0:0:
231,293,267320,1,10,0:0:0:0:
150,29,267466,1,2,3:2:0:0:
313,286,267612,5,2,3:2:0:0:
336,9,267759,1,2,3:2:0:0:
206,293,267905,1,10,0:0:0:0:
146,14,268051,5,2,0:0:0:0:
323,236,268198,1,2,3:2:0:0:
45,203,268344,1,2,3:2:0:0:
274,54,268490,1,10,0:0:0:0:
130,295,268637,1,2,0:0:0:0:
75,13,268783,1,2,3:2:0:0:
75,13,269076,6,0,P|51:66|65:129,1,107.999996704102,10|2,0:0|3:2,0:0:0:0:
46,292,269368,2,0,P|103:286|151:242,1,107.999996704102,2|2,3:2|3:2,0:0:0:0:
296,175,269661,2,0,P|262:127|200:108,1,107.999996704102,10|2,0:0|0:0,0:0:0:0:
75,13,269954,5,2,3:2:0:0:
142,255,270100,1,8,0:0:0:0:
142,255,270173,1,8,0:0:0:0:
142,255,270246,2,0,L|149:193,1,53.9999983520508,10|0,0:0|0:0,0:0:0:0:
262,87,270393,2,0,L|270:159,1,53.9999983520508,10|0,0:0|0:0,0:0:0:0:
336,258,270539,2,0,P|377:292|438:290,1,107.999996704102,10|10,0:0|0:0,0:0:0:0:
466,273,270759,1,8,0:0:0:0:
466,273,270832,2,0,B|487:227|487:227|479:169,1,107.999996704102,8|8,0:0|0:0,0:0:0:0:
445,28,271125,5,6,3:2:0:0:
445,28,271417,2,0,P|393:40|357:71,1,90,10|2,0:0|0:0,0:0:0:0:
373,169,271710,1,2,3:2:0:0:
223,71,271856,1,2,3:2:0:0:
223,71,272002,2,0,P|204:131|208:167,1,90,10|2,0:0|0:0,0:0:0:0:
307,279,272295,6,0,P|309:234|291:190,1,90,0|0,0:0|0:0,0:0:0:0:
180,258,272588,1,10,0:0:0:0:
308,374,272734,2,0,B|396:375|364:297|473:288,1,180,2|2,0:0|3:2,0:0:0:0:
416,147,273173,2,0,P|353:162|322:208,1,90,10|2,0:0|0:0,0:0:0:0:
250,314,273466,1,2,3:2:0:0:
250,314,273759,6,0,L|231:225,1,90,10|2,0:0|0:0,0:0:0:0:
78,180,274051,2,0,L|56:276,1,90,2|2,3:2|3:2,0:0:0:0:
292,149,274344,2,0,L|265:36,1,90,10|0,0:0|0:0,0:0:0:0:
78,8,274637,6,0,P|44:63|52:107,1,90,2|2,3:2|0:0,0:0:0:0:
147,257,274929,2,0,P|217:229|253:221,1,90,10|2,0:0|0:0,0:0:0:0:
128,73,275222,1,2,3:2:0:0:
48,260,275368,2,0,L|54:309,2,45,10|10|10,0:0|0:0|0:0,0:0:0:0:
210,123,275661,1,2,3:2:0:0:
210,123,275734,1,8,0:0:0:0:
210,123,275807,2,0,L|199:225,1,90,6|0,3:2|3:0,0:0:0:0:
198,360,276100,6,0,P|260:356|294:342,1,90,10|2,0:0|3:2,0:0:0:0:
393,289,276393,1,2,0:0:0:0:
297,109,276539,6,0,P|235:113|201:127,1,90,2|10,3:2|0:0,0:0:0:0:
102,180,276832,1,2,3:2:0:0:
233,277,276978,5,10,0:0:0:0:
261,44,277124,1,2,3:2:0:0:
261,44,277271,1,2,3:2:0:0:
393,289,277417,5,10,0:0:0:0:
373,42,277563,1,2,3:2:0:0:
373,42,277710,1,2,3:2:0:0:
233,277,277856,2,0,L|221:151,1,90,8|0,0:0|0:0,0:0:0:0:
409,142,278149,5,2,3:2:0:0:
409,142,278295,2,0,P|362:148|310:126,1,90,2|2,3:2|3:2,0:0:0:0:
158,67,278588,1,2,3:2:0:0:
237,297,278734,1,2,3:2:0:0:
338,16,278881,1,2,3:2:0:0:
363,314,279027,1,2,3:2:0:0:
247,33,279173,1,2,3:2:0:0:
177,350,279320,5,6,0:0:0:0:
284,370,280490,6,0,L|134:342,1,107.999996704102,6|0,0:0|0:0,0:0:0:0:
244,154,280783,2,0,L|122:131,1,107.999996704102,10|0,0:0|0:0,0:0:0:0:
367,289,281076,1,10,0:0:0:0:
393,101,281222,1,2,0:0:0:0:
269,280,281368,1,8,0:0:0:0:
248,57,281515,1,2,0:0:0:0:
367,289,281661,6,0,P|446:272|462:245,1,107.999996704102,10|10,0:0|0:0,0:0:0:0:
398,56,281954,1,10,0:0:0:0:
266,248,282100,1,2,0:0:0:0:
470,154,282246,1,10,0:0:0:0:
271,44,282393,1,10,0:0:0:0:
367,289,282539,1,10,0:0:0:0:
367,289,282612,1,8,0:0:0:0:
367,289,282686,2,0,L|375:218,1,53.9999983520508,10|8,0:0|0:0,0:0:0:0:
181,84,282832,6,0,B|189:176|189:176|185:193|185:193|194:288,1,202.500007724762,4|0,0:0|0:0,0:0:0:0:
125,336,283125,6,0,P|12:318|41:208,1,256.499992172241,2|2,0:0|0:0,0:0:0:0:
