osu file format v14

[General]
AudioFilename: yuta.mp3
AudioLeadIn: 0
PreviewTime: 64130
Countdown: 0
SampleSet: None
StackLeniency: 0.7
Mode: 3
LetterboxInBreaks: 0
SpecialStyle: 0
WidescreenStoryboard: 1

[Editor]
DistanceSpacing: 1.4
BeatDivisor: 4
GridSize: 4
TimelineZoom: 1.3

[Metadata]
Title:Fullbracket Pack
TitleUnicode:Fullbracket Pack
Artist:Various Artists
ArtistUnicode:Various Artists
Creator:X_Devil
Version:60 bpm [Yu^ta]
Source:
Tags:Fullbracket bracket 7k 10k
BeatmapID:2080453
BeatmapSetID:994817

[Difficulty]
HPDrainRate:5
CircleSize:7
OverallDifficulty:10
ApproachRate:5
SliderMultiplier:1.4
SliderTickRate:1

[Events]
//Background and Video events
0,0,"yuta.png",0,0
//Break Periods
//Storyboard Layer 0 (Background)
//Storyboard Layer 1 (Fail)
//Storyboard Layer 2 (Pass)
//Storyboard Layer 3 (Foreground)
//Storyboard Sound Samples

[TimingPoints]
130,1000,4,1,0,15,1,0

[HitObjects]
36,192,130,5,0,0:0:0:0:
182,192,130,1,0,0:0:0:0:
329,192,130,1,0,0:0:0:0:
475,192,130,1,0,0:0:0:0:
109,192,630,1,0,0:0:0:0:
256,192,630,1,0,0:0:0:0:
402,192,630,1,0,0:0:0:0:
36,192,1130,1,0,0:0:0:0:
182,192,1130,1,0,0:0:0:0:
329,192,1130,1,0,0:0:0:0:
475,192,1130,1,0,0:0:0:0:
109,192,1630,1,0,0:0:0:0:
256,192,1630,1,0,0:0:0:0:
402,192,1630,1,0,0:0:0:0:
36,192,2130,1,0,0:0:0:0:
182,192,2130,1,0,0:0:0:0:
329,192,2130,1,0,0:0:0:0:
475,192,2130,1,0,0:0:0:0:
109,192,2630,1,0,0:0:0:0:
256,192,2630,1,0,0:0:0:0:
402,192,2630,1,0,0:0:0:0:
36,192,3130,1,0,0:0:0:0:
182,192,3130,1,0,0:0:0:0:
329,192,3130,1,0,0:0:0:0:
475,192,3130,1,0,0:0:0:0:
109,192,3630,1,0,0:0:0:0:
256,192,3630,1,0,0:0:0:0:
402,192,3630,1,0,0:0:0:0:
36,192,4130,1,0,0:0:0:0:
182,192,4130,1,0,0:0:0:0:
329,192,4130,1,0,0:0:0:0:
475,192,4130,1,0,0:0:0:0:
109,192,4630,1,0,0:0:0:0:
256,192,4630,1,0,0:0:0:0:
402,192,4630,1,0,0:0:0:0:
36,192,5130,1,0,0:0:0:0:
182,192,5130,1,0,0:0:0:0:
329,192,5130,1,0,0:0:0:0:
475,192,5130,1,0,0:0:0:0:
109,192,5630,1,0,0:0:0:0:
256,192,5630,1,0,0:0:0:0:
402,192,5630,1,0,0:0:0:0:
36,192,6130,1,0,0:0:0:0:
182,192,6130,1,0,0:0:0:0:
329,192,6130,1,0,0:0:0:0:
475,192,6130,1,0,0:0:0:0:
109,192,6630,1,0,0:0:0:0:
256,192,6630,1,0,0:0:0:0:
402,192,6630,1,0,0:0:0:0:
36,192,7130,1,0,0:0:0:0:
182,192,7130,1,0,0:0:0:0:
329,192,7130,1,0,0:0:0:0:
475,192,7130,1,0,0:0:0:0:
109,192,7630,1,0,0:0:0:0:
256,192,7630,1,0,0:0:0:0:
402,192,7630,1,0,0:0:0:0:
36,192,8130,1,0,0:0:0:0:
182,192,8130,1,0,0:0:0:0:
329,192,8130,1,0,0:0:0:0:
475,192,8130,1,0,0:0:0:0:
109,192,8630,1,0,0:0:0:0:
256,192,8630,1,0,0:0:0:0:
402,192,8630,1,0,0:0:0:0:
36,192,9130,1,0,0:0:0:0:
182,192,9130,1,0,0:0:0:0:
329,192,9130,1,0,0:0:0:0:
475,192,9130,1,0,0:0:0:0:
109,192,9630,1,0,0:0:0:0:
256,192,9630,1,0,0:0:0:0:
402,192,9630,1,0,0:0:0:0:
36,192,10130,1,0,0:0:0:0:
182,192,10130,1,0,0:0:0:0:
329,192,10130,1,0,0:0:0:0:
475,192,10130,1,0,0:0:0:0:
109,192,10630,1,0,0:0:0:0:
256,192,10630,1,0,0:0:0:0:
402,192,10630,1,0,0:0:0:0:
36,192,11130,1,0,0:0:0:0:
182,192,11130,1,0,0:0:0:0:
329,192,11130,1,0,0:0:0:0:
475,192,11130,1,0,0:0:0:0:
109,192,11630,1,0,0:0:0:0:
256,192,11630,1,0,0:0:0:0:
402,192,11630,1,0,0:0:0:0:
36,192,12130,1,0,0:0:0:0:
182,192,12130,1,0,0:0:0:0:
329,192,12130,1,0,0:0:0:0:
475,192,12130,1,0,0:0:0:0:
109,192,12630,1,0,0:0:0:0:
256,192,12630,1,0,0:0:0:0:
402,192,12630,1,0,0:0:0:0:
36,192,13130,1,0,0:0:0:0:
182,192,13130,1,0,0:0:0:0:
329,192,13130,1,0,0:0:0:0:
475,192,13130,1,0,0:0:0:0:
109,192,13630,1,0,0:0:0:0:
256,192,13630,1,0,0:0:0:0:
402,192,13630,1,0,0:0:0:0:
36,192,14130,1,0,0:0:0:0:
182,192,14130,1,0,0:0:0:0:
329,192,14130,1,0,0:0:0:0:
475,192,14130,1,0,0:0:0:0:
109,192,14630,1,0,0:0:0:0:
256,192,14630,1,0,0:0:0:0:
402,192,14630,1,0,0:0:0:0:
36,192,15130,1,0,0:0:0:0:
182,192,15130,1,0,0:0:0:0:
329,192,15130,1,0,0:0:0:0:
475,192,15130,1,0,0:0:0:0:
109,192,15630,1,0,0:0:0:0:
256,192,15630,1,0,0:0:0:0:
402,192,15630,1,0,0:0:0:0:
36,192,16130,1,0,0:0:0:0:
182,192,16130,1,0,0:0:0:0:
329,192,16130,1,0,0:0:0:0:
475,192,16130,1,0,0:0:0:0:
109,192,16380,1,0,0:0:0:0:
256,192,16380,1,0,0:0:0:0:
402,192,16380,1,0,0:0:0:0:
36,192,16630,1,0,0:0:0:0:
182,192,16630,1,0,0:0:0:0:
329,192,16630,1,0,0:0:0:0:
475,192,16630,1,0,0:0:0:0:
109,192,16880,1,0,0:0:0:0:
256,192,16880,1,0,0:0:0:0:
402,192,16880,1,0,0:0:0:0:
36,192,17130,1,0,0:0:0:0:
182,192,17130,1,0,0:0:0:0:
329,192,17130,1,0,0:0:0:0:
475,192,17130,1,0,0:0:0:0:
109,192,17380,1,0,0:0:0:0:
256,192,17380,1,0,0:0:0:0:
402,192,17380,1,0,0:0:0:0:
36,192,17630,1,0,0:0:0:0:
182,192,17630,1,0,0:0:0:0:
329,192,17630,1,0,0:0:0:0:
475,192,17630,1,0,0:0:0:0:
109,192,17880,1,0,0:0:0:0:
256,192,17880,1,0,0:0:0:0:
402,192,17880,1,0,0:0:0:0:
36,192,18130,1,0,0:0:0:0:
182,192,18130,1,0,0:0:0:0:
329,192,18130,1,0,0:0:0:0:
475,192,18130,1,0,0:0:0:0:
109,192,18380,1,0,0:0:0:0:
256,192,18380,1,0,0:0:0:0:
402,192,18380,1,0,0:0:0:0:
36,192,18630,1,0,0:0:0:0:
182,192,18630,1,0,0:0:0:0:
329,192,18630,1,0,0:0:0:0:
475,192,18630,1,0,0:0:0:0:
109,192,18880,1,0,0:0:0:0:
256,192,18880,1,0,0:0:0:0:
402,192,18880,1,0,0:0:0:0:
36,192,19130,1,0,0:0:0:0:
182,192,19130,1,0,0:0:0:0:
329,192,19130,1,0,0:0:0:0:
475,192,19130,1,0,0:0:0:0:
109,192,19380,1,0,0:0:0:0:
256,192,19380,1,0,0:0:0:0:
402,192,19380,1,0,0:0:0:0:
36,192,19630,1,0,0:0:0:0:
182,192,19630,1,0,0:0:0:0:
329,192,19630,1,0,0:0:0:0:
475,192,19630,1,0,0:0:0:0:
109,192,19880,1,0,0:0:0:0:
256,192,19880,1,0,0:0:0:0:
402,192,19880,1,0,0:0:0:0:
36,192,20130,1,0,0:0:0:0:
182,192,20130,1,0,0:0:0:0:
329,192,20130,1,0,0:0:0:0:
475,192,20130,1,0,0:0:0:0:
109,192,20380,1,0,0:0:0:0:
256,192,20380,1,0,0:0:0:0:
402,192,20380,1,0,0:0:0:0:
36,192,20630,1,0,0:0:0:0:
182,192,20630,1,0,0:0:0:0:
329,192,20630,1,0,0:0:0:0:
475,192,20630,1,0,0:0:0:0:
109,192,20880,1,0,0:0:0:0:
256,192,20880,1,0,0:0:0:0:
402,192,20880,1,0,0:0:0:0:
36,192,21130,1,0,0:0:0:0:
182,192,21130,1,0,0:0:0:0:
329,192,21130,1,0,0:0:0:0:
475,192,21130,1,0,0:0:0:0:
109,192,21380,1,0,0:0:0:0:
256,192,21380,1,0,0:0:0:0:
402,192,21380,1,0,0:0:0:0:
36,192,21630,1,0,0:0:0:0:
182,192,21630,1,0,0:0:0:0:
329,192,21630,1,0,0:0:0:0:
475,192,21630,1,0,0:0:0:0:
109,192,21880,1,0,0:0:0:0:
256,192,21880,1,0,0:0:0:0:
402,192,21880,1,0,0:0:0:0:
36,192,22130,1,0,0:0:0:0:
182,192,22130,1,0,0:0:0:0:
329,192,22130,1,0,0:0:0:0:
475,192,22130,1,0,0:0:0:0:
109,192,22380,1,0,0:0:0:0:
256,192,22380,1,0,0:0:0:0:
402,192,22380,1,0,0:0:0:0:
36,192,22630,1,0,0:0:0:0:
182,192,22630,1,0,0:0:0:0:
329,192,22630,1,0,0:0:0:0:
475,192,22630,1,0,0:0:0:0:
109,192,22880,1,0,0:0:0:0:
256,192,22880,1,0,0:0:0:0:
402,192,22880,1,0,0:0:0:0:
36,192,23130,1,0,0:0:0:0:
182,192,23130,1,0,0:0:0:0:
329,192,23130,1,0,0:0:0:0:
475,192,23130,1,0,0:0:0:0:
109,192,23380,1,0,0:0:0:0:
256,192,23380,1,0,0:0:0:0:
402,192,23380,1,0,0:0:0:0:
36,192,23630,1,0,0:0:0:0:
182,192,23630,1,0,0:0:0:0:
329,192,23630,1,0,0:0:0:0:
475,192,23630,1,0,0:0:0:0:
109,192,23880,1,0,0:0:0:0:
256,192,23880,1,0,0:0:0:0:
402,192,23880,1,0,0:0:0:0:
329,192,24130,1,0,0:0:0:0:
475,192,24130,1,0,0:0:0:0:
36,192,24130,1,0,0:0:0:0:
182,192,24130,1,0,0:0:0:0:
402,192,24380,1,0,0:0:0:0:
256,192,24380,1,0,0:0:0:0:
109,192,24380,1,0,0:0:0:0:
329,192,24630,1,0,0:0:0:0:
475,192,24630,1,0,0:0:0:0:
36,192,24630,1,0,0:0:0:0:
182,192,24630,1,0,0:0:0:0:
402,192,24880,1,0,0:0:0:0:
256,192,24880,1,0,0:0:0:0:
109,192,24880,1,0,0:0:0:0:
329,192,25130,1,0,0:0:0:0:
475,192,25130,1,0,0:0:0:0:
36,192,25130,1,0,0:0:0:0:
182,192,25130,1,0,0:0:0:0:
402,192,25380,1,0,0:0:0:0:
256,192,25380,1,0,0:0:0:0:
109,192,25380,1,0,0:0:0:0:
329,192,25630,1,0,0:0:0:0:
475,192,25630,1,0,0:0:0:0:
36,192,25630,1,0,0:0:0:0:
182,192,25630,1,0,0:0:0:0:
402,192,25880,1,0,0:0:0:0:
256,192,25880,1,0,0:0:0:0:
109,192,25880,1,0,0:0:0:0:
329,192,26130,1,0,0:0:0:0:
475,192,26130,1,0,0:0:0:0:
36,192,26130,1,0,0:0:0:0:
182,192,26130,1,0,0:0:0:0:
402,192,26380,1,0,0:0:0:0:
256,192,26380,1,0,0:0:0:0:
109,192,26380,1,0,0:0:0:0:
329,192,26630,1,0,0:0:0:0:
475,192,26630,1,0,0:0:0:0:
36,192,26630,1,0,0:0:0:0:
182,192,26630,1,0,0:0:0:0:
402,192,26880,1,0,0:0:0:0:
256,192,26880,1,0,0:0:0:0:
109,192,26880,1,0,0:0:0:0:
329,192,27130,1,0,0:0:0:0:
475,192,27130,1,0,0:0:0:0:
36,192,27130,1,0,0:0:0:0:
182,192,27130,1,0,0:0:0:0:
402,192,27380,1,0,0:0:0:0:
256,192,27380,1,0,0:0:0:0:
109,192,27380,1,0,0:0:0:0:
329,192,27630,1,0,0:0:0:0:
475,192,27630,1,0,0:0:0:0:
36,192,27630,1,0,0:0:0:0:
182,192,27630,1,0,0:0:0:0:
402,192,27880,1,0,0:0:0:0:
256,192,27880,1,0,0:0:0:0:
109,192,27880,1,0,0:0:0:0:
36,192,28130,1,0,0:0:0:0:
182,192,28130,1,0,0:0:0:0:
329,192,28130,1,0,0:0:0:0:
475,192,28130,1,0,0:0:0:0:
109,192,28380,1,0,0:0:0:0:
256,192,28380,1,0,0:0:0:0:
402,192,28380,1,0,0:0:0:0:
36,192,28630,1,0,0:0:0:0:
182,192,28630,1,0,0:0:0:0:
329,192,28630,1,0,0:0:0:0:
475,192,28630,1,0,0:0:0:0:
109,192,28880,1,0,0:0:0:0:
256,192,28880,1,0,0:0:0:0:
402,192,28880,1,0,0:0:0:0:
36,192,29130,1,0,0:0:0:0:
182,192,29130,1,0,0:0:0:0:
329,192,29130,1,0,0:0:0:0:
475,192,29130,1,0,0:0:0:0:
109,192,29380,1,0,0:0:0:0:
256,192,29380,1,0,0:0:0:0:
402,192,29380,1,0,0:0:0:0:
36,192,29630,1,0,0:0:0:0:
182,192,29630,1,0,0:0:0:0:
329,192,29630,1,0,0:0:0:0:
475,192,29630,1,0,0:0:0:0:
109,192,29880,1,0,0:0:0:0:
256,192,29880,1,0,0:0:0:0:
402,192,29880,1,0,0:0:0:0:
36,192,30130,1,0,0:0:0:0:
182,192,30130,1,0,0:0:0:0:
329,192,30130,1,0,0:0:0:0:
475,192,30130,1,0,0:0:0:0:
109,192,30380,1,0,0:0:0:0:
256,192,30380,1,0,0:0:0:0:
402,192,30380,1,0,0:0:0:0:
36,192,30630,1,0,0:0:0:0:
182,192,30630,1,0,0:0:0:0:
329,192,30630,1,0,0:0:0:0:
475,192,30630,1,0,0:0:0:0:
109,192,30880,1,0,0:0:0:0:
256,192,30880,1,0,0:0:0:0:
402,192,30880,1,0,0:0:0:0:
36,192,31130,1,0,0:0:0:0:
182,192,31130,1,0,0:0:0:0:
329,192,31130,1,0,0:0:0:0:
475,192,31130,1,0,0:0:0:0:
109,192,31380,1,0,0:0:0:0:
256,192,31380,1,0,0:0:0:0:
402,192,31380,1,0,0:0:0:0:
36,192,31630,1,0,0:0:0:0:
182,192,31630,1,0,0:0:0:0:
329,192,31630,1,0,0:0:0:0:
475,192,31630,1,0,0:0:0:0:
109,192,31880,1,0,0:0:0:0:
256,192,31880,1,0,0:0:0:0:
402,192,31880,1,0,0:0:0:0:
36,192,32130,1,0,0:0:0:0:
182,192,32130,1,0,0:0:0:0:
329,192,32130,1,0,0:0:0:0:
475,192,32130,1,0,0:0:0:0:
109,192,32630,1,0,0:0:0:0:
256,192,32630,1,0,0:0:0:0:
402,192,32630,1,0,0:0:0:0:
36,192,33130,1,0,0:0:0:0:
182,192,33130,1,0,0:0:0:0:
329,192,33130,1,0,0:0:0:0:
475,192,33130,1,0,0:0:0:0:
109,192,33630,1,0,0:0:0:0:
256,192,33630,1,0,0:0:0:0:
402,192,33630,1,0,0:0:0:0:
36,192,34130,1,0,0:0:0:0:
182,192,34130,1,0,0:0:0:0:
329,192,34130,1,0,0:0:0:0:
475,192,34130,1,0,0:0:0:0:
109,192,34630,1,0,0:0:0:0:
256,192,34630,1,0,0:0:0:0:
402,192,34630,1,0,0:0:0:0:
36,192,35130,1,0,0:0:0:0:
182,192,35130,1,0,0:0:0:0:
329,192,35130,1,0,0:0:0:0:
475,192,35130,1,0,0:0:0:0:
109,192,35630,1,0,0:0:0:0:
256,192,35630,1,0,0:0:0:0:
402,192,35630,1,0,0:0:0:0:
36,192,36130,1,0,0:0:0:0:
182,192,36130,1,0,0:0:0:0:
329,192,36130,1,0,0:0:0:0:
475,192,36130,1,0,0:0:0:0:
109,192,36630,1,0,0:0:0:0:
256,192,36630,1,0,0:0:0:0:
402,192,36630,1,0,0:0:0:0:
36,192,37130,1,0,0:0:0:0:
182,192,37130,1,0,0:0:0:0:
329,192,37130,1,0,0:0:0:0:
475,192,37130,1,0,0:0:0:0:
109,192,37630,1,0,0:0:0:0:
256,192,37630,1,0,0:0:0:0:
402,192,37630,1,0,0:0:0:0:
36,192,38130,1,0,0:0:0:0:
182,192,38130,1,0,0:0:0:0:
329,192,38130,1,0,0:0:0:0:
475,192,38130,1,0,0:0:0:0:
109,192,38630,1,0,0:0:0:0:
256,192,38630,1,0,0:0:0:0:
402,192,38630,1,0,0:0:0:0:
36,192,39130,1,0,0:0:0:0:
182,192,39130,1,0,0:0:0:0:
329,192,39130,1,0,0:0:0:0:
475,192,39130,1,0,0:0:0:0:
109,192,39630,1,0,0:0:0:0:
256,192,39630,1,0,0:0:0:0:
402,192,39630,1,0,0:0:0:0:
36,192,40130,1,0,0:0:0:0:
182,192,40130,1,0,0:0:0:0:
329,192,40130,1,0,0:0:0:0:
475,192,40130,1,0,0:0:0:0:
109,192,40630,1,0,0:0:0:0:
256,192,40630,1,0,0:0:0:0:
402,192,40630,1,0,0:0:0:0:
36,192,41130,1,0,0:0:0:0:
182,192,41130,1,0,0:0:0:0:
329,192,41130,1,0,0:0:0:0:
475,192,41130,1,0,0:0:0:0:
109,192,41630,1,0,0:0:0:0:
256,192,41630,1,0,0:0:0:0:
402,192,41630,1,0,0:0:0:0:
36,192,42130,1,0,0:0:0:0:
182,192,42130,1,0,0:0:0:0:
329,192,42130,1,0,0:0:0:0:
475,192,42130,1,0,0:0:0:0:
109,192,42630,1,0,0:0:0:0:
256,192,42630,1,0,0:0:0:0:
402,192,42630,1,0,0:0:0:0:
36,192,43130,1,0,0:0:0:0:
182,192,43130,1,0,0:0:0:0:
329,192,43130,1,0,0:0:0:0:
475,192,43130,1,0,0:0:0:0:
109,192,43630,1,0,0:0:0:0:
256,192,43630,1,0,0:0:0:0:
402,192,43630,1,0,0:0:0:0:
36,192,44130,1,0,0:0:0:0:
182,192,44130,1,0,0:0:0:0:
329,192,44130,1,0,0:0:0:0:
475,192,44130,1,0,0:0:0:0:
109,192,44630,1,0,0:0:0:0:
256,192,44630,1,0,0:0:0:0:
402,192,44630,1,0,0:0:0:0:
36,192,45130,1,0,0:0:0:0:
182,192,45130,1,0,0:0:0:0:
329,192,45130,1,0,0:0:0:0:
475,192,45130,1,0,0:0:0:0:
109,192,45630,1,0,0:0:0:0:
256,192,45630,1,0,0:0:0:0:
402,192,45630,1,0,0:0:0:0:
36,192,46130,1,0,0:0:0:0:
182,192,46130,1,0,0:0:0:0:
329,192,46130,1,0,0:0:0:0:
475,192,46130,1,0,0:0:0:0:
109,192,46630,1,0,0:0:0:0:
256,192,46630,1,0,0:0:0:0:
402,192,46630,1,0,0:0:0:0:
36,192,47130,1,0,0:0:0:0:
182,192,47130,1,0,0:0:0:0:
329,192,47130,1,0,0:0:0:0:
475,192,47130,1,0,0:0:0:0:
109,192,47630,1,0,0:0:0:0:
256,192,47630,1,0,0:0:0:0:
402,192,47630,1,0,0:0:0:0:
36,192,48130,1,0,0:0:0:0:
182,192,48130,1,0,0:0:0:0:
329,192,48130,1,0,0:0:0:0:
475,192,48130,1,0,0:0:0:0:
109,192,48380,1,0,0:0:0:0:
256,192,48380,1,0,0:0:0:0:
402,192,48380,1,0,0:0:0:0:
36,192,48630,1,0,0:0:0:0:
182,192,48630,1,0,0:0:0:0:
329,192,48630,1,0,0:0:0:0:
475,192,48630,1,0,0:0:0:0:
109,192,48880,1,0,0:0:0:0:
256,192,48880,1,0,0:0:0:0:
402,192,48880,1,0,0:0:0:0:
36,192,49130,1,0,0:0:0:0:
182,192,49130,1,0,0:0:0:0:
329,192,49130,1,0,0:0:0:0:
475,192,49130,1,0,0:0:0:0:
109,192,49630,1,0,0:0:0:0:
256,192,49630,1,0,0:0:0:0:
402,192,49630,1,0,0:0:0:0:
36,192,50130,1,0,0:0:0:0:
182,192,50130,1,0,0:0:0:0:
329,192,50130,1,0,0:0:0:0:
475,192,50130,1,0,0:0:0:0:
109,192,50380,1,0,0:0:0:0:
256,192,50380,1,0,0:0:0:0:
402,192,50380,1,0,0:0:0:0:
36,192,50630,1,0,0:0:0:0:
182,192,50630,1,0,0:0:0:0:
329,192,50630,1,0,0:0:0:0:
475,192,50630,1,0,0:0:0:0:
109,192,50880,1,0,0:0:0:0:
256,192,50880,1,0,0:0:0:0:
402,192,50880,1,0,0:0:0:0:
36,192,51130,1,0,0:0:0:0:
182,192,51130,1,0,0:0:0:0:
329,192,51130,1,0,0:0:0:0:
475,192,51130,1,0,0:0:0:0:
109,192,51630,1,0,0:0:0:0:
256,192,51630,1,0,0:0:0:0:
402,192,51630,1,0,0:0:0:0:
36,192,52130,1,0,0:0:0:0:
182,192,52130,1,0,0:0:0:0:
329,192,52130,1,0,0:0:0:0:
475,192,52130,1,0,0:0:0:0:
109,192,52380,1,0,0:0:0:0:
256,192,52380,1,0,0:0:0:0:
402,192,52380,1,0,0:0:0:0:
36,192,52630,1,0,0:0:0:0:
182,192,52630,1,0,0:0:0:0:
329,192,52630,1,0,0:0:0:0:
475,192,52630,1,0,0:0:0:0:
109,192,52880,1,0,0:0:0:0:
256,192,52880,1,0,0:0:0:0:
402,192,52880,1,0,0:0:0:0:
36,192,53130,1,0,0:0:0:0:
182,192,53130,1,0,0:0:0:0:
329,192,53130,1,0,0:0:0:0:
475,192,53130,1,0,0:0:0:0:
109,192,53630,1,0,0:0:0:0:
256,192,53630,1,0,0:0:0:0:
402,192,53630,1,0,0:0:0:0:
36,192,54130,1,0,0:0:0:0:
182,192,54130,1,0,0:0:0:0:
329,192,54130,1,0,0:0:0:0:
475,192,54130,1,0,0:0:0:0:
109,192,54380,1,0,0:0:0:0:
256,192,54380,1,0,0:0:0:0:
402,192,54380,1,0,0:0:0:0:
36,192,54630,1,0,0:0:0:0:
182,192,54630,1,0,0:0:0:0:
329,192,54630,1,0,0:0:0:0:
475,192,54630,1,0,0:0:0:0:
109,192,54880,1,0,0:0:0:0:
256,192,54880,1,0,0:0:0:0:
402,192,54880,1,0,0:0:0:0:
36,192,55130,1,0,0:0:0:0:
182,192,55130,1,0,0:0:0:0:
329,192,55130,1,0,0:0:0:0:
475,192,55130,1,0,0:0:0:0:
109,192,55630,1,0,0:0:0:0:
256,192,55630,1,0,0:0:0:0:
402,192,55630,1,0,0:0:0:0:
36,192,56130,1,0,0:0:0:0:
182,192,56130,1,0,0:0:0:0:
329,192,56130,1,0,0:0:0:0:
475,192,56130,1,0,0:0:0:0:
109,192,56380,1,0,0:0:0:0:
256,192,56380,1,0,0:0:0:0:
402,192,56380,1,0,0:0:0:0:
36,192,56630,1,0,0:0:0:0:
182,192,56630,1,0,0:0:0:0:
329,192,56630,1,0,0:0:0:0:
475,192,56630,1,0,0:0:0:0:
109,192,56880,1,0,0:0:0:0:
256,192,56880,1,0,0:0:0:0:
402,192,56880,1,0,0:0:0:0:
36,192,57130,1,0,0:0:0:0:
182,192,57130,1,0,0:0:0:0:
329,192,57130,1,0,0:0:0:0:
475,192,57130,1,0,0:0:0:0:
109,192,57630,1,0,0:0:0:0:
256,192,57630,1,0,0:0:0:0:
402,192,57630,1,0,0:0:0:0:
36,192,58130,1,0,0:0:0:0:
182,192,58130,1,0,0:0:0:0:
329,192,58130,1,0,0:0:0:0:
475,192,58130,1,0,0:0:0:0:
109,192,58380,1,0,0:0:0:0:
256,192,58380,1,0,0:0:0:0:
402,192,58380,1,0,0:0:0:0:
36,192,58630,1,0,0:0:0:0:
182,192,58630,1,0,0:0:0:0:
329,192,58630,1,0,0:0:0:0:
475,192,58630,1,0,0:0:0:0:
109,192,58880,1,0,0:0:0:0:
256,192,58880,1,0,0:0:0:0:
402,192,58880,1,0,0:0:0:0:
36,192,59130,1,0,0:0:0:0:
182,192,59130,1,0,0:0:0:0:
329,192,59130,1,0,0:0:0:0:
475,192,59130,1,0,0:0:0:0:
109,192,59630,1,0,0:0:0:0:
256,192,59630,1,0,0:0:0:0:
402,192,59630,1,0,0:0:0:0:
36,192,60130,1,0,0:0:0:0:
182,192,60130,1,0,0:0:0:0:
329,192,60130,1,0,0:0:0:0:
475,192,60130,1,0,0:0:0:0:
109,192,60380,1,0,0:0:0:0:
256,192,60380,1,0,0:0:0:0:
402,192,60380,1,0,0:0:0:0:
36,192,60630,1,0,0:0:0:0:
182,192,60630,1,0,0:0:0:0:
329,192,60630,1,0,0:0:0:0:
475,192,60630,1,0,0:0:0:0:
109,192,60880,1,0,0:0:0:0:
256,192,60880,1,0,0:0:0:0:
402,192,60880,1,0,0:0:0:0:
36,192,61130,1,0,0:0:0:0:
182,192,61130,1,0,0:0:0:0:
329,192,61130,1,0,0:0:0:0:
475,192,61130,1,0,0:0:0:0:
109,192,61630,1,0,0:0:0:0:
256,192,61630,1,0,0:0:0:0:
402,192,61630,1,0,0:0:0:0:
36,192,62130,1,0,0:0:0:0:
182,192,62130,1,0,0:0:0:0:
329,192,62130,1,0,0:0:0:0:
475,192,62130,1,0,0:0:0:0:
109,192,62380,1,0,0:0:0:0:
256,192,62380,1,0,0:0:0:0:
402,192,62380,1,0,0:0:0:0:
36,192,62630,1,0,0:0:0:0:
182,192,62630,1,0,0:0:0:0:
329,192,62630,1,0,0:0:0:0:
475,192,62630,1,0,0:0:0:0:
109,192,62880,1,0,0:0:0:0:
256,192,62880,1,0,0:0:0:0:
402,192,62880,1,0,0:0:0:0:
36,192,63130,1,0,0:0:0:0:
182,192,63130,1,0,0:0:0:0:
329,192,63130,1,0,0:0:0:0:
475,192,63130,1,0,0:0:0:0:
109,192,63630,1,0,0:0:0:0:
256,192,63630,1,0,0:0:0:0:
402,192,63630,1,0,0:0:0:0:
329,192,64130,1,0,0:0:0:0:
475,192,64130,1,0,0:0:0:0:
36,192,64130,1,0,0:0:0:0:
182,192,64130,1,0,0:0:0:0:
402,192,64380,1,0,0:0:0:0:
256,192,64380,1,0,0:0:0:0:
109,192,64380,1,0,0:0:0:0:
329,192,64630,1,0,0:0:0:0:
475,192,64630,1,0,0:0:0:0:
36,192,64630,1,0,0:0:0:0:
182,192,64630,1,0,0:0:0:0:
402,192,64880,1,0,0:0:0:0:
256,192,64880,1,0,0:0:0:0:
109,192,64880,1,0,0:0:0:0:
329,192,65130,1,0,0:0:0:0:
475,192,65130,1,0,0:0:0:0:
36,192,65130,1,0,0:0:0:0:
182,192,65130,1,0,0:0:0:0:
402,192,65380,1,0,0:0:0:0:
256,192,65380,1,0,0:0:0:0:
109,192,65380,1,0,0:0:0:0:
329,192,65630,1,0,0:0:0:0:
475,192,65630,1,0,0:0:0:0:
36,192,65630,1,0,0:0:0:0:
182,192,65630,1,0,0:0:0:0:
402,192,65880,1,0,0:0:0:0:
256,192,65880,1,0,0:0:0:0:
109,192,65880,1,0,0:0:0:0:
329,192,66130,1,0,0:0:0:0:
475,192,66130,1,0,0:0:0:0:
36,192,66130,1,0,0:0:0:0:
182,192,66130,1,0,0:0:0:0:
402,192,66380,1,0,0:0:0:0:
256,192,66380,1,0,0:0:0:0:
109,192,66380,1,0,0:0:0:0:
329,192,66630,1,0,0:0:0:0:
475,192,66630,1,0,0:0:0:0:
36,192,66630,1,0,0:0:0:0:
182,192,66630,1,0,0:0:0:0:
402,192,66880,1,0,0:0:0:0:
256,192,66880,1,0,0:0:0:0:
109,192,66880,1,0,0:0:0:0:
329,192,67130,1,0,0:0:0:0:
475,192,67130,1,0,0:0:0:0:
36,192,67130,1,0,0:0:0:0:
182,192,67130,1,0,0:0:0:0:
402,192,67380,1,0,0:0:0:0:
256,192,67380,1,0,0:0:0:0:
109,192,67380,1,0,0:0:0:0:
329,192,67630,1,0,0:0:0:0:
475,192,67630,1,0,0:0:0:0:
36,192,67630,1,0,0:0:0:0:
182,192,67630,1,0,0:0:0:0:
402,192,67880,1,0,0:0:0:0:
256,192,67880,1,0,0:0:0:0:
109,192,67880,1,0,0:0:0:0:
36,192,68130,1,0,0:0:0:0:
182,192,68130,1,0,0:0:0:0:
329,192,68130,1,0,0:0:0:0:
475,192,68130,1,0,0:0:0:0:
109,192,68380,1,0,0:0:0:0:
256,192,68380,1,0,0:0:0:0:
402,192,68380,1,0,0:0:0:0:
36,192,68630,1,0,0:0:0:0:
182,192,68630,1,0,0:0:0:0:
329,192,68630,1,0,0:0:0:0:
475,192,68630,1,0,0:0:0:0:
109,192,68880,1,0,0:0:0:0:
256,192,68880,1,0,0:0:0:0:
402,192,68880,1,0,0:0:0:0:
36,192,69130,1,0,0:0:0:0:
182,192,69130,1,0,0:0:0:0:
329,192,69130,1,0,0:0:0:0:
475,192,69130,1,0,0:0:0:0:
109,192,69380,1,0,0:0:0:0:
256,192,69380,1,0,0:0:0:0:
402,192,69380,1,0,0:0:0:0:
36,192,69630,1,0,0:0:0:0:
182,192,69630,1,0,0:0:0:0:
329,192,69630,1,0,0:0:0:0:
475,192,69630,1,0,0:0:0:0:
109,192,69880,1,0,0:0:0:0:
256,192,69880,1,0,0:0:0:0:
402,192,69880,1,0,0:0:0:0:
36,192,70130,1,0,0:0:0:0:
182,192,70130,1,0,0:0:0:0:
329,192,70130,1,0,0:0:0:0:
475,192,70130,1,0,0:0:0:0:
109,192,70380,1,0,0:0:0:0:
256,192,70380,1,0,0:0:0:0:
402,192,70380,1,0,0:0:0:0:
36,192,70630,1,0,0:0:0:0:
182,192,70630,1,0,0:0:0:0:
329,192,70630,1,0,0:0:0:0:
475,192,70630,1,0,0:0:0:0:
109,192,70880,1,0,0:0:0:0:
256,192,70880,1,0,0:0:0:0:
402,192,70880,1,0,0:0:0:0:
36,192,71130,1,0,0:0:0:0:
182,192,71130,1,0,0:0:0:0:
329,192,71130,1,0,0:0:0:0:
475,192,71130,1,0,0:0:0:0:
109,192,71380,1,0,0:0:0:0:
256,192,71380,1,0,0:0:0:0:
402,192,71380,1,0,0:0:0:0:
36,192,71630,1,0,0:0:0:0:
182,192,71630,1,0,0:0:0:0:
329,192,71630,1,0,0:0:0:0:
475,192,71630,1,0,0:0:0:0:
109,192,71880,1,0,0:0:0:0:
256,192,71880,1,0,0:0:0:0:
402,192,71880,1,0,0:0:0:0:
329,192,72130,1,0,0:0:0:0:
475,192,72130,1,0,0:0:0:0:
36,192,72130,1,0,0:0:0:0:
182,192,72130,1,0,0:0:0:0:
402,192,72380,1,0,0:0:0:0:
256,192,72380,1,0,0:0:0:0:
109,192,72380,1,0,0:0:0:0:
329,192,72630,1,0,0:0:0:0:
475,192,72630,1,0,0:0:0:0:
36,192,72630,1,0,0:0:0:0:
182,192,72630,1,0,0:0:0:0:
402,192,72880,1,0,0:0:0:0:
256,192,72880,1,0,0:0:0:0:
109,192,72880,1,0,0:0:0:0:
329,192,73130,1,0,0:0:0:0:
475,192,73130,1,0,0:0:0:0:
36,192,73130,1,0,0:0:0:0:
182,192,73130,1,0,0:0:0:0:
402,192,73380,1,0,0:0:0:0:
256,192,73380,1,0,0:0:0:0:
109,192,73380,1,0,0:0:0:0:
329,192,73630,1,0,0:0:0:0:
475,192,73630,1,0,0:0:0:0:
36,192,73630,1,0,0:0:0:0:
182,192,73630,1,0,0:0:0:0:
402,192,73880,1,0,0:0:0:0:
256,192,73880,1,0,0:0:0:0:
109,192,73880,1,0,0:0:0:0:
329,192,74130,1,0,0:0:0:0:
475,192,74130,1,0,0:0:0:0:
36,192,74130,1,0,0:0:0:0:
182,192,74130,1,0,0:0:0:0:
402,192,74380,1,0,0:0:0:0:
256,192,74380,1,0,0:0:0:0:
109,192,74380,1,0,0:0:0:0:
329,192,74630,1,0,0:0:0:0:
475,192,74630,1,0,0:0:0:0:
36,192,74630,1,0,0:0:0:0:
182,192,74630,1,0,0:0:0:0:
402,192,74880,1,0,0:0:0:0:
256,192,74880,1,0,0:0:0:0:
109,192,74880,1,0,0:0:0:0:
329,192,75130,1,0,0:0:0:0:
475,192,75130,1,0,0:0:0:0:
36,192,75130,1,0,0:0:0:0:
182,192,75130,1,0,0:0:0:0:
402,192,75380,1,0,0:0:0:0:
256,192,75380,1,0,0:0:0:0:
109,192,75380,1,0,0:0:0:0:
329,192,75630,1,0,0:0:0:0:
475,192,75630,1,0,0:0:0:0:
36,192,75630,1,0,0:0:0:0:
182,192,75630,1,0,0:0:0:0:
402,192,75880,1,0,0:0:0:0:
256,192,75880,1,0,0:0:0:0:
109,192,75880,1,0,0:0:0:0:
36,192,76130,1,0,0:0:0:0:
182,192,76130,1,0,0:0:0:0:
329,192,76130,1,0,0:0:0:0:
475,192,76130,1,0,0:0:0:0:
109,192,76380,1,0,0:0:0:0:
256,192,76380,1,0,0:0:0:0:
402,192,76380,1,0,0:0:0:0:
36,192,76630,1,0,0:0:0:0:
182,192,76630,1,0,0:0:0:0:
329,192,76630,1,0,0:0:0:0:
475,192,76630,1,0,0:0:0:0:
109,192,76880,1,0,0:0:0:0:
256,192,76880,1,0,0:0:0:0:
402,192,76880,1,0,0:0:0:0:
36,192,77130,1,0,0:0:0:0:
182,192,77130,1,0,0:0:0:0:
329,192,77130,1,0,0:0:0:0:
475,192,77130,1,0,0:0:0:0:
109,192,77380,1,0,0:0:0:0:
256,192,77380,1,0,0:0:0:0:
402,192,77380,1,0,0:0:0:0:
36,192,77630,1,0,0:0:0:0:
182,192,77630,1,0,0:0:0:0:
329,192,77630,1,0,0:0:0:0:
475,192,77630,1,0,0:0:0:0:
109,192,77880,1,0,0:0:0:0:
256,192,77880,1,0,0:0:0:0:
402,192,77880,1,0,0:0:0:0:
36,192,78130,1,0,0:0:0:0:
182,192,78130,1,0,0:0:0:0:
329,192,78130,1,0,0:0:0:0:
475,192,78130,1,0,0:0:0:0:
109,192,78380,1,0,0:0:0:0:
256,192,78380,1,0,0:0:0:0:
402,192,78380,1,0,0:0:0:0:
36,192,78630,1,0,0:0:0:0:
182,192,78630,1,0,0:0:0:0:
329,192,78630,1,0,0:0:0:0:
475,192,78630,1,0,0:0:0:0:
109,192,78880,1,0,0:0:0:0:
256,192,78880,1,0,0:0:0:0:
402,192,78880,1,0,0:0:0:0:
36,192,79130,1,0,0:0:0:0:
182,192,79130,1,0,0:0:0:0:
329,192,79130,1,0,0:0:0:0:
475,192,79130,1,0,0:0:0:0:
109,192,79380,1,0,0:0:0:0:
256,192,79380,1,0,0:0:0:0:
402,192,79380,1,0,0:0:0:0:
36,192,79630,1,0,0:0:0:0:
182,192,79630,1,0,0:0:0:0:
329,192,79630,1,0,0:0:0:0:
475,192,79630,1,0,0:0:0:0:
109,192,79880,1,0,0:0:0:0:
256,192,79880,1,0,0:0:0:0:
402,192,79880,1,0,0:0:0:0:
36,192,80130,1,0,0:0:0:0:
182,192,80130,1,0,0:0:0:0:
329,192,80130,1,0,0:0:0:0:
475,192,80130,1,0,0:0:0:0:
109,192,80630,1,0,0:0:0:0:
256,192,80630,1,0,0:0:0:0:
402,192,80630,1,0,0:0:0:0:
36,192,81130,1,0,0:0:0:0:
182,192,81130,1,0,0:0:0:0:
329,192,81130,1,0,0:0:0:0:
475,192,81130,1,0,0:0:0:0:
109,192,81630,1,0,0:0:0:0:
256,192,81630,1,0,0:0:0:0:
402,192,81630,1,0,0:0:0:0:
36,192,82130,1,0,0:0:0:0:
182,192,82130,1,0,0:0:0:0:
329,192,82130,1,0,0:0:0:0:
475,192,82130,1,0,0:0:0:0:
109,192,82630,1,0,0:0:0:0:
256,192,82630,1,0,0:0:0:0:
402,192,82630,1,0,0:0:0:0:
36,192,83130,1,0,0:0:0:0:
182,192,83130,1,0,0:0:0:0:
329,192,83130,1,0,0:0:0:0:
475,192,83130,1,0,0:0:0:0:
109,192,83630,1,0,0:0:0:0:
256,192,83630,1,0,0:0:0:0:
402,192,83630,1,0,0:0:0:0:
36,192,84130,1,0,0:0:0:0:
182,192,84130,1,0,0:0:0:0:
329,192,84130,1,0,0:0:0:0:
475,192,84130,1,0,0:0:0:0:
109,192,84630,1,0,0:0:0:0:
256,192,84630,1,0,0:0:0:0:
402,192,84630,1,0,0:0:0:0:
36,192,85130,1,0,0:0:0:0:
182,192,85130,1,0,0:0:0:0:
329,192,85130,1,0,0:0:0:0:
475,192,85130,1,0,0:0:0:0:
109,192,85630,1,0,0:0:0:0:
256,192,85630,1,0,0:0:0:0:
402,192,85630,1,0,0:0:0:0:
36,192,86130,1,0,0:0:0:0:
182,192,86130,1,0,0:0:0:0:
329,192,86130,1,0,0:0:0:0:
475,192,86130,1,0,0:0:0:0:
109,192,86630,1,0,0:0:0:0:
256,192,86630,1,0,0:0:0:0:
402,192,86630,1,0,0:0:0:0:
36,192,87130,1,0,0:0:0:0:
182,192,87130,1,0,0:0:0:0:
329,192,87130,1,0,0:0:0:0:
475,192,87130,1,0,0:0:0:0:
109,192,87630,1,0,0:0:0:0:
256,192,87630,1,0,0:0:0:0:
402,192,87630,1,0,0:0:0:0:
36,192,88130,1,0,0:0:0:0:
182,192,88130,1,0,0:0:0:0:
329,192,88130,1,0,0:0:0:0:
475,192,88130,1,0,0:0:0:0:
109,192,88630,1,0,0:0:0:0:
256,192,88630,1,0,0:0:0:0:
402,192,88630,1,0,0:0:0:0:
36,192,89130,1,0,0:0:0:0:
182,192,89130,1,0,0:0:0:0:
329,192,89130,1,0,0:0:0:0:
475,192,89130,1,0,0:0:0:0:
109,192,89630,1,0,0:0:0:0:
256,192,89630,1,0,0:0:0:0:
402,192,89630,1,0,0:0:0:0:
36,192,90130,1,0,0:0:0:0:
182,192,90130,1,0,0:0:0:0:
329,192,90130,1,0,0:0:0:0:
475,192,90130,1,0,0:0:0:0:
109,192,90630,1,0,0:0:0:0:
256,192,90630,1,0,0:0:0:0:
402,192,90630,1,0,0:0:0:0:
36,192,91130,1,0,0:0:0:0:
182,192,91130,1,0,0:0:0:0:
329,192,91130,1,0,0:0:0:0:
475,192,91130,1,0,0:0:0:0:
109,192,91630,1,0,0:0:0:0:
256,192,91630,1,0,0:0:0:0:
402,192,91630,1,0,0:0:0:0:
36,192,92130,1,0,0:0:0:0:
182,192,92130,1,0,0:0:0:0:
329,192,92130,1,0,0:0:0:0:
475,192,92130,1,0,0:0:0:0:
109,192,92630,1,0,0:0:0:0:
256,192,92630,1,0,0:0:0:0:
402,192,92630,1,0,0:0:0:0:
36,192,93130,1,0,0:0:0:0:
182,192,93130,1,0,0:0:0:0:
329,192,93130,1,0,0:0:0:0:
475,192,93130,1,0,0:0:0:0:
109,192,93630,1,0,0:0:0:0:
256,192,93630,1,0,0:0:0:0:
402,192,93630,1,0,0:0:0:0:
36,192,94130,1,0,0:0:0:0:
182,192,94130,1,0,0:0:0:0:
329,192,94130,1,0,0:0:0:0:
475,192,94130,1,0,0:0:0:0:
109,192,94630,1,0,0:0:0:0:
256,192,94630,1,0,0:0:0:0:
402,192,94630,1,0,0:0:0:0:
36,192,95130,1,0,0:0:0:0:
182,192,95130,1,0,0:0:0:0:
329,192,95130,1,0,0:0:0:0:
475,192,95130,1,0,0:0:0:0:
109,192,95630,1,0,0:0:0:0:
256,192,95630,1,0,0:0:0:0:
402,192,95630,1,0,0:0:0:0:
329,192,96130,1,0,0:0:0:0:
475,192,96130,1,0,0:0:0:0:
36,192,96130,1,0,0:0:0:0:
182,192,96130,1,0,0:0:0:0:
402,192,96380,1,0,0:0:0:0:
256,192,96380,1,0,0:0:0:0:
109,192,96380,1,0,0:0:0:0:
329,192,96630,1,0,0:0:0:0:
475,192,96630,1,0,0:0:0:0:
36,192,96630,1,0,0:0:0:0:
182,192,96630,1,0,0:0:0:0:
402,192,96880,1,0,0:0:0:0:
256,192,96880,1,0,0:0:0:0:
109,192,96880,1,0,0:0:0:0:
329,192,97130,1,0,0:0:0:0:
475,192,97130,1,0,0:0:0:0:
36,192,97130,1,0,0:0:0:0:
182,192,97130,1,0,0:0:0:0:
402,192,97380,1,0,0:0:0:0:
256,192,97380,1,0,0:0:0:0:
109,192,97380,1,0,0:0:0:0:
329,192,97630,1,0,0:0:0:0:
475,192,97630,1,0,0:0:0:0:
36,192,97630,1,0,0:0:0:0:
182,192,97630,1,0,0:0:0:0:
402,192,97880,1,0,0:0:0:0:
256,192,97880,1,0,0:0:0:0:
109,192,97880,1,0,0:0:0:0:
329,192,98130,1,0,0:0:0:0:
475,192,98130,1,0,0:0:0:0:
36,192,98130,1,0,0:0:0:0:
182,192,98130,1,0,0:0:0:0:
402,192,98380,1,0,0:0:0:0:
256,192,98380,1,0,0:0:0:0:
109,192,98380,1,0,0:0:0:0:
329,192,98630,1,0,0:0:0:0:
475,192,98630,1,0,0:0:0:0:
36,192,98630,1,0,0:0:0:0:
182,192,98630,1,0,0:0:0:0:
402,192,98880,1,0,0:0:0:0:
256,192,98880,1,0,0:0:0:0:
109,192,98880,1,0,0:0:0:0:
329,192,99130,1,0,0:0:0:0:
475,192,99130,1,0,0:0:0:0:
36,192,99130,1,0,0:0:0:0:
182,192,99130,1,0,0:0:0:0:
402,192,99380,1,0,0:0:0:0:
256,192,99380,1,0,0:0:0:0:
109,192,99380,1,0,0:0:0:0:
329,192,99630,1,0,0:0:0:0:
475,192,99630,1,0,0:0:0:0:
36,192,99630,1,0,0:0:0:0:
182,192,99630,1,0,0:0:0:0:
402,192,99880,1,0,0:0:0:0:
256,192,99880,1,0,0:0:0:0:
109,192,99880,1,0,0:0:0:0:
36,192,100130,1,0,0:0:0:0:
182,192,100130,1,0,0:0:0:0:
329,192,100130,1,0,0:0:0:0:
475,192,100130,1,0,0:0:0:0:
109,192,100380,1,0,0:0:0:0:
256,192,100380,1,0,0:0:0:0:
402,192,100380,1,0,0:0:0:0:
36,192,100630,1,0,0:0:0:0:
182,192,100630,1,0,0:0:0:0:
329,192,100630,1,0,0:0:0:0:
475,192,100630,1,0,0:0:0:0:
109,192,100880,1,0,0:0:0:0:
256,192,100880,1,0,0:0:0:0:
402,192,100880,1,0,0:0:0:0:
36,192,101130,1,0,0:0:0:0:
182,192,101130,1,0,0:0:0:0:
329,192,101130,1,0,0:0:0:0:
475,192,101130,1,0,0:0:0:0:
109,192,101380,1,0,0:0:0:0:
256,192,101380,1,0,0:0:0:0:
402,192,101380,1,0,0:0:0:0:
36,192,101630,1,0,0:0:0:0:
182,192,101630,1,0,0:0:0:0:
329,192,101630,1,0,0:0:0:0:
475,192,101630,1,0,0:0:0:0:
109,192,101880,1,0,0:0:0:0:
256,192,101880,1,0,0:0:0:0:
402,192,101880,1,0,0:0:0:0:
36,192,102130,1,0,0:0:0:0:
182,192,102130,1,0,0:0:0:0:
329,192,102130,1,0,0:0:0:0:
475,192,102130,1,0,0:0:0:0:
109,192,102380,1,0,0:0:0:0:
256,192,102380,1,0,0:0:0:0:
402,192,102380,1,0,0:0:0:0:
36,192,102630,1,0,0:0:0:0:
182,192,102630,1,0,0:0:0:0:
329,192,102630,1,0,0:0:0:0:
475,192,102630,1,0,0:0:0:0:
109,192,102880,1,0,0:0:0:0:
256,192,102880,1,0,0:0:0:0:
402,192,102880,1,0,0:0:0:0:
36,192,103130,1,0,0:0:0:0:
182,192,103130,1,0,0:0:0:0:
329,192,103130,1,0,0:0:0:0:
475,192,103130,1,0,0:0:0:0:
109,192,103380,1,0,0:0:0:0:
256,192,103380,1,0,0:0:0:0:
402,192,103380,1,0,0:0:0:0:
36,192,103630,1,0,0:0:0:0:
182,192,103630,1,0,0:0:0:0:
329,192,103630,1,0,0:0:0:0:
475,192,103630,1,0,0:0:0:0:
109,192,103880,1,0,0:0:0:0:
256,192,103880,1,0,0:0:0:0:
402,192,103880,1,0,0:0:0:0:
329,192,104130,1,0,0:0:0:0:
475,192,104130,1,0,0:0:0:0:
36,192,104130,1,0,0:0:0:0:
182,192,104130,1,0,0:0:0:0:
402,192,104380,1,0,0:0:0:0:
256,192,104380,1,0,0:0:0:0:
109,192,104380,1,0,0:0:0:0:
329,192,104630,1,0,0:0:0:0:
475,192,104630,1,0,0:0:0:0:
36,192,104630,1,0,0:0:0:0:
182,192,104630,1,0,0:0:0:0:
402,192,104880,1,0,0:0:0:0:
256,192,104880,1,0,0:0:0:0:
109,192,104880,1,0,0:0:0:0:
329,192,105130,1,0,0:0:0:0:
475,192,105130,1,0,0:0:0:0:
36,192,105130,1,0,0:0:0:0:
182,192,105130,1,0,0:0:0:0:
402,192,105380,1,0,0:0:0:0:
256,192,105380,1,0,0:0:0:0:
109,192,105380,1,0,0:0:0:0:
329,192,105630,1,0,0:0:0:0:
475,192,105630,1,0,0:0:0:0:
36,192,105630,1,0,0:0:0:0:
182,192,105630,1,0,0:0:0:0:
402,192,105880,1,0,0:0:0:0:
256,192,105880,1,0,0:0:0:0:
109,192,105880,1,0,0:0:0:0:
329,192,106130,1,0,0:0:0:0:
475,192,106130,1,0,0:0:0:0:
36,192,106130,1,0,0:0:0:0:
182,192,106130,1,0,0:0:0:0:
402,192,106380,1,0,0:0:0:0:
256,192,106380,1,0,0:0:0:0:
109,192,106380,1,0,0:0:0:0:
329,192,106630,1,0,0:0:0:0:
475,192,106630,1,0,0:0:0:0:
36,192,106630,1,0,0:0:0:0:
182,192,106630,1,0,0:0:0:0:
402,192,106880,1,0,0:0:0:0:
256,192,106880,1,0,0:0:0:0:
109,192,106880,1,0,0:0:0:0:
329,192,107130,1,0,0:0:0:0:
475,192,107130,1,0,0:0:0:0:
36,192,107130,1,0,0:0:0:0:
182,192,107130,1,0,0:0:0:0:
402,192,107380,1,0,0:0:0:0:
256,192,107380,1,0,0:0:0:0:
109,192,107380,1,0,0:0:0:0:
329,192,107630,1,0,0:0:0:0:
475,192,107630,1,0,0:0:0:0:
36,192,107630,1,0,0:0:0:0:
182,192,107630,1,0,0:0:0:0:
402,192,107880,1,0,0:0:0:0:
256,192,107880,1,0,0:0:0:0:
109,192,107880,1,0,0:0:0:0:
36,192,108130,1,0,0:0:0:0:
182,192,108130,1,0,0:0:0:0:
329,192,108130,1,0,0:0:0:0:
475,192,108130,1,0,0:0:0:0:
109,192,108380,1,0,0:0:0:0:
256,192,108380,1,0,0:0:0:0:
402,192,108380,1,0,0:0:0:0:
36,192,108630,1,0,0:0:0:0:
182,192,108630,1,0,0:0:0:0:
329,192,108630,1,0,0:0:0:0:
475,192,108630,1,0,0:0:0:0:
109,192,108880,1,0,0:0:0:0:
256,192,108880,1,0,0:0:0:0:
402,192,108880,1,0,0:0:0:0:
36,192,109130,1,0,0:0:0:0:
182,192,109130,1,0,0:0:0:0:
329,192,109130,1,0,0:0:0:0:
475,192,109130,1,0,0:0:0:0:
109,192,109380,1,0,0:0:0:0:
256,192,109380,1,0,0:0:0:0:
402,192,109380,1,0,0:0:0:0:
36,192,109630,1,0,0:0:0:0:
182,192,109630,1,0,0:0:0:0:
329,192,109630,1,0,0:0:0:0:
475,192,109630,1,0,0:0:0:0:
109,192,109880,1,0,0:0:0:0:
256,192,109880,1,0,0:0:0:0:
402,192,109880,1,0,0:0:0:0:
36,192,110130,1,0,0:0:0:0:
182,192,110130,1,0,0:0:0:0:
329,192,110130,1,0,0:0:0:0:
475,192,110130,1,0,0:0:0:0:
109,192,110380,1,0,0:0:0:0:
256,192,110380,1,0,0:0:0:0:
402,192,110380,1,0,0:0:0:0:
36,192,110630,1,0,0:0:0:0:
182,192,110630,1,0,0:0:0:0:
329,192,110630,1,0,0:0:0:0:
475,192,110630,1,0,0:0:0:0:
109,192,110880,1,0,0:0:0:0:
256,192,110880,1,0,0:0:0:0:
402,192,110880,1,0,0:0:0:0:
36,192,111130,1,0,0:0:0:0:
182,192,111130,1,0,0:0:0:0:
329,192,111130,1,0,0:0:0:0:
475,192,111130,1,0,0:0:0:0:
109,192,111380,1,0,0:0:0:0:
256,192,111380,1,0,0:0:0:0:
402,192,111380,1,0,0:0:0:0:
36,192,111630,1,0,0:0:0:0:
182,192,111630,1,0,0:0:0:0:
329,192,111630,1,0,0:0:0:0:
475,192,111630,1,0,0:0:0:0:
109,192,111880,1,0,0:0:0:0:
256,192,111880,1,0,0:0:0:0:
402,192,111880,1,0,0:0:0:0:
36,192,112130,1,0,0:0:0:0:
182,192,112130,1,0,0:0:0:0:
329,192,112130,1,0,0:0:0:0:
475,192,112130,1,0,0:0:0:0:
