osu file format v14

[General]
AudioFilename: 04 - drop pop candy.mp3
AudioLeadIn: 0
PreviewTime: 51786
Countdown: 1
SampleSet: None
StackLeniency: 0.7
Mode: 3
LetterboxInBreaks: 0
SpecialStyle: 0
WidescreenStoryboard: 1

[Editor]
DistanceSpacing: 1.4
BeatDivisor: 4
GridSize: 4
TimelineZoom: 1.3

[Metadata]
Title:Fullbracket Pack
TitleUnicode:Fullbracket Pack
Artist:Various Artists
ArtistUnicode:Various Artists
Creator:X_Devil
Version:130 bpm [Drop Pop Candy]
Source:
Tags:Fullbracket bracket 7k 10k
BeatmapID:2080532
BeatmapSetID:994817

[Difficulty]
HPDrainRate:5
CircleSize:7
OverallDifficulty:10
ApproachRate:5
SliderMultiplier:1.4
SliderTickRate:1

[Events]
//Background and Video events
0,0,"04 - drop pop candy.jpg",0,0
//Break Periods
//Storyboard Layer 0 (Background)
//Storyboard Layer 1 (Fail)
//Storyboard Layer 2 (Pass)
//Storyboard Layer 3 (Foreground)
//Storyboard Sound Samples

[TimingPoints]
94,461.538461538462,4,1,0,15,1,0

[HitObjects]
36,192,94,5,0,0:0:0:0:
182,192,94,1,0,0:0:0:0:
329,192,94,1,0,0:0:0:0:
475,192,94,1,0,0:0:0:0:
109,192,324,1,0,0:0:0:0:
256,192,324,1,0,0:0:0:0:
402,192,324,1,0,0:0:0:0:
36,192,555,1,0,0:0:0:0:
182,192,555,1,0,0:0:0:0:
329,192,555,1,0,0:0:0:0:
475,192,555,1,0,0:0:0:0:
109,192,786,1,0,0:0:0:0:
256,192,786,1,0,0:0:0:0:
402,192,786,1,0,0:0:0:0:
182,192,1017,1,0,0:0:0:0:
329,192,1017,1,0,0:0:0:0:
36,192,1017,1,0,0:0:0:0:
475,192,1017,1,0,0:0:0:0:
109,192,1247,1,0,0:0:0:0:
256,192,1247,1,0,0:0:0:0:
402,192,1247,1,0,0:0:0:0:
182,192,1478,1,0,0:0:0:0:
475,192,1478,1,0,0:0:0:0:
36,192,1478,1,0,0:0:0:0:
329,192,1478,1,0,0:0:0:0:
109,192,1709,1,0,0:0:0:0:
256,192,1709,1,0,0:0:0:0:
402,192,1709,1,0,0:0:0:0:
36,192,1940,1,0,0:0:0:0:
182,192,1940,1,0,0:0:0:0:
329,192,1940,1,0,0:0:0:0:
475,192,1940,1,0,0:0:0:0:
109,192,2170,1,0,0:0:0:0:
256,192,2170,1,0,0:0:0:0:
402,192,2170,1,0,0:0:0:0:
36,192,2401,1,0,0:0:0:0:
182,192,2401,1,0,0:0:0:0:
329,192,2401,1,0,0:0:0:0:
475,192,2401,1,0,0:0:0:0:
109,192,2632,1,0,0:0:0:0:
256,192,2632,1,0,0:0:0:0:
402,192,2632,1,0,0:0:0:0:
182,192,2863,1,0,0:0:0:0:
329,192,2863,1,0,0:0:0:0:
36,192,2863,1,0,0:0:0:0:
475,192,2863,1,0,0:0:0:0:
109,192,3094,1,0,0:0:0:0:
256,192,3094,1,0,0:0:0:0:
402,192,3094,1,0,0:0:0:0:
182,192,3324,1,0,0:0:0:0:
475,192,3324,1,0,0:0:0:0:
36,192,3324,1,0,0:0:0:0:
329,192,3324,1,0,0:0:0:0:
109,192,3555,1,0,0:0:0:0:
256,192,3555,1,0,0:0:0:0:
402,192,3555,1,0,0:0:0:0:
329,192,3786,1,0,0:0:0:0:
475,192,3786,1,0,0:0:0:0:
36,192,3786,1,0,0:0:0:0:
182,192,3786,1,0,0:0:0:0:
402,192,4017,1,0,0:0:0:0:
256,192,4017,1,0,0:0:0:0:
109,192,4017,1,0,0:0:0:0:
329,192,4247,1,0,0:0:0:0:
475,192,4247,1,0,0:0:0:0:
36,192,4247,1,0,0:0:0:0:
182,192,4247,1,0,0:0:0:0:
402,192,4478,1,0,0:0:0:0:
256,192,4478,1,0,0:0:0:0:
109,192,4478,1,0,0:0:0:0:
36,192,4709,1,0,0:0:0:0:
475,192,4709,1,0,0:0:0:0:
182,192,4709,1,0,0:0:0:0:
329,192,4709,1,0,0:0:0:0:
402,192,4940,1,0,0:0:0:0:
256,192,4940,1,0,0:0:0:0:
109,192,4940,1,0,0:0:0:0:
36,192,5170,1,0,0:0:0:0:
329,192,5170,1,0,0:0:0:0:
182,192,5170,1,0,0:0:0:0:
475,192,5170,1,0,0:0:0:0:
402,192,5401,1,0,0:0:0:0:
256,192,5401,1,0,0:0:0:0:
109,192,5401,1,0,0:0:0:0:
36,192,5632,1,0,0:0:0:0:
182,192,5632,1,0,0:0:0:0:
329,192,5632,1,0,0:0:0:0:
475,192,5632,1,0,0:0:0:0:
109,192,5863,1,0,0:0:0:0:
256,192,5863,1,0,0:0:0:0:
402,192,5863,1,0,0:0:0:0:
36,192,6093,1,0,0:0:0:0:
182,192,6093,1,0,0:0:0:0:
329,192,6093,1,0,0:0:0:0:
475,192,6093,1,0,0:0:0:0:
109,192,6324,1,0,0:0:0:0:
256,192,6324,1,0,0:0:0:0:
402,192,6324,1,0,0:0:0:0:
182,192,6555,1,0,0:0:0:0:
329,192,6555,1,0,0:0:0:0:
36,192,6555,1,0,0:0:0:0:
475,192,6555,1,0,0:0:0:0:
109,192,6786,1,0,0:0:0:0:
256,192,6786,1,0,0:0:0:0:
402,192,6786,1,0,0:0:0:0:
182,192,7017,1,0,0:0:0:0:
475,192,7017,1,0,0:0:0:0:
36,192,7017,1,0,0:0:0:0:
329,192,7017,1,0,0:0:0:0:
109,192,7247,1,0,0:0:0:0:
256,192,7247,1,0,0:0:0:0:
402,192,7247,1,0,0:0:0:0:
36,192,7478,1,0,0:0:0:0:
182,192,7478,1,0,0:0:0:0:
329,192,7478,1,0,0:0:0:0:
475,192,7478,1,0,0:0:0:0:
109,192,7594,1,0,0:0:0:0:
256,192,7594,1,0,0:0:0:0:
402,192,7594,1,0,0:0:0:0:
36,192,7709,1,0,0:0:0:0:
182,192,7709,1,0,0:0:0:0:
329,192,7709,1,0,0:0:0:0:
475,192,7709,1,0,0:0:0:0:
109,192,7824,1,0,0:0:0:0:
256,192,7824,1,0,0:0:0:0:
402,192,7824,1,0,0:0:0:0:
36,192,7940,1,0,0:0:0:0:
329,192,7940,1,0,0:0:0:0:
182,192,7940,1,0,0:0:0:0:
475,192,7940,1,0,0:0:0:0:
402,192,8055,1,0,0:0:0:0:
256,192,8055,1,0,0:0:0:0:
109,192,8055,1,0,0:0:0:0:
329,192,8170,1,0,0:0:0:0:
182,192,8170,1,0,0:0:0:0:
36,192,8170,1,0,0:0:0:0:
475,192,8170,1,0,0:0:0:0:
109,192,8286,1,0,0:0:0:0:
402,192,8286,1,0,0:0:0:0:
256,192,8286,1,0,0:0:0:0:
182,192,8401,1,0,0:0:0:0:
475,192,8401,1,0,0:0:0:0:
36,192,8401,1,0,0:0:0:0:
329,192,8401,1,0,0:0:0:0:
109,192,8517,1,0,0:0:0:0:
256,192,8517,1,0,0:0:0:0:
402,192,8517,1,0,0:0:0:0:
36,192,8632,1,0,0:0:0:0:
475,192,8632,1,0,0:0:0:0:
329,192,8632,1,0,0:0:0:0:
182,192,8632,1,0,0:0:0:0:
256,192,8747,1,0,0:0:0:0:
402,192,8747,1,0,0:0:0:0:
109,192,8747,1,0,0:0:0:0:
36,192,8863,1,0,0:0:0:0:
329,192,8863,1,0,0:0:0:0:
182,192,8863,1,0,0:0:0:0:
475,192,8863,1,0,0:0:0:0:
402,192,8978,1,0,0:0:0:0:
256,192,8978,1,0,0:0:0:0:
109,192,8978,1,0,0:0:0:0:
329,192,9094,1,0,0:0:0:0:
182,192,9094,1,0,0:0:0:0:
36,192,9094,1,0,0:0:0:0:
475,192,9094,1,0,0:0:0:0:
109,192,9209,1,0,0:0:0:0:
402,192,9209,1,0,0:0:0:0:
256,192,9209,1,0,0:0:0:0:
36,192,9324,1,0,0:0:0:0:
182,192,9324,1,0,0:0:0:0:
329,192,9324,1,0,0:0:0:0:
475,192,9324,1,0,0:0:0:0:
109,192,9440,1,0,0:0:0:0:
256,192,9440,1,0,0:0:0:0:
402,192,9440,1,0,0:0:0:0:
36,192,9555,1,0,0:0:0:0:
182,192,9555,1,0,0:0:0:0:
329,192,9555,1,0,0:0:0:0:
475,192,9555,1,0,0:0:0:0:
109,192,9670,1,0,0:0:0:0:
256,192,9670,1,0,0:0:0:0:
402,192,9670,1,0,0:0:0:0:
36,192,9786,1,0,0:0:0:0:
329,192,9786,1,0,0:0:0:0:
182,192,9786,1,0,0:0:0:0:
475,192,9786,1,0,0:0:0:0:
402,192,9901,1,0,0:0:0:0:
256,192,9901,1,0,0:0:0:0:
109,192,9901,1,0,0:0:0:0:
329,192,10017,1,0,0:0:0:0:
182,192,10017,1,0,0:0:0:0:
36,192,10017,1,0,0:0:0:0:
475,192,10017,1,0,0:0:0:0:
109,192,10132,1,0,0:0:0:0:
402,192,10132,1,0,0:0:0:0:
256,192,10132,1,0,0:0:0:0:
182,192,10247,1,0,0:0:0:0:
475,192,10247,1,0,0:0:0:0:
36,192,10247,1,0,0:0:0:0:
329,192,10247,1,0,0:0:0:0:
109,192,10363,1,0,0:0:0:0:
256,192,10363,1,0,0:0:0:0:
402,192,10363,1,0,0:0:0:0:
36,192,10478,1,0,0:0:0:0:
475,192,10478,1,0,0:0:0:0:
329,192,10478,1,0,0:0:0:0:
182,192,10478,1,0,0:0:0:0:
256,192,10594,1,0,0:0:0:0:
402,192,10594,1,0,0:0:0:0:
109,192,10594,1,0,0:0:0:0:
36,192,10709,1,0,0:0:0:0:
329,192,10709,1,0,0:0:0:0:
182,192,10709,1,0,0:0:0:0:
475,192,10709,1,0,0:0:0:0:
402,192,10824,1,0,0:0:0:0:
256,192,10824,1,0,0:0:0:0:
109,192,10824,1,0,0:0:0:0:
329,192,10940,1,0,0:0:0:0:
182,192,10940,1,0,0:0:0:0:
36,192,10940,1,0,0:0:0:0:
475,192,10940,1,0,0:0:0:0:
109,192,11055,1,0,0:0:0:0:
402,192,11055,1,0,0:0:0:0:
256,192,11055,1,0,0:0:0:0:
329,192,11170,1,0,0:0:0:0:
475,192,11170,1,0,0:0:0:0:
36,192,11170,1,0,0:0:0:0:
182,192,11170,1,0,0:0:0:0:
402,192,11286,1,0,0:0:0:0:
256,192,11286,1,0,0:0:0:0:
109,192,11286,1,0,0:0:0:0:
329,192,11401,1,0,0:0:0:0:
475,192,11401,1,0,0:0:0:0:
36,192,11401,1,0,0:0:0:0:
182,192,11401,1,0,0:0:0:0:
402,192,11517,1,0,0:0:0:0:
256,192,11517,1,0,0:0:0:0:
109,192,11517,1,0,0:0:0:0:
182,192,11632,1,0,0:0:0:0:
475,192,11632,1,0,0:0:0:0:
36,192,11632,1,0,0:0:0:0:
329,192,11632,1,0,0:0:0:0:
109,192,11747,1,0,0:0:0:0:
256,192,11747,1,0,0:0:0:0:
402,192,11747,1,0,0:0:0:0:
36,192,11863,1,0,0:0:0:0:
475,192,11863,1,0,0:0:0:0:
329,192,11863,1,0,0:0:0:0:
182,192,11863,1,0,0:0:0:0:
256,192,11978,1,0,0:0:0:0:
402,192,11978,1,0,0:0:0:0:
109,192,11978,1,0,0:0:0:0:
36,192,12094,1,0,0:0:0:0:
329,192,12094,1,0,0:0:0:0:
182,192,12094,1,0,0:0:0:0:
475,192,12094,1,0,0:0:0:0:
402,192,12209,1,0,0:0:0:0:
256,192,12209,1,0,0:0:0:0:
109,192,12209,1,0,0:0:0:0:
329,192,12324,1,0,0:0:0:0:
182,192,12324,1,0,0:0:0:0:
36,192,12324,1,0,0:0:0:0:
475,192,12324,1,0,0:0:0:0:
109,192,12440,1,0,0:0:0:0:
402,192,12440,1,0,0:0:0:0:
256,192,12440,1,0,0:0:0:0:
182,192,12555,1,0,0:0:0:0:
475,192,12555,1,0,0:0:0:0:
36,192,12555,1,0,0:0:0:0:
329,192,12555,1,0,0:0:0:0:
109,192,12670,1,0,0:0:0:0:
256,192,12670,1,0,0:0:0:0:
402,192,12670,1,0,0:0:0:0:
36,192,12786,1,0,0:0:0:0:
475,192,12786,1,0,0:0:0:0:
329,192,12786,1,0,0:0:0:0:
182,192,12786,1,0,0:0:0:0:
256,192,12901,1,0,0:0:0:0:
402,192,12901,1,0,0:0:0:0:
109,192,12901,1,0,0:0:0:0:
36,192,13017,1,0,0:0:0:0:
182,192,13017,1,0,0:0:0:0:
329,192,13017,1,0,0:0:0:0:
475,192,13017,1,0,0:0:0:0:
109,192,13132,1,0,0:0:0:0:
256,192,13132,1,0,0:0:0:0:
402,192,13132,1,0,0:0:0:0:
36,192,13247,1,0,0:0:0:0:
182,192,13247,1,0,0:0:0:0:
329,192,13247,1,0,0:0:0:0:
475,192,13247,1,0,0:0:0:0:
109,192,13363,1,0,0:0:0:0:
256,192,13363,1,0,0:0:0:0:
402,192,13363,1,0,0:0:0:0:
36,192,13478,1,0,0:0:0:0:
329,192,13478,1,0,0:0:0:0:
182,192,13478,1,0,0:0:0:0:
475,192,13478,1,0,0:0:0:0:
402,192,13594,1,0,0:0:0:0:
256,192,13594,1,0,0:0:0:0:
109,192,13594,1,0,0:0:0:0:
329,192,13709,1,0,0:0:0:0:
182,192,13709,1,0,0:0:0:0:
36,192,13709,1,0,0:0:0:0:
475,192,13709,1,0,0:0:0:0:
109,192,13824,1,0,0:0:0:0:
402,192,13824,1,0,0:0:0:0:
256,192,13824,1,0,0:0:0:0:
182,192,13940,1,0,0:0:0:0:
475,192,13940,1,0,0:0:0:0:
36,192,13940,1,0,0:0:0:0:
329,192,13940,1,0,0:0:0:0:
109,192,14055,1,0,0:0:0:0:
256,192,14055,1,0,0:0:0:0:
402,192,14055,1,0,0:0:0:0:
36,192,14170,1,0,0:0:0:0:
475,192,14170,1,0,0:0:0:0:
329,192,14170,1,0,0:0:0:0:
182,192,14170,1,0,0:0:0:0:
256,192,14286,1,0,0:0:0:0:
402,192,14286,1,0,0:0:0:0:
109,192,14286,1,0,0:0:0:0:
36,192,14401,1,0,0:0:0:0:
329,192,14401,1,0,0:0:0:0:
182,192,14401,1,0,0:0:0:0:
475,192,14401,1,0,0:0:0:0:
402,192,14517,1,0,0:0:0:0:
256,192,14517,1,0,0:0:0:0:
109,192,14517,1,0,0:0:0:0:
329,192,14632,1,0,0:0:0:0:
182,192,14632,1,0,0:0:0:0:
36,192,14632,1,0,0:0:0:0:
475,192,14632,1,0,0:0:0:0:
109,192,14747,1,0,0:0:0:0:
402,192,14747,1,0,0:0:0:0:
256,192,14747,1,0,0:0:0:0:
36,192,14863,1,0,0:0:0:0:
182,192,14863,1,0,0:0:0:0:
329,192,14863,1,0,0:0:0:0:
475,192,14863,1,0,0:0:0:0:
109,192,14978,1,0,0:0:0:0:
256,192,14978,1,0,0:0:0:0:
402,192,14978,1,0,0:0:0:0:
36,192,15094,1,0,0:0:0:0:
182,192,15094,1,0,0:0:0:0:
329,192,15094,1,0,0:0:0:0:
475,192,15094,1,0,0:0:0:0:
109,192,15209,1,0,0:0:0:0:
256,192,15209,1,0,0:0:0:0:
402,192,15209,1,0,0:0:0:0:
36,192,15324,1,0,0:0:0:0:
329,192,15324,1,0,0:0:0:0:
182,192,15324,1,0,0:0:0:0:
475,192,15324,1,0,0:0:0:0:
402,192,15440,1,0,0:0:0:0:
256,192,15440,1,0,0:0:0:0:
109,192,15440,1,0,0:0:0:0:
329,192,15555,1,0,0:0:0:0:
182,192,15555,1,0,0:0:0:0:
36,192,15555,1,0,0:0:0:0:
475,192,15555,1,0,0:0:0:0:
109,192,15670,1,0,0:0:0:0:
402,192,15670,1,0,0:0:0:0:
256,192,15670,1,0,0:0:0:0:
182,192,15786,1,0,0:0:0:0:
475,192,15786,1,0,0:0:0:0:
36,192,15786,1,0,0:0:0:0:
329,192,15786,1,0,0:0:0:0:
109,192,15901,1,0,0:0:0:0:
256,192,15901,1,0,0:0:0:0:
402,192,15901,1,0,0:0:0:0:
36,192,16017,1,0,0:0:0:0:
475,192,16017,1,0,0:0:0:0:
329,192,16017,1,0,0:0:0:0:
182,192,16017,1,0,0:0:0:0:
256,192,16132,1,0,0:0:0:0:
402,192,16132,1,0,0:0:0:0:
109,192,16132,1,0,0:0:0:0:
36,192,16247,1,0,0:0:0:0:
329,192,16247,1,0,0:0:0:0:
182,192,16247,1,0,0:0:0:0:
475,192,16247,1,0,0:0:0:0:
402,192,16363,1,0,0:0:0:0:
256,192,16363,1,0,0:0:0:0:
109,192,16363,1,0,0:0:0:0:
329,192,16478,1,0,0:0:0:0:
182,192,16478,1,0,0:0:0:0:
36,192,16478,1,0,0:0:0:0:
475,192,16478,1,0,0:0:0:0:
109,192,16594,1,0,0:0:0:0:
402,192,16594,1,0,0:0:0:0:
256,192,16594,1,0,0:0:0:0:
36,192,16709,1,0,0:0:0:0:
182,192,16709,1,0,0:0:0:0:
329,192,16709,1,0,0:0:0:0:
475,192,16709,1,0,0:0:0:0:
109,192,16824,1,0,0:0:0:0:
256,192,16824,1,0,0:0:0:0:
402,192,16824,1,0,0:0:0:0:
36,192,16940,1,0,0:0:0:0:
182,192,16940,1,0,0:0:0:0:
329,192,16940,1,0,0:0:0:0:
475,192,16940,1,0,0:0:0:0:
109,192,17055,1,0,0:0:0:0:
256,192,17055,1,0,0:0:0:0:
402,192,17055,1,0,0:0:0:0:
36,192,17170,1,0,0:0:0:0:
329,192,17170,1,0,0:0:0:0:
182,192,17170,1,0,0:0:0:0:
475,192,17170,1,0,0:0:0:0:
402,192,17286,1,0,0:0:0:0:
256,192,17286,1,0,0:0:0:0:
109,192,17286,1,0,0:0:0:0:
329,192,17401,1,0,0:0:0:0:
182,192,17401,1,0,0:0:0:0:
36,192,17401,1,0,0:0:0:0:
475,192,17401,1,0,0:0:0:0:
109,192,17517,1,0,0:0:0:0:
402,192,17517,1,0,0:0:0:0:
256,192,17517,1,0,0:0:0:0:
182,192,17632,1,0,0:0:0:0:
475,192,17632,1,0,0:0:0:0:
36,192,17632,1,0,0:0:0:0:
329,192,17632,1,0,0:0:0:0:
109,192,17747,1,0,0:0:0:0:
256,192,17747,1,0,0:0:0:0:
402,192,17747,1,0,0:0:0:0:
36,192,17863,1,0,0:0:0:0:
475,192,17863,1,0,0:0:0:0:
329,192,17863,1,0,0:0:0:0:
182,192,17863,1,0,0:0:0:0:
256,192,17978,1,0,0:0:0:0:
402,192,17978,1,0,0:0:0:0:
109,192,17978,1,0,0:0:0:0:
36,192,18094,1,0,0:0:0:0:
329,192,18094,1,0,0:0:0:0:
182,192,18094,1,0,0:0:0:0:
475,192,18094,1,0,0:0:0:0:
402,192,18209,1,0,0:0:0:0:
256,192,18209,1,0,0:0:0:0:
109,192,18209,1,0,0:0:0:0:
329,192,18324,1,0,0:0:0:0:
182,192,18324,1,0,0:0:0:0:
36,192,18324,1,0,0:0:0:0:
475,192,18324,1,0,0:0:0:0:
109,192,18440,1,0,0:0:0:0:
402,192,18440,1,0,0:0:0:0:
256,192,18440,1,0,0:0:0:0:
329,192,18555,1,0,0:0:0:0:
475,192,18555,1,0,0:0:0:0:
36,192,18555,1,0,0:0:0:0:
182,192,18555,1,0,0:0:0:0:
402,192,18670,1,0,0:0:0:0:
256,192,18670,1,0,0:0:0:0:
109,192,18670,1,0,0:0:0:0:
329,192,18786,1,0,0:0:0:0:
475,192,18786,1,0,0:0:0:0:
36,192,18786,1,0,0:0:0:0:
182,192,18786,1,0,0:0:0:0:
402,192,18901,1,0,0:0:0:0:
256,192,18901,1,0,0:0:0:0:
109,192,18901,1,0,0:0:0:0:
182,192,19017,1,0,0:0:0:0:
475,192,19017,1,0,0:0:0:0:
36,192,19017,1,0,0:0:0:0:
329,192,19017,1,0,0:0:0:0:
109,192,19132,1,0,0:0:0:0:
256,192,19132,1,0,0:0:0:0:
402,192,19132,1,0,0:0:0:0:
36,192,19247,1,0,0:0:0:0:
475,192,19247,1,0,0:0:0:0:
329,192,19247,1,0,0:0:0:0:
182,192,19247,1,0,0:0:0:0:
256,192,19363,1,0,0:0:0:0:
402,192,19363,1,0,0:0:0:0:
109,192,19363,1,0,0:0:0:0:
36,192,19478,1,0,0:0:0:0:
329,192,19478,1,0,0:0:0:0:
182,192,19478,1,0,0:0:0:0:
475,192,19478,1,0,0:0:0:0:
402,192,19594,1,0,0:0:0:0:
256,192,19594,1,0,0:0:0:0:
109,192,19594,1,0,0:0:0:0:
329,192,19709,1,0,0:0:0:0:
182,192,19709,1,0,0:0:0:0:
36,192,19709,1,0,0:0:0:0:
475,192,19709,1,0,0:0:0:0:
109,192,19824,1,0,0:0:0:0:
402,192,19824,1,0,0:0:0:0:
256,192,19824,1,0,0:0:0:0:
182,192,19940,1,0,0:0:0:0:
475,192,19940,1,0,0:0:0:0:
36,192,19940,1,0,0:0:0:0:
329,192,19940,1,0,0:0:0:0:
109,192,20055,1,0,0:0:0:0:
256,192,20055,1,0,0:0:0:0:
402,192,20055,1,0,0:0:0:0:
36,192,20170,1,0,0:0:0:0:
475,192,20170,1,0,0:0:0:0:
329,192,20170,1,0,0:0:0:0:
182,192,20170,1,0,0:0:0:0:
256,192,20286,1,0,0:0:0:0:
402,192,20286,1,0,0:0:0:0:
109,192,20286,1,0,0:0:0:0:
36,192,20401,1,0,0:0:0:0:
182,192,20401,1,0,0:0:0:0:
329,192,20401,1,0,0:0:0:0:
475,192,20401,1,0,0:0:0:0:
109,192,20517,1,0,0:0:0:0:
256,192,20517,1,0,0:0:0:0:
402,192,20517,1,0,0:0:0:0:
36,192,20632,1,0,0:0:0:0:
182,192,20632,1,0,0:0:0:0:
329,192,20632,1,0,0:0:0:0:
475,192,20632,1,0,0:0:0:0:
109,192,20747,1,0,0:0:0:0:
256,192,20747,1,0,0:0:0:0:
402,192,20747,1,0,0:0:0:0:
36,192,20863,1,0,0:0:0:0:
329,192,20863,1,0,0:0:0:0:
182,192,20863,1,0,0:0:0:0:
475,192,20863,1,0,0:0:0:0:
402,192,20978,1,0,0:0:0:0:
256,192,20978,1,0,0:0:0:0:
109,192,20978,1,0,0:0:0:0:
329,192,21094,1,0,0:0:0:0:
182,192,21094,1,0,0:0:0:0:
36,192,21094,1,0,0:0:0:0:
475,192,21094,1,0,0:0:0:0:
109,192,21209,1,0,0:0:0:0:
402,192,21209,1,0,0:0:0:0:
256,192,21209,1,0,0:0:0:0:
182,192,21324,1,0,0:0:0:0:
475,192,21324,1,0,0:0:0:0:
36,192,21324,1,0,0:0:0:0:
329,192,21324,1,0,0:0:0:0:
109,192,21440,1,0,0:0:0:0:
256,192,21440,1,0,0:0:0:0:
402,192,21440,1,0,0:0:0:0:
36,192,21555,1,0,0:0:0:0:
475,192,21555,1,0,0:0:0:0:
329,192,21555,1,0,0:0:0:0:
182,192,21555,1,0,0:0:0:0:
256,192,21670,1,0,0:0:0:0:
402,192,21670,1,0,0:0:0:0:
109,192,21670,1,0,0:0:0:0:
36,192,21786,1,0,0:0:0:0:
329,192,21786,1,0,0:0:0:0:
182,192,21786,1,0,0:0:0:0:
475,192,21786,1,0,0:0:0:0:
402,192,21901,1,0,0:0:0:0:
256,192,21901,1,0,0:0:0:0:
109,192,21901,1,0,0:0:0:0:
329,192,22017,1,0,0:0:0:0:
182,192,22017,1,0,0:0:0:0:
36,192,22017,1,0,0:0:0:0:
475,192,22017,1,0,0:0:0:0:
109,192,22132,1,0,0:0:0:0:
402,192,22132,1,0,0:0:0:0:
256,192,22132,1,0,0:0:0:0:
36,192,22247,1,0,0:0:0:0:
182,192,22247,1,0,0:0:0:0:
329,192,22247,1,0,0:0:0:0:
475,192,22247,1,0,0:0:0:0:
109,192,22363,1,0,0:0:0:0:
256,192,22363,1,0,0:0:0:0:
402,192,22363,1,0,0:0:0:0:
36,192,22478,1,0,0:0:0:0:
182,192,22478,1,0,0:0:0:0:
329,192,22478,1,0,0:0:0:0:
475,192,22478,1,0,0:0:0:0:
109,192,22594,1,0,0:0:0:0:
256,192,22594,1,0,0:0:0:0:
402,192,22594,1,0,0:0:0:0:
36,192,22709,1,0,0:0:0:0:
329,192,22709,1,0,0:0:0:0:
182,192,22709,1,0,0:0:0:0:
475,192,22709,1,0,0:0:0:0:
402,192,22824,1,0,0:0:0:0:
256,192,22824,1,0,0:0:0:0:
109,192,22824,1,0,0:0:0:0:
329,192,22940,1,0,0:0:0:0:
182,192,22940,1,0,0:0:0:0:
36,192,22940,1,0,0:0:0:0:
475,192,22940,1,0,0:0:0:0:
109,192,23055,1,0,0:0:0:0:
402,192,23055,1,0,0:0:0:0:
256,192,23055,1,0,0:0:0:0:
182,192,23170,1,0,0:0:0:0:
475,192,23170,1,0,0:0:0:0:
36,192,23170,1,0,0:0:0:0:
329,192,23170,1,0,0:0:0:0:
109,192,23286,1,0,0:0:0:0:
256,192,23286,1,0,0:0:0:0:
402,192,23286,1,0,0:0:0:0:
36,192,23401,1,0,0:0:0:0:
475,192,23401,1,0,0:0:0:0:
329,192,23401,1,0,0:0:0:0:
182,192,23401,1,0,0:0:0:0:
256,192,23517,1,0,0:0:0:0:
402,192,23517,1,0,0:0:0:0:
109,192,23517,1,0,0:0:0:0:
36,192,23632,1,0,0:0:0:0:
329,192,23632,1,0,0:0:0:0:
182,192,23632,1,0,0:0:0:0:
475,192,23632,1,0,0:0:0:0:
402,192,23747,1,0,0:0:0:0:
256,192,23747,1,0,0:0:0:0:
109,192,23747,1,0,0:0:0:0:
329,192,23863,1,0,0:0:0:0:
182,192,23863,1,0,0:0:0:0:
36,192,23863,1,0,0:0:0:0:
475,192,23863,1,0,0:0:0:0:
109,192,23978,1,0,0:0:0:0:
402,192,23978,1,0,0:0:0:0:
256,192,23978,1,0,0:0:0:0:
36,192,24094,1,0,0:0:0:0:
182,192,24094,1,0,0:0:0:0:
329,192,24094,1,0,0:0:0:0:
475,192,24094,1,0,0:0:0:0:
109,192,24209,1,0,0:0:0:0:
256,192,24209,1,0,0:0:0:0:
402,192,24209,1,0,0:0:0:0:
36,192,24324,1,0,0:0:0:0:
182,192,24324,1,0,0:0:0:0:
329,192,24324,1,0,0:0:0:0:
475,192,24324,1,0,0:0:0:0:
109,192,24440,1,0,0:0:0:0:
256,192,24440,1,0,0:0:0:0:
402,192,24440,1,0,0:0:0:0:
36,192,24555,1,0,0:0:0:0:
329,192,24555,1,0,0:0:0:0:
182,192,24555,1,0,0:0:0:0:
475,192,24555,1,0,0:0:0:0:
402,192,24670,1,0,0:0:0:0:
256,192,24670,1,0,0:0:0:0:
109,192,24670,1,0,0:0:0:0:
329,192,24786,1,0,0:0:0:0:
182,192,24786,1,0,0:0:0:0:
36,192,24786,1,0,0:0:0:0:
475,192,24786,1,0,0:0:0:0:
109,192,24901,1,0,0:0:0:0:
402,192,24901,1,0,0:0:0:0:
256,192,24901,1,0,0:0:0:0:
182,192,25017,1,0,0:0:0:0:
475,192,25017,1,0,0:0:0:0:
36,192,25017,1,0,0:0:0:0:
329,192,25017,1,0,0:0:0:0:
109,192,25132,1,0,0:0:0:0:
256,192,25132,1,0,0:0:0:0:
402,192,25132,1,0,0:0:0:0:
36,192,25247,1,0,0:0:0:0:
475,192,25247,1,0,0:0:0:0:
329,192,25247,1,0,0:0:0:0:
182,192,25247,1,0,0:0:0:0:
256,192,25363,1,0,0:0:0:0:
402,192,25363,1,0,0:0:0:0:
109,192,25363,1,0,0:0:0:0:
36,192,25478,1,0,0:0:0:0:
329,192,25478,1,0,0:0:0:0:
182,192,25478,1,0,0:0:0:0:
475,192,25478,1,0,0:0:0:0:
402,192,25594,1,0,0:0:0:0:
256,192,25594,1,0,0:0:0:0:
109,192,25594,1,0,0:0:0:0:
329,192,25709,1,0,0:0:0:0:
182,192,25709,1,0,0:0:0:0:
36,192,25709,1,0,0:0:0:0:
475,192,25709,1,0,0:0:0:0:
109,192,25824,1,0,0:0:0:0:
402,192,25824,1,0,0:0:0:0:
256,192,25824,1,0,0:0:0:0:
329,192,25940,1,0,0:0:0:0:
475,192,25940,1,0,0:0:0:0:
36,192,25940,1,0,0:0:0:0:
182,192,25940,1,0,0:0:0:0:
402,192,26055,1,0,0:0:0:0:
256,192,26055,1,0,0:0:0:0:
109,192,26055,1,0,0:0:0:0:
329,192,26170,1,0,0:0:0:0:
475,192,26170,1,0,0:0:0:0:
36,192,26170,1,0,0:0:0:0:
182,192,26170,1,0,0:0:0:0:
402,192,26286,1,0,0:0:0:0:
256,192,26286,1,0,0:0:0:0:
109,192,26286,1,0,0:0:0:0:
182,192,26401,1,0,0:0:0:0:
475,192,26401,1,0,0:0:0:0:
36,192,26401,1,0,0:0:0:0:
329,192,26401,1,0,0:0:0:0:
109,192,26517,1,0,0:0:0:0:
256,192,26517,1,0,0:0:0:0:
402,192,26517,1,0,0:0:0:0:
36,192,26632,1,0,0:0:0:0:
475,192,26632,1,0,0:0:0:0:
329,192,26632,1,0,0:0:0:0:
182,192,26632,1,0,0:0:0:0:
256,192,26747,1,0,0:0:0:0:
402,192,26747,1,0,0:0:0:0:
109,192,26747,1,0,0:0:0:0:
36,192,26863,1,0,0:0:0:0:
329,192,26863,1,0,0:0:0:0:
182,192,26863,1,0,0:0:0:0:
475,192,26863,1,0,0:0:0:0:
402,192,26978,1,0,0:0:0:0:
256,192,26978,1,0,0:0:0:0:
109,192,26978,1,0,0:0:0:0:
329,192,27094,1,0,0:0:0:0:
182,192,27094,1,0,0:0:0:0:
36,192,27094,1,0,0:0:0:0:
475,192,27094,1,0,0:0:0:0:
109,192,27209,1,0,0:0:0:0:
402,192,27209,1,0,0:0:0:0:
256,192,27209,1,0,0:0:0:0:
182,192,27324,1,0,0:0:0:0:
475,192,27324,1,0,0:0:0:0:
36,192,27324,1,0,0:0:0:0:
329,192,27324,1,0,0:0:0:0:
109,192,27440,1,0,0:0:0:0:
256,192,27440,1,0,0:0:0:0:
402,192,27440,1,0,0:0:0:0:
36,192,27555,1,0,0:0:0:0:
475,192,27555,1,0,0:0:0:0:
329,192,27555,1,0,0:0:0:0:
182,192,27555,1,0,0:0:0:0:
256,192,27670,1,0,0:0:0:0:
402,192,27670,1,0,0:0:0:0:
109,192,27670,1,0,0:0:0:0:
36,192,27786,1,0,0:0:0:0:
182,192,27786,1,0,0:0:0:0:
329,192,27786,1,0,0:0:0:0:
475,192,27786,1,0,0:0:0:0:
109,192,27901,1,0,0:0:0:0:
256,192,27901,1,0,0:0:0:0:
402,192,27901,1,0,0:0:0:0:
36,192,28017,1,0,0:0:0:0:
182,192,28017,1,0,0:0:0:0:
329,192,28017,1,0,0:0:0:0:
475,192,28017,1,0,0:0:0:0:
109,192,28132,1,0,0:0:0:0:
256,192,28132,1,0,0:0:0:0:
402,192,28132,1,0,0:0:0:0:
36,192,28247,1,0,0:0:0:0:
329,192,28247,1,0,0:0:0:0:
182,192,28247,1,0,0:0:0:0:
475,192,28247,1,0,0:0:0:0:
402,192,28363,1,0,0:0:0:0:
256,192,28363,1,0,0:0:0:0:
109,192,28363,1,0,0:0:0:0:
329,192,28478,1,0,0:0:0:0:
182,192,28478,1,0,0:0:0:0:
36,192,28478,1,0,0:0:0:0:
475,192,28478,1,0,0:0:0:0:
109,192,28594,1,0,0:0:0:0:
402,192,28594,1,0,0:0:0:0:
256,192,28594,1,0,0:0:0:0:
182,192,28709,1,0,0:0:0:0:
475,192,28709,1,0,0:0:0:0:
36,192,28709,1,0,0:0:0:0:
329,192,28709,1,0,0:0:0:0:
109,192,28824,1,0,0:0:0:0:
256,192,28824,1,0,0:0:0:0:
402,192,28824,1,0,0:0:0:0:
36,192,28940,1,0,0:0:0:0:
475,192,28940,1,0,0:0:0:0:
329,192,28940,1,0,0:0:0:0:
182,192,28940,1,0,0:0:0:0:
256,192,29055,1,0,0:0:0:0:
402,192,29055,1,0,0:0:0:0:
109,192,29055,1,0,0:0:0:0:
36,192,29170,1,0,0:0:0:0:
329,192,29170,1,0,0:0:0:0:
182,192,29170,1,0,0:0:0:0:
475,192,29170,1,0,0:0:0:0:
402,192,29286,1,0,0:0:0:0:
256,192,29286,1,0,0:0:0:0:
109,192,29286,1,0,0:0:0:0:
329,192,29401,1,0,0:0:0:0:
182,192,29401,1,0,0:0:0:0:
36,192,29401,1,0,0:0:0:0:
475,192,29401,1,0,0:0:0:0:
109,192,29517,1,0,0:0:0:0:
402,192,29517,1,0,0:0:0:0:
256,192,29517,1,0,0:0:0:0:
36,192,29632,1,0,0:0:0:0:
182,192,29632,1,0,0:0:0:0:
329,192,29632,1,0,0:0:0:0:
475,192,29632,1,0,0:0:0:0:
109,192,29747,1,0,0:0:0:0:
256,192,29747,1,0,0:0:0:0:
402,192,29747,1,0,0:0:0:0:
36,192,29863,1,0,0:0:0:0:
182,192,29863,1,0,0:0:0:0:
329,192,29863,1,0,0:0:0:0:
475,192,29863,1,0,0:0:0:0:
109,192,29978,1,0,0:0:0:0:
256,192,29978,1,0,0:0:0:0:
402,192,29978,1,0,0:0:0:0:
36,192,30094,1,0,0:0:0:0:
329,192,30094,1,0,0:0:0:0:
182,192,30094,1,0,0:0:0:0:
475,192,30094,1,0,0:0:0:0:
402,192,30209,1,0,0:0:0:0:
256,192,30209,1,0,0:0:0:0:
109,192,30209,1,0,0:0:0:0:
329,192,30324,1,0,0:0:0:0:
182,192,30324,1,0,0:0:0:0:
36,192,30324,1,0,0:0:0:0:
475,192,30324,1,0,0:0:0:0:
109,192,30440,1,0,0:0:0:0:
402,192,30440,1,0,0:0:0:0:
256,192,30440,1,0,0:0:0:0:
182,192,30555,1,0,0:0:0:0:
475,192,30555,1,0,0:0:0:0:
36,192,30555,1,0,0:0:0:0:
329,192,30555,1,0,0:0:0:0:
109,192,30670,1,0,0:0:0:0:
256,192,30670,1,0,0:0:0:0:
402,192,30670,1,0,0:0:0:0:
36,192,30786,1,0,0:0:0:0:
475,192,30786,1,0,0:0:0:0:
329,192,30786,1,0,0:0:0:0:
182,192,30786,1,0,0:0:0:0:
256,192,30901,1,0,0:0:0:0:
402,192,30901,1,0,0:0:0:0:
109,192,30901,1,0,0:0:0:0:
36,192,31017,1,0,0:0:0:0:
329,192,31017,1,0,0:0:0:0:
182,192,31017,1,0,0:0:0:0:
475,192,31017,1,0,0:0:0:0:
402,192,31132,1,0,0:0:0:0:
256,192,31132,1,0,0:0:0:0:
109,192,31132,1,0,0:0:0:0:
329,192,31247,1,0,0:0:0:0:
182,192,31247,1,0,0:0:0:0:
36,192,31247,1,0,0:0:0:0:
475,192,31247,1,0,0:0:0:0:
109,192,31363,1,0,0:0:0:0:
402,192,31363,1,0,0:0:0:0:
256,192,31363,1,0,0:0:0:0:
36,192,31478,1,0,0:0:0:0:
182,192,31478,1,0,0:0:0:0:
329,192,31478,1,0,0:0:0:0:
475,192,31478,1,0,0:0:0:0:
109,192,31594,1,0,0:0:0:0:
256,192,31594,1,0,0:0:0:0:
402,192,31594,1,0,0:0:0:0:
36,192,31709,1,0,0:0:0:0:
182,192,31709,1,0,0:0:0:0:
329,192,31709,1,0,0:0:0:0:
475,192,31709,1,0,0:0:0:0:
109,192,31824,1,0,0:0:0:0:
256,192,31824,1,0,0:0:0:0:
402,192,31824,1,0,0:0:0:0:
36,192,31940,1,0,0:0:0:0:
329,192,31940,1,0,0:0:0:0:
182,192,31940,1,0,0:0:0:0:
475,192,31940,1,0,0:0:0:0:
402,192,32055,1,0,0:0:0:0:
256,192,32055,1,0,0:0:0:0:
109,192,32055,1,0,0:0:0:0:
329,192,32170,1,0,0:0:0:0:
182,192,32170,1,0,0:0:0:0:
36,192,32170,1,0,0:0:0:0:
475,192,32170,1,0,0:0:0:0:
109,192,32286,1,0,0:0:0:0:
402,192,32286,1,0,0:0:0:0:
256,192,32286,1,0,0:0:0:0:
182,192,32401,1,0,0:0:0:0:
475,192,32401,1,0,0:0:0:0:
36,192,32401,1,0,0:0:0:0:
329,192,32401,1,0,0:0:0:0:
109,192,32517,1,0,0:0:0:0:
256,192,32517,1,0,0:0:0:0:
402,192,32517,1,0,0:0:0:0:
36,192,32632,1,0,0:0:0:0:
475,192,32632,1,0,0:0:0:0:
329,192,32632,1,0,0:0:0:0:
182,192,32632,1,0,0:0:0:0:
256,192,32747,1,0,0:0:0:0:
402,192,32747,1,0,0:0:0:0:
109,192,32747,1,0,0:0:0:0:
36,192,32863,1,0,0:0:0:0:
329,192,32863,1,0,0:0:0:0:
182,192,32863,1,0,0:0:0:0:
475,192,32863,1,0,0:0:0:0:
402,192,32978,1,0,0:0:0:0:
256,192,32978,1,0,0:0:0:0:
109,192,32978,1,0,0:0:0:0:
329,192,33094,1,0,0:0:0:0:
182,192,33094,1,0,0:0:0:0:
36,192,33094,1,0,0:0:0:0:
475,192,33094,1,0,0:0:0:0:
109,192,33209,1,0,0:0:0:0:
402,192,33209,1,0,0:0:0:0:
256,192,33209,1,0,0:0:0:0:
329,192,33324,1,0,0:0:0:0:
475,192,33324,1,0,0:0:0:0:
36,192,33324,1,0,0:0:0:0:
182,192,33324,1,0,0:0:0:0:
402,192,33440,1,0,0:0:0:0:
256,192,33440,1,0,0:0:0:0:
109,192,33440,1,0,0:0:0:0:
329,192,33555,1,0,0:0:0:0:
475,192,33555,1,0,0:0:0:0:
36,192,33555,1,0,0:0:0:0:
182,192,33555,1,0,0:0:0:0:
402,192,33670,1,0,0:0:0:0:
256,192,33670,1,0,0:0:0:0:
109,192,33670,1,0,0:0:0:0:
182,192,33786,1,0,0:0:0:0:
475,192,33786,1,0,0:0:0:0:
36,192,33786,1,0,0:0:0:0:
329,192,33786,1,0,0:0:0:0:
109,192,33901,1,0,0:0:0:0:
256,192,33901,1,0,0:0:0:0:
402,192,33901,1,0,0:0:0:0:
36,192,34017,1,0,0:0:0:0:
475,192,34017,1,0,0:0:0:0:
329,192,34017,1,0,0:0:0:0:
182,192,34017,1,0,0:0:0:0:
256,192,34132,1,0,0:0:0:0:
402,192,34132,1,0,0:0:0:0:
109,192,34132,1,0,0:0:0:0:
36,192,34247,1,0,0:0:0:0:
329,192,34247,1,0,0:0:0:0:
182,192,34247,1,0,0:0:0:0:
475,192,34247,1,0,0:0:0:0:
402,192,34363,1,0,0:0:0:0:
256,192,34363,1,0,0:0:0:0:
109,192,34363,1,0,0:0:0:0:
329,192,34478,1,0,0:0:0:0:
182,192,34478,1,0,0:0:0:0:
36,192,34478,1,0,0:0:0:0:
475,192,34478,1,0,0:0:0:0:
109,192,34594,1,0,0:0:0:0:
402,192,34594,1,0,0:0:0:0:
256,192,34594,1,0,0:0:0:0:
182,192,34709,1,0,0:0:0:0:
475,192,34709,1,0,0:0:0:0:
36,192,34709,1,0,0:0:0:0:
329,192,34709,1,0,0:0:0:0:
109,192,34824,1,0,0:0:0:0:
256,192,34824,1,0,0:0:0:0:
402,192,34824,1,0,0:0:0:0:
36,192,34940,1,0,0:0:0:0:
475,192,34940,1,0,0:0:0:0:
329,192,34940,1,0,0:0:0:0:
182,192,34940,1,0,0:0:0:0:
256,192,35055,1,0,0:0:0:0:
402,192,35055,1,0,0:0:0:0:
109,192,35055,1,0,0:0:0:0:
36,192,35170,1,0,0:0:0:0:
182,192,35170,1,0,0:0:0:0:
329,192,35170,1,0,0:0:0:0:
475,192,35170,1,0,0:0:0:0:
109,192,35286,1,0,0:0:0:0:
256,192,35286,1,0,0:0:0:0:
402,192,35286,1,0,0:0:0:0:
36,192,35401,1,0,0:0:0:0:
182,192,35401,1,0,0:0:0:0:
329,192,35401,1,0,0:0:0:0:
475,192,35401,1,0,0:0:0:0:
109,192,35517,1,0,0:0:0:0:
256,192,35517,1,0,0:0:0:0:
402,192,35517,1,0,0:0:0:0:
36,192,35632,1,0,0:0:0:0:
329,192,35632,1,0,0:0:0:0:
182,192,35632,1,0,0:0:0:0:
475,192,35632,1,0,0:0:0:0:
402,192,35747,1,0,0:0:0:0:
256,192,35747,1,0,0:0:0:0:
109,192,35747,1,0,0:0:0:0:
329,192,35863,1,0,0:0:0:0:
182,192,35863,1,0,0:0:0:0:
36,192,35863,1,0,0:0:0:0:
475,192,35863,1,0,0:0:0:0:
109,192,35978,1,0,0:0:0:0:
402,192,35978,1,0,0:0:0:0:
256,192,35978,1,0,0:0:0:0:
182,192,36094,1,0,0:0:0:0:
475,192,36094,1,0,0:0:0:0:
36,192,36094,1,0,0:0:0:0:
329,192,36094,1,0,0:0:0:0:
109,192,36209,1,0,0:0:0:0:
256,192,36209,1,0,0:0:0:0:
402,192,36209,1,0,0:0:0:0:
36,192,36324,1,0,0:0:0:0:
475,192,36324,1,0,0:0:0:0:
329,192,36324,1,0,0:0:0:0:
182,192,36324,1,0,0:0:0:0:
256,192,36440,1,0,0:0:0:0:
402,192,36440,1,0,0:0:0:0:
109,192,36440,1,0,0:0:0:0:
36,192,36555,1,0,0:0:0:0:
329,192,36555,1,0,0:0:0:0:
182,192,36555,1,0,0:0:0:0:
475,192,36555,1,0,0:0:0:0:
402,192,36670,1,0,0:0:0:0:
256,192,36670,1,0,0:0:0:0:
109,192,36670,1,0,0:0:0:0:
329,192,36786,1,0,0:0:0:0:
182,192,36786,1,0,0:0:0:0:
36,192,36786,1,0,0:0:0:0:
475,192,36786,1,0,0:0:0:0:
109,192,36901,1,0,0:0:0:0:
402,192,36901,1,0,0:0:0:0:
256,192,36901,1,0,0:0:0:0:
329,192,37017,1,0,0:0:0:0:
475,192,37017,1,0,0:0:0:0:
36,192,37017,1,0,0:0:0:0:
182,192,37017,1,0,0:0:0:0:
402,192,37132,1,0,0:0:0:0:
256,192,37132,1,0,0:0:0:0:
109,192,37132,1,0,0:0:0:0:
329,192,37247,1,0,0:0:0:0:
475,192,37247,1,0,0:0:0:0:
36,192,37247,1,0,0:0:0:0:
182,192,37247,1,0,0:0:0:0:
402,192,37363,1,0,0:0:0:0:
256,192,37363,1,0,0:0:0:0:
109,192,37363,1,0,0:0:0:0:
182,192,37478,1,0,0:0:0:0:
475,192,37478,1,0,0:0:0:0:
36,192,37478,1,0,0:0:0:0:
329,192,37478,1,0,0:0:0:0:
109,192,37594,1,0,0:0:0:0:
256,192,37594,1,0,0:0:0:0:
402,192,37594,1,0,0:0:0:0:
36,192,37709,1,0,0:0:0:0:
475,192,37709,1,0,0:0:0:0:
329,192,37709,1,0,0:0:0:0:
182,192,37709,1,0,0:0:0:0:
256,192,37824,1,0,0:0:0:0:
402,192,37824,1,0,0:0:0:0:
109,192,37824,1,0,0:0:0:0:
36,192,37940,1,0,0:0:0:0:
329,192,37940,1,0,0:0:0:0:
182,192,37940,1,0,0:0:0:0:
475,192,37940,1,0,0:0:0:0:
402,192,38055,1,0,0:0:0:0:
256,192,38055,1,0,0:0:0:0:
109,192,38055,1,0,0:0:0:0:
329,192,38170,1,0,0:0:0:0:
182,192,38170,1,0,0:0:0:0:
36,192,38170,1,0,0:0:0:0:
475,192,38170,1,0,0:0:0:0:
109,192,38286,1,0,0:0:0:0:
402,192,38286,1,0,0:0:0:0:
256,192,38286,1,0,0:0:0:0:
182,192,38401,1,0,0:0:0:0:
475,192,38401,1,0,0:0:0:0:
36,192,38401,1,0,0:0:0:0:
329,192,38401,1,0,0:0:0:0:
109,192,38517,1,0,0:0:0:0:
256,192,38517,1,0,0:0:0:0:
402,192,38517,1,0,0:0:0:0:
36,192,38632,1,0,0:0:0:0:
475,192,38632,1,0,0:0:0:0:
329,192,38632,1,0,0:0:0:0:
182,192,38632,1,0,0:0:0:0:
256,192,38747,1,0,0:0:0:0:
402,192,38747,1,0,0:0:0:0:
109,192,38747,1,0,0:0:0:0:
329,192,38863,1,0,0:0:0:0:
475,192,38863,1,0,0:0:0:0:
36,192,38863,1,0,0:0:0:0:
182,192,38863,1,0,0:0:0:0:
402,192,38978,1,0,0:0:0:0:
256,192,38978,1,0,0:0:0:0:
109,192,38978,1,0,0:0:0:0:
329,192,39094,1,0,0:0:0:0:
475,192,39094,1,0,0:0:0:0:
36,192,39094,1,0,0:0:0:0:
182,192,39094,1,0,0:0:0:0:
402,192,39209,1,0,0:0:0:0:
256,192,39209,1,0,0:0:0:0:
109,192,39209,1,0,0:0:0:0:
182,192,39324,1,0,0:0:0:0:
475,192,39324,1,0,0:0:0:0:
36,192,39324,1,0,0:0:0:0:
329,192,39324,1,0,0:0:0:0:
109,192,39440,1,0,0:0:0:0:
256,192,39440,1,0,0:0:0:0:
402,192,39440,1,0,0:0:0:0:
36,192,39555,1,0,0:0:0:0:
475,192,39555,1,0,0:0:0:0:
329,192,39555,1,0,0:0:0:0:
182,192,39555,1,0,0:0:0:0:
256,192,39670,1,0,0:0:0:0:
402,192,39670,1,0,0:0:0:0:
109,192,39670,1,0,0:0:0:0:
36,192,39786,1,0,0:0:0:0:
329,192,39786,1,0,0:0:0:0:
182,192,39786,1,0,0:0:0:0:
475,192,39786,1,0,0:0:0:0:
402,192,39901,1,0,0:0:0:0:
256,192,39901,1,0,0:0:0:0:
109,192,39901,1,0,0:0:0:0:
329,192,40017,1,0,0:0:0:0:
182,192,40017,1,0,0:0:0:0:
36,192,40017,1,0,0:0:0:0:
475,192,40017,1,0,0:0:0:0:
109,192,40132,1,0,0:0:0:0:
402,192,40132,1,0,0:0:0:0:
256,192,40132,1,0,0:0:0:0:
182,192,40247,1,0,0:0:0:0:
475,192,40247,1,0,0:0:0:0:
36,192,40247,1,0,0:0:0:0:
329,192,40247,1,0,0:0:0:0:
109,192,40363,1,0,0:0:0:0:
256,192,40363,1,0,0:0:0:0:
402,192,40363,1,0,0:0:0:0:
36,192,40478,1,0,0:0:0:0:
475,192,40478,1,0,0:0:0:0:
329,192,40478,1,0,0:0:0:0:
182,192,40478,1,0,0:0:0:0:
256,192,40594,1,0,0:0:0:0:
402,192,40594,1,0,0:0:0:0:
109,192,40594,1,0,0:0:0:0:
36,192,40709,1,0,0:0:0:0:
182,192,40709,1,0,0:0:0:0:
329,192,40709,1,0,0:0:0:0:
475,192,40709,1,0,0:0:0:0:
109,192,40824,1,0,0:0:0:0:
256,192,40824,1,0,0:0:0:0:
402,192,40824,1,0,0:0:0:0:
36,192,40940,1,0,0:0:0:0:
182,192,40940,1,0,0:0:0:0:
329,192,40940,1,0,0:0:0:0:
475,192,40940,1,0,0:0:0:0:
109,192,41055,1,0,0:0:0:0:
256,192,41055,1,0,0:0:0:0:
402,192,41055,1,0,0:0:0:0:
36,192,41170,1,0,0:0:0:0:
329,192,41170,1,0,0:0:0:0:
182,192,41170,1,0,0:0:0:0:
475,192,41170,1,0,0:0:0:0:
402,192,41286,1,0,0:0:0:0:
256,192,41286,1,0,0:0:0:0:
109,192,41286,1,0,0:0:0:0:
329,192,41401,1,0,0:0:0:0:
182,192,41401,1,0,0:0:0:0:
36,192,41401,1,0,0:0:0:0:
475,192,41401,1,0,0:0:0:0:
109,192,41517,1,0,0:0:0:0:
402,192,41517,1,0,0:0:0:0:
256,192,41517,1,0,0:0:0:0:
182,192,41632,1,0,0:0:0:0:
475,192,41632,1,0,0:0:0:0:
36,192,41632,1,0,0:0:0:0:
329,192,41632,1,0,0:0:0:0:
109,192,41747,1,0,0:0:0:0:
256,192,41747,1,0,0:0:0:0:
402,192,41747,1,0,0:0:0:0:
36,192,41863,1,0,0:0:0:0:
475,192,41863,1,0,0:0:0:0:
329,192,41863,1,0,0:0:0:0:
182,192,41863,1,0,0:0:0:0:
256,192,41978,1,0,0:0:0:0:
402,192,41978,1,0,0:0:0:0:
109,192,41978,1,0,0:0:0:0:
36,192,42094,1,0,0:0:0:0:
329,192,42094,1,0,0:0:0:0:
182,192,42094,1,0,0:0:0:0:
475,192,42094,1,0,0:0:0:0:
402,192,42209,1,0,0:0:0:0:
256,192,42209,1,0,0:0:0:0:
109,192,42209,1,0,0:0:0:0:
329,192,42324,1,0,0:0:0:0:
182,192,42324,1,0,0:0:0:0:
36,192,42324,1,0,0:0:0:0:
475,192,42324,1,0,0:0:0:0:
109,192,42440,1,0,0:0:0:0:
402,192,42440,1,0,0:0:0:0:
256,192,42440,1,0,0:0:0:0:
329,192,42555,1,0,0:0:0:0:
475,192,42555,1,0,0:0:0:0:
36,192,42555,1,0,0:0:0:0:
182,192,42555,1,0,0:0:0:0:
402,192,42670,1,0,0:0:0:0:
256,192,42670,1,0,0:0:0:0:
109,192,42670,1,0,0:0:0:0:
329,192,42786,1,0,0:0:0:0:
475,192,42786,1,0,0:0:0:0:
36,192,42786,1,0,0:0:0:0:
182,192,42786,1,0,0:0:0:0:
402,192,42901,1,0,0:0:0:0:
256,192,42901,1,0,0:0:0:0:
109,192,42901,1,0,0:0:0:0:
182,192,43017,1,0,0:0:0:0:
475,192,43017,1,0,0:0:0:0:
36,192,43017,1,0,0:0:0:0:
329,192,43017,1,0,0:0:0:0:
109,192,43132,1,0,0:0:0:0:
256,192,43132,1,0,0:0:0:0:
402,192,43132,1,0,0:0:0:0:
36,192,43247,1,0,0:0:0:0:
475,192,43247,1,0,0:0:0:0:
329,192,43247,1,0,0:0:0:0:
182,192,43247,1,0,0:0:0:0:
256,192,43363,1,0,0:0:0:0:
402,192,43363,1,0,0:0:0:0:
109,192,43363,1,0,0:0:0:0:
36,192,43478,1,0,0:0:0:0:
329,192,43478,1,0,0:0:0:0:
182,192,43478,1,0,0:0:0:0:
475,192,43478,1,0,0:0:0:0:
402,192,43594,1,0,0:0:0:0:
256,192,43594,1,0,0:0:0:0:
109,192,43594,1,0,0:0:0:0:
329,192,43709,1,0,0:0:0:0:
182,192,43709,1,0,0:0:0:0:
36,192,43709,1,0,0:0:0:0:
475,192,43709,1,0,0:0:0:0:
109,192,43824,1,0,0:0:0:0:
402,192,43824,1,0,0:0:0:0:
256,192,43824,1,0,0:0:0:0:
182,192,43940,1,0,0:0:0:0:
475,192,43940,1,0,0:0:0:0:
36,192,43940,1,0,0:0:0:0:
329,192,43940,1,0,0:0:0:0:
109,192,44055,1,0,0:0:0:0:
256,192,44055,1,0,0:0:0:0:
402,192,44055,1,0,0:0:0:0:
36,192,44170,1,0,0:0:0:0:
475,192,44170,1,0,0:0:0:0:
329,192,44170,1,0,0:0:0:0:
182,192,44170,1,0,0:0:0:0:
256,192,44286,1,0,0:0:0:0:
402,192,44286,1,0,0:0:0:0:
109,192,44286,1,0,0:0:0:0:
329,192,44401,1,0,0:0:0:0:
475,192,44401,1,0,0:0:0:0:
36,192,44401,1,0,0:0:0:0:
182,192,44401,1,0,0:0:0:0:
402,192,44517,1,0,0:0:0:0:
256,192,44517,1,0,0:0:0:0:
109,192,44517,1,0,0:0:0:0:
329,192,44632,1,0,0:0:0:0:
475,192,44632,1,0,0:0:0:0:
36,192,44632,1,0,0:0:0:0:
182,192,44632,1,0,0:0:0:0:
402,192,44747,1,0,0:0:0:0:
256,192,44747,1,0,0:0:0:0:
109,192,44747,1,0,0:0:0:0:
182,192,44863,1,0,0:0:0:0:
475,192,44863,1,0,0:0:0:0:
36,192,44863,1,0,0:0:0:0:
329,192,44863,1,0,0:0:0:0:
109,192,44978,1,0,0:0:0:0:
256,192,44978,1,0,0:0:0:0:
402,192,44978,1,0,0:0:0:0:
36,192,45094,1,0,0:0:0:0:
475,192,45094,1,0,0:0:0:0:
329,192,45094,1,0,0:0:0:0:
182,192,45094,1,0,0:0:0:0:
256,192,45209,1,0,0:0:0:0:
402,192,45209,1,0,0:0:0:0:
109,192,45209,1,0,0:0:0:0:
36,192,45324,1,0,0:0:0:0:
329,192,45324,1,0,0:0:0:0:
182,192,45324,1,0,0:0:0:0:
475,192,45324,1,0,0:0:0:0:
402,192,45440,1,0,0:0:0:0:
256,192,45440,1,0,0:0:0:0:
109,192,45440,1,0,0:0:0:0:
329,192,45555,1,0,0:0:0:0:
182,192,45555,1,0,0:0:0:0:
36,192,45555,1,0,0:0:0:0:
475,192,45555,1,0,0:0:0:0:
109,192,45670,1,0,0:0:0:0:
402,192,45670,1,0,0:0:0:0:
256,192,45670,1,0,0:0:0:0:
182,192,45786,1,0,0:0:0:0:
475,192,45786,1,0,0:0:0:0:
36,192,45786,1,0,0:0:0:0:
329,192,45786,1,0,0:0:0:0:
109,192,45901,1,0,0:0:0:0:
256,192,45901,1,0,0:0:0:0:
402,192,45901,1,0,0:0:0:0:
36,192,46017,1,0,0:0:0:0:
475,192,46017,1,0,0:0:0:0:
329,192,46017,1,0,0:0:0:0:
182,192,46017,1,0,0:0:0:0:
256,192,46132,1,0,0:0:0:0:
402,192,46132,1,0,0:0:0:0:
109,192,46132,1,0,0:0:0:0:
329,192,46247,1,0,0:0:0:0:
475,192,46247,1,0,0:0:0:0:
36,192,46247,1,0,0:0:0:0:
182,192,46247,1,0,0:0:0:0:
402,192,46363,1,0,0:0:0:0:
256,192,46363,1,0,0:0:0:0:
109,192,46363,1,0,0:0:0:0:
329,192,46478,1,0,0:0:0:0:
475,192,46478,1,0,0:0:0:0:
36,192,46478,1,0,0:0:0:0:
182,192,46478,1,0,0:0:0:0:
402,192,46594,1,0,0:0:0:0:
256,192,46594,1,0,0:0:0:0:
109,192,46594,1,0,0:0:0:0:
182,192,46709,1,0,0:0:0:0:
475,192,46709,1,0,0:0:0:0:
36,192,46709,1,0,0:0:0:0:
329,192,46709,1,0,0:0:0:0:
109,192,46824,1,0,0:0:0:0:
256,192,46824,1,0,0:0:0:0:
402,192,46824,1,0,0:0:0:0:
36,192,46940,1,0,0:0:0:0:
475,192,46940,1,0,0:0:0:0:
329,192,46940,1,0,0:0:0:0:
182,192,46940,1,0,0:0:0:0:
256,192,47055,1,0,0:0:0:0:
402,192,47055,1,0,0:0:0:0:
109,192,47055,1,0,0:0:0:0:
36,192,47170,1,0,0:0:0:0:
329,192,47170,1,0,0:0:0:0:
182,192,47170,1,0,0:0:0:0:
475,192,47170,1,0,0:0:0:0:
402,192,47286,1,0,0:0:0:0:
256,192,47286,1,0,0:0:0:0:
109,192,47286,1,0,0:0:0:0:
329,192,47401,1,0,0:0:0:0:
182,192,47401,1,0,0:0:0:0:
36,192,47401,1,0,0:0:0:0:
475,192,47401,1,0,0:0:0:0:
109,192,47517,1,0,0:0:0:0:
402,192,47517,1,0,0:0:0:0:
256,192,47517,1,0,0:0:0:0:
182,192,47632,1,0,0:0:0:0:
475,192,47632,1,0,0:0:0:0:
36,192,47632,1,0,0:0:0:0:
329,192,47632,1,0,0:0:0:0:
109,192,47747,1,0,0:0:0:0:
256,192,47747,1,0,0:0:0:0:
402,192,47747,1,0,0:0:0:0:
36,192,47863,1,0,0:0:0:0:
475,192,47863,1,0,0:0:0:0:
329,192,47863,1,0,0:0:0:0:
182,192,47863,1,0,0:0:0:0:
256,192,47978,1,0,0:0:0:0:
402,192,47978,1,0,0:0:0:0:
109,192,47978,1,0,0:0:0:0:
36,192,48094,1,0,0:0:0:0:
182,192,48094,1,0,0:0:0:0:
329,192,48094,1,0,0:0:0:0:
475,192,48094,1,0,0:0:0:0:
109,192,48209,1,0,0:0:0:0:
256,192,48209,1,0,0:0:0:0:
402,192,48209,1,0,0:0:0:0:
36,192,48324,1,0,0:0:0:0:
182,192,48324,1,0,0:0:0:0:
329,192,48324,1,0,0:0:0:0:
475,192,48324,1,0,0:0:0:0:
109,192,48440,1,0,0:0:0:0:
256,192,48440,1,0,0:0:0:0:
402,192,48440,1,0,0:0:0:0:
36,192,48555,1,0,0:0:0:0:
329,192,48555,1,0,0:0:0:0:
182,192,48555,1,0,0:0:0:0:
475,192,48555,1,0,0:0:0:0:
402,192,48670,1,0,0:0:0:0:
256,192,48670,1,0,0:0:0:0:
109,192,48670,1,0,0:0:0:0:
329,192,48786,1,0,0:0:0:0:
182,192,48786,1,0,0:0:0:0:
36,192,48786,1,0,0:0:0:0:
475,192,48786,1,0,0:0:0:0:
109,192,48901,1,0,0:0:0:0:
402,192,48901,1,0,0:0:0:0:
256,192,48901,1,0,0:0:0:0:
182,192,49017,1,0,0:0:0:0:
475,192,49017,1,0,0:0:0:0:
36,192,49017,1,0,0:0:0:0:
329,192,49017,1,0,0:0:0:0:
109,192,49132,1,0,0:0:0:0:
256,192,49132,1,0,0:0:0:0:
402,192,49132,1,0,0:0:0:0:
36,192,49247,1,0,0:0:0:0:
475,192,49247,1,0,0:0:0:0:
329,192,49247,1,0,0:0:0:0:
182,192,49247,1,0,0:0:0:0:
256,192,49363,1,0,0:0:0:0:
402,192,49363,1,0,0:0:0:0:
109,192,49363,1,0,0:0:0:0:
36,192,49478,1,0,0:0:0:0:
329,192,49478,1,0,0:0:0:0:
182,192,49478,1,0,0:0:0:0:
475,192,49478,1,0,0:0:0:0:
402,192,49594,1,0,0:0:0:0:
256,192,49594,1,0,0:0:0:0:
109,192,49594,1,0,0:0:0:0:
329,192,49709,1,0,0:0:0:0:
182,192,49709,1,0,0:0:0:0:
36,192,49709,1,0,0:0:0:0:
475,192,49709,1,0,0:0:0:0:
109,192,49824,1,0,0:0:0:0:
402,192,49824,1,0,0:0:0:0:
256,192,49824,1,0,0:0:0:0:
329,192,49940,1,0,0:0:0:0:
475,192,49940,1,0,0:0:0:0:
36,192,49940,1,0,0:0:0:0:
182,192,49940,1,0,0:0:0:0:
402,192,50055,1,0,0:0:0:0:
256,192,50055,1,0,0:0:0:0:
109,192,50055,1,0,0:0:0:0:
329,192,50170,1,0,0:0:0:0:
475,192,50170,1,0,0:0:0:0:
36,192,50170,1,0,0:0:0:0:
182,192,50170,1,0,0:0:0:0:
402,192,50286,1,0,0:0:0:0:
256,192,50286,1,0,0:0:0:0:
109,192,50286,1,0,0:0:0:0:
182,192,50401,1,0,0:0:0:0:
475,192,50401,1,0,0:0:0:0:
36,192,50401,1,0,0:0:0:0:
329,192,50401,1,0,0:0:0:0:
109,192,50517,1,0,0:0:0:0:
256,192,50517,1,0,0:0:0:0:
402,192,50517,1,0,0:0:0:0:
36,192,50632,1,0,0:0:0:0:
475,192,50632,1,0,0:0:0:0:
329,192,50632,1,0,0:0:0:0:
182,192,50632,1,0,0:0:0:0:
256,192,50747,1,0,0:0:0:0:
402,192,50747,1,0,0:0:0:0:
109,192,50747,1,0,0:0:0:0:
36,192,50863,1,0,0:0:0:0:
329,192,50863,1,0,0:0:0:0:
182,192,50863,1,0,0:0:0:0:
475,192,50863,1,0,0:0:0:0:
402,192,50978,1,0,0:0:0:0:
256,192,50978,1,0,0:0:0:0:
109,192,50978,1,0,0:0:0:0:
329,192,51094,1,0,0:0:0:0:
182,192,51094,1,0,0:0:0:0:
36,192,51094,1,0,0:0:0:0:
475,192,51094,1,0,0:0:0:0:
109,192,51209,1,0,0:0:0:0:
402,192,51209,1,0,0:0:0:0:
256,192,51209,1,0,0:0:0:0:
182,192,51324,1,0,0:0:0:0:
475,192,51324,1,0,0:0:0:0:
36,192,51324,1,0,0:0:0:0:
329,192,51324,1,0,0:0:0:0:
109,192,51440,1,0,0:0:0:0:
256,192,51440,1,0,0:0:0:0:
402,192,51440,1,0,0:0:0:0:
36,192,51555,1,0,0:0:0:0:
475,192,51555,1,0,0:0:0:0:
329,192,51555,1,0,0:0:0:0:
182,192,51555,1,0,0:0:0:0:
256,192,51670,1,0,0:0:0:0:
402,192,51670,1,0,0:0:0:0:
109,192,51670,1,0,0:0:0:0:
36,192,51786,1,0,0:0:0:0:
182,192,51786,1,0,0:0:0:0:
329,192,51786,1,0,0:0:0:0:
475,192,51786,1,0,0:0:0:0:
109,192,51901,1,0,0:0:0:0:
256,192,51901,1,0,0:0:0:0:
402,192,51901,1,0,0:0:0:0:
36,192,52017,1,0,0:0:0:0:
182,192,52017,1,0,0:0:0:0:
329,192,52017,1,0,0:0:0:0:
475,192,52017,1,0,0:0:0:0:
109,192,52132,1,0,0:0:0:0:
256,192,52132,1,0,0:0:0:0:
402,192,52132,1,0,0:0:0:0:
36,192,52247,1,0,0:0:0:0:
329,192,52247,1,0,0:0:0:0:
182,192,52247,1,0,0:0:0:0:
475,192,52247,1,0,0:0:0:0:
402,192,52363,1,0,0:0:0:0:
256,192,52363,1,0,0:0:0:0:
109,192,52363,1,0,0:0:0:0:
329,192,52478,1,0,0:0:0:0:
182,192,52478,1,0,0:0:0:0:
36,192,52478,1,0,0:0:0:0:
475,192,52478,1,0,0:0:0:0:
109,192,52594,1,0,0:0:0:0:
402,192,52594,1,0,0:0:0:0:
256,192,52594,1,0,0:0:0:0:
182,192,52709,1,0,0:0:0:0:
475,192,52709,1,0,0:0:0:0:
36,192,52709,1,0,0:0:0:0:
329,192,52709,1,0,0:0:0:0:
109,192,52824,1,0,0:0:0:0:
256,192,52824,1,0,0:0:0:0:
402,192,52824,1,0,0:0:0:0:
36,192,52940,1,0,0:0:0:0:
475,192,52940,1,0,0:0:0:0:
329,192,52940,1,0,0:0:0:0:
182,192,52940,1,0,0:0:0:0:
256,192,53055,1,0,0:0:0:0:
402,192,53055,1,0,0:0:0:0:
109,192,53055,1,0,0:0:0:0:
36,192,53170,1,0,0:0:0:0:
329,192,53170,1,0,0:0:0:0:
182,192,53170,1,0,0:0:0:0:
475,192,53170,1,0,0:0:0:0:
402,192,53286,1,0,0:0:0:0:
256,192,53286,1,0,0:0:0:0:
109,192,53286,1,0,0:0:0:0:
329,192,53401,1,0,0:0:0:0:
182,192,53401,1,0,0:0:0:0:
36,192,53401,1,0,0:0:0:0:
475,192,53401,1,0,0:0:0:0:
109,192,53517,1,0,0:0:0:0:
402,192,53517,1,0,0:0:0:0:
256,192,53517,1,0,0:0:0:0:
36,192,53632,1,0,0:0:0:0:
182,192,53632,1,0,0:0:0:0:
329,192,53632,1,0,0:0:0:0:
475,192,53632,1,0,0:0:0:0:
109,192,53747,1,0,0:0:0:0:
256,192,53747,1,0,0:0:0:0:
402,192,53747,1,0,0:0:0:0:
36,192,53863,1,0,0:0:0:0:
182,192,53863,1,0,0:0:0:0:
329,192,53863,1,0,0:0:0:0:
475,192,53863,1,0,0:0:0:0:
109,192,53978,1,0,0:0:0:0:
256,192,53978,1,0,0:0:0:0:
402,192,53978,1,0,0:0:0:0:
