osu file format v14

[General]
AudioFilename: Danger.mp3
AudioLeadIn: 0
PreviewTime: 21742
Countdown: 0
SampleSet: None
StackLeniency: 0.7
Mode: 3
LetterboxInBreaks: 0
SpecialStyle: 0
WidescreenStoryboard: 1

[Editor]
DistanceSpacing: 1.4
BeatDivisor: 4
GridSize: 4
TimelineZoom: 1.2

[Metadata]
Title:Fullbracket Pack
TitleUnicode:Fullbracket Pack
Artist:Various Artists
ArtistUnicode:Various Artists
Creator:X_Devil
Version:10K 150 bpm [Danger And Danger]
Source:
Tags:Fullbracket bracket 7k 10k
BeatmapID:2080438
BeatmapSetID:994817

[Difficulty]
HPDrainRate:5
CircleSize:10
OverallDifficulty:10
ApproachRate:5
SliderMultiplier:1.4
SliderTickRate:1

[Events]
//Background and Video events
0,0,"danger_and_danger.png",0,0
//Break Periods
//Storyboard Layer 0 (Background)
//Storyboard Layer 1 (Fail)
//Storyboard Layer 2 (Pass)
//Storyboard Layer 3 (Foreground)
//Storyboard Sound Samples

[TimingPoints]
4142,400,4,1,0,15,1,0

[HitObjects]
36,192,4142,5,0,0:0:0:0:
435,192,4142,1,0,0:0:0:0:
230,192,4142,1,0,0:0:0:0:
332,192,4142,1,0,0:0:0:0:
128,192,4142,1,0,0:0:0:0:
384,192,4342,1,0,0:0:0:0:
486,192,4342,1,0,0:0:0:0:
281,192,4342,1,0,0:0:0:0:
179,192,4342,1,0,0:0:0:0:
76,192,4342,1,0,0:0:0:0:
36,192,4542,1,0,0:0:0:0:
435,192,4542,1,0,0:0:0:0:
230,192,4542,1,0,0:0:0:0:
332,192,4542,1,0,0:0:0:0:
128,192,4542,1,0,0:0:0:0:
384,192,4742,1,0,0:0:0:0:
486,192,4742,1,0,0:0:0:0:
281,192,4742,1,0,0:0:0:0:
179,192,4742,1,0,0:0:0:0:
76,192,4742,1,0,0:0:0:0:
435,192,4942,1,0,0:0:0:0:
230,192,4942,1,0,0:0:0:0:
36,192,4942,1,0,0:0:0:0:
332,192,4942,1,0,0:0:0:0:
128,192,4942,1,0,0:0:0:0:
384,192,5142,1,0,0:0:0:0:
486,192,5142,1,0,0:0:0:0:
281,192,5142,1,0,0:0:0:0:
179,192,5142,1,0,0:0:0:0:
76,192,5142,1,0,0:0:0:0:
435,192,5342,1,0,0:0:0:0:
332,192,5342,1,0,0:0:0:0:
36,192,5342,1,0,0:0:0:0:
230,192,5342,1,0,0:0:0:0:
128,192,5342,1,0,0:0:0:0:
384,192,5542,1,0,0:0:0:0:
486,192,5542,1,0,0:0:0:0:
281,192,5542,1,0,0:0:0:0:
179,192,5542,1,0,0:0:0:0:
76,192,5542,1,0,0:0:0:0:
36,192,5742,1,0,0:0:0:0:
332,192,5742,1,0,0:0:0:0:
435,192,5742,1,0,0:0:0:0:
230,192,5742,1,0,0:0:0:0:
128,192,5742,1,0,0:0:0:0:
281,192,5942,1,0,0:0:0:0:
486,192,5942,1,0,0:0:0:0:
384,192,5942,1,0,0:0:0:0:
76,192,5942,1,0,0:0:0:0:
179,192,5942,1,0,0:0:0:0:
36,192,6142,1,0,0:0:0:0:
230,192,6142,1,0,0:0:0:0:
435,192,6142,1,0,0:0:0:0:
332,192,6142,1,0,0:0:0:0:
128,192,6142,1,0,0:0:0:0:
281,192,6342,1,0,0:0:0:0:
486,192,6342,1,0,0:0:0:0:
384,192,6342,1,0,0:0:0:0:
76,192,6342,1,0,0:0:0:0:
179,192,6342,1,0,0:0:0:0:
36,192,6542,1,0,0:0:0:0:
332,192,6542,1,0,0:0:0:0:
435,192,6542,1,0,0:0:0:0:
230,192,6542,1,0,0:0:0:0:
128,192,6542,1,0,0:0:0:0:
281,192,6742,1,0,0:0:0:0:
486,192,6742,1,0,0:0:0:0:
384,192,6742,1,0,0:0:0:0:
76,192,6742,1,0,0:0:0:0:
179,192,6742,1,0,0:0:0:0:
36,192,6942,1,0,0:0:0:0:
230,192,6942,1,0,0:0:0:0:
435,192,6942,1,0,0:0:0:0:
332,192,6942,1,0,0:0:0:0:
128,192,6942,1,0,0:0:0:0:
281,192,7142,1,0,0:0:0:0:
486,192,7142,1,0,0:0:0:0:
384,192,7142,1,0,0:0:0:0:
76,192,7142,1,0,0:0:0:0:
179,192,7142,1,0,0:0:0:0:
36,192,7342,1,0,0:0:0:0:
435,192,7342,1,0,0:0:0:0:
230,192,7342,1,0,0:0:0:0:
332,192,7342,1,0,0:0:0:0:
128,192,7342,1,0,0:0:0:0:
384,192,7542,1,0,0:0:0:0:
486,192,7542,1,0,0:0:0:0:
281,192,7542,1,0,0:0:0:0:
179,192,7542,1,0,0:0:0:0:
76,192,7542,1,0,0:0:0:0:
36,192,7742,1,0,0:0:0:0:
435,192,7742,1,0,0:0:0:0:
230,192,7742,1,0,0:0:0:0:
332,192,7742,1,0,0:0:0:0:
128,192,7742,1,0,0:0:0:0:
384,192,7942,1,0,0:0:0:0:
486,192,7942,1,0,0:0:0:0:
281,192,7942,1,0,0:0:0:0:
179,192,7942,1,0,0:0:0:0:
76,192,7942,1,0,0:0:0:0:
435,192,8142,1,0,0:0:0:0:
230,192,8142,1,0,0:0:0:0:
36,192,8142,1,0,0:0:0:0:
332,192,8142,1,0,0:0:0:0:
128,192,8142,1,0,0:0:0:0:
384,192,8342,1,0,0:0:0:0:
486,192,8342,1,0,0:0:0:0:
281,192,8342,1,0,0:0:0:0:
179,192,8342,1,0,0:0:0:0:
76,192,8342,1,0,0:0:0:0:
435,192,8542,1,0,0:0:0:0:
332,192,8542,1,0,0:0:0:0:
36,192,8542,1,0,0:0:0:0:
230,192,8542,1,0,0:0:0:0:
128,192,8542,1,0,0:0:0:0:
384,192,8742,1,0,0:0:0:0:
486,192,8742,1,0,0:0:0:0:
281,192,8742,1,0,0:0:0:0:
179,192,8742,1,0,0:0:0:0:
76,192,8742,1,0,0:0:0:0:
36,192,8942,1,0,0:0:0:0:
332,192,8942,1,0,0:0:0:0:
435,192,8942,1,0,0:0:0:0:
230,192,8942,1,0,0:0:0:0:
128,192,8942,1,0,0:0:0:0:
281,192,9142,1,0,0:0:0:0:
486,192,9142,1,0,0:0:0:0:
384,192,9142,1,0,0:0:0:0:
76,192,9142,1,0,0:0:0:0:
179,192,9142,1,0,0:0:0:0:
36,192,9342,1,0,0:0:0:0:
230,192,9342,1,0,0:0:0:0:
435,192,9342,1,0,0:0:0:0:
332,192,9342,1,0,0:0:0:0:
128,192,9342,1,0,0:0:0:0:
281,192,9542,1,0,0:0:0:0:
486,192,9542,1,0,0:0:0:0:
384,192,9542,1,0,0:0:0:0:
76,192,9542,1,0,0:0:0:0:
179,192,9542,1,0,0:0:0:0:
36,192,9742,1,0,0:0:0:0:
332,192,9742,1,0,0:0:0:0:
435,192,9742,1,0,0:0:0:0:
230,192,9742,1,0,0:0:0:0:
128,192,9742,1,0,0:0:0:0:
281,192,9942,1,0,0:0:0:0:
486,192,9942,1,0,0:0:0:0:
384,192,9942,1,0,0:0:0:0:
76,192,9942,1,0,0:0:0:0:
179,192,9942,1,0,0:0:0:0:
36,192,10142,1,0,0:0:0:0:
230,192,10142,1,0,0:0:0:0:
435,192,10142,1,0,0:0:0:0:
332,192,10142,1,0,0:0:0:0:
128,192,10142,1,0,0:0:0:0:
281,192,10342,1,0,0:0:0:0:
486,192,10342,1,0,0:0:0:0:
384,192,10342,1,0,0:0:0:0:
76,192,10342,1,0,0:0:0:0:
179,192,10342,1,0,0:0:0:0:
230,192,10542,1,0,0:0:0:0:
332,192,10542,1,0,0:0:0:0:
36,192,10542,1,0,0:0:0:0:
435,192,10542,1,0,0:0:0:0:
128,192,10542,1,0,0:0:0:0:
281,192,10742,1,0,0:0:0:0:
486,192,10742,1,0,0:0:0:0:
384,192,10742,1,0,0:0:0:0:
76,192,10742,1,0,0:0:0:0:
179,192,10742,1,0,0:0:0:0:
230,192,10942,1,0,0:0:0:0:
332,192,10942,1,0,0:0:0:0:
36,192,10942,1,0,0:0:0:0:
435,192,10942,1,0,0:0:0:0:
128,192,10942,1,0,0:0:0:0:
281,192,11142,1,0,0:0:0:0:
486,192,11142,1,0,0:0:0:0:
384,192,11142,1,0,0:0:0:0:
76,192,11142,1,0,0:0:0:0:
179,192,11142,1,0,0:0:0:0:
36,192,11342,1,0,0:0:0:0:
332,192,11342,1,0,0:0:0:0:
435,192,11342,1,0,0:0:0:0:
230,192,11342,1,0,0:0:0:0:
128,192,11342,1,0,0:0:0:0:
281,192,11542,1,0,0:0:0:0:
486,192,11542,1,0,0:0:0:0:
384,192,11542,1,0,0:0:0:0:
76,192,11542,1,0,0:0:0:0:
179,192,11542,1,0,0:0:0:0:
36,192,11742,1,0,0:0:0:0:
230,192,11742,1,0,0:0:0:0:
435,192,11742,1,0,0:0:0:0:
332,192,11742,1,0,0:0:0:0:
128,192,11742,1,0,0:0:0:0:
281,192,11942,1,0,0:0:0:0:
486,192,11942,1,0,0:0:0:0:
384,192,11942,1,0,0:0:0:0:
76,192,11942,1,0,0:0:0:0:
179,192,11942,1,0,0:0:0:0:
435,192,12142,1,0,0:0:0:0:
230,192,12142,1,0,0:0:0:0:
36,192,12142,1,0,0:0:0:0:
332,192,12142,1,0,0:0:0:0:
128,192,12142,1,0,0:0:0:0:
384,192,12342,1,0,0:0:0:0:
486,192,12342,1,0,0:0:0:0:
281,192,12342,1,0,0:0:0:0:
179,192,12342,1,0,0:0:0:0:
76,192,12342,1,0,0:0:0:0:
435,192,12542,1,0,0:0:0:0:
332,192,12542,1,0,0:0:0:0:
36,192,12542,1,0,0:0:0:0:
230,192,12542,1,0,0:0:0:0:
128,192,12542,1,0,0:0:0:0:
384,192,12742,1,0,0:0:0:0:
486,192,12742,1,0,0:0:0:0:
281,192,12742,1,0,0:0:0:0:
179,192,12742,1,0,0:0:0:0:
76,192,12742,1,0,0:0:0:0:
435,192,12942,1,0,0:0:0:0:
230,192,12942,1,0,0:0:0:0:
36,192,12942,1,0,0:0:0:0:
332,192,12942,1,0,0:0:0:0:
128,192,12942,1,0,0:0:0:0:
384,192,13142,1,0,0:0:0:0:
486,192,13142,1,0,0:0:0:0:
281,192,13142,1,0,0:0:0:0:
179,192,13142,1,0,0:0:0:0:
76,192,13142,1,0,0:0:0:0:
435,192,13342,1,0,0:0:0:0:
332,192,13342,1,0,0:0:0:0:
36,192,13342,1,0,0:0:0:0:
230,192,13342,1,0,0:0:0:0:
128,192,13342,1,0,0:0:0:0:
384,192,13542,1,0,0:0:0:0:
486,192,13542,1,0,0:0:0:0:
281,192,13542,1,0,0:0:0:0:
179,192,13542,1,0,0:0:0:0:
76,192,13542,1,0,0:0:0:0:
36,192,13742,1,0,0:0:0:0:
435,192,13742,1,0,0:0:0:0:
230,192,13742,1,0,0:0:0:0:
332,192,13742,1,0,0:0:0:0:
128,192,13742,1,0,0:0:0:0:
384,192,13942,1,0,0:0:0:0:
486,192,13942,1,0,0:0:0:0:
281,192,13942,1,0,0:0:0:0:
179,192,13942,1,0,0:0:0:0:
76,192,13942,1,0,0:0:0:0:
36,192,14142,1,0,0:0:0:0:
435,192,14142,1,0,0:0:0:0:
230,192,14142,1,0,0:0:0:0:
332,192,14142,1,0,0:0:0:0:
128,192,14142,1,0,0:0:0:0:
384,192,14342,1,0,0:0:0:0:
486,192,14342,1,0,0:0:0:0:
281,192,14342,1,0,0:0:0:0:
179,192,14342,1,0,0:0:0:0:
76,192,14342,1,0,0:0:0:0:
435,192,14542,1,0,0:0:0:0:
230,192,14542,1,0,0:0:0:0:
36,192,14542,1,0,0:0:0:0:
332,192,14542,1,0,0:0:0:0:
128,192,14542,1,0,0:0:0:0:
384,192,14742,1,0,0:0:0:0:
486,192,14742,1,0,0:0:0:0:
281,192,14742,1,0,0:0:0:0:
179,192,14742,1,0,0:0:0:0:
76,192,14742,1,0,0:0:0:0:
435,192,14942,1,0,0:0:0:0:
332,192,14942,1,0,0:0:0:0:
36,192,14942,1,0,0:0:0:0:
230,192,14942,1,0,0:0:0:0:
128,192,14942,1,0,0:0:0:0:
384,192,15142,1,0,0:0:0:0:
486,192,15142,1,0,0:0:0:0:
281,192,15142,1,0,0:0:0:0:
179,192,15142,1,0,0:0:0:0:
76,192,15142,1,0,0:0:0:0:
36,192,15342,1,0,0:0:0:0:
332,192,15342,1,0,0:0:0:0:
435,192,15342,1,0,0:0:0:0:
230,192,15342,1,0,0:0:0:0:
128,192,15342,1,0,0:0:0:0:
281,192,15542,1,0,0:0:0:0:
486,192,15542,1,0,0:0:0:0:
384,192,15542,1,0,0:0:0:0:
76,192,15542,1,0,0:0:0:0:
179,192,15542,1,0,0:0:0:0:
36,192,15742,1,0,0:0:0:0:
230,192,15742,1,0,0:0:0:0:
435,192,15742,1,0,0:0:0:0:
332,192,15742,1,0,0:0:0:0:
128,192,15742,1,0,0:0:0:0:
281,192,15942,1,0,0:0:0:0:
486,192,15942,1,0,0:0:0:0:
384,192,15942,1,0,0:0:0:0:
76,192,15942,1,0,0:0:0:0:
179,192,15942,1,0,0:0:0:0:
36,192,16142,1,0,0:0:0:0:
332,192,16142,1,0,0:0:0:0:
435,192,16142,1,0,0:0:0:0:
230,192,16142,1,0,0:0:0:0:
128,192,16142,1,0,0:0:0:0:
281,192,16342,1,0,0:0:0:0:
486,192,16342,1,0,0:0:0:0:
384,192,16342,1,0,0:0:0:0:
76,192,16342,1,0,0:0:0:0:
179,192,16342,1,0,0:0:0:0:
36,192,16542,1,0,0:0:0:0:
230,192,16542,1,0,0:0:0:0:
435,192,16542,1,0,0:0:0:0:
332,192,16542,1,0,0:0:0:0:
128,192,16542,1,0,0:0:0:0:
281,192,16742,1,0,0:0:0:0:
486,192,16742,1,0,0:0:0:0:
384,192,16742,1,0,0:0:0:0:
76,192,16742,1,0,0:0:0:0:
179,192,16742,1,0,0:0:0:0:
230,192,16942,1,0,0:0:0:0:
332,192,16942,1,0,0:0:0:0:
36,192,16942,1,0,0:0:0:0:
435,192,16942,1,0,0:0:0:0:
128,192,16942,1,0,0:0:0:0:
281,192,17142,1,0,0:0:0:0:
486,192,17142,1,0,0:0:0:0:
384,192,17142,1,0,0:0:0:0:
76,192,17142,1,0,0:0:0:0:
179,192,17142,1,0,0:0:0:0:
230,192,17342,1,0,0:0:0:0:
332,192,17342,1,0,0:0:0:0:
36,192,17342,1,0,0:0:0:0:
435,192,17342,1,0,0:0:0:0:
128,192,17342,1,0,0:0:0:0:
281,192,17542,1,0,0:0:0:0:
486,192,17542,1,0,0:0:0:0:
384,192,17542,1,0,0:0:0:0:
76,192,17542,1,0,0:0:0:0:
179,192,17542,1,0,0:0:0:0:
36,192,17742,1,0,0:0:0:0:
332,192,17742,1,0,0:0:0:0:
435,192,17742,1,0,0:0:0:0:
230,192,17742,1,0,0:0:0:0:
128,192,17742,1,0,0:0:0:0:
281,192,17942,1,0,0:0:0:0:
486,192,17942,1,0,0:0:0:0:
384,192,17942,1,0,0:0:0:0:
76,192,17942,1,0,0:0:0:0:
179,192,17942,1,0,0:0:0:0:
36,192,18142,1,0,0:0:0:0:
230,192,18142,1,0,0:0:0:0:
435,192,18142,1,0,0:0:0:0:
332,192,18142,1,0,0:0:0:0:
128,192,18142,1,0,0:0:0:0:
281,192,18342,1,0,0:0:0:0:
486,192,18342,1,0,0:0:0:0:
384,192,18342,1,0,0:0:0:0:
76,192,18342,1,0,0:0:0:0:
179,192,18342,1,0,0:0:0:0:
435,192,18542,1,0,0:0:0:0:
230,192,18542,1,0,0:0:0:0:
36,192,18542,1,0,0:0:0:0:
332,192,18542,1,0,0:0:0:0:
128,192,18542,1,0,0:0:0:0:
384,192,18742,1,0,0:0:0:0:
486,192,18742,1,0,0:0:0:0:
281,192,18742,1,0,0:0:0:0:
179,192,18742,1,0,0:0:0:0:
76,192,18742,1,0,0:0:0:0:
435,192,18942,1,0,0:0:0:0:
332,192,18942,1,0,0:0:0:0:
36,192,18942,1,0,0:0:0:0:
230,192,18942,1,0,0:0:0:0:
128,192,18942,1,0,0:0:0:0:
384,192,19142,1,0,0:0:0:0:
486,192,19142,1,0,0:0:0:0:
281,192,19142,1,0,0:0:0:0:
179,192,19142,1,0,0:0:0:0:
76,192,19142,1,0,0:0:0:0:
435,192,19342,1,0,0:0:0:0:
230,192,19342,1,0,0:0:0:0:
36,192,19342,1,0,0:0:0:0:
332,192,19342,1,0,0:0:0:0:
128,192,19342,1,0,0:0:0:0:
384,192,19542,1,0,0:0:0:0:
486,192,19542,1,0,0:0:0:0:
281,192,19542,1,0,0:0:0:0:
179,192,19542,1,0,0:0:0:0:
76,192,19542,1,0,0:0:0:0:
435,192,19742,1,0,0:0:0:0:
332,192,19742,1,0,0:0:0:0:
36,192,19742,1,0,0:0:0:0:
230,192,19742,1,0,0:0:0:0:
128,192,19742,1,0,0:0:0:0:
384,192,19942,1,0,0:0:0:0:
486,192,19942,1,0,0:0:0:0:
281,192,19942,1,0,0:0:0:0:
179,192,19942,1,0,0:0:0:0:
76,192,19942,1,0,0:0:0:0:
36,192,20142,1,0,0:0:0:0:
435,192,20142,1,0,0:0:0:0:
230,192,20142,1,0,0:0:0:0:
332,192,20142,1,0,0:0:0:0:
128,192,20142,1,0,0:0:0:0:
384,192,20342,1,0,0:0:0:0:
486,192,20342,1,0,0:0:0:0:
281,192,20342,1,0,0:0:0:0:
179,192,20342,1,0,0:0:0:0:
76,192,20342,1,0,0:0:0:0:
36,192,20542,1,0,0:0:0:0:
435,192,20542,1,0,0:0:0:0:
230,192,20542,1,0,0:0:0:0:
332,192,20542,1,0,0:0:0:0:
128,192,20542,1,0,0:0:0:0:
384,192,20742,1,0,0:0:0:0:
486,192,20742,1,0,0:0:0:0:
281,192,20742,1,0,0:0:0:0:
179,192,20742,1,0,0:0:0:0:
76,192,20742,1,0,0:0:0:0:
435,192,20942,1,0,0:0:0:0:
230,192,20942,1,0,0:0:0:0:
36,192,20942,1,0,0:0:0:0:
332,192,20942,1,0,0:0:0:0:
128,192,20942,1,0,0:0:0:0:
384,192,21142,1,0,0:0:0:0:
486,192,21142,1,0,0:0:0:0:
281,192,21142,1,0,0:0:0:0:
179,192,21142,1,0,0:0:0:0:
76,192,21142,1,0,0:0:0:0:
435,192,21342,1,0,0:0:0:0:
332,192,21342,1,0,0:0:0:0:
36,192,21342,1,0,0:0:0:0:
230,192,21342,1,0,0:0:0:0:
128,192,21342,1,0,0:0:0:0:
384,192,21542,1,0,0:0:0:0:
486,192,21542,1,0,0:0:0:0:
281,192,21542,1,0,0:0:0:0:
179,192,21542,1,0,0:0:0:0:
76,192,21542,1,0,0:0:0:0:
36,192,21942,1,0,0:0:0:0:
435,192,21942,1,0,0:0:0:0:
230,192,21942,1,0,0:0:0:0:
332,192,21942,1,0,0:0:0:0:
128,192,21942,1,0,0:0:0:0:
384,192,22142,1,0,0:0:0:0:
486,192,22142,1,0,0:0:0:0:
281,192,22142,1,0,0:0:0:0:
179,192,22142,1,0,0:0:0:0:
76,192,22142,1,0,0:0:0:0:
36,192,22342,1,0,0:0:0:0:
435,192,22342,1,0,0:0:0:0:
230,192,22342,1,0,0:0:0:0:
332,192,22342,1,0,0:0:0:0:
128,192,22342,1,0,0:0:0:0:
384,192,22542,1,0,0:0:0:0:
486,192,22542,1,0,0:0:0:0:
281,192,22542,1,0,0:0:0:0:
179,192,22542,1,0,0:0:0:0:
76,192,22542,1,0,0:0:0:0:
36,192,22742,1,0,0:0:0:0:
435,192,22742,1,0,0:0:0:0:
230,192,22742,1,0,0:0:0:0:
332,192,22742,1,0,0:0:0:0:
128,192,22742,1,0,0:0:0:0:
384,192,22842,1,0,0:0:0:0:
281,192,22842,1,0,0:0:0:0:
486,192,22842,1,0,0:0:0:0:
179,192,22842,1,0,0:0:0:0:
76,192,22842,1,0,0:0:0:0:
36,192,22942,1,0,0:0:0:0:
332,192,22942,1,0,0:0:0:0:
384,192,23042,1,0,0:0:0:0:
281,192,23042,1,0,0:0:0:0:
486,192,23042,1,0,0:0:0:0:
179,192,23042,1,0,0:0:0:0:
76,192,23042,1,0,0:0:0:0:
435,192,23142,1,0,0:0:0:0:
230,192,23142,1,0,0:0:0:0:
128,192,23142,1,0,0:0:0:0:
384,192,23242,1,0,0:0:0:0:
486,192,23242,1,0,0:0:0:0:
281,192,23242,1,0,0:0:0:0:
179,192,23242,1,0,0:0:0:0:
76,192,23242,1,0,0:0:0:0:
36,192,23342,1,0,0:0:0:0:
435,192,23342,1,0,0:0:0:0:
230,192,23342,1,0,0:0:0:0:
332,192,23342,1,0,0:0:0:0:
128,192,23342,1,0,0:0:0:0:
384,192,23442,1,0,0:0:0:0:
486,192,23442,1,0,0:0:0:0:
281,192,23442,1,0,0:0:0:0:
179,192,23442,1,0,0:0:0:0:
76,192,23442,1,0,0:0:0:0:
36,192,23542,1,0,0:0:0:0:
435,192,23542,1,0,0:0:0:0:
230,192,23542,1,0,0:0:0:0:
332,192,23542,1,0,0:0:0:0:
128,192,23542,1,0,0:0:0:0:
384,192,23642,1,0,0:0:0:0:
486,192,23642,1,0,0:0:0:0:
281,192,23642,1,0,0:0:0:0:
179,192,23642,1,0,0:0:0:0:
76,192,23642,1,0,0:0:0:0:
435,192,23742,1,0,0:0:0:0:
332,192,23742,1,0,0:0:0:0:
36,192,23742,1,0,0:0:0:0:
230,192,23742,1,0,0:0:0:0:
128,192,23742,1,0,0:0:0:0:
486,192,23842,1,0,0:0:0:0:
281,192,23842,1,0,0:0:0:0:
384,192,23842,1,0,0:0:0:0:
76,192,23842,1,0,0:0:0:0:
179,192,23842,1,0,0:0:0:0:
435,192,23942,1,0,0:0:0:0:
332,192,23942,1,0,0:0:0:0:
36,192,23942,1,0,0:0:0:0:
230,192,23942,1,0,0:0:0:0:
128,192,23942,1,0,0:0:0:0:
486,192,24042,1,0,0:0:0:0:
384,192,24042,1,0,0:0:0:0:
281,192,24042,1,0,0:0:0:0:
76,192,24042,1,0,0:0:0:0:
179,192,24042,1,0,0:0:0:0:
36,192,24142,1,0,0:0:0:0:
230,192,24142,1,0,0:0:0:0:
435,192,24142,1,0,0:0:0:0:
332,192,24142,1,0,0:0:0:0:
128,192,24142,1,0,0:0:0:0:
384,192,24242,1,0,0:0:0:0:
281,192,24242,1,0,0:0:0:0:
486,192,24242,1,0,0:0:0:0:
179,192,24242,1,0,0:0:0:0:
76,192,24242,1,0,0:0:0:0:
36,192,24342,1,0,0:0:0:0:
230,192,24342,1,0,0:0:0:0:
435,192,24342,1,0,0:0:0:0:
332,192,24342,1,0,0:0:0:0:
128,192,24342,1,0,0:0:0:0:
281,192,24442,1,0,0:0:0:0:
384,192,24442,1,0,0:0:0:0:
486,192,24442,1,0,0:0:0:0:
179,192,24442,1,0,0:0:0:0:
76,192,24442,1,0,0:0:0:0:
435,192,24542,1,0,0:0:0:0:
332,192,24542,1,0,0:0:0:0:
36,192,24542,1,0,0:0:0:0:
230,192,24542,1,0,0:0:0:0:
128,192,24542,1,0,0:0:0:0:
486,192,24642,1,0,0:0:0:0:
281,192,24642,1,0,0:0:0:0:
384,192,24642,1,0,0:0:0:0:
76,192,24642,1,0,0:0:0:0:
179,192,24642,1,0,0:0:0:0:
435,192,24742,1,0,0:0:0:0:
332,192,24742,1,0,0:0:0:0:
36,192,24742,1,0,0:0:0:0:
230,192,24742,1,0,0:0:0:0:
128,192,24742,1,0,0:0:0:0:
486,192,24842,1,0,0:0:0:0:
384,192,24842,1,0,0:0:0:0:
281,192,24842,1,0,0:0:0:0:
76,192,24842,1,0,0:0:0:0:
179,192,24842,1,0,0:0:0:0:
36,192,24942,1,0,0:0:0:0:
435,192,24942,1,0,0:0:0:0:
230,192,24942,1,0,0:0:0:0:
332,192,24942,1,0,0:0:0:0:
128,192,24942,1,0,0:0:0:0:
384,192,25042,1,0,0:0:0:0:
486,192,25042,1,0,0:0:0:0:
281,192,25042,1,0,0:0:0:0:
179,192,25042,1,0,0:0:0:0:
76,192,25042,1,0,0:0:0:0:
36,192,25142,1,0,0:0:0:0:
435,192,25142,1,0,0:0:0:0:
230,192,25142,1,0,0:0:0:0:
332,192,25142,1,0,0:0:0:0:
128,192,25142,1,0,0:0:0:0:
384,192,25242,1,0,0:0:0:0:
486,192,25242,1,0,0:0:0:0:
281,192,25242,1,0,0:0:0:0:
179,192,25242,1,0,0:0:0:0:
76,192,25242,1,0,0:0:0:0:
435,192,25342,1,0,0:0:0:0:
332,192,25342,1,0,0:0:0:0:
36,192,25342,1,0,0:0:0:0:
230,192,25342,1,0,0:0:0:0:
128,192,25342,1,0,0:0:0:0:
486,192,25442,1,0,0:0:0:0:
281,192,25442,1,0,0:0:0:0:
384,192,25442,1,0,0:0:0:0:
76,192,25442,1,0,0:0:0:0:
179,192,25442,1,0,0:0:0:0:
435,192,25542,1,0,0:0:0:0:
332,192,25542,1,0,0:0:0:0:
36,192,25542,1,0,0:0:0:0:
230,192,25542,1,0,0:0:0:0:
128,192,25542,1,0,0:0:0:0:
486,192,25642,1,0,0:0:0:0:
384,192,25642,1,0,0:0:0:0:
281,192,25642,1,0,0:0:0:0:
76,192,25642,1,0,0:0:0:0:
179,192,25642,1,0,0:0:0:0:
36,192,25742,1,0,0:0:0:0:
230,192,25742,1,0,0:0:0:0:
435,192,25742,1,0,0:0:0:0:
332,192,25742,1,0,0:0:0:0:
128,192,25742,1,0,0:0:0:0:
384,192,25842,1,0,0:0:0:0:
281,192,25842,1,0,0:0:0:0:
486,192,25842,1,0,0:0:0:0:
179,192,25842,1,0,0:0:0:0:
76,192,25842,1,0,0:0:0:0:
36,192,25942,1,0,0:0:0:0:
230,192,25942,1,0,0:0:0:0:
435,192,25942,1,0,0:0:0:0:
332,192,25942,1,0,0:0:0:0:
128,192,25942,1,0,0:0:0:0:
281,192,26042,1,0,0:0:0:0:
384,192,26042,1,0,0:0:0:0:
486,192,26042,1,0,0:0:0:0:
179,192,26042,1,0,0:0:0:0:
76,192,26042,1,0,0:0:0:0:
435,192,26142,1,0,0:0:0:0:
332,192,26142,1,0,0:0:0:0:
36,192,26142,1,0,0:0:0:0:
230,192,26142,1,0,0:0:0:0:
128,192,26142,1,0,0:0:0:0:
486,192,26242,1,0,0:0:0:0:
281,192,26242,1,0,0:0:0:0:
384,192,26242,1,0,0:0:0:0:
76,192,26242,1,0,0:0:0:0:
179,192,26242,1,0,0:0:0:0:
435,192,26342,1,0,0:0:0:0:
332,192,26342,1,0,0:0:0:0:
36,192,26342,1,0,0:0:0:0:
230,192,26342,1,0,0:0:0:0:
128,192,26342,1,0,0:0:0:0:
486,192,26442,1,0,0:0:0:0:
384,192,26442,1,0,0:0:0:0:
281,192,26442,1,0,0:0:0:0:
76,192,26442,1,0,0:0:0:0:
179,192,26442,1,0,0:0:0:0:
230,192,26542,1,0,0:0:0:0:
332,192,26542,1,0,0:0:0:0:
36,192,26542,1,0,0:0:0:0:
435,192,26542,1,0,0:0:0:0:
128,192,26542,1,0,0:0:0:0:
281,192,26642,1,0,0:0:0:0:
486,192,26642,1,0,0:0:0:0:
384,192,26642,1,0,0:0:0:0:
76,192,26642,1,0,0:0:0:0:
179,192,26642,1,0,0:0:0:0:
230,192,26742,1,0,0:0:0:0:
332,192,26742,1,0,0:0:0:0:
36,192,26742,1,0,0:0:0:0:
435,192,26742,1,0,0:0:0:0:
128,192,26742,1,0,0:0:0:0:
281,192,26842,1,0,0:0:0:0:
486,192,26842,1,0,0:0:0:0:
384,192,26842,1,0,0:0:0:0:
76,192,26842,1,0,0:0:0:0:
179,192,26842,1,0,0:0:0:0:
36,192,26942,1,0,0:0:0:0:
230,192,26942,1,0,0:0:0:0:
435,192,26942,1,0,0:0:0:0:
332,192,26942,1,0,0:0:0:0:
128,192,26942,1,0,0:0:0:0:
384,192,27042,1,0,0:0:0:0:
281,192,27042,1,0,0:0:0:0:
486,192,27042,1,0,0:0:0:0:
179,192,27042,1,0,0:0:0:0:
76,192,27042,1,0,0:0:0:0:
36,192,27142,1,0,0:0:0:0:
230,192,27142,1,0,0:0:0:0:
435,192,27142,1,0,0:0:0:0:
332,192,27142,1,0,0:0:0:0:
128,192,27142,1,0,0:0:0:0:
281,192,27242,1,0,0:0:0:0:
384,192,27242,1,0,0:0:0:0:
486,192,27242,1,0,0:0:0:0:
179,192,27242,1,0,0:0:0:0:
76,192,27242,1,0,0:0:0:0:
435,192,27342,1,0,0:0:0:0:
332,192,27342,1,0,0:0:0:0:
36,192,27342,1,0,0:0:0:0:
230,192,27342,1,0,0:0:0:0:
128,192,27342,1,0,0:0:0:0:
486,192,27442,1,0,0:0:0:0:
281,192,27442,1,0,0:0:0:0:
384,192,27442,1,0,0:0:0:0:
76,192,27442,1,0,0:0:0:0:
179,192,27442,1,0,0:0:0:0:
435,192,27542,1,0,0:0:0:0:
332,192,27542,1,0,0:0:0:0:
36,192,27542,1,0,0:0:0:0:
230,192,27542,1,0,0:0:0:0:
128,192,27542,1,0,0:0:0:0:
486,192,27642,1,0,0:0:0:0:
384,192,27642,1,0,0:0:0:0:
281,192,27642,1,0,0:0:0:0:
76,192,27642,1,0,0:0:0:0:
179,192,27642,1,0,0:0:0:0:
36,192,27742,1,0,0:0:0:0:
230,192,27742,1,0,0:0:0:0:
435,192,27742,1,0,0:0:0:0:
332,192,27742,1,0,0:0:0:0:
128,192,27742,1,0,0:0:0:0:
384,192,27842,1,0,0:0:0:0:
281,192,27842,1,0,0:0:0:0:
486,192,27842,1,0,0:0:0:0:
179,192,27842,1,0,0:0:0:0:
76,192,27842,1,0,0:0:0:0:
36,192,27942,1,0,0:0:0:0:
230,192,27942,1,0,0:0:0:0:
435,192,27942,1,0,0:0:0:0:
332,192,27942,1,0,0:0:0:0:
128,192,27942,1,0,0:0:0:0:
281,192,28042,1,0,0:0:0:0:
384,192,28042,1,0,0:0:0:0:
486,192,28042,1,0,0:0:0:0:
179,192,28042,1,0,0:0:0:0:
76,192,28042,1,0,0:0:0:0:
36,192,28142,1,0,0:0:0:0:
435,192,28142,1,0,0:0:0:0:
230,192,28142,1,0,0:0:0:0:
332,192,28142,1,0,0:0:0:0:
128,192,28142,1,0,0:0:0:0:
384,192,28242,1,0,0:0:0:0:
486,192,28242,1,0,0:0:0:0:
281,192,28242,1,0,0:0:0:0:
179,192,28242,1,0,0:0:0:0:
76,192,28242,1,0,0:0:0:0:
36,192,28342,1,0,0:0:0:0:
435,192,28342,1,0,0:0:0:0:
230,192,28342,1,0,0:0:0:0:
332,192,28342,1,0,0:0:0:0:
128,192,28342,1,0,0:0:0:0:
384,192,28442,1,0,0:0:0:0:
486,192,28442,1,0,0:0:0:0:
281,192,28442,1,0,0:0:0:0:
179,192,28442,1,0,0:0:0:0:
76,192,28442,1,0,0:0:0:0:
435,192,28542,1,0,0:0:0:0:
332,192,28542,1,0,0:0:0:0:
36,192,28542,1,0,0:0:0:0:
230,192,28542,1,0,0:0:0:0:
128,192,28542,1,0,0:0:0:0:
486,192,28642,1,0,0:0:0:0:
281,192,28642,1,0,0:0:0:0:
384,192,28642,1,0,0:0:0:0:
76,192,28642,1,0,0:0:0:0:
179,192,28642,1,0,0:0:0:0:
435,192,28742,1,0,0:0:0:0:
332,192,28742,1,0,0:0:0:0:
36,192,28742,1,0,0:0:0:0:
230,192,28742,1,0,0:0:0:0:
128,192,28742,1,0,0:0:0:0:
486,192,28842,1,0,0:0:0:0:
384,192,28842,1,0,0:0:0:0:
281,192,28842,1,0,0:0:0:0:
76,192,28842,1,0,0:0:0:0:
179,192,28842,1,0,0:0:0:0:
36,192,28942,1,0,0:0:0:0:
230,192,28942,1,0,0:0:0:0:
435,192,28942,1,0,0:0:0:0:
332,192,28942,1,0,0:0:0:0:
128,192,28942,1,0,0:0:0:0:
384,192,29042,1,0,0:0:0:0:
281,192,29042,1,0,0:0:0:0:
486,192,29042,1,0,0:0:0:0:
179,192,29042,1,0,0:0:0:0:
76,192,29042,1,0,0:0:0:0:
36,192,29142,1,0,0:0:0:0:
230,192,29142,1,0,0:0:0:0:
435,192,29142,1,0,0:0:0:0:
332,192,29142,1,0,0:0:0:0:
128,192,29142,1,0,0:0:0:0:
281,192,29242,1,0,0:0:0:0:
384,192,29242,1,0,0:0:0:0:
486,192,29242,1,0,0:0:0:0:
179,192,29242,1,0,0:0:0:0:
76,192,29242,1,0,0:0:0:0:
435,192,29342,1,0,0:0:0:0:
332,192,29342,1,0,0:0:0:0:
36,192,29342,1,0,0:0:0:0:
230,192,29342,1,0,0:0:0:0:
128,192,29342,1,0,0:0:0:0:
486,192,29442,1,0,0:0:0:0:
281,192,29442,1,0,0:0:0:0:
384,192,29442,1,0,0:0:0:0:
76,192,29442,1,0,0:0:0:0:
179,192,29442,1,0,0:0:0:0:
435,192,29542,1,0,0:0:0:0:
332,192,29542,1,0,0:0:0:0:
36,192,29542,1,0,0:0:0:0:
230,192,29542,1,0,0:0:0:0:
128,192,29542,1,0,0:0:0:0:
486,192,29642,1,0,0:0:0:0:
384,192,29642,1,0,0:0:0:0:
281,192,29642,1,0,0:0:0:0:
76,192,29642,1,0,0:0:0:0:
179,192,29642,1,0,0:0:0:0:
36,192,29742,1,0,0:0:0:0:
435,192,29742,1,0,0:0:0:0:
230,192,29742,1,0,0:0:0:0:
332,192,29742,1,0,0:0:0:0:
128,192,29742,1,0,0:0:0:0:
384,192,29842,1,0,0:0:0:0:
486,192,29842,1,0,0:0:0:0:
281,192,29842,1,0,0:0:0:0:
179,192,29842,1,0,0:0:0:0:
76,192,29842,1,0,0:0:0:0:
36,192,29942,1,0,0:0:0:0:
435,192,29942,1,0,0:0:0:0:
230,192,29942,1,0,0:0:0:0:
332,192,29942,1,0,0:0:0:0:
128,192,29942,1,0,0:0:0:0:
384,192,30042,1,0,0:0:0:0:
486,192,30042,1,0,0:0:0:0:
281,192,30042,1,0,0:0:0:0:
179,192,30042,1,0,0:0:0:0:
76,192,30042,1,0,0:0:0:0:
435,192,30142,1,0,0:0:0:0:
332,192,30142,1,0,0:0:0:0:
36,192,30142,1,0,0:0:0:0:
230,192,30142,1,0,0:0:0:0:
128,192,30142,1,0,0:0:0:0:
486,192,30242,1,0,0:0:0:0:
281,192,30242,1,0,0:0:0:0:
384,192,30242,1,0,0:0:0:0:
76,192,30242,1,0,0:0:0:0:
179,192,30242,1,0,0:0:0:0:
435,192,30342,1,0,0:0:0:0:
332,192,30342,1,0,0:0:0:0:
36,192,30342,1,0,0:0:0:0:
230,192,30342,1,0,0:0:0:0:
128,192,30342,1,0,0:0:0:0:
486,192,30442,1,0,0:0:0:0:
384,192,30442,1,0,0:0:0:0:
281,192,30442,1,0,0:0:0:0:
76,192,30442,1,0,0:0:0:0:
179,192,30442,1,0,0:0:0:0:
36,192,30542,1,0,0:0:0:0:
230,192,30542,1,0,0:0:0:0:
435,192,30542,1,0,0:0:0:0:
332,192,30542,1,0,0:0:0:0:
128,192,30542,1,0,0:0:0:0:
384,192,30642,1,0,0:0:0:0:
281,192,30642,1,0,0:0:0:0:
486,192,30642,1,0,0:0:0:0:
179,192,30642,1,0,0:0:0:0:
76,192,30642,1,0,0:0:0:0:
36,192,30742,1,0,0:0:0:0:
230,192,30742,1,0,0:0:0:0:
435,192,30742,1,0,0:0:0:0:
332,192,30742,1,0,0:0:0:0:
128,192,30742,1,0,0:0:0:0:
281,192,30842,1,0,0:0:0:0:
384,192,30842,1,0,0:0:0:0:
486,192,30842,1,0,0:0:0:0:
179,192,30842,1,0,0:0:0:0:
76,192,30842,1,0,0:0:0:0:
435,192,30942,1,0,0:0:0:0:
332,192,30942,1,0,0:0:0:0:
36,192,30942,1,0,0:0:0:0:
230,192,30942,1,0,0:0:0:0:
128,192,30942,1,0,0:0:0:0:
486,192,31042,1,0,0:0:0:0:
281,192,31042,1,0,0:0:0:0:
384,192,31042,1,0,0:0:0:0:
76,192,31042,1,0,0:0:0:0:
179,192,31042,1,0,0:0:0:0:
435,192,31142,1,0,0:0:0:0:
332,192,31142,1,0,0:0:0:0:
36,192,31142,1,0,0:0:0:0:
230,192,31142,1,0,0:0:0:0:
128,192,31142,1,0,0:0:0:0:
486,192,31242,1,0,0:0:0:0:
384,192,31242,1,0,0:0:0:0:
281,192,31242,1,0,0:0:0:0:
76,192,31242,1,0,0:0:0:0:
179,192,31242,1,0,0:0:0:0:
36,192,31342,1,0,0:0:0:0:
435,192,31342,1,0,0:0:0:0:
230,192,31342,1,0,0:0:0:0:
332,192,31342,1,0,0:0:0:0:
128,192,31342,1,0,0:0:0:0:
384,192,31442,1,0,0:0:0:0:
486,192,31442,1,0,0:0:0:0:
281,192,31442,1,0,0:0:0:0:
179,192,31442,1,0,0:0:0:0:
76,192,31442,1,0,0:0:0:0:
36,192,31542,1,0,0:0:0:0:
435,192,31542,1,0,0:0:0:0:
230,192,31542,1,0,0:0:0:0:
332,192,31542,1,0,0:0:0:0:
128,192,31542,1,0,0:0:0:0:
384,192,31642,1,0,0:0:0:0:
486,192,31642,1,0,0:0:0:0:
281,192,31642,1,0,0:0:0:0:
179,192,31642,1,0,0:0:0:0:
76,192,31642,1,0,0:0:0:0:
435,192,31742,1,0,0:0:0:0:
332,192,31742,1,0,0:0:0:0:
36,192,31742,1,0,0:0:0:0:
230,192,31742,1,0,0:0:0:0:
128,192,31742,1,0,0:0:0:0:
486,192,31842,1,0,0:0:0:0:
281,192,31842,1,0,0:0:0:0:
384,192,31842,1,0,0:0:0:0:
76,192,31842,1,0,0:0:0:0:
179,192,31842,1,0,0:0:0:0:
435,192,31942,1,0,0:0:0:0:
332,192,31942,1,0,0:0:0:0:
36,192,31942,1,0,0:0:0:0:
230,192,31942,1,0,0:0:0:0:
128,192,31942,1,0,0:0:0:0:
486,192,32042,1,0,0:0:0:0:
384,192,32042,1,0,0:0:0:0:
281,192,32042,1,0,0:0:0:0:
76,192,32042,1,0,0:0:0:0:
179,192,32042,1,0,0:0:0:0:
36,192,32142,1,0,0:0:0:0:
230,192,32142,1,0,0:0:0:0:
435,192,32142,1,0,0:0:0:0:
332,192,32142,1,0,0:0:0:0:
128,192,32142,1,0,0:0:0:0:
384,192,32242,1,0,0:0:0:0:
281,192,32242,1,0,0:0:0:0:
486,192,32242,1,0,0:0:0:0:
179,192,32242,1,0,0:0:0:0:
76,192,32242,1,0,0:0:0:0:
36,192,32342,1,0,0:0:0:0:
230,192,32342,1,0,0:0:0:0:
435,192,32342,1,0,0:0:0:0:
332,192,32342,1,0,0:0:0:0:
128,192,32342,1,0,0:0:0:0:
281,192,32442,1,0,0:0:0:0:
384,192,32442,1,0,0:0:0:0:
486,192,32442,1,0,0:0:0:0:
179,192,32442,1,0,0:0:0:0:
76,192,32442,1,0,0:0:0:0:
435,192,32542,1,0,0:0:0:0:
332,192,32542,1,0,0:0:0:0:
36,192,32542,1,0,0:0:0:0:
230,192,32542,1,0,0:0:0:0:
128,192,32542,1,0,0:0:0:0:
486,192,32642,1,0,0:0:0:0:
281,192,32642,1,0,0:0:0:0:
384,192,32642,1,0,0:0:0:0:
76,192,32642,1,0,0:0:0:0:
179,192,32642,1,0,0:0:0:0:
435,192,32742,1,0,0:0:0:0:
332,192,32742,1,0,0:0:0:0:
36,192,32742,1,0,0:0:0:0:
230,192,32742,1,0,0:0:0:0:
128,192,32742,1,0,0:0:0:0:
486,192,32842,1,0,0:0:0:0:
384,192,32842,1,0,0:0:0:0:
281,192,32842,1,0,0:0:0:0:
76,192,32842,1,0,0:0:0:0:
179,192,32842,1,0,0:0:0:0:
230,192,32942,1,0,0:0:0:0:
332,192,32942,1,0,0:0:0:0:
36,192,32942,1,0,0:0:0:0:
435,192,32942,1,0,0:0:0:0:
128,192,32942,1,0,0:0:0:0:
281,192,33042,1,0,0:0:0:0:
486,192,33042,1,0,0:0:0:0:
384,192,33042,1,0,0:0:0:0:
76,192,33042,1,0,0:0:0:0:
179,192,33042,1,0,0:0:0:0:
230,192,33142,1,0,0:0:0:0:
332,192,33142,1,0,0:0:0:0:
36,192,33142,1,0,0:0:0:0:
435,192,33142,1,0,0:0:0:0:
128,192,33142,1,0,0:0:0:0:
281,192,33242,1,0,0:0:0:0:
486,192,33242,1,0,0:0:0:0:
384,192,33242,1,0,0:0:0:0:
76,192,33242,1,0,0:0:0:0:
179,192,33242,1,0,0:0:0:0:
36,192,33342,1,0,0:0:0:0:
230,192,33342,1,0,0:0:0:0:
435,192,33342,1,0,0:0:0:0:
332,192,33342,1,0,0:0:0:0:
128,192,33342,1,0,0:0:0:0:
384,192,33442,1,0,0:0:0:0:
281,192,33442,1,0,0:0:0:0:
486,192,33442,1,0,0:0:0:0:
179,192,33442,1,0,0:0:0:0:
76,192,33442,1,0,0:0:0:0:
36,192,33542,1,0,0:0:0:0:
230,192,33542,1,0,0:0:0:0:
435,192,33542,1,0,0:0:0:0:
332,192,33542,1,0,0:0:0:0:
128,192,33542,1,0,0:0:0:0:
281,192,33642,1,0,0:0:0:0:
384,192,33642,1,0,0:0:0:0:
486,192,33642,1,0,0:0:0:0:
179,192,33642,1,0,0:0:0:0:
76,192,33642,1,0,0:0:0:0:
435,192,33742,1,0,0:0:0:0:
332,192,33742,1,0,0:0:0:0:
36,192,33742,1,0,0:0:0:0:
230,192,33742,1,0,0:0:0:0:
128,192,33742,1,0,0:0:0:0:
486,192,33842,1,0,0:0:0:0:
281,192,33842,1,0,0:0:0:0:
384,192,33842,1,0,0:0:0:0:
76,192,33842,1,0,0:0:0:0:
179,192,33842,1,0,0:0:0:0:
435,192,33942,1,0,0:0:0:0:
332,192,33942,1,0,0:0:0:0:
36,192,33942,1,0,0:0:0:0:
230,192,33942,1,0,0:0:0:0:
128,192,33942,1,0,0:0:0:0:
486,192,34042,1,0,0:0:0:0:
384,192,34042,1,0,0:0:0:0:
281,192,34042,1,0,0:0:0:0:
76,192,34042,1,0,0:0:0:0:
179,192,34042,1,0,0:0:0:0:
36,192,34142,1,0,0:0:0:0:
230,192,34142,1,0,0:0:0:0:
435,192,34142,1,0,0:0:0:0:
332,192,34142,1,0,0:0:0:0:
128,192,34142,1,0,0:0:0:0:
384,192,34242,1,0,0:0:0:0:
281,192,34242,1,0,0:0:0:0:
486,192,34242,1,0,0:0:0:0:
179,192,34242,1,0,0:0:0:0:
76,192,34242,1,0,0:0:0:0:
36,192,34342,1,0,0:0:0:0:
230,192,34342,1,0,0:0:0:0:
435,192,34342,1,0,0:0:0:0:
332,192,34342,1,0,0:0:0:0:
128,192,34342,1,0,0:0:0:0:
281,192,34442,1,0,0:0:0:0:
384,192,34442,1,0,0:0:0:0:
486,192,34442,1,0,0:0:0:0:
179,192,34442,1,0,0:0:0:0:
76,192,34442,1,0,0:0:0:0:
36,192,34542,1,0,0:0:0:0:
435,192,34542,1,0,0:0:0:0:
230,192,34542,1,0,0:0:0:0:
332,192,34542,1,0,0:0:0:0:
128,192,34542,1,0,0:0:0:0:
384,192,34642,1,0,0:0:0:0:
486,192,34642,1,0,0:0:0:0:
281,192,34642,1,0,0:0:0:0:
179,192,34642,1,0,0:0:0:0:
76,192,34642,1,0,0:0:0:0:
36,192,34742,1,0,0:0:0:0:
435,192,34742,1,0,0:0:0:0:
230,192,34742,1,0,0:0:0:0:
332,192,34742,1,0,0:0:0:0:
128,192,34742,1,0,0:0:0:0:
384,192,34842,1,0,0:0:0:0:
486,192,34842,1,0,0:0:0:0:
281,192,34842,1,0,0:0:0:0:
179,192,34842,1,0,0:0:0:0:
76,192,34842,1,0,0:0:0:0:
435,192,34942,1,0,0:0:0:0:
332,192,34942,1,0,0:0:0:0:
36,192,34942,1,0,0:0:0:0:
230,192,34942,1,0,0:0:0:0:
128,192,34942,1,0,0:0:0:0:
486,192,35042,1,0,0:0:0:0:
281,192,35042,1,0,0:0:0:0:
384,192,35042,1,0,0:0:0:0:
76,192,35042,1,0,0:0:0:0:
179,192,35042,1,0,0:0:0:0:
435,192,35142,1,0,0:0:0:0:
332,192,35142,1,0,0:0:0:0:
36,192,35142,1,0,0:0:0:0:
230,192,35142,1,0,0:0:0:0:
128,192,35142,1,0,0:0:0:0:
486,192,35242,1,0,0:0:0:0:
384,192,35242,1,0,0:0:0:0:
281,192,35242,1,0,0:0:0:0:
76,192,35242,1,0,0:0:0:0:
179,192,35242,1,0,0:0:0:0:
36,192,35342,1,0,0:0:0:0:
230,192,35342,1,0,0:0:0:0:
435,192,35342,1,0,0:0:0:0:
332,192,35342,1,0,0:0:0:0:
128,192,35342,1,0,0:0:0:0:
384,192,35442,1,0,0:0:0:0:
281,192,35442,1,0,0:0:0:0:
486,192,35442,1,0,0:0:0:0:
179,192,35442,1,0,0:0:0:0:
76,192,35442,1,0,0:0:0:0:
36,192,35542,1,0,0:0:0:0:
230,192,35542,1,0,0:0:0:0:
435,192,35542,1,0,0:0:0:0:
332,192,35542,1,0,0:0:0:0:
128,192,35542,1,0,0:0:0:0:
281,192,35642,1,0,0:0:0:0:
384,192,35642,1,0,0:0:0:0:
486,192,35642,1,0,0:0:0:0:
179,192,35642,1,0,0:0:0:0:
76,192,35642,1,0,0:0:0:0:
435,192,35742,1,0,0:0:0:0:
332,192,35742,1,0,0:0:0:0:
36,192,35742,1,0,0:0:0:0:
230,192,35742,1,0,0:0:0:0:
128,192,35742,1,0,0:0:0:0:
486,192,35842,1,0,0:0:0:0:
281,192,35842,1,0,0:0:0:0:
384,192,35842,1,0,0:0:0:0:
76,192,35842,1,0,0:0:0:0:
179,192,35842,1,0,0:0:0:0:
435,192,35942,1,0,0:0:0:0:
332,192,35942,1,0,0:0:0:0:
36,192,35942,1,0,0:0:0:0:
230,192,35942,1,0,0:0:0:0:
128,192,35942,1,0,0:0:0:0:
486,192,36042,1,0,0:0:0:0:
384,192,36042,1,0,0:0:0:0:
281,192,36042,1,0,0:0:0:0:
76,192,36042,1,0,0:0:0:0:
179,192,36042,1,0,0:0:0:0:
230,192,36142,1,0,0:0:0:0:
332,192,36142,1,0,0:0:0:0:
36,192,36142,1,0,0:0:0:0:
435,192,36142,1,0,0:0:0:0:
128,192,36142,1,0,0:0:0:0:
281,192,36242,1,0,0:0:0:0:
486,192,36242,1,0,0:0:0:0:
384,192,36242,1,0,0:0:0:0:
76,192,36242,1,0,0:0:0:0:
179,192,36242,1,0,0:0:0:0:
230,192,36342,1,0,0:0:0:0:
332,192,36342,1,0,0:0:0:0:
36,192,36342,1,0,0:0:0:0:
435,192,36342,1,0,0:0:0:0:
128,192,36342,1,0,0:0:0:0:
281,192,36442,1,0,0:0:0:0:
486,192,36442,1,0,0:0:0:0:
384,192,36442,1,0,0:0:0:0:
76,192,36442,1,0,0:0:0:0:
179,192,36442,1,0,0:0:0:0:
36,192,36542,1,0,0:0:0:0:
230,192,36542,1,0,0:0:0:0:
435,192,36542,1,0,0:0:0:0:
332,192,36542,1,0,0:0:0:0:
128,192,36542,1,0,0:0:0:0:
384,192,36642,1,0,0:0:0:0:
281,192,36642,1,0,0:0:0:0:
486,192,36642,1,0,0:0:0:0:
179,192,36642,1,0,0:0:0:0:
76,192,36642,1,0,0:0:0:0:
36,192,36742,1,0,0:0:0:0:
230,192,36742,1,0,0:0:0:0:
435,192,36742,1,0,0:0:0:0:
332,192,36742,1,0,0:0:0:0:
128,192,36742,1,0,0:0:0:0:
281,192,36842,1,0,0:0:0:0:
384,192,36842,1,0,0:0:0:0:
486,192,36842,1,0,0:0:0:0:
179,192,36842,1,0,0:0:0:0:
76,192,36842,1,0,0:0:0:0:
435,192,36942,1,0,0:0:0:0:
332,192,36942,1,0,0:0:0:0:
36,192,36942,1,0,0:0:0:0:
230,192,36942,1,0,0:0:0:0:
128,192,36942,1,0,0:0:0:0:
486,192,37042,1,0,0:0:0:0:
281,192,37042,1,0,0:0:0:0:
384,192,37042,1,0,0:0:0:0:
76,192,37042,1,0,0:0:0:0:
179,192,37042,1,0,0:0:0:0:
435,192,37142,1,0,0:0:0:0:
332,192,37142,1,0,0:0:0:0:
36,192,37142,1,0,0:0:0:0:
230,192,37142,1,0,0:0:0:0:
128,192,37142,1,0,0:0:0:0:
486,192,37242,1,0,0:0:0:0:
384,192,37242,1,0,0:0:0:0:
281,192,37242,1,0,0:0:0:0:
76,192,37242,1,0,0:0:0:0:
179,192,37242,1,0,0:0:0:0:
36,192,37342,1,0,0:0:0:0:
230,192,37342,1,0,0:0:0:0:
435,192,37342,1,0,0:0:0:0:
332,192,37342,1,0,0:0:0:0:
128,192,37342,1,0,0:0:0:0:
384,192,37442,1,0,0:0:0:0:
281,192,37442,1,0,0:0:0:0:
486,192,37442,1,0,0:0:0:0:
179,192,37442,1,0,0:0:0:0:
76,192,37442,1,0,0:0:0:0:
36,192,37542,1,0,0:0:0:0:
230,192,37542,1,0,0:0:0:0:
435,192,37542,1,0,0:0:0:0:
332,192,37542,1,0,0:0:0:0:
128,192,37542,1,0,0:0:0:0:
281,192,37642,1,0,0:0:0:0:
384,192,37642,1,0,0:0:0:0:
486,192,37642,1,0,0:0:0:0:
179,192,37642,1,0,0:0:0:0:
76,192,37642,1,0,0:0:0:0:
230,192,37742,1,0,0:0:0:0:
332,192,37742,1,0,0:0:0:0:
36,192,37742,1,0,0:0:0:0:
435,192,37742,1,0,0:0:0:0:
128,192,37742,1,0,0:0:0:0:
281,192,37842,1,0,0:0:0:0:
486,192,37842,1,0,0:0:0:0:
384,192,37842,1,0,0:0:0:0:
76,192,37842,1,0,0:0:0:0:
179,192,37842,1,0,0:0:0:0:
230,192,37942,1,0,0:0:0:0:
332,192,37942,1,0,0:0:0:0:
36,192,37942,1,0,0:0:0:0:
435,192,37942,1,0,0:0:0:0:
128,192,37942,1,0,0:0:0:0:
281,192,38042,1,0,0:0:0:0:
486,192,38042,1,0,0:0:0:0:
384,192,38042,1,0,0:0:0:0:
76,192,38042,1,0,0:0:0:0:
179,192,38042,1,0,0:0:0:0:
36,192,38142,1,0,0:0:0:0:
230,192,38142,1,0,0:0:0:0:
435,192,38142,1,0,0:0:0:0:
332,192,38142,1,0,0:0:0:0:
128,192,38142,1,0,0:0:0:0:
384,192,38242,1,0,0:0:0:0:
281,192,38242,1,0,0:0:0:0:
486,192,38242,1,0,0:0:0:0:
179,192,38242,1,0,0:0:0:0:
76,192,38242,1,0,0:0:0:0:
36,192,38342,1,0,0:0:0:0:
230,192,38342,1,0,0:0:0:0:
435,192,38342,1,0,0:0:0:0:
332,192,38342,1,0,0:0:0:0:
128,192,38342,1,0,0:0:0:0:
281,192,38442,1,0,0:0:0:0:
384,192,38442,1,0,0:0:0:0:
486,192,38442,1,0,0:0:0:0:
179,192,38442,1,0,0:0:0:0:
76,192,38442,1,0,0:0:0:0:
435,192,38542,1,0,0:0:0:0:
332,192,38542,1,0,0:0:0:0:
36,192,38542,1,0,0:0:0:0:
230,192,38542,1,0,0:0:0:0:
128,192,38542,1,0,0:0:0:0:
486,192,38642,1,0,0:0:0:0:
281,192,38642,1,0,0:0:0:0:
384,192,38642,1,0,0:0:0:0:
76,192,38642,1,0,0:0:0:0:
179,192,38642,1,0,0:0:0:0:
435,192,38742,1,0,0:0:0:0:
332,192,38742,1,0,0:0:0:0:
36,192,38742,1,0,0:0:0:0:
230,192,38742,1,0,0:0:0:0:
128,192,38742,1,0,0:0:0:0:
486,192,38842,1,0,0:0:0:0:
384,192,38842,1,0,0:0:0:0:
281,192,38842,1,0,0:0:0:0:
76,192,38842,1,0,0:0:0:0:
179,192,38842,1,0,0:0:0:0:
36,192,38942,1,0,0:0:0:0:
230,192,38942,1,0,0:0:0:0:
435,192,38942,1,0,0:0:0:0:
332,192,38942,1,0,0:0:0:0:
128,192,38942,1,0,0:0:0:0:
384,192,39042,1,0,0:0:0:0:
281,192,39042,1,0,0:0:0:0:
486,192,39042,1,0,0:0:0:0:
179,192,39042,1,0,0:0:0:0:
76,192,39042,1,0,0:0:0:0:
36,192,39142,1,0,0:0:0:0:
230,192,39142,1,0,0:0:0:0:
435,192,39142,1,0,0:0:0:0:
332,192,39142,1,0,0:0:0:0:
128,192,39142,1,0,0:0:0:0:
281,192,39242,1,0,0:0:0:0:
384,192,39242,1,0,0:0:0:0:
486,192,39242,1,0,0:0:0:0:
179,192,39242,1,0,0:0:0:0:
76,192,39242,1,0,0:0:0:0:
36,192,39342,1,0,0:0:0:0:
435,192,39342,1,0,0:0:0:0:
230,192,39342,1,0,0:0:0:0:
332,192,39342,1,0,0:0:0:0:
128,192,39342,1,0,0:0:0:0:
384,192,39442,1,0,0:0:0:0:
486,192,39442,1,0,0:0:0:0:
281,192,39442,1,0,0:0:0:0:
179,192,39442,1,0,0:0:0:0:
76,192,39442,1,0,0:0:0:0:
36,192,39542,1,0,0:0:0:0:
435,192,39542,1,0,0:0:0:0:
230,192,39542,1,0,0:0:0:0:
332,192,39542,1,0,0:0:0:0:
128,192,39542,1,0,0:0:0:0:
384,192,39642,1,0,0:0:0:0:
486,192,39642,1,0,0:0:0:0:
281,192,39642,1,0,0:0:0:0:
179,192,39642,1,0,0:0:0:0:
76,192,39642,1,0,0:0:0:0:
435,192,39742,1,0,0:0:0:0:
332,192,39742,1,0,0:0:0:0:
36,192,39742,1,0,0:0:0:0:
230,192,39742,1,0,0:0:0:0:
128,192,39742,1,0,0:0:0:0:
486,192,39842,1,0,0:0:0:0:
281,192,39842,1,0,0:0:0:0:
384,192,39842,1,0,0:0:0:0:
76,192,39842,1,0,0:0:0:0:
179,192,39842,1,0,0:0:0:0:
435,192,39942,1,0,0:0:0:0:
332,192,39942,1,0,0:0:0:0:
36,192,39942,1,0,0:0:0:0:
230,192,39942,1,0,0:0:0:0:
128,192,39942,1,0,0:0:0:0:
486,192,40042,1,0,0:0:0:0:
384,192,40042,1,0,0:0:0:0:
281,192,40042,1,0,0:0:0:0:
76,192,40042,1,0,0:0:0:0:
179,192,40042,1,0,0:0:0:0:
36,192,40142,1,0,0:0:0:0:
230,192,40142,1,0,0:0:0:0:
435,192,40142,1,0,0:0:0:0:
332,192,40142,1,0,0:0:0:0:
128,192,40142,1,0,0:0:0:0:
384,192,40242,1,0,0:0:0:0:
281,192,40242,1,0,0:0:0:0:
486,192,40242,1,0,0:0:0:0:
179,192,40242,1,0,0:0:0:0:
76,192,40242,1,0,0:0:0:0:
36,192,40342,1,0,0:0:0:0:
230,192,40342,1,0,0:0:0:0:
435,192,40342,1,0,0:0:0:0:
332,192,40342,1,0,0:0:0:0:
128,192,40342,1,0,0:0:0:0:
281,192,40442,1,0,0:0:0:0:
384,192,40442,1,0,0:0:0:0:
486,192,40442,1,0,0:0:0:0:
179,192,40442,1,0,0:0:0:0:
76,192,40442,1,0,0:0:0:0:
435,192,40542,1,0,0:0:0:0:
332,192,40542,1,0,0:0:0:0:
36,192,40542,1,0,0:0:0:0:
230,192,40542,1,0,0:0:0:0:
128,192,40542,1,0,0:0:0:0:
486,192,40642,1,0,0:0:0:0:
281,192,40642,1,0,0:0:0:0:
384,192,40642,1,0,0:0:0:0:
76,192,40642,1,0,0:0:0:0:
179,192,40642,1,0,0:0:0:0:
435,192,40742,1,0,0:0:0:0:
332,192,40742,1,0,0:0:0:0:
36,192,40742,1,0,0:0:0:0:
230,192,40742,1,0,0:0:0:0:
128,192,40742,1,0,0:0:0:0:
486,192,40842,1,0,0:0:0:0:
384,192,40842,1,0,0:0:0:0:
281,192,40842,1,0,0:0:0:0:
76,192,40842,1,0,0:0:0:0:
179,192,40842,1,0,0:0:0:0:
230,192,40942,1,0,0:0:0:0:
332,192,40942,1,0,0:0:0:0:
36,192,40942,1,0,0:0:0:0:
435,192,40942,1,0,0:0:0:0:
128,192,40942,1,0,0:0:0:0:
281,192,41042,1,0,0:0:0:0:
486,192,41042,1,0,0:0:0:0:
384,192,41042,1,0,0:0:0:0:
76,192,41042,1,0,0:0:0:0:
179,192,41042,1,0,0:0:0:0:
230,192,41142,1,0,0:0:0:0:
332,192,41142,1,0,0:0:0:0:
36,192,41142,1,0,0:0:0:0:
435,192,41142,1,0,0:0:0:0:
128,192,41142,1,0,0:0:0:0:
281,192,41242,1,0,0:0:0:0:
486,192,41242,1,0,0:0:0:0:
384,192,41242,1,0,0:0:0:0:
76,192,41242,1,0,0:0:0:0:
179,192,41242,1,0,0:0:0:0:
36,192,41342,1,0,0:0:0:0:
230,192,41342,1,0,0:0:0:0:
435,192,41342,1,0,0:0:0:0:
332,192,41342,1,0,0:0:0:0:
128,192,41342,1,0,0:0:0:0:
384,192,41442,1,0,0:0:0:0:
281,192,41442,1,0,0:0:0:0:
486,192,41442,1,0,0:0:0:0:
179,192,41442,1,0,0:0:0:0:
76,192,41442,1,0,0:0:0:0:
36,192,41542,1,0,0:0:0:0:
230,192,41542,1,0,0:0:0:0:
435,192,41542,1,0,0:0:0:0:
332,192,41542,1,0,0:0:0:0:
128,192,41542,1,0,0:0:0:0:
281,192,41642,1,0,0:0:0:0:
384,192,41642,1,0,0:0:0:0:
486,192,41642,1,0,0:0:0:0:
179,192,41642,1,0,0:0:0:0:
76,192,41642,1,0,0:0:0:0:
435,192,41742,1,0,0:0:0:0:
332,192,41742,1,0,0:0:0:0:
36,192,41742,1,0,0:0:0:0:
230,192,41742,1,0,0:0:0:0:
128,192,41742,1,0,0:0:0:0:
486,192,41842,1,0,0:0:0:0:
281,192,41842,1,0,0:0:0:0:
384,192,41842,1,0,0:0:0:0:
76,192,41842,1,0,0:0:0:0:
179,192,41842,1,0,0:0:0:0:
435,192,41942,1,0,0:0:0:0:
332,192,41942,1,0,0:0:0:0:
36,192,41942,1,0,0:0:0:0:
230,192,41942,1,0,0:0:0:0:
128,192,41942,1,0,0:0:0:0:
486,192,42042,1,0,0:0:0:0:
384,192,42042,1,0,0:0:0:0:
281,192,42042,1,0,0:0:0:0:
76,192,42042,1,0,0:0:0:0:
179,192,42042,1,0,0:0:0:0:
36,192,42142,1,0,0:0:0:0:
230,192,42142,1,0,0:0:0:0:
435,192,42142,1,0,0:0:0:0:
332,192,42142,1,0,0:0:0:0:
128,192,42142,1,0,0:0:0:0:
384,192,42242,1,0,0:0:0:0:
281,192,42242,1,0,0:0:0:0:
486,192,42242,1,0,0:0:0:0:
179,192,42242,1,0,0:0:0:0:
76,192,42242,1,0,0:0:0:0:
36,192,42342,1,0,0:0:0:0:
230,192,42342,1,0,0:0:0:0:
435,192,42342,1,0,0:0:0:0:
332,192,42342,1,0,0:0:0:0:
128,192,42342,1,0,0:0:0:0:
281,192,42442,1,0,0:0:0:0:
384,192,42442,1,0,0:0:0:0:
486,192,42442,1,0,0:0:0:0:
179,192,42442,1,0,0:0:0:0:
76,192,42442,1,0,0:0:0:0:
36,192,42542,1,0,0:0:0:0:
435,192,42542,1,0,0:0:0:0:
230,192,42542,1,0,0:0:0:0:
332,192,42542,1,0,0:0:0:0:
128,192,42542,1,0,0:0:0:0:
384,192,42642,1,0,0:0:0:0:
486,192,42642,1,0,0:0:0:0:
281,192,42642,1,0,0:0:0:0:
179,192,42642,1,0,0:0:0:0:
76,192,42642,1,0,0:0:0:0:
36,192,42742,1,0,0:0:0:0:
435,192,42742,1,0,0:0:0:0:
230,192,42742,1,0,0:0:0:0:
332,192,42742,1,0,0:0:0:0:
128,192,42742,1,0,0:0:0:0:
384,192,42842,1,0,0:0:0:0:
486,192,42842,1,0,0:0:0:0:
281,192,42842,1,0,0:0:0:0:
179,192,42842,1,0,0:0:0:0:
76,192,42842,1,0,0:0:0:0:
435,192,42942,1,0,0:0:0:0:
332,192,42942,1,0,0:0:0:0:
36,192,42942,1,0,0:0:0:0:
230,192,42942,1,0,0:0:0:0:
128,192,42942,1,0,0:0:0:0:
486,192,43042,1,0,0:0:0:0:
281,192,43042,1,0,0:0:0:0:
384,192,43042,1,0,0:0:0:0:
76,192,43042,1,0,0:0:0:0:
179,192,43042,1,0,0:0:0:0:
435,192,43142,1,0,0:0:0:0:
332,192,43142,1,0,0:0:0:0:
36,192,43142,1,0,0:0:0:0:
230,192,43142,1,0,0:0:0:0:
128,192,43142,1,0,0:0:0:0:
486,192,43242,1,0,0:0:0:0:
384,192,43242,1,0,0:0:0:0:
281,192,43242,1,0,0:0:0:0:
76,192,43242,1,0,0:0:0:0:
179,192,43242,1,0,0:0:0:0:
36,192,43342,1,0,0:0:0:0:
230,192,43342,1,0,0:0:0:0:
435,192,43342,1,0,0:0:0:0:
332,192,43342,1,0,0:0:0:0:
128,192,43342,1,0,0:0:0:0:
384,192,43442,1,0,0:0:0:0:
281,192,43442,1,0,0:0:0:0:
486,192,43442,1,0,0:0:0:0:
179,192,43442,1,0,0:0:0:0:
76,192,43442,1,0,0:0:0:0:
36,192,43542,1,0,0:0:0:0:
230,192,43542,1,0,0:0:0:0:
435,192,43542,1,0,0:0:0:0:
332,192,43542,1,0,0:0:0:0:
128,192,43542,1,0,0:0:0:0:
281,192,43642,1,0,0:0:0:0:
384,192,43642,1,0,0:0:0:0:
486,192,43642,1,0,0:0:0:0:
179,192,43642,1,0,0:0:0:0:
76,192,43642,1,0,0:0:0:0:
435,192,43742,1,0,0:0:0:0:
332,192,43742,1,0,0:0:0:0:
36,192,43742,1,0,0:0:0:0:
230,192,43742,1,0,0:0:0:0:
128,192,43742,1,0,0:0:0:0:
486,192,43842,1,0,0:0:0:0:
281,192,43842,1,0,0:0:0:0:
384,192,43842,1,0,0:0:0:0:
76,192,43842,1,0,0:0:0:0:
179,192,43842,1,0,0:0:0:0:
435,192,43942,1,0,0:0:0:0:
332,192,43942,1,0,0:0:0:0:
36,192,43942,1,0,0:0:0:0:
230,192,43942,1,0,0:0:0:0:
128,192,43942,1,0,0:0:0:0:
486,192,44042,1,0,0:0:0:0:
384,192,44042,1,0,0:0:0:0:
281,192,44042,1,0,0:0:0:0:
76,192,44042,1,0,0:0:0:0:
179,192,44042,1,0,0:0:0:0:
36,192,44142,1,0,0:0:0:0:
435,192,44142,1,0,0:0:0:0:
230,192,44142,1,0,0:0:0:0:
332,192,44142,1,0,0:0:0:0:
128,192,44142,1,0,0:0:0:0:
384,192,44242,1,0,0:0:0:0:
486,192,44242,1,0,0:0:0:0:
281,192,44242,1,0,0:0:0:0:
179,192,44242,1,0,0:0:0:0:
76,192,44242,1,0,0:0:0:0:
36,192,44342,1,0,0:0:0:0:
435,192,44342,1,0,0:0:0:0:
230,192,44342,1,0,0:0:0:0:
332,192,44342,1,0,0:0:0:0:
128,192,44342,1,0,0:0:0:0:
384,192,44442,1,0,0:0:0:0:
486,192,44442,1,0,0:0:0:0:
281,192,44442,1,0,0:0:0:0:
179,192,44442,1,0,0:0:0:0:
76,192,44442,1,0,0:0:0:0:
435,192,44542,1,0,0:0:0:0:
332,192,44542,1,0,0:0:0:0:
36,192,44542,1,0,0:0:0:0:
230,192,44542,1,0,0:0:0:0:
128,192,44542,1,0,0:0:0:0:
486,192,44642,1,0,0:0:0:0:
281,192,44642,1,0,0:0:0:0:
384,192,44642,1,0,0:0:0:0:
76,192,44642,1,0,0:0:0:0:
179,192,44642,1,0,0:0:0:0:
435,192,44742,1,0,0:0:0:0:
332,192,44742,1,0,0:0:0:0:
36,192,44742,1,0,0:0:0:0:
230,192,44742,1,0,0:0:0:0:
128,192,44742,1,0,0:0:0:0:
486,192,44842,1,0,0:0:0:0:
384,192,44842,1,0,0:0:0:0:
281,192,44842,1,0,0:0:0:0:
76,192,44842,1,0,0:0:0:0:
179,192,44842,1,0,0:0:0:0:
36,192,44942,1,0,0:0:0:0:
230,192,44942,1,0,0:0:0:0:
435,192,44942,1,0,0:0:0:0:
332,192,44942,1,0,0:0:0:0:
128,192,44942,1,0,0:0:0:0:
384,192,45042,1,0,0:0:0:0:
281,192,45042,1,0,0:0:0:0:
486,192,45042,1,0,0:0:0:0:
179,192,45042,1,0,0:0:0:0:
76,192,45042,1,0,0:0:0:0:
36,192,45142,1,0,0:0:0:0:
230,192,45142,1,0,0:0:0:0:
435,192,45142,1,0,0:0:0:0:
332,192,45142,1,0,0:0:0:0:
128,192,45142,1,0,0:0:0:0:
281,192,45242,1,0,0:0:0:0:
384,192,45242,1,0,0:0:0:0:
486,192,45242,1,0,0:0:0:0:
179,192,45242,1,0,0:0:0:0:
76,192,45242,1,0,0:0:0:0:
435,192,45342,1,0,0:0:0:0:
332,192,45342,1,0,0:0:0:0:
36,192,45342,1,0,0:0:0:0:
230,192,45342,1,0,0:0:0:0:
128,192,45342,1,0,0:0:0:0:
486,192,45442,1,0,0:0:0:0:
281,192,45442,1,0,0:0:0:0:
384,192,45442,1,0,0:0:0:0:
76,192,45442,1,0,0:0:0:0:
179,192,45442,1,0,0:0:0:0:
435,192,45542,1,0,0:0:0:0:
332,192,45542,1,0,0:0:0:0:
36,192,45542,1,0,0:0:0:0:
230,192,45542,1,0,0:0:0:0:
128,192,45542,1,0,0:0:0:0:
486,192,45642,1,0,0:0:0:0:
384,192,45642,1,0,0:0:0:0:
281,192,45642,1,0,0:0:0:0:
76,192,45642,1,0,0:0:0:0:
179,192,45642,1,0,0:0:0:0:
230,192,45742,1,0,0:0:0:0:
332,192,45742,1,0,0:0:0:0:
36,192,45742,1,0,0:0:0:0:
435,192,45742,1,0,0:0:0:0:
128,192,45742,1,0,0:0:0:0:
281,192,45842,1,0,0:0:0:0:
486,192,45842,1,0,0:0:0:0:
384,192,45842,1,0,0:0:0:0:
76,192,45842,1,0,0:0:0:0:
179,192,45842,1,0,0:0:0:0:
230,192,45942,1,0,0:0:0:0:
332,192,45942,1,0,0:0:0:0:
36,192,45942,1,0,0:0:0:0:
435,192,45942,1,0,0:0:0:0:
128,192,45942,1,0,0:0:0:0:
281,192,46042,1,0,0:0:0:0:
486,192,46042,1,0,0:0:0:0:
384,192,46042,1,0,0:0:0:0:
76,192,46042,1,0,0:0:0:0:
179,192,46042,1,0,0:0:0:0:
36,192,46142,1,0,0:0:0:0:
230,192,46142,1,0,0:0:0:0:
435,192,46142,1,0,0:0:0:0:
332,192,46142,1,0,0:0:0:0:
128,192,46142,1,0,0:0:0:0:
384,192,46242,1,0,0:0:0:0:
281,192,46242,1,0,0:0:0:0:
486,192,46242,1,0,0:0:0:0:
179,192,46242,1,0,0:0:0:0:
76,192,46242,1,0,0:0:0:0:
36,192,46342,1,0,0:0:0:0:
230,192,46342,1,0,0:0:0:0:
435,192,46342,1,0,0:0:0:0:
332,192,46342,1,0,0:0:0:0:
128,192,46342,1,0,0:0:0:0:
281,192,46442,1,0,0:0:0:0:
384,192,46442,1,0,0:0:0:0:
486,192,46442,1,0,0:0:0:0:
179,192,46442,1,0,0:0:0:0:
76,192,46442,1,0,0:0:0:0:
435,192,46542,1,0,0:0:0:0:
332,192,46542,1,0,0:0:0:0:
36,192,46542,1,0,0:0:0:0:
230,192,46542,1,0,0:0:0:0:
128,192,46542,1,0,0:0:0:0:
486,192,46642,1,0,0:0:0:0:
281,192,46642,1,0,0:0:0:0:
384,192,46642,1,0,0:0:0:0:
76,192,46642,1,0,0:0:0:0:
179,192,46642,1,0,0:0:0:0:
435,192,46742,1,0,0:0:0:0:
332,192,46742,1,0,0:0:0:0:
36,192,46742,1,0,0:0:0:0:
230,192,46742,1,0,0:0:0:0:
128,192,46742,1,0,0:0:0:0:
486,192,46842,1,0,0:0:0:0:
384,192,46842,1,0,0:0:0:0:
281,192,46842,1,0,0:0:0:0:
76,192,46842,1,0,0:0:0:0:
179,192,46842,1,0,0:0:0:0:
36,192,46942,1,0,0:0:0:0:
230,192,46942,1,0,0:0:0:0:
435,192,46942,1,0,0:0:0:0:
332,192,46942,1,0,0:0:0:0:
128,192,46942,1,0,0:0:0:0:
384,192,47042,1,0,0:0:0:0:
281,192,47042,1,0,0:0:0:0:
486,192,47042,1,0,0:0:0:0:
179,192,47042,1,0,0:0:0:0:
76,192,47042,1,0,0:0:0:0:
36,192,47142,1,0,0:0:0:0:
230,192,47142,1,0,0:0:0:0:
435,192,47142,1,0,0:0:0:0:
332,192,47142,1,0,0:0:0:0:
128,192,47142,1,0,0:0:0:0:
281,192,47242,1,0,0:0:0:0:
384,192,47242,1,0,0:0:0:0:
486,192,47242,1,0,0:0:0:0:
179,192,47242,1,0,0:0:0:0:
76,192,47242,1,0,0:0:0:0:
36,192,47342,1,0,0:0:0:0:
435,192,47342,1,0,0:0:0:0:
230,192,47342,1,0,0:0:0:0:
332,192,47342,1,0,0:0:0:0:
128,192,47342,1,0,0:0:0:0:
384,192,47442,1,0,0:0:0:0:
486,192,47442,1,0,0:0:0:0:
281,192,47442,1,0,0:0:0:0:
179,192,47442,1,0,0:0:0:0:
76,192,47442,1,0,0:0:0:0:
36,192,47542,1,0,0:0:0:0:
435,192,47542,1,0,0:0:0:0:
230,192,47542,1,0,0:0:0:0:
332,192,47542,1,0,0:0:0:0:
128,192,47542,1,0,0:0:0:0:
384,192,47642,1,0,0:0:0:0:
486,192,47642,1,0,0:0:0:0:
281,192,47642,1,0,0:0:0:0:
179,192,47642,1,0,0:0:0:0:
76,192,47642,1,0,0:0:0:0:
435,192,47742,1,0,0:0:0:0:
332,192,47742,1,0,0:0:0:0:
36,192,47742,1,0,0:0:0:0:
230,192,47742,1,0,0:0:0:0:
128,192,47742,1,0,0:0:0:0:
486,192,47842,1,0,0:0:0:0:
281,192,47842,1,0,0:0:0:0:
384,192,47842,1,0,0:0:0:0:
76,192,47842,1,0,0:0:0:0:
179,192,47842,1,0,0:0:0:0:
435,192,47942,1,0,0:0:0:0:
332,192,47942,1,0,0:0:0:0:
36,192,47942,1,0,0:0:0:0:
230,192,47942,1,0,0:0:0:0:
128,192,47942,1,0,0:0:0:0:
486,192,48042,1,0,0:0:0:0:
384,192,48042,1,0,0:0:0:0:
281,192,48042,1,0,0:0:0:0:
76,192,48042,1,0,0:0:0:0:
179,192,48042,1,0,0:0:0:0:
36,192,48142,1,0,0:0:0:0:
230,192,48142,1,0,0:0:0:0:
435,192,48142,1,0,0:0:0:0:
332,192,48142,1,0,0:0:0:0:
128,192,48142,1,0,0:0:0:0:
384,192,48242,1,0,0:0:0:0:
281,192,48242,1,0,0:0:0:0:
486,192,48242,1,0,0:0:0:0:
179,192,48242,1,0,0:0:0:0:
76,192,48242,1,0,0:0:0:0:
36,192,48342,1,0,0:0:0:0:
230,192,48342,1,0,0:0:0:0:
435,192,48342,1,0,0:0:0:0:
332,192,48342,1,0,0:0:0:0:
128,192,48342,1,0,0:0:0:0:
281,192,48442,1,0,0:0:0:0:
384,192,48442,1,0,0:0:0:0:
486,192,48442,1,0,0:0:0:0:
179,192,48442,1,0,0:0:0:0:
76,192,48442,1,0,0:0:0:0:
435,192,48542,1,0,0:0:0:0:
332,192,48542,1,0,0:0:0:0:
36,192,48542,1,0,0:0:0:0:
230,192,48542,1,0,0:0:0:0:
128,192,48542,1,0,0:0:0:0:
486,192,48642,1,0,0:0:0:0:
281,192,48642,1,0,0:0:0:0:
384,192,48642,1,0,0:0:0:0:
76,192,48642,1,0,0:0:0:0:
179,192,48642,1,0,0:0:0:0:
435,192,48742,1,0,0:0:0:0:
332,192,48742,1,0,0:0:0:0:
36,192,48742,1,0,0:0:0:0:
230,192,48742,1,0,0:0:0:0:
128,192,48742,1,0,0:0:0:0:
486,192,48842,1,0,0:0:0:0:
384,192,48842,1,0,0:0:0:0:
281,192,48842,1,0,0:0:0:0:
76,192,48842,1,0,0:0:0:0:
179,192,48842,1,0,0:0:0:0:
36,192,48942,1,0,0:0:0:0:
435,192,48942,1,0,0:0:0:0:
230,192,48942,1,0,0:0:0:0:
332,192,48942,1,0,0:0:0:0:
128,192,48942,1,0,0:0:0:0:
384,192,49342,1,0,0:0:0:0:
486,192,49342,1,0,0:0:0:0:
281,192,49342,1,0,0:0:0:0:
179,192,49342,1,0,0:0:0:0:
76,192,49342,1,0,0:0:0:0:
36,192,49742,1,0,0:0:0:0:
435,192,49742,1,0,0:0:0:0:
230,192,49742,1,0,0:0:0:0:
332,192,49742,1,0,0:0:0:0:
128,192,49742,1,0,0:0:0:0:
384,192,50142,1,0,0:0:0:0:
486,192,50142,1,0,0:0:0:0:
281,192,50142,1,0,0:0:0:0:
179,192,50142,1,0,0:0:0:0:
76,192,50142,1,0,0:0:0:0:
36,192,50542,1,0,0:0:0:0:
435,192,50542,1,0,0:0:0:0:
230,192,50542,1,0,0:0:0:0:
332,192,50542,1,0,0:0:0:0:
128,192,50542,1,0,0:0:0:0:
384,192,50942,1,0,0:0:0:0:
486,192,50942,1,0,0:0:0:0:
281,192,50942,1,0,0:0:0:0:
179,192,50942,1,0,0:0:0:0:
76,192,50942,1,0,0:0:0:0:
36,192,51342,1,0,0:0:0:0:
435,192,51342,1,0,0:0:0:0:
230,192,51342,1,0,0:0:0:0:
332,192,51342,1,0,0:0:0:0:
128,192,51342,1,0,0:0:0:0:
384,192,51742,1,0,0:0:0:0:
486,192,51742,1,0,0:0:0:0:
281,192,51742,1,0,0:0:0:0:
179,192,51742,1,0,0:0:0:0:
76,192,51742,1,0,0:0:0:0:
36,192,52142,1,0,0:0:0:0:
435,192,52142,1,0,0:0:0:0:
230,192,52142,1,0,0:0:0:0:
332,192,52142,1,0,0:0:0:0:
128,192,52142,1,0,0:0:0:0:
36,192,53742,1,0,0:0:0:0:
435,192,53742,1,0,0:0:0:0:
230,192,53742,1,0,0:0:0:0:
332,192,53742,1,0,0:0:0:0:
128,192,53742,1,0,0:0:0:0:
384,192,54042,1,0,0:0:0:0:
486,192,54042,1,0,0:0:0:0:
281,192,54042,1,0,0:0:0:0:
179,192,54042,1,0,0:0:0:0:
76,192,54042,1,0,0:0:0:0:
36,192,54342,1,0,0:0:0:0:
435,192,54342,1,0,0:0:0:0:
230,192,54342,1,0,0:0:0:0:
332,192,54342,1,0,0:0:0:0:
128,192,54342,1,0,0:0:0:0:
36,192,54742,1,0,0:0:0:0:
435,192,54742,1,0,0:0:0:0:
230,192,54742,1,0,0:0:0:0:
332,192,54742,1,0,0:0:0:0:
128,192,54742,1,0,0:0:0:0:
384,192,54942,1,0,0:0:0:0:
486,192,54942,1,0,0:0:0:0:
281,192,54942,1,0,0:0:0:0:
179,192,54942,1,0,0:0:0:0:
76,192,54942,1,0,0:0:0:0:
36,192,55142,1,0,0:0:0:0:
435,192,55142,1,0,0:0:0:0:
230,192,55142,1,0,0:0:0:0:
332,192,55142,1,0,0:0:0:0:
128,192,55142,1,0,0:0:0:0:
36,192,55342,1,0,0:0:0:0:
435,192,55342,1,0,0:0:0:0:
230,192,55342,1,0,0:0:0:0:
332,192,55342,1,0,0:0:0:0:
128,192,55342,1,0,0:0:0:0:
384,192,55442,1,0,0:0:0:0:
486,192,55442,1,0,0:0:0:0:
281,192,55442,1,0,0:0:0:0:
179,192,55442,1,0,0:0:0:0:
76,192,55442,1,0,0:0:0:0:
36,192,55542,1,0,0:0:0:0:
435,192,55542,1,0,0:0:0:0:
230,192,55542,1,0,0:0:0:0:
332,192,55542,1,0,0:0:0:0:
128,192,55542,1,0,0:0:0:0:
384,192,55642,1,0,0:0:0:0:
486,192,55642,1,0,0:0:0:0:
281,192,55642,1,0,0:0:0:0:
179,192,55642,1,0,0:0:0:0:
76,192,55642,1,0,0:0:0:0:
435,192,55742,1,0,0:0:0:0:
332,192,55742,1,0,0:0:0:0:
36,192,55742,1,0,0:0:0:0:
230,192,55742,1,0,0:0:0:0:
128,192,55742,1,0,0:0:0:0:
486,192,55842,1,0,0:0:0:0:
281,192,55842,1,0,0:0:0:0:
384,192,55842,1,0,0:0:0:0:
76,192,55842,1,0,0:0:0:0:
179,192,55842,1,0,0:0:0:0:
435,192,55942,1,0,0:0:0:0:
332,192,55942,1,0,0:0:0:0:
36,192,55942,1,0,0:0:0:0:
230,192,55942,1,0,0:0:0:0:
128,192,55942,1,0,0:0:0:0:
486,192,56042,1,0,0:0:0:0:
384,192,56042,1,0,0:0:0:0:
281,192,56042,1,0,0:0:0:0:
76,192,56042,1,0,0:0:0:0:
179,192,56042,1,0,0:0:0:0:
36,192,56142,1,0,0:0:0:0:
230,192,56142,1,0,0:0:0:0:
435,192,56142,1,0,0:0:0:0:
332,192,56142,1,0,0:0:0:0:
128,192,56142,1,0,0:0:0:0:
384,192,56242,1,0,0:0:0:0:
281,192,56242,1,0,0:0:0:0:
486,192,56242,1,0,0:0:0:0:
179,192,56242,1,0,0:0:0:0:
76,192,56242,1,0,0:0:0:0:
36,192,56342,1,0,0:0:0:0:
230,192,56342,1,0,0:0:0:0:
435,192,56342,1,0,0:0:0:0:
332,192,56342,1,0,0:0:0:0:
128,192,56342,1,0,0:0:0:0:
281,192,56442,1,0,0:0:0:0:
384,192,56442,1,0,0:0:0:0:
486,192,56442,1,0,0:0:0:0:
179,192,56442,1,0,0:0:0:0:
76,192,56442,1,0,0:0:0:0:
435,192,56542,1,0,0:0:0:0:
332,192,56542,1,0,0:0:0:0:
36,192,56542,1,0,0:0:0:0:
230,192,56542,1,0,0:0:0:0:
128,192,56542,1,0,0:0:0:0:
486,192,56642,1,0,0:0:0:0:
281,192,56642,1,0,0:0:0:0:
384,192,56642,1,0,0:0:0:0:
76,192,56642,1,0,0:0:0:0:
179,192,56642,1,0,0:0:0:0:
435,192,56742,1,0,0:0:0:0:
332,192,56742,1,0,0:0:0:0:
36,192,56742,1,0,0:0:0:0:
230,192,56742,1,0,0:0:0:0:
128,192,56742,1,0,0:0:0:0:
486,192,56842,1,0,0:0:0:0:
384,192,56842,1,0,0:0:0:0:
281,192,56842,1,0,0:0:0:0:
76,192,56842,1,0,0:0:0:0:
179,192,56842,1,0,0:0:0:0:
36,192,56942,1,0,0:0:0:0:
435,192,56942,1,0,0:0:0:0:
230,192,56942,1,0,0:0:0:0:
332,192,56942,1,0,0:0:0:0:
128,192,56942,1,0,0:0:0:0:
384,192,57042,1,0,0:0:0:0:
486,192,57042,1,0,0:0:0:0:
281,192,57042,1,0,0:0:0:0:
179,192,57042,1,0,0:0:0:0:
76,192,57042,1,0,0:0:0:0:
36,192,57142,1,0,0:0:0:0:
435,192,57142,1,0,0:0:0:0:
230,192,57142,1,0,0:0:0:0:
332,192,57142,1,0,0:0:0:0:
128,192,57142,1,0,0:0:0:0:
384,192,57242,1,0,0:0:0:0:
486,192,57242,1,0,0:0:0:0:
281,192,57242,1,0,0:0:0:0:
179,192,57242,1,0,0:0:0:0:
76,192,57242,1,0,0:0:0:0:
435,192,57342,1,0,0:0:0:0:
332,192,57342,1,0,0:0:0:0:
36,192,57342,1,0,0:0:0:0:
230,192,57342,1,0,0:0:0:0:
128,192,57342,1,0,0:0:0:0:
486,192,57442,1,0,0:0:0:0:
281,192,57442,1,0,0:0:0:0:
384,192,57442,1,0,0:0:0:0:
76,192,57442,1,0,0:0:0:0:
179,192,57442,1,0,0:0:0:0:
435,192,57542,1,0,0:0:0:0:
332,192,57542,1,0,0:0:0:0:
36,192,57542,1,0,0:0:0:0:
230,192,57542,1,0,0:0:0:0:
128,192,57542,1,0,0:0:0:0:
486,192,57642,1,0,0:0:0:0:
384,192,57642,1,0,0:0:0:0:
281,192,57642,1,0,0:0:0:0:
76,192,57642,1,0,0:0:0:0:
179,192,57642,1,0,0:0:0:0:
36,192,57742,1,0,0:0:0:0:
230,192,57742,1,0,0:0:0:0:
435,192,57742,1,0,0:0:0:0:
332,192,57742,1,0,0:0:0:0:
128,192,57742,1,0,0:0:0:0:
384,192,57842,1,0,0:0:0:0:
281,192,57842,1,0,0:0:0:0:
486,192,57842,1,0,0:0:0:0:
179,192,57842,1,0,0:0:0:0:
76,192,57842,1,0,0:0:0:0:
36,192,57942,1,0,0:0:0:0:
230,192,57942,1,0,0:0:0:0:
435,192,57942,1,0,0:0:0:0:
332,192,57942,1,0,0:0:0:0:
128,192,57942,1,0,0:0:0:0:
281,192,58042,1,0,0:0:0:0:
384,192,58042,1,0,0:0:0:0:
486,192,58042,1,0,0:0:0:0:
179,192,58042,1,0,0:0:0:0:
76,192,58042,1,0,0:0:0:0:
435,192,58142,1,0,0:0:0:0:
332,192,58142,1,0,0:0:0:0:
36,192,58142,1,0,0:0:0:0:
230,192,58142,1,0,0:0:0:0:
128,192,58142,1,0,0:0:0:0:
486,192,58242,1,0,0:0:0:0:
281,192,58242,1,0,0:0:0:0:
384,192,58242,1,0,0:0:0:0:
76,192,58242,1,0,0:0:0:0:
179,192,58242,1,0,0:0:0:0:
435,192,58342,1,0,0:0:0:0:
332,192,58342,1,0,0:0:0:0:
36,192,58342,1,0,0:0:0:0:
230,192,58342,1,0,0:0:0:0:
128,192,58342,1,0,0:0:0:0:
486,192,58442,1,0,0:0:0:0:
384,192,58442,1,0,0:0:0:0:
281,192,58442,1,0,0:0:0:0:
76,192,58442,1,0,0:0:0:0:
179,192,58442,1,0,0:0:0:0:
230,192,58542,1,0,0:0:0:0:
332,192,58542,1,0,0:0:0:0:
36,192,58542,1,0,0:0:0:0:
435,192,58542,1,0,0:0:0:0:
128,192,58542,1,0,0:0:0:0:
281,192,58642,1,0,0:0:0:0:
486,192,58642,1,0,0:0:0:0:
384,192,58642,1,0,0:0:0:0:
76,192,58642,1,0,0:0:0:0:
179,192,58642,1,0,0:0:0:0:
230,192,58742,1,0,0:0:0:0:
332,192,58742,1,0,0:0:0:0:
36,192,58742,1,0,0:0:0:0:
435,192,58742,1,0,0:0:0:0:
128,192,58742,1,0,0:0:0:0:
281,192,58842,1,0,0:0:0:0:
486,192,58842,1,0,0:0:0:0:
384,192,58842,1,0,0:0:0:0:
76,192,58842,1,0,0:0:0:0:
179,192,58842,1,0,0:0:0:0:
36,192,58942,1,0,0:0:0:0:
230,192,58942,1,0,0:0:0:0:
435,192,58942,1,0,0:0:0:0:
332,192,58942,1,0,0:0:0:0:
128,192,58942,1,0,0:0:0:0:
384,192,59042,1,0,0:0:0:0:
281,192,59042,1,0,0:0:0:0:
486,192,59042,1,0,0:0:0:0:
179,192,59042,1,0,0:0:0:0:
76,192,59042,1,0,0:0:0:0:
36,192,59142,1,0,0:0:0:0:
230,192,59142,1,0,0:0:0:0:
435,192,59142,1,0,0:0:0:0:
332,192,59142,1,0,0:0:0:0:
128,192,59142,1,0,0:0:0:0:
281,192,59242,1,0,0:0:0:0:
384,192,59242,1,0,0:0:0:0:
486,192,59242,1,0,0:0:0:0:
179,192,59242,1,0,0:0:0:0:
76,192,59242,1,0,0:0:0:0:
435,192,59342,1,0,0:0:0:0:
332,192,59342,1,0,0:0:0:0:
36,192,59342,1,0,0:0:0:0:
230,192,59342,1,0,0:0:0:0:
128,192,59342,1,0,0:0:0:0:
486,192,59442,1,0,0:0:0:0:
281,192,59442,1,0,0:0:0:0:
384,192,59442,1,0,0:0:0:0:
76,192,59442,1,0,0:0:0:0:
179,192,59442,1,0,0:0:0:0:
435,192,59542,1,0,0:0:0:0:
332,192,59542,1,0,0:0:0:0:
36,192,59542,1,0,0:0:0:0:
230,192,59542,1,0,0:0:0:0:
128,192,59542,1,0,0:0:0:0:
486,192,59642,1,0,0:0:0:0:
384,192,59642,1,0,0:0:0:0:
281,192,59642,1,0,0:0:0:0:
76,192,59642,1,0,0:0:0:0:
179,192,59642,1,0,0:0:0:0:
36,192,59742,1,0,0:0:0:0:
230,192,59742,1,0,0:0:0:0:
435,192,59742,1,0,0:0:0:0:
332,192,59742,1,0,0:0:0:0:
128,192,59742,1,0,0:0:0:0:
384,192,59842,1,0,0:0:0:0:
281,192,59842,1,0,0:0:0:0:
486,192,59842,1,0,0:0:0:0:
179,192,59842,1,0,0:0:0:0:
76,192,59842,1,0,0:0:0:0:
36,192,59942,1,0,0:0:0:0:
230,192,59942,1,0,0:0:0:0:
435,192,59942,1,0,0:0:0:0:
332,192,59942,1,0,0:0:0:0:
128,192,59942,1,0,0:0:0:0:
281,192,60042,1,0,0:0:0:0:
384,192,60042,1,0,0:0:0:0:
486,192,60042,1,0,0:0:0:0:
179,192,60042,1,0,0:0:0:0:
76,192,60042,1,0,0:0:0:0:
36,192,60142,1,0,0:0:0:0:
435,192,60142,1,0,0:0:0:0:
230,192,60142,1,0,0:0:0:0:
332,192,60142,1,0,0:0:0:0:
128,192,60142,1,0,0:0:0:0:
384,192,60242,1,0,0:0:0:0:
486,192,60242,1,0,0:0:0:0:
281,192,60242,1,0,0:0:0:0:
179,192,60242,1,0,0:0:0:0:
76,192,60242,1,0,0:0:0:0:
36,192,60342,1,0,0:0:0:0:
435,192,60342,1,0,0:0:0:0:
230,192,60342,1,0,0:0:0:0:
332,192,60342,1,0,0:0:0:0:
128,192,60342,1,0,0:0:0:0:
384,192,60442,1,0,0:0:0:0:
486,192,60442,1,0,0:0:0:0:
281,192,60442,1,0,0:0:0:0:
179,192,60442,1,0,0:0:0:0:
76,192,60442,1,0,0:0:0:0:
435,192,60542,1,0,0:0:0:0:
332,192,60542,1,0,0:0:0:0:
36,192,60542,1,0,0:0:0:0:
230,192,60542,1,0,0:0:0:0:
128,192,60542,1,0,0:0:0:0:
486,192,60642,1,0,0:0:0:0:
281,192,60642,1,0,0:0:0:0:
384,192,60642,1,0,0:0:0:0:
76,192,60642,1,0,0:0:0:0:
179,192,60642,1,0,0:0:0:0:
435,192,60742,1,0,0:0:0:0:
332,192,60742,1,0,0:0:0:0:
36,192,60742,1,0,0:0:0:0:
230,192,60742,1,0,0:0:0:0:
128,192,60742,1,0,0:0:0:0:
486,192,60842,1,0,0:0:0:0:
384,192,60842,1,0,0:0:0:0:
281,192,60842,1,0,0:0:0:0:
76,192,60842,1,0,0:0:0:0:
179,192,60842,1,0,0:0:0:0:
36,192,60942,1,0,0:0:0:0:
230,192,60942,1,0,0:0:0:0:
435,192,60942,1,0,0:0:0:0:
332,192,60942,1,0,0:0:0:0:
128,192,60942,1,0,0:0:0:0:
384,192,61042,1,0,0:0:0:0:
281,192,61042,1,0,0:0:0:0:
486,192,61042,1,0,0:0:0:0:
179,192,61042,1,0,0:0:0:0:
76,192,61042,1,0,0:0:0:0:
36,192,61142,1,0,0:0:0:0:
230,192,61142,1,0,0:0:0:0:
435,192,61142,1,0,0:0:0:0:
332,192,61142,1,0,0:0:0:0:
128,192,61142,1,0,0:0:0:0:
281,192,61242,1,0,0:0:0:0:
384,192,61242,1,0,0:0:0:0:
486,192,61242,1,0,0:0:0:0:
179,192,61242,1,0,0:0:0:0:
76,192,61242,1,0,0:0:0:0:
435,192,61342,1,0,0:0:0:0:
332,192,61342,1,0,0:0:0:0:
36,192,61342,1,0,0:0:0:0:
230,192,61342,1,0,0:0:0:0:
128,192,61342,1,0,0:0:0:0:
486,192,61442,1,0,0:0:0:0:
281,192,61442,1,0,0:0:0:0:
384,192,61442,1,0,0:0:0:0:
76,192,61442,1,0,0:0:0:0:
179,192,61442,1,0,0:0:0:0:
435,192,61542,1,0,0:0:0:0:
332,192,61542,1,0,0:0:0:0:
36,192,61542,1,0,0:0:0:0:
230,192,61542,1,0,0:0:0:0:
128,192,61542,1,0,0:0:0:0:
486,192,61642,1,0,0:0:0:0:
384,192,61642,1,0,0:0:0:0:
281,192,61642,1,0,0:0:0:0:
76,192,61642,1,0,0:0:0:0:
179,192,61642,1,0,0:0:0:0:
36,192,61742,1,0,0:0:0:0:
435,192,61742,1,0,0:0:0:0:
230,192,61742,1,0,0:0:0:0:
332,192,61742,1,0,0:0:0:0:
128,192,61742,1,0,0:0:0:0:
384,192,61842,1,0,0:0:0:0:
486,192,61842,1,0,0:0:0:0:
281,192,61842,1,0,0:0:0:0:
179,192,61842,1,0,0:0:0:0:
76,192,61842,1,0,0:0:0:0:
36,192,61942,1,0,0:0:0:0:
435,192,61942,1,0,0:0:0:0:
230,192,61942,1,0,0:0:0:0:
332,192,61942,1,0,0:0:0:0:
128,192,61942,1,0,0:0:0:0:
384,192,62042,1,0,0:0:0:0:
486,192,62042,1,0,0:0:0:0:
281,192,62042,1,0,0:0:0:0:
179,192,62042,1,0,0:0:0:0:
76,192,62042,1,0,0:0:0:0:
435,192,62142,1,0,0:0:0:0:
332,192,62142,1,0,0:0:0:0:
36,192,62142,1,0,0:0:0:0:
230,192,62142,1,0,0:0:0:0:
128,192,62142,1,0,0:0:0:0:
486,192,62242,1,0,0:0:0:0:
281,192,62242,1,0,0:0:0:0:
384,192,62242,1,0,0:0:0:0:
76,192,62242,1,0,0:0:0:0:
179,192,62242,1,0,0:0:0:0:
435,192,62342,1,0,0:0:0:0:
332,192,62342,1,0,0:0:0:0:
36,192,62342,1,0,0:0:0:0:
230,192,62342,1,0,0:0:0:0:
128,192,62342,1,0,0:0:0:0:
486,192,62442,1,0,0:0:0:0:
384,192,62442,1,0,0:0:0:0:
281,192,62442,1,0,0:0:0:0:
76,192,62442,1,0,0:0:0:0:
179,192,62442,1,0,0:0:0:0:
36,192,62542,1,0,0:0:0:0:
230,192,62542,1,0,0:0:0:0:
435,192,62542,1,0,0:0:0:0:
332,192,62542,1,0,0:0:0:0:
128,192,62542,1,0,0:0:0:0:
384,192,62642,1,0,0:0:0:0:
281,192,62642,1,0,0:0:0:0:
486,192,62642,1,0,0:0:0:0:
179,192,62642,1,0,0:0:0:0:
76,192,62642,1,0,0:0:0:0:
36,192,62742,1,0,0:0:0:0:
230,192,62742,1,0,0:0:0:0:
435,192,62742,1,0,0:0:0:0:
332,192,62742,1,0,0:0:0:0:
128,192,62742,1,0,0:0:0:0:
281,192,62842,1,0,0:0:0:0:
384,192,62842,1,0,0:0:0:0:
486,192,62842,1,0,0:0:0:0:
179,192,62842,1,0,0:0:0:0:
76,192,62842,1,0,0:0:0:0:
435,192,62942,1,0,0:0:0:0:
332,192,62942,1,0,0:0:0:0:
36,192,62942,1,0,0:0:0:0:
230,192,62942,1,0,0:0:0:0:
128,192,62942,1,0,0:0:0:0:
486,192,63042,1,0,0:0:0:0:
281,192,63042,1,0,0:0:0:0:
384,192,63042,1,0,0:0:0:0:
76,192,63042,1,0,0:0:0:0:
179,192,63042,1,0,0:0:0:0:
435,192,63142,1,0,0:0:0:0:
332,192,63142,1,0,0:0:0:0:
36,192,63142,1,0,0:0:0:0:
230,192,63142,1,0,0:0:0:0:
128,192,63142,1,0,0:0:0:0:
486,192,63242,1,0,0:0:0:0:
384,192,63242,1,0,0:0:0:0:
281,192,63242,1,0,0:0:0:0:
76,192,63242,1,0,0:0:0:0:
179,192,63242,1,0,0:0:0:0:
36,192,63342,1,0,0:0:0:0:
435,192,63342,1,0,0:0:0:0:
230,192,63342,1,0,0:0:0:0:
332,192,63342,1,0,0:0:0:0:
128,192,63342,1,0,0:0:0:0:
384,192,63442,1,0,0:0:0:0:
486,192,63442,1,0,0:0:0:0:
281,192,63442,1,0,0:0:0:0:
179,192,63442,1,0,0:0:0:0:
76,192,63442,1,0,0:0:0:0:
36,192,63542,1,0,0:0:0:0:
435,192,63542,1,0,0:0:0:0:
230,192,63542,1,0,0:0:0:0:
332,192,63542,1,0,0:0:0:0:
128,192,63542,1,0,0:0:0:0:
384,192,63642,1,0,0:0:0:0:
486,192,63642,1,0,0:0:0:0:
281,192,63642,1,0,0:0:0:0:
179,192,63642,1,0,0:0:0:0:
76,192,63642,1,0,0:0:0:0:
435,192,63742,1,0,0:0:0:0:
332,192,63742,1,0,0:0:0:0:
36,192,63742,1,0,0:0:0:0:
230,192,63742,1,0,0:0:0:0:
128,192,63742,1,0,0:0:0:0:
486,192,63842,1,0,0:0:0:0:
281,192,63842,1,0,0:0:0:0:
384,192,63842,1,0,0:0:0:0:
76,192,63842,1,0,0:0:0:0:
179,192,63842,1,0,0:0:0:0:
435,192,63942,1,0,0:0:0:0:
332,192,63942,1,0,0:0:0:0:
36,192,63942,1,0,0:0:0:0:
230,192,63942,1,0,0:0:0:0:
128,192,63942,1,0,0:0:0:0:
486,192,64042,1,0,0:0:0:0:
384,192,64042,1,0,0:0:0:0:
281,192,64042,1,0,0:0:0:0:
76,192,64042,1,0,0:0:0:0:
179,192,64042,1,0,0:0:0:0:
36,192,64142,1,0,0:0:0:0:
230,192,64142,1,0,0:0:0:0:
435,192,64142,1,0,0:0:0:0:
332,192,64142,1,0,0:0:0:0:
128,192,64142,1,0,0:0:0:0:
384,192,64242,1,0,0:0:0:0:
281,192,64242,1,0,0:0:0:0:
486,192,64242,1,0,0:0:0:0:
179,192,64242,1,0,0:0:0:0:
76,192,64242,1,0,0:0:0:0:
36,192,64342,1,0,0:0:0:0:
230,192,64342,1,0,0:0:0:0:
435,192,64342,1,0,0:0:0:0:
332,192,64342,1,0,0:0:0:0:
128,192,64342,1,0,0:0:0:0:
281,192,64442,1,0,0:0:0:0:
384,192,64442,1,0,0:0:0:0:
486,192,64442,1,0,0:0:0:0:
179,192,64442,1,0,0:0:0:0:
76,192,64442,1,0,0:0:0:0:
435,192,64542,1,0,0:0:0:0:
332,192,64542,1,0,0:0:0:0:
36,192,64542,1,0,0:0:0:0:
230,192,64542,1,0,0:0:0:0:
128,192,64542,1,0,0:0:0:0:
486,192,64642,1,0,0:0:0:0:
281,192,64642,1,0,0:0:0:0:
384,192,64642,1,0,0:0:0:0:
76,192,64642,1,0,0:0:0:0:
179,192,64642,1,0,0:0:0:0:
435,192,64742,1,0,0:0:0:0:
332,192,64742,1,0,0:0:0:0:
36,192,64742,1,0,0:0:0:0:
230,192,64742,1,0,0:0:0:0:
128,192,64742,1,0,0:0:0:0:
486,192,64842,1,0,0:0:0:0:
384,192,64842,1,0,0:0:0:0:
281,192,64842,1,0,0:0:0:0:
76,192,64842,1,0,0:0:0:0:
179,192,64842,1,0,0:0:0:0:
230,192,64942,1,0,0:0:0:0:
332,192,64942,1,0,0:0:0:0:
36,192,64942,1,0,0:0:0:0:
435,192,64942,1,0,0:0:0:0:
128,192,64942,1,0,0:0:0:0:
281,192,65042,1,0,0:0:0:0:
486,192,65042,1,0,0:0:0:0:
384,192,65042,1,0,0:0:0:0:
76,192,65042,1,0,0:0:0:0:
179,192,65042,1,0,0:0:0:0:
230,192,65142,1,0,0:0:0:0:
332,192,65142,1,0,0:0:0:0:
36,192,65142,1,0,0:0:0:0:
435,192,65142,1,0,0:0:0:0:
128,192,65142,1,0,0:0:0:0:
281,192,65242,1,0,0:0:0:0:
486,192,65242,1,0,0:0:0:0:
384,192,65242,1,0,0:0:0:0:
76,192,65242,1,0,0:0:0:0:
179,192,65242,1,0,0:0:0:0:
36,192,65342,1,0,0:0:0:0:
230,192,65342,1,0,0:0:0:0:
435,192,65342,1,0,0:0:0:0:
332,192,65342,1,0,0:0:0:0:
128,192,65342,1,0,0:0:0:0:
384,192,65442,1,0,0:0:0:0:
281,192,65442,1,0,0:0:0:0:
486,192,65442,1,0,0:0:0:0:
179,192,65442,1,0,0:0:0:0:
76,192,65442,1,0,0:0:0:0:
36,192,65542,1,0,0:0:0:0:
230,192,65542,1,0,0:0:0:0:
435,192,65542,1,0,0:0:0:0:
332,192,65542,1,0,0:0:0:0:
128,192,65542,1,0,0:0:0:0:
281,192,65642,1,0,0:0:0:0:
384,192,65642,1,0,0:0:0:0:
486,192,65642,1,0,0:0:0:0:
179,192,65642,1,0,0:0:0:0:
76,192,65642,1,0,0:0:0:0:
435,192,65742,1,0,0:0:0:0:
332,192,65742,1,0,0:0:0:0:
36,192,65742,1,0,0:0:0:0:
230,192,65742,1,0,0:0:0:0:
128,192,65742,1,0,0:0:0:0:
486,192,65842,1,0,0:0:0:0:
281,192,65842,1,0,0:0:0:0:
384,192,65842,1,0,0:0:0:0:
76,192,65842,1,0,0:0:0:0:
179,192,65842,1,0,0:0:0:0:
435,192,65942,1,0,0:0:0:0:
332,192,65942,1,0,0:0:0:0:
36,192,65942,1,0,0:0:0:0:
230,192,65942,1,0,0:0:0:0:
128,192,65942,1,0,0:0:0:0:
486,192,66042,1,0,0:0:0:0:
384,192,66042,1,0,0:0:0:0:
281,192,66042,1,0,0:0:0:0:
76,192,66042,1,0,0:0:0:0:
179,192,66042,1,0,0:0:0:0:
36,192,66142,1,0,0:0:0:0:
230,192,66142,1,0,0:0:0:0:
435,192,66142,1,0,0:0:0:0:
332,192,66142,1,0,0:0:0:0:
128,192,66142,1,0,0:0:0:0:
384,192,66242,1,0,0:0:0:0:
281,192,66242,1,0,0:0:0:0:
486,192,66242,1,0,0:0:0:0:
179,192,66242,1,0,0:0:0:0:
76,192,66242,1,0,0:0:0:0:
36,192,66342,1,0,0:0:0:0:
230,192,66342,1,0,0:0:0:0:
435,192,66342,1,0,0:0:0:0:
332,192,66342,1,0,0:0:0:0:
128,192,66342,1,0,0:0:0:0:
281,192,66442,1,0,0:0:0:0:
384,192,66442,1,0,0:0:0:0:
486,192,66442,1,0,0:0:0:0:
179,192,66442,1,0,0:0:0:0:
76,192,66442,1,0,0:0:0:0:
36,192,66542,1,0,0:0:0:0:
435,192,66542,1,0,0:0:0:0:
230,192,66542,1,0,0:0:0:0:
332,192,66542,1,0,0:0:0:0:
128,192,66542,1,0,0:0:0:0:
384,192,66642,1,0,0:0:0:0:
486,192,66642,1,0,0:0:0:0:
281,192,66642,1,0,0:0:0:0:
179,192,66642,1,0,0:0:0:0:
76,192,66642,1,0,0:0:0:0:
36,192,66742,1,0,0:0:0:0:
435,192,66742,1,0,0:0:0:0:
230,192,66742,1,0,0:0:0:0:
332,192,66742,1,0,0:0:0:0:
128,192,66742,1,0,0:0:0:0:
384,192,66842,1,0,0:0:0:0:
486,192,66842,1,0,0:0:0:0:
281,192,66842,1,0,0:0:0:0:
179,192,66842,1,0,0:0:0:0:
76,192,66842,1,0,0:0:0:0:
435,192,66942,1,0,0:0:0:0:
332,192,66942,1,0,0:0:0:0:
36,192,66942,1,0,0:0:0:0:
230,192,66942,1,0,0:0:0:0:
128,192,66942,1,0,0:0:0:0:
486,192,67042,1,0,0:0:0:0:
281,192,67042,1,0,0:0:0:0:
384,192,67042,1,0,0:0:0:0:
76,192,67042,1,0,0:0:0:0:
179,192,67042,1,0,0:0:0:0:
435,192,67142,1,0,0:0:0:0:
332,192,67142,1,0,0:0:0:0:
36,192,67142,1,0,0:0:0:0:
230,192,67142,1,0,0:0:0:0:
128,192,67142,1,0,0:0:0:0:
486,192,67242,1,0,0:0:0:0:
384,192,67242,1,0,0:0:0:0:
281,192,67242,1,0,0:0:0:0:
76,192,67242,1,0,0:0:0:0:
179,192,67242,1,0,0:0:0:0:
36,192,67342,1,0,0:0:0:0:
230,192,67342,1,0,0:0:0:0:
435,192,67342,1,0,0:0:0:0:
332,192,67342,1,0,0:0:0:0:
128,192,67342,1,0,0:0:0:0:
384,192,67442,1,0,0:0:0:0:
281,192,67442,1,0,0:0:0:0:
486,192,67442,1,0,0:0:0:0:
179,192,67442,1,0,0:0:0:0:
76,192,67442,1,0,0:0:0:0:
36,192,67542,1,0,0:0:0:0:
230,192,67542,1,0,0:0:0:0:
435,192,67542,1,0,0:0:0:0:
332,192,67542,1,0,0:0:0:0:
128,192,67542,1,0,0:0:0:0:
281,192,67642,1,0,0:0:0:0:
384,192,67642,1,0,0:0:0:0:
486,192,67642,1,0,0:0:0:0:
179,192,67642,1,0,0:0:0:0:
76,192,67642,1,0,0:0:0:0:
435,192,67742,1,0,0:0:0:0:
332,192,67742,1,0,0:0:0:0:
36,192,67742,1,0,0:0:0:0:
230,192,67742,1,0,0:0:0:0:
128,192,67742,1,0,0:0:0:0:
486,192,67842,1,0,0:0:0:0:
281,192,67842,1,0,0:0:0:0:
384,192,67842,1,0,0:0:0:0:
76,192,67842,1,0,0:0:0:0:
179,192,67842,1,0,0:0:0:0:
435,192,67942,1,0,0:0:0:0:
332,192,67942,1,0,0:0:0:0:
36,192,67942,1,0,0:0:0:0:
230,192,67942,1,0,0:0:0:0:
128,192,67942,1,0,0:0:0:0:
486,192,68042,1,0,0:0:0:0:
384,192,68042,1,0,0:0:0:0:
281,192,68042,1,0,0:0:0:0:
76,192,68042,1,0,0:0:0:0:
179,192,68042,1,0,0:0:0:0:
230,192,68142,1,0,0:0:0:0:
332,192,68142,1,0,0:0:0:0:
36,192,68142,1,0,0:0:0:0:
435,192,68142,1,0,0:0:0:0:
128,192,68142,1,0,0:0:0:0:
281,192,68242,1,0,0:0:0:0:
486,192,68242,1,0,0:0:0:0:
384,192,68242,1,0,0:0:0:0:
76,192,68242,1,0,0:0:0:0:
179,192,68242,1,0,0:0:0:0:
230,192,68342,1,0,0:0:0:0:
332,192,68342,1,0,0:0:0:0:
36,192,68342,1,0,0:0:0:0:
435,192,68342,1,0,0:0:0:0:
128,192,68342,1,0,0:0:0:0:
281,192,68442,1,0,0:0:0:0:
486,192,68442,1,0,0:0:0:0:
384,192,68442,1,0,0:0:0:0:
76,192,68442,1,0,0:0:0:0:
179,192,68442,1,0,0:0:0:0:
36,192,68542,1,0,0:0:0:0:
230,192,68542,1,0,0:0:0:0:
435,192,68542,1,0,0:0:0:0:
332,192,68542,1,0,0:0:0:0:
128,192,68542,1,0,0:0:0:0:
384,192,68642,1,0,0:0:0:0:
281,192,68642,1,0,0:0:0:0:
486,192,68642,1,0,0:0:0:0:
179,192,68642,1,0,0:0:0:0:
76,192,68642,1,0,0:0:0:0:
36,192,68742,1,0,0:0:0:0:
230,192,68742,1,0,0:0:0:0:
435,192,68742,1,0,0:0:0:0:
332,192,68742,1,0,0:0:0:0:
128,192,68742,1,0,0:0:0:0:
281,192,68842,1,0,0:0:0:0:
384,192,68842,1,0,0:0:0:0:
486,192,68842,1,0,0:0:0:0:
179,192,68842,1,0,0:0:0:0:
76,192,68842,1,0,0:0:0:0:
435,192,68942,1,0,0:0:0:0:
332,192,68942,1,0,0:0:0:0:
36,192,68942,1,0,0:0:0:0:
230,192,68942,1,0,0:0:0:0:
128,192,68942,1,0,0:0:0:0:
486,192,69042,1,0,0:0:0:0:
281,192,69042,1,0,0:0:0:0:
384,192,69042,1,0,0:0:0:0:
76,192,69042,1,0,0:0:0:0:
179,192,69042,1,0,0:0:0:0:
435,192,69142,1,0,0:0:0:0:
332,192,69142,1,0,0:0:0:0:
36,192,69142,1,0,0:0:0:0:
230,192,69142,1,0,0:0:0:0:
128,192,69142,1,0,0:0:0:0:
486,192,69242,1,0,0:0:0:0:
384,192,69242,1,0,0:0:0:0:
281,192,69242,1,0,0:0:0:0:
76,192,69242,1,0,0:0:0:0:
179,192,69242,1,0,0:0:0:0:
36,192,69342,1,0,0:0:0:0:
230,192,69342,1,0,0:0:0:0:
435,192,69342,1,0,0:0:0:0:
332,192,69342,1,0,0:0:0:0:
128,192,69342,1,0,0:0:0:0:
384,192,69442,1,0,0:0:0:0:
281,192,69442,1,0,0:0:0:0:
486,192,69442,1,0,0:0:0:0:
179,192,69442,1,0,0:0:0:0:
76,192,69442,1,0,0:0:0:0:
36,192,69542,1,0,0:0:0:0:
230,192,69542,1,0,0:0:0:0:
435,192,69542,1,0,0:0:0:0:
332,192,69542,1,0,0:0:0:0:
128,192,69542,1,0,0:0:0:0:
281,192,69642,1,0,0:0:0:0:
384,192,69642,1,0,0:0:0:0:
486,192,69642,1,0,0:0:0:0:
179,192,69642,1,0,0:0:0:0:
76,192,69642,1,0,0:0:0:0:
230,192,69742,1,0,0:0:0:0:
332,192,69742,1,0,0:0:0:0:
36,192,69742,1,0,0:0:0:0:
435,192,69742,1,0,0:0:0:0:
128,192,69742,1,0,0:0:0:0:
281,192,69842,1,0,0:0:0:0:
486,192,69842,1,0,0:0:0:0:
384,192,69842,1,0,0:0:0:0:
76,192,69842,1,0,0:0:0:0:
179,192,69842,1,0,0:0:0:0:
230,192,69942,1,0,0:0:0:0:
332,192,69942,1,0,0:0:0:0:
36,192,69942,1,0,0:0:0:0:
435,192,69942,1,0,0:0:0:0:
128,192,69942,1,0,0:0:0:0:
281,192,70042,1,0,0:0:0:0:
486,192,70042,1,0,0:0:0:0:
384,192,70042,1,0,0:0:0:0:
76,192,70042,1,0,0:0:0:0:
179,192,70042,1,0,0:0:0:0:
36,192,70142,1,0,0:0:0:0:
230,192,70142,1,0,0:0:0:0:
435,192,70142,1,0,0:0:0:0:
332,192,70142,1,0,0:0:0:0:
128,192,70142,1,0,0:0:0:0:
384,192,70242,1,0,0:0:0:0:
281,192,70242,1,0,0:0:0:0:
486,192,70242,1,0,0:0:0:0:
179,192,70242,1,0,0:0:0:0:
76,192,70242,1,0,0:0:0:0:
36,192,70342,1,0,0:0:0:0:
230,192,70342,1,0,0:0:0:0:
435,192,70342,1,0,0:0:0:0:
332,192,70342,1,0,0:0:0:0:
128,192,70342,1,0,0:0:0:0:
281,192,70442,1,0,0:0:0:0:
384,192,70442,1,0,0:0:0:0:
486,192,70442,1,0,0:0:0:0:
179,192,70442,1,0,0:0:0:0:
76,192,70442,1,0,0:0:0:0:
435,192,70542,1,0,0:0:0:0:
332,192,70542,1,0,0:0:0:0:
36,192,70542,1,0,0:0:0:0:
230,192,70542,1,0,0:0:0:0:
128,192,70542,1,0,0:0:0:0:
486,192,70642,1,0,0:0:0:0:
281,192,70642,1,0,0:0:0:0:
384,192,70642,1,0,0:0:0:0:
76,192,70642,1,0,0:0:0:0:
179,192,70642,1,0,0:0:0:0:
435,192,70742,1,0,0:0:0:0:
332,192,70742,1,0,0:0:0:0:
36,192,70742,1,0,0:0:0:0:
230,192,70742,1,0,0:0:0:0:
128,192,70742,1,0,0:0:0:0:
486,192,70842,1,0,0:0:0:0:
384,192,70842,1,0,0:0:0:0:
281,192,70842,1,0,0:0:0:0:
76,192,70842,1,0,0:0:0:0:
179,192,70842,1,0,0:0:0:0:
36,192,70942,1,0,0:0:0:0:
230,192,70942,1,0,0:0:0:0:
435,192,70942,1,0,0:0:0:0:
332,192,70942,1,0,0:0:0:0:
128,192,70942,1,0,0:0:0:0:
384,192,71042,1,0,0:0:0:0:
281,192,71042,1,0,0:0:0:0:
486,192,71042,1,0,0:0:0:0:
179,192,71042,1,0,0:0:0:0:
76,192,71042,1,0,0:0:0:0:
36,192,71142,1,0,0:0:0:0:
230,192,71142,1,0,0:0:0:0:
435,192,71142,1,0,0:0:0:0:
332,192,71142,1,0,0:0:0:0:
128,192,71142,1,0,0:0:0:0:
281,192,71242,1,0,0:0:0:0:
384,192,71242,1,0,0:0:0:0:
486,192,71242,1,0,0:0:0:0:
179,192,71242,1,0,0:0:0:0:
76,192,71242,1,0,0:0:0:0:
36,192,71342,1,0,0:0:0:0:
435,192,71342,1,0,0:0:0:0:
230,192,71342,1,0,0:0:0:0:
332,192,71342,1,0,0:0:0:0:
128,192,71342,1,0,0:0:0:0:
384,192,71442,1,0,0:0:0:0:
486,192,71442,1,0,0:0:0:0:
281,192,71442,1,0,0:0:0:0:
179,192,71442,1,0,0:0:0:0:
76,192,71442,1,0,0:0:0:0:
36,192,71542,1,0,0:0:0:0:
435,192,71542,1,0,0:0:0:0:
230,192,71542,1,0,0:0:0:0:
332,192,71542,1,0,0:0:0:0:
128,192,71542,1,0,0:0:0:0:
384,192,71642,1,0,0:0:0:0:
486,192,71642,1,0,0:0:0:0:
281,192,71642,1,0,0:0:0:0:
179,192,71642,1,0,0:0:0:0:
76,192,71642,1,0,0:0:0:0:
435,192,71742,1,0,0:0:0:0:
332,192,71742,1,0,0:0:0:0:
36,192,71742,1,0,0:0:0:0:
230,192,71742,1,0,0:0:0:0:
128,192,71742,1,0,0:0:0:0:
486,192,71842,1,0,0:0:0:0:
281,192,71842,1,0,0:0:0:0:
384,192,71842,1,0,0:0:0:0:
76,192,71842,1,0,0:0:0:0:
179,192,71842,1,0,0:0:0:0:
435,192,71942,1,0,0:0:0:0:
332,192,71942,1,0,0:0:0:0:
36,192,71942,1,0,0:0:0:0:
230,192,71942,1,0,0:0:0:0:
128,192,71942,1,0,0:0:0:0:
486,192,72042,1,0,0:0:0:0:
384,192,72042,1,0,0:0:0:0:
281,192,72042,1,0,0:0:0:0:
76,192,72042,1,0,0:0:0:0:
179,192,72042,1,0,0:0:0:0:
36,192,72142,1,0,0:0:0:0:
230,192,72142,1,0,0:0:0:0:
435,192,72142,1,0,0:0:0:0:
332,192,72142,1,0,0:0:0:0:
128,192,72142,1,0,0:0:0:0:
384,192,72242,1,0,0:0:0:0:
281,192,72242,1,0,0:0:0:0:
486,192,72242,1,0,0:0:0:0:
179,192,72242,1,0,0:0:0:0:
76,192,72242,1,0,0:0:0:0:
36,192,72342,1,0,0:0:0:0:
230,192,72342,1,0,0:0:0:0:
435,192,72342,1,0,0:0:0:0:
332,192,72342,1,0,0:0:0:0:
128,192,72342,1,0,0:0:0:0:
281,192,72442,1,0,0:0:0:0:
384,192,72442,1,0,0:0:0:0:
486,192,72442,1,0,0:0:0:0:
179,192,72442,1,0,0:0:0:0:
76,192,72442,1,0,0:0:0:0:
435,192,72542,1,0,0:0:0:0:
332,192,72542,1,0,0:0:0:0:
36,192,72542,1,0,0:0:0:0:
230,192,72542,1,0,0:0:0:0:
128,192,72542,1,0,0:0:0:0:
486,192,72642,1,0,0:0:0:0:
281,192,72642,1,0,0:0:0:0:
384,192,72642,1,0,0:0:0:0:
76,192,72642,1,0,0:0:0:0:
179,192,72642,1,0,0:0:0:0:
435,192,72742,1,0,0:0:0:0:
332,192,72742,1,0,0:0:0:0:
36,192,72742,1,0,0:0:0:0:
230,192,72742,1,0,0:0:0:0:
128,192,72742,1,0,0:0:0:0:
486,192,72842,1,0,0:0:0:0:
384,192,72842,1,0,0:0:0:0:
281,192,72842,1,0,0:0:0:0:
76,192,72842,1,0,0:0:0:0:
179,192,72842,1,0,0:0:0:0:
230,192,72942,1,0,0:0:0:0:
332,192,72942,1,0,0:0:0:0:
36,192,72942,1,0,0:0:0:0:
435,192,72942,1,0,0:0:0:0:
128,192,72942,1,0,0:0:0:0:
281,192,73042,1,0,0:0:0:0:
486,192,73042,1,0,0:0:0:0:
384,192,73042,1,0,0:0:0:0:
76,192,73042,1,0,0:0:0:0:
179,192,73042,1,0,0:0:0:0:
230,192,73142,1,0,0:0:0:0:
332,192,73142,1,0,0:0:0:0:
36,192,73142,1,0,0:0:0:0:
435,192,73142,1,0,0:0:0:0:
128,192,73142,1,0,0:0:0:0:
281,192,73242,1,0,0:0:0:0:
486,192,73242,1,0,0:0:0:0:
384,192,73242,1,0,0:0:0:0:
76,192,73242,1,0,0:0:0:0:
179,192,73242,1,0,0:0:0:0:
36,192,73342,1,0,0:0:0:0:
230,192,73342,1,0,0:0:0:0:
435,192,73342,1,0,0:0:0:0:
332,192,73342,1,0,0:0:0:0:
128,192,73342,1,0,0:0:0:0:
384,192,73442,1,0,0:0:0:0:
281,192,73442,1,0,0:0:0:0:
486,192,73442,1,0,0:0:0:0:
179,192,73442,1,0,0:0:0:0:
76,192,73442,1,0,0:0:0:0:
36,192,73542,1,0,0:0:0:0:
230,192,73542,1,0,0:0:0:0:
435,192,73542,1,0,0:0:0:0:
332,192,73542,1,0,0:0:0:0:
128,192,73542,1,0,0:0:0:0:
281,192,73642,1,0,0:0:0:0:
384,192,73642,1,0,0:0:0:0:
486,192,73642,1,0,0:0:0:0:
179,192,73642,1,0,0:0:0:0:
76,192,73642,1,0,0:0:0:0:
435,192,73742,1,0,0:0:0:0:
332,192,73742,1,0,0:0:0:0:
36,192,73742,1,0,0:0:0:0:
230,192,73742,1,0,0:0:0:0:
128,192,73742,1,0,0:0:0:0:
486,192,73842,1,0,0:0:0:0:
281,192,73842,1,0,0:0:0:0:
384,192,73842,1,0,0:0:0:0:
76,192,73842,1,0,0:0:0:0:
179,192,73842,1,0,0:0:0:0:
435,192,73942,1,0,0:0:0:0:
332,192,73942,1,0,0:0:0:0:
36,192,73942,1,0,0:0:0:0:
230,192,73942,1,0,0:0:0:0:
128,192,73942,1,0,0:0:0:0:
486,192,74042,1,0,0:0:0:0:
384,192,74042,1,0,0:0:0:0:
281,192,74042,1,0,0:0:0:0:
76,192,74042,1,0,0:0:0:0:
179,192,74042,1,0,0:0:0:0:
36,192,74142,1,0,0:0:0:0:
230,192,74142,1,0,0:0:0:0:
435,192,74142,1,0,0:0:0:0:
332,192,74142,1,0,0:0:0:0:
128,192,74142,1,0,0:0:0:0:
384,192,74242,1,0,0:0:0:0:
281,192,74242,1,0,0:0:0:0:
486,192,74242,1,0,0:0:0:0:
179,192,74242,1,0,0:0:0:0:
76,192,74242,1,0,0:0:0:0:
36,192,74342,1,0,0:0:0:0:
230,192,74342,1,0,0:0:0:0:
435,192,74342,1,0,0:0:0:0:
332,192,74342,1,0,0:0:0:0:
128,192,74342,1,0,0:0:0:0:
281,192,74442,1,0,0:0:0:0:
384,192,74442,1,0,0:0:0:0:
486,192,74442,1,0,0:0:0:0:
179,192,74442,1,0,0:0:0:0:
76,192,74442,1,0,0:0:0:0:
36,192,74542,1,0,0:0:0:0:
435,192,74542,1,0,0:0:0:0:
230,192,74542,1,0,0:0:0:0:
332,192,74542,1,0,0:0:0:0:
128,192,74542,1,0,0:0:0:0:
384,192,74642,1,0,0:0:0:0:
486,192,74642,1,0,0:0:0:0:
281,192,74642,1,0,0:0:0:0:
179,192,74642,1,0,0:0:0:0:
76,192,74642,1,0,0:0:0:0:
36,192,74742,1,0,0:0:0:0:
435,192,74742,1,0,0:0:0:0:
230,192,74742,1,0,0:0:0:0:
332,192,74742,1,0,0:0:0:0:
128,192,74742,1,0,0:0:0:0:
384,192,74842,1,0,0:0:0:0:
486,192,74842,1,0,0:0:0:0:
281,192,74842,1,0,0:0:0:0:
179,192,74842,1,0,0:0:0:0:
76,192,74842,1,0,0:0:0:0:
435,192,74942,1,0,0:0:0:0:
332,192,74942,1,0,0:0:0:0:
36,192,74942,1,0,0:0:0:0:
230,192,74942,1,0,0:0:0:0:
128,192,74942,1,0,0:0:0:0:
486,192,75042,1,0,0:0:0:0:
281,192,75042,1,0,0:0:0:0:
384,192,75042,1,0,0:0:0:0:
76,192,75042,1,0,0:0:0:0:
179,192,75042,1,0,0:0:0:0:
435,192,75142,1,0,0:0:0:0:
332,192,75142,1,0,0:0:0:0:
36,192,75142,1,0,0:0:0:0:
230,192,75142,1,0,0:0:0:0:
128,192,75142,1,0,0:0:0:0:
486,192,75242,1,0,0:0:0:0:
384,192,75242,1,0,0:0:0:0:
281,192,75242,1,0,0:0:0:0:
76,192,75242,1,0,0:0:0:0:
179,192,75242,1,0,0:0:0:0:
36,192,75342,1,0,0:0:0:0:
230,192,75342,1,0,0:0:0:0:
435,192,75342,1,0,0:0:0:0:
332,192,75342,1,0,0:0:0:0:
128,192,75342,1,0,0:0:0:0:
384,192,75442,1,0,0:0:0:0:
281,192,75442,1,0,0:0:0:0:
486,192,75442,1,0,0:0:0:0:
179,192,75442,1,0,0:0:0:0:
76,192,75442,1,0,0:0:0:0:
36,192,75542,1,0,0:0:0:0:
230,192,75542,1,0,0:0:0:0:
435,192,75542,1,0,0:0:0:0:
332,192,75542,1,0,0:0:0:0:
128,192,75542,1,0,0:0:0:0:
281,192,75642,1,0,0:0:0:0:
384,192,75642,1,0,0:0:0:0:
486,192,75642,1,0,0:0:0:0:
179,192,75642,1,0,0:0:0:0:
76,192,75642,1,0,0:0:0:0:
435,192,75742,1,0,0:0:0:0:
332,192,75742,1,0,0:0:0:0:
36,192,75742,1,0,0:0:0:0:
230,192,75742,1,0,0:0:0:0:
128,192,75742,1,0,0:0:0:0:
486,192,75842,1,0,0:0:0:0:
281,192,75842,1,0,0:0:0:0:
384,192,75842,1,0,0:0:0:0:
76,192,75842,1,0,0:0:0:0:
179,192,75842,1,0,0:0:0:0:
435,192,75942,1,0,0:0:0:0:
332,192,75942,1,0,0:0:0:0:
36,192,75942,1,0,0:0:0:0:
230,192,75942,1,0,0:0:0:0:
128,192,75942,1,0,0:0:0:0:
486,192,76042,1,0,0:0:0:0:
384,192,76042,1,0,0:0:0:0:
281,192,76042,1,0,0:0:0:0:
76,192,76042,1,0,0:0:0:0:
179,192,76042,1,0,0:0:0:0:
36,192,76142,1,0,0:0:0:0:
435,192,76142,1,0,0:0:0:0:
230,192,76142,1,0,0:0:0:0:
332,192,76142,1,0,0:0:0:0:
128,192,76142,1,0,0:0:0:0:
384,192,76242,1,0,0:0:0:0:
486,192,76242,1,0,0:0:0:0:
281,192,76242,1,0,0:0:0:0:
179,192,76242,1,0,0:0:0:0:
76,192,76242,1,0,0:0:0:0:
36,192,76342,1,0,0:0:0:0:
435,192,76342,1,0,0:0:0:0:
230,192,76342,1,0,0:0:0:0:
332,192,76342,1,0,0:0:0:0:
128,192,76342,1,0,0:0:0:0:
384,192,76442,1,0,0:0:0:0:
486,192,76442,1,0,0:0:0:0:
281,192,76442,1,0,0:0:0:0:
179,192,76442,1,0,0:0:0:0:
76,192,76442,1,0,0:0:0:0:
435,192,76542,1,0,0:0:0:0:
332,192,76542,1,0,0:0:0:0:
36,192,76542,1,0,0:0:0:0:
230,192,76542,1,0,0:0:0:0:
128,192,76542,1,0,0:0:0:0:
486,192,76642,1,0,0:0:0:0:
281,192,76642,1,0,0:0:0:0:
384,192,76642,1,0,0:0:0:0:
76,192,76642,1,0,0:0:0:0:
179,192,76642,1,0,0:0:0:0:
435,192,76742,1,0,0:0:0:0:
332,192,76742,1,0,0:0:0:0:
36,192,76742,1,0,0:0:0:0:
230,192,76742,1,0,0:0:0:0:
128,192,76742,1,0,0:0:0:0:
486,192,76842,1,0,0:0:0:0:
384,192,76842,1,0,0:0:0:0:
281,192,76842,1,0,0:0:0:0:
76,192,76842,1,0,0:0:0:0:
179,192,76842,1,0,0:0:0:0:
36,192,76942,1,0,0:0:0:0:
230,192,76942,1,0,0:0:0:0:
435,192,76942,1,0,0:0:0:0:
332,192,76942,1,0,0:0:0:0:
128,192,76942,1,0,0:0:0:0:
384,192,77042,1,0,0:0:0:0:
281,192,77042,1,0,0:0:0:0:
486,192,77042,1,0,0:0:0:0:
179,192,77042,1,0,0:0:0:0:
76,192,77042,1,0,0:0:0:0:
36,192,77142,1,0,0:0:0:0:
230,192,77142,1,0,0:0:0:0:
435,192,77142,1,0,0:0:0:0:
332,192,77142,1,0,0:0:0:0:
128,192,77142,1,0,0:0:0:0:
281,192,77242,1,0,0:0:0:0:
384,192,77242,1,0,0:0:0:0:
486,192,77242,1,0,0:0:0:0:
179,192,77242,1,0,0:0:0:0:
76,192,77242,1,0,0:0:0:0:
435,192,77342,1,0,0:0:0:0:
332,192,77342,1,0,0:0:0:0:
36,192,77342,1,0,0:0:0:0:
230,192,77342,1,0,0:0:0:0:
128,192,77342,1,0,0:0:0:0:
486,192,77442,1,0,0:0:0:0:
281,192,77442,1,0,0:0:0:0:
384,192,77442,1,0,0:0:0:0:
76,192,77442,1,0,0:0:0:0:
179,192,77442,1,0,0:0:0:0:
435,192,77542,1,0,0:0:0:0:
332,192,77542,1,0,0:0:0:0:
36,192,77542,1,0,0:0:0:0:
230,192,77542,1,0,0:0:0:0:
128,192,77542,1,0,0:0:0:0:
486,192,77642,1,0,0:0:0:0:
384,192,77642,1,0,0:0:0:0:
281,192,77642,1,0,0:0:0:0:
76,192,77642,1,0,0:0:0:0:
179,192,77642,1,0,0:0:0:0:
230,192,77742,1,0,0:0:0:0:
332,192,77742,1,0,0:0:0:0:
36,192,77742,1,0,0:0:0:0:
435,192,77742,1,0,0:0:0:0:
128,192,77742,1,0,0:0:0:0:
281,192,77842,1,0,0:0:0:0:
486,192,77842,1,0,0:0:0:0:
384,192,77842,1,0,0:0:0:0:
76,192,77842,1,0,0:0:0:0:
179,192,77842,1,0,0:0:0:0:
230,192,77942,1,0,0:0:0:0:
332,192,77942,1,0,0:0:0:0:
36,192,77942,1,0,0:0:0:0:
435,192,77942,1,0,0:0:0:0:
128,192,77942,1,0,0:0:0:0:
281,192,78042,1,0,0:0:0:0:
486,192,78042,1,0,0:0:0:0:
384,192,78042,1,0,0:0:0:0:
76,192,78042,1,0,0:0:0:0:
179,192,78042,1,0,0:0:0:0:
36,192,78142,1,0,0:0:0:0:
230,192,78142,1,0,0:0:0:0:
435,192,78142,1,0,0:0:0:0:
332,192,78142,1,0,0:0:0:0:
128,192,78142,1,0,0:0:0:0:
384,192,78242,1,0,0:0:0:0:
281,192,78242,1,0,0:0:0:0:
486,192,78242,1,0,0:0:0:0:
179,192,78242,1,0,0:0:0:0:
76,192,78242,1,0,0:0:0:0:
36,192,78342,1,0,0:0:0:0:
230,192,78342,1,0,0:0:0:0:
435,192,78342,1,0,0:0:0:0:
332,192,78342,1,0,0:0:0:0:
128,192,78342,1,0,0:0:0:0:
281,192,78442,1,0,0:0:0:0:
384,192,78442,1,0,0:0:0:0:
486,192,78442,1,0,0:0:0:0:
179,192,78442,1,0,0:0:0:0:
76,192,78442,1,0,0:0:0:0:
435,192,78542,1,0,0:0:0:0:
332,192,78542,1,0,0:0:0:0:
36,192,78542,1,0,0:0:0:0:
230,192,78542,1,0,0:0:0:0:
128,192,78542,1,0,0:0:0:0:
486,192,78642,1,0,0:0:0:0:
281,192,78642,1,0,0:0:0:0:
384,192,78642,1,0,0:0:0:0:
76,192,78642,1,0,0:0:0:0:
179,192,78642,1,0,0:0:0:0:
435,192,78742,1,0,0:0:0:0:
332,192,78742,1,0,0:0:0:0:
36,192,78742,1,0,0:0:0:0:
230,192,78742,1,0,0:0:0:0:
128,192,78742,1,0,0:0:0:0:
486,192,78842,1,0,0:0:0:0:
384,192,78842,1,0,0:0:0:0:
281,192,78842,1,0,0:0:0:0:
76,192,78842,1,0,0:0:0:0:
179,192,78842,1,0,0:0:0:0:
36,192,78942,1,0,0:0:0:0:
230,192,78942,1,0,0:0:0:0:
435,192,78942,1,0,0:0:0:0:
332,192,78942,1,0,0:0:0:0:
128,192,78942,1,0,0:0:0:0:
384,192,79042,1,0,0:0:0:0:
281,192,79042,1,0,0:0:0:0:
486,192,79042,1,0,0:0:0:0:
179,192,79042,1,0,0:0:0:0:
76,192,79042,1,0,0:0:0:0:
36,192,79142,1,0,0:0:0:0:
230,192,79142,1,0,0:0:0:0:
435,192,79142,1,0,0:0:0:0:
332,192,79142,1,0,0:0:0:0:
128,192,79142,1,0,0:0:0:0:
281,192,79242,1,0,0:0:0:0:
384,192,79242,1,0,0:0:0:0:
486,192,79242,1,0,0:0:0:0:
179,192,79242,1,0,0:0:0:0:
76,192,79242,1,0,0:0:0:0:
36,192,79342,1,0,0:0:0:0:
435,192,79342,1,0,0:0:0:0:
230,192,79342,1,0,0:0:0:0:
332,192,79342,1,0,0:0:0:0:
128,192,79342,1,0,0:0:0:0:
384,192,79442,1,0,0:0:0:0:
486,192,79442,1,0,0:0:0:0:
281,192,79442,1,0,0:0:0:0:
179,192,79442,1,0,0:0:0:0:
76,192,79442,1,0,0:0:0:0:
36,192,79542,1,0,0:0:0:0:
435,192,79542,1,0,0:0:0:0:
230,192,79542,1,0,0:0:0:0:
332,192,79542,1,0,0:0:0:0:
128,192,79542,1,0,0:0:0:0:
384,192,79642,1,0,0:0:0:0:
486,192,79642,1,0,0:0:0:0:
281,192,79642,1,0,0:0:0:0:
179,192,79642,1,0,0:0:0:0:
76,192,79642,1,0,0:0:0:0:
435,192,79742,1,0,0:0:0:0:
332,192,79742,1,0,0:0:0:0:
36,192,79742,1,0,0:0:0:0:
230,192,79742,1,0,0:0:0:0:
128,192,79742,1,0,0:0:0:0:
486,192,79842,1,0,0:0:0:0:
281,192,79842,1,0,0:0:0:0:
384,192,79842,1,0,0:0:0:0:
76,192,79842,1,0,0:0:0:0:
179,192,79842,1,0,0:0:0:0:
435,192,79942,1,0,0:0:0:0:
332,192,79942,1,0,0:0:0:0:
36,192,79942,1,0,0:0:0:0:
230,192,79942,1,0,0:0:0:0:
128,192,79942,1,0,0:0:0:0:
486,192,80042,1,0,0:0:0:0:
384,192,80042,1,0,0:0:0:0:
281,192,80042,1,0,0:0:0:0:
76,192,80042,1,0,0:0:0:0:
179,192,80042,1,0,0:0:0:0:
36,192,80142,1,0,0:0:0:0:
230,192,80142,1,0,0:0:0:0:
435,192,80142,1,0,0:0:0:0:
332,192,80142,1,0,0:0:0:0:
128,192,80142,1,0,0:0:0:0:
384,192,80242,1,0,0:0:0:0:
281,192,80242,1,0,0:0:0:0:
486,192,80242,1,0,0:0:0:0:
179,192,80242,1,0,0:0:0:0:
76,192,80242,1,0,0:0:0:0:
36,192,80342,1,0,0:0:0:0:
230,192,80342,1,0,0:0:0:0:
435,192,80342,1,0,0:0:0:0:
332,192,80342,1,0,0:0:0:0:
128,192,80342,1,0,0:0:0:0:
281,192,80442,1,0,0:0:0:0:
384,192,80442,1,0,0:0:0:0:
486,192,80442,1,0,0:0:0:0:
179,192,80442,1,0,0:0:0:0:
76,192,80442,1,0,0:0:0:0:
435,192,80542,1,0,0:0:0:0:
332,192,80542,1,0,0:0:0:0:
36,192,80542,1,0,0:0:0:0:
230,192,80542,1,0,0:0:0:0:
128,192,80542,1,0,0:0:0:0:
486,192,80642,1,0,0:0:0:0:
281,192,80642,1,0,0:0:0:0:
384,192,80642,1,0,0:0:0:0:
76,192,80642,1,0,0:0:0:0:
179,192,80642,1,0,0:0:0:0:
435,192,80742,1,0,0:0:0:0:
332,192,80742,1,0,0:0:0:0:
36,192,80742,1,0,0:0:0:0:
230,192,80742,1,0,0:0:0:0:
128,192,80742,1,0,0:0:0:0:
486,192,80842,1,0,0:0:0:0:
384,192,80842,1,0,0:0:0:0:
281,192,80842,1,0,0:0:0:0:
76,192,80842,1,0,0:0:0:0:
179,192,80842,1,0,0:0:0:0:
230,192,80942,1,0,0:0:0:0:
332,192,80942,1,0,0:0:0:0:
36,192,80942,1,0,0:0:0:0:
435,192,80942,1,0,0:0:0:0:
128,192,80942,1,0,0:0:0:0:
281,192,81042,1,0,0:0:0:0:
486,192,81042,1,0,0:0:0:0:
384,192,81042,1,0,0:0:0:0:
76,192,81042,1,0,0:0:0:0:
179,192,81042,1,0,0:0:0:0:
230,192,81142,1,0,0:0:0:0:
332,192,81142,1,0,0:0:0:0:
36,192,81142,1,0,0:0:0:0:
435,192,81142,1,0,0:0:0:0:
128,192,81142,1,0,0:0:0:0:
281,192,81242,1,0,0:0:0:0:
486,192,81242,1,0,0:0:0:0:
384,192,81242,1,0,0:0:0:0:
76,192,81242,1,0,0:0:0:0:
179,192,81242,1,0,0:0:0:0:
36,192,81342,1,0,0:0:0:0:
230,192,81342,1,0,0:0:0:0:
435,192,81342,1,0,0:0:0:0:
332,192,81342,1,0,0:0:0:0:
128,192,81342,1,0,0:0:0:0:
384,192,81442,1,0,0:0:0:0:
281,192,81442,1,0,0:0:0:0:
486,192,81442,1,0,0:0:0:0:
179,192,81442,1,0,0:0:0:0:
76,192,81442,1,0,0:0:0:0:
36,192,81542,1,0,0:0:0:0:
230,192,81542,1,0,0:0:0:0:
435,192,81542,1,0,0:0:0:0:
332,192,81542,1,0,0:0:0:0:
128,192,81542,1,0,0:0:0:0:
281,192,81642,1,0,0:0:0:0:
384,192,81642,1,0,0:0:0:0:
486,192,81642,1,0,0:0:0:0:
179,192,81642,1,0,0:0:0:0:
76,192,81642,1,0,0:0:0:0:
435,192,81742,1,0,0:0:0:0:
332,192,81742,1,0,0:0:0:0:
36,192,81742,1,0,0:0:0:0:
230,192,81742,1,0,0:0:0:0:
128,192,81742,1,0,0:0:0:0:
486,192,81842,1,0,0:0:0:0:
281,192,81842,1,0,0:0:0:0:
384,192,81842,1,0,0:0:0:0:
76,192,81842,1,0,0:0:0:0:
179,192,81842,1,0,0:0:0:0:
435,192,81942,1,0,0:0:0:0:
332,192,81942,1,0,0:0:0:0:
36,192,81942,1,0,0:0:0:0:
230,192,81942,1,0,0:0:0:0:
128,192,81942,1,0,0:0:0:0:
486,192,82042,1,0,0:0:0:0:
384,192,82042,1,0,0:0:0:0:
281,192,82042,1,0,0:0:0:0:
76,192,82042,1,0,0:0:0:0:
179,192,82042,1,0,0:0:0:0:
36,192,82142,1,0,0:0:0:0:
230,192,82142,1,0,0:0:0:0:
435,192,82142,1,0,0:0:0:0:
332,192,82142,1,0,0:0:0:0:
128,192,82142,1,0,0:0:0:0:
384,192,82242,1,0,0:0:0:0:
281,192,82242,1,0,0:0:0:0:
486,192,82242,1,0,0:0:0:0:
179,192,82242,1,0,0:0:0:0:
76,192,82242,1,0,0:0:0:0:
36,192,82342,1,0,0:0:0:0:
230,192,82342,1,0,0:0:0:0:
435,192,82342,1,0,0:0:0:0:
332,192,82342,1,0,0:0:0:0:
128,192,82342,1,0,0:0:0:0:
281,192,82442,1,0,0:0:0:0:
384,192,82442,1,0,0:0:0:0:
486,192,82442,1,0,0:0:0:0:
179,192,82442,1,0,0:0:0:0:
76,192,82442,1,0,0:0:0:0:
230,192,82542,1,0,0:0:0:0:
332,192,82542,1,0,0:0:0:0:
36,192,82542,1,0,0:0:0:0:
435,192,82542,1,0,0:0:0:0:
128,192,82542,1,0,0:0:0:0:
281,192,82642,1,0,0:0:0:0:
486,192,82642,1,0,0:0:0:0:
384,192,82642,1,0,0:0:0:0:
76,192,82642,1,0,0:0:0:0:
179,192,82642,1,0,0:0:0:0:
230,192,82742,1,0,0:0:0:0:
332,192,82742,1,0,0:0:0:0:
36,192,82742,1,0,0:0:0:0:
435,192,82742,1,0,0:0:0:0:
128,192,82742,1,0,0:0:0:0:
281,192,82842,1,0,0:0:0:0:
486,192,82842,1,0,0:0:0:0:
384,192,82842,1,0,0:0:0:0:
76,192,82842,1,0,0:0:0:0:
179,192,82842,1,0,0:0:0:0:
36,192,82942,1,0,0:0:0:0:
230,192,82942,1,0,0:0:0:0:
435,192,82942,1,0,0:0:0:0:
332,192,82942,1,0,0:0:0:0:
128,192,82942,1,0,0:0:0:0:
384,192,83042,1,0,0:0:0:0:
281,192,83042,1,0,0:0:0:0:
486,192,83042,1,0,0:0:0:0:
179,192,83042,1,0,0:0:0:0:
76,192,83042,1,0,0:0:0:0:
36,192,83142,1,0,0:0:0:0:
230,192,83142,1,0,0:0:0:0:
435,192,83142,1,0,0:0:0:0:
332,192,83142,1,0,0:0:0:0:
128,192,83142,1,0,0:0:0:0:
281,192,83242,1,0,0:0:0:0:
384,192,83242,1,0,0:0:0:0:
486,192,83242,1,0,0:0:0:0:
179,192,83242,1,0,0:0:0:0:
76,192,83242,1,0,0:0:0:0:
435,192,83342,1,0,0:0:0:0:
332,192,83342,1,0,0:0:0:0:
36,192,83342,1,0,0:0:0:0:
230,192,83342,1,0,0:0:0:0:
128,192,83342,1,0,0:0:0:0:
486,192,83442,1,0,0:0:0:0:
281,192,83442,1,0,0:0:0:0:
384,192,83442,1,0,0:0:0:0:
76,192,83442,1,0,0:0:0:0:
179,192,83442,1,0,0:0:0:0:
435,192,83542,1,0,0:0:0:0:
332,192,83542,1,0,0:0:0:0:
36,192,83542,1,0,0:0:0:0:
230,192,83542,1,0,0:0:0:0:
128,192,83542,1,0,0:0:0:0:
486,192,83642,1,0,0:0:0:0:
384,192,83642,1,0,0:0:0:0:
281,192,83642,1,0,0:0:0:0:
76,192,83642,1,0,0:0:0:0:
179,192,83642,1,0,0:0:0:0:
36,192,83742,1,0,0:0:0:0:
230,192,83742,1,0,0:0:0:0:
435,192,83742,1,0,0:0:0:0:
332,192,83742,1,0,0:0:0:0:
128,192,83742,1,0,0:0:0:0:
384,192,83842,1,0,0:0:0:0:
281,192,83842,1,0,0:0:0:0:
486,192,83842,1,0,0:0:0:0:
179,192,83842,1,0,0:0:0:0:
76,192,83842,1,0,0:0:0:0:
36,192,83942,1,0,0:0:0:0:
230,192,83942,1,0,0:0:0:0:
435,192,83942,1,0,0:0:0:0:
332,192,83942,1,0,0:0:0:0:
128,192,83942,1,0,0:0:0:0:
281,192,84042,1,0,0:0:0:0:
384,192,84042,1,0,0:0:0:0:
486,192,84042,1,0,0:0:0:0:
179,192,84042,1,0,0:0:0:0:
76,192,84042,1,0,0:0:0:0:
36,192,84142,1,0,0:0:0:0:
435,192,84142,1,0,0:0:0:0:
230,192,84142,1,0,0:0:0:0:
332,192,84142,1,0,0:0:0:0:
128,192,84142,1,0,0:0:0:0:
384,192,84242,1,0,0:0:0:0:
486,192,84242,1,0,0:0:0:0:
281,192,84242,1,0,0:0:0:0:
179,192,84242,1,0,0:0:0:0:
76,192,84242,1,0,0:0:0:0:
36,192,84342,1,0,0:0:0:0:
435,192,84342,1,0,0:0:0:0:
230,192,84342,1,0,0:0:0:0:
332,192,84342,1,0,0:0:0:0:
128,192,84342,1,0,0:0:0:0:
384,192,84442,1,0,0:0:0:0:
486,192,84442,1,0,0:0:0:0:
281,192,84442,1,0,0:0:0:0:
179,192,84442,1,0,0:0:0:0:
76,192,84442,1,0,0:0:0:0:
435,192,84542,1,0,0:0:0:0:
332,192,84542,1,0,0:0:0:0:
36,192,84542,1,0,0:0:0:0:
230,192,84542,1,0,0:0:0:0:
128,192,84542,1,0,0:0:0:0:
486,192,84642,1,0,0:0:0:0:
281,192,84642,1,0,0:0:0:0:
384,192,84642,1,0,0:0:0:0:
76,192,84642,1,0,0:0:0:0:
179,192,84642,1,0,0:0:0:0:
435,192,84742,1,0,0:0:0:0:
332,192,84742,1,0,0:0:0:0:
36,192,84742,1,0,0:0:0:0:
230,192,84742,1,0,0:0:0:0:
128,192,84742,1,0,0:0:0:0:
486,192,84842,1,0,0:0:0:0:
384,192,84842,1,0,0:0:0:0:
281,192,84842,1,0,0:0:0:0:
76,192,84842,1,0,0:0:0:0:
179,192,84842,1,0,0:0:0:0:
36,192,84942,1,0,0:0:0:0:
230,192,84942,1,0,0:0:0:0:
435,192,84942,1,0,0:0:0:0:
332,192,84942,1,0,0:0:0:0:
128,192,84942,1,0,0:0:0:0:
384,192,85042,1,0,0:0:0:0:
281,192,85042,1,0,0:0:0:0:
486,192,85042,1,0,0:0:0:0:
179,192,85042,1,0,0:0:0:0:
76,192,85042,1,0,0:0:0:0:
36,192,85142,1,0,0:0:0:0:
230,192,85142,1,0,0:0:0:0:
435,192,85142,1,0,0:0:0:0:
332,192,85142,1,0,0:0:0:0:
128,192,85142,1,0,0:0:0:0:
281,192,85242,1,0,0:0:0:0:
384,192,85242,1,0,0:0:0:0:
486,192,85242,1,0,0:0:0:0:
179,192,85242,1,0,0:0:0:0:
76,192,85242,1,0,0:0:0:0:
435,192,85342,1,0,0:0:0:0:
332,192,85342,1,0,0:0:0:0:
36,192,85342,1,0,0:0:0:0:
230,192,85342,1,0,0:0:0:0:
128,192,85342,1,0,0:0:0:0:
486,192,85442,1,0,0:0:0:0:
281,192,85442,1,0,0:0:0:0:
384,192,85442,1,0,0:0:0:0:
76,192,85442,1,0,0:0:0:0:
179,192,85442,1,0,0:0:0:0:
435,192,85542,1,0,0:0:0:0:
332,192,85542,1,0,0:0:0:0:
36,192,85542,1,0,0:0:0:0:
230,192,85542,1,0,0:0:0:0:
128,192,85542,1,0,0:0:0:0:
486,192,85642,1,0,0:0:0:0:
384,192,85642,1,0,0:0:0:0:
281,192,85642,1,0,0:0:0:0:
76,192,85642,1,0,0:0:0:0:
179,192,85642,1,0,0:0:0:0:
230,192,85742,1,0,0:0:0:0:
332,192,85742,1,0,0:0:0:0:
36,192,85742,1,0,0:0:0:0:
435,192,85742,1,0,0:0:0:0:
128,192,85742,1,0,0:0:0:0:
281,192,85842,1,0,0:0:0:0:
486,192,85842,1,0,0:0:0:0:
384,192,85842,1,0,0:0:0:0:
76,192,85842,1,0,0:0:0:0:
179,192,85842,1,0,0:0:0:0:
230,192,85942,1,0,0:0:0:0:
332,192,85942,1,0,0:0:0:0:
36,192,85942,1,0,0:0:0:0:
435,192,85942,1,0,0:0:0:0:
128,192,85942,1,0,0:0:0:0:
281,192,86042,1,0,0:0:0:0:
486,192,86042,1,0,0:0:0:0:
384,192,86042,1,0,0:0:0:0:
76,192,86042,1,0,0:0:0:0:
179,192,86042,1,0,0:0:0:0:
36,192,86142,1,0,0:0:0:0:
230,192,86142,1,0,0:0:0:0:
435,192,86142,1,0,0:0:0:0:
332,192,86142,1,0,0:0:0:0:
128,192,86142,1,0,0:0:0:0:
384,192,86242,1,0,0:0:0:0:
281,192,86242,1,0,0:0:0:0:
486,192,86242,1,0,0:0:0:0:
179,192,86242,1,0,0:0:0:0:
76,192,86242,1,0,0:0:0:0:
36,192,86342,1,0,0:0:0:0:
230,192,86342,1,0,0:0:0:0:
435,192,86342,1,0,0:0:0:0:
332,192,86342,1,0,0:0:0:0:
128,192,86342,1,0,0:0:0:0:
281,192,86442,1,0,0:0:0:0:
384,192,86442,1,0,0:0:0:0:
486,192,86442,1,0,0:0:0:0:
179,192,86442,1,0,0:0:0:0:
76,192,86442,1,0,0:0:0:0:
435,192,86542,1,0,0:0:0:0:
332,192,86542,1,0,0:0:0:0:
36,192,86542,1,0,0:0:0:0:
230,192,86542,1,0,0:0:0:0:
128,192,86542,1,0,0:0:0:0:
486,192,86642,1,0,0:0:0:0:
281,192,86642,1,0,0:0:0:0:
384,192,86642,1,0,0:0:0:0:
76,192,86642,1,0,0:0:0:0:
179,192,86642,1,0,0:0:0:0:
435,192,86742,1,0,0:0:0:0:
332,192,86742,1,0,0:0:0:0:
36,192,86742,1,0,0:0:0:0:
230,192,86742,1,0,0:0:0:0:
128,192,86742,1,0,0:0:0:0:
486,192,86842,1,0,0:0:0:0:
384,192,86842,1,0,0:0:0:0:
281,192,86842,1,0,0:0:0:0:
76,192,86842,1,0,0:0:0:0:
179,192,86842,1,0,0:0:0:0:
36,192,86942,1,0,0:0:0:0:
230,192,86942,1,0,0:0:0:0:
435,192,86942,1,0,0:0:0:0:
332,192,86942,1,0,0:0:0:0:
128,192,86942,1,0,0:0:0:0:
384,192,87042,1,0,0:0:0:0:
281,192,87042,1,0,0:0:0:0:
486,192,87042,1,0,0:0:0:0:
179,192,87042,1,0,0:0:0:0:
76,192,87042,1,0,0:0:0:0:
36,192,87142,1,0,0:0:0:0:
230,192,87142,1,0,0:0:0:0:
435,192,87142,1,0,0:0:0:0:
332,192,87142,1,0,0:0:0:0:
128,192,87142,1,0,0:0:0:0:
281,192,87242,1,0,0:0:0:0:
384,192,87242,1,0,0:0:0:0:
486,192,87242,1,0,0:0:0:0:
179,192,87242,1,0,0:0:0:0:
76,192,87242,1,0,0:0:0:0:
230,192,87342,1,0,0:0:0:0:
332,192,87342,1,0,0:0:0:0:
36,192,87342,1,0,0:0:0:0:
435,192,87342,1,0,0:0:0:0:
128,192,87342,1,0,0:0:0:0:
281,192,87442,1,0,0:0:0:0:
486,192,87442,1,0,0:0:0:0:
384,192,87442,1,0,0:0:0:0:
76,192,87442,1,0,0:0:0:0:
179,192,87442,1,0,0:0:0:0:
230,192,87542,1,0,0:0:0:0:
332,192,87542,1,0,0:0:0:0:
36,192,87542,1,0,0:0:0:0:
435,192,87542,1,0,0:0:0:0:
128,192,87542,1,0,0:0:0:0:
281,192,87642,1,0,0:0:0:0:
486,192,87642,1,0,0:0:0:0:
384,192,87642,1,0,0:0:0:0:
76,192,87642,1,0,0:0:0:0:
179,192,87642,1,0,0:0:0:0:
36,192,87742,1,0,0:0:0:0:
230,192,87742,1,0,0:0:0:0:
435,192,87742,1,0,0:0:0:0:
332,192,87742,1,0,0:0:0:0:
128,192,87742,1,0,0:0:0:0:
384,192,87842,1,0,0:0:0:0:
281,192,87842,1,0,0:0:0:0:
486,192,87842,1,0,0:0:0:0:
179,192,87842,1,0,0:0:0:0:
76,192,87842,1,0,0:0:0:0:
36,192,87942,1,0,0:0:0:0:
230,192,87942,1,0,0:0:0:0:
435,192,87942,1,0,0:0:0:0:
332,192,87942,1,0,0:0:0:0:
128,192,87942,1,0,0:0:0:0:
281,192,88042,1,0,0:0:0:0:
384,192,88042,1,0,0:0:0:0:
486,192,88042,1,0,0:0:0:0:
179,192,88042,1,0,0:0:0:0:
76,192,88042,1,0,0:0:0:0:
435,192,88142,1,0,0:0:0:0:
332,192,88142,1,0,0:0:0:0:
36,192,88142,1,0,0:0:0:0:
230,192,88142,1,0,0:0:0:0:
128,192,88142,1,0,0:0:0:0:
486,192,88242,1,0,0:0:0:0:
281,192,88242,1,0,0:0:0:0:
384,192,88242,1,0,0:0:0:0:
76,192,88242,1,0,0:0:0:0:
179,192,88242,1,0,0:0:0:0:
435,192,88342,1,0,0:0:0:0:
332,192,88342,1,0,0:0:0:0:
36,192,88342,1,0,0:0:0:0:
230,192,88342,1,0,0:0:0:0:
128,192,88342,1,0,0:0:0:0:
486,192,88442,1,0,0:0:0:0:
384,192,88442,1,0,0:0:0:0:
281,192,88442,1,0,0:0:0:0:
76,192,88442,1,0,0:0:0:0:
179,192,88442,1,0,0:0:0:0:
36,192,88542,1,0,0:0:0:0:
230,192,88542,1,0,0:0:0:0:
435,192,88542,1,0,0:0:0:0:
332,192,88542,1,0,0:0:0:0:
128,192,88542,1,0,0:0:0:0:
384,192,88642,1,0,0:0:0:0:
281,192,88642,1,0,0:0:0:0:
486,192,88642,1,0,0:0:0:0:
179,192,88642,1,0,0:0:0:0:
76,192,88642,1,0,0:0:0:0:
36,192,88742,1,0,0:0:0:0:
230,192,88742,1,0,0:0:0:0:
435,192,88742,1,0,0:0:0:0:
332,192,88742,1,0,0:0:0:0:
128,192,88742,1,0,0:0:0:0:
281,192,88842,1,0,0:0:0:0:
384,192,88842,1,0,0:0:0:0:
486,192,88842,1,0,0:0:0:0:
179,192,88842,1,0,0:0:0:0:
76,192,88842,1,0,0:0:0:0:
230,192,88942,1,0,0:0:0:0:
332,192,88942,1,0,0:0:0:0:
36,192,88942,1,0,0:0:0:0:
435,192,88942,1,0,0:0:0:0:
128,192,88942,1,0,0:0:0:0:
281,192,89042,1,0,0:0:0:0:
486,192,89042,1,0,0:0:0:0:
384,192,89042,1,0,0:0:0:0:
76,192,89042,1,0,0:0:0:0:
179,192,89042,1,0,0:0:0:0:
230,192,89142,1,0,0:0:0:0:
332,192,89142,1,0,0:0:0:0:
36,192,89142,1,0,0:0:0:0:
435,192,89142,1,0,0:0:0:0:
128,192,89142,1,0,0:0:0:0:
281,192,89242,1,0,0:0:0:0:
486,192,89242,1,0,0:0:0:0:
384,192,89242,1,0,0:0:0:0:
76,192,89242,1,0,0:0:0:0:
179,192,89242,1,0,0:0:0:0:
36,192,89342,1,0,0:0:0:0:
230,192,89342,1,0,0:0:0:0:
435,192,89342,1,0,0:0:0:0:
332,192,89342,1,0,0:0:0:0:
128,192,89342,1,0,0:0:0:0:
384,192,89442,1,0,0:0:0:0:
281,192,89442,1,0,0:0:0:0:
486,192,89442,1,0,0:0:0:0:
179,192,89442,1,0,0:0:0:0:
76,192,89442,1,0,0:0:0:0:
36,192,89542,1,0,0:0:0:0:
230,192,89542,1,0,0:0:0:0:
435,192,89542,1,0,0:0:0:0:
332,192,89542,1,0,0:0:0:0:
128,192,89542,1,0,0:0:0:0:
281,192,89642,1,0,0:0:0:0:
384,192,89642,1,0,0:0:0:0:
486,192,89642,1,0,0:0:0:0:
179,192,89642,1,0,0:0:0:0:
76,192,89642,1,0,0:0:0:0:
435,192,89742,1,0,0:0:0:0:
332,192,89742,1,0,0:0:0:0:
36,192,89742,1,0,0:0:0:0:
230,192,89742,1,0,0:0:0:0:
128,192,89742,1,0,0:0:0:0:
486,192,89842,1,0,0:0:0:0:
281,192,89842,1,0,0:0:0:0:
384,192,89842,1,0,0:0:0:0:
76,192,89842,1,0,0:0:0:0:
179,192,89842,1,0,0:0:0:0:
435,192,89942,1,0,0:0:0:0:
332,192,89942,1,0,0:0:0:0:
36,192,89942,1,0,0:0:0:0:
230,192,89942,1,0,0:0:0:0:
128,192,89942,1,0,0:0:0:0:
486,192,90042,1,0,0:0:0:0:
384,192,90042,1,0,0:0:0:0:
281,192,90042,1,0,0:0:0:0:
76,192,90042,1,0,0:0:0:0:
179,192,90042,1,0,0:0:0:0:
36,192,90142,1,0,0:0:0:0:
230,192,90142,1,0,0:0:0:0:
435,192,90142,1,0,0:0:0:0:
332,192,90142,1,0,0:0:0:0:
128,192,90142,1,0,0:0:0:0:
384,192,90242,1,0,0:0:0:0:
281,192,90242,1,0,0:0:0:0:
486,192,90242,1,0,0:0:0:0:
179,192,90242,1,0,0:0:0:0:
76,192,90242,1,0,0:0:0:0:
36,192,90342,1,0,0:0:0:0:
230,192,90342,1,0,0:0:0:0:
435,192,90342,1,0,0:0:0:0:
332,192,90342,1,0,0:0:0:0:
128,192,90342,1,0,0:0:0:0:
281,192,90442,1,0,0:0:0:0:
384,192,90442,1,0,0:0:0:0:
486,192,90442,1,0,0:0:0:0:
179,192,90442,1,0,0:0:0:0:
76,192,90442,1,0,0:0:0:0:
36,192,90542,1,0,0:0:0:0:
435,192,90542,1,0,0:0:0:0:
230,192,90542,1,0,0:0:0:0:
332,192,90542,1,0,0:0:0:0:
128,192,90542,1,0,0:0:0:0:
384,192,90642,1,0,0:0:0:0:
486,192,90642,1,0,0:0:0:0:
281,192,90642,1,0,0:0:0:0:
179,192,90642,1,0,0:0:0:0:
76,192,90642,1,0,0:0:0:0:
36,192,90742,1,0,0:0:0:0:
435,192,90742,1,0,0:0:0:0:
230,192,90742,1,0,0:0:0:0:
332,192,90742,1,0,0:0:0:0:
128,192,90742,1,0,0:0:0:0:
384,192,90842,1,0,0:0:0:0:
486,192,90842,1,0,0:0:0:0:
281,192,90842,1,0,0:0:0:0:
179,192,90842,1,0,0:0:0:0:
76,192,90842,1,0,0:0:0:0:
435,192,90942,1,0,0:0:0:0:
332,192,90942,1,0,0:0:0:0:
36,192,90942,1,0,0:0:0:0:
230,192,90942,1,0,0:0:0:0:
128,192,90942,1,0,0:0:0:0:
486,192,91042,1,0,0:0:0:0:
281,192,91042,1,0,0:0:0:0:
384,192,91042,1,0,0:0:0:0:
76,192,91042,1,0,0:0:0:0:
179,192,91042,1,0,0:0:0:0:
435,192,91142,1,0,0:0:0:0:
332,192,91142,1,0,0:0:0:0:
36,192,91142,1,0,0:0:0:0:
230,192,91142,1,0,0:0:0:0:
128,192,91142,1,0,0:0:0:0:
486,192,91242,1,0,0:0:0:0:
384,192,91242,1,0,0:0:0:0:
281,192,91242,1,0,0:0:0:0:
76,192,91242,1,0,0:0:0:0:
179,192,91242,1,0,0:0:0:0:
36,192,91342,1,0,0:0:0:0:
230,192,91342,1,0,0:0:0:0:
435,192,91342,1,0,0:0:0:0:
332,192,91342,1,0,0:0:0:0:
128,192,91342,1,0,0:0:0:0:
384,192,91442,1,0,0:0:0:0:
281,192,91442,1,0,0:0:0:0:
486,192,91442,1,0,0:0:0:0:
179,192,91442,1,0,0:0:0:0:
76,192,91442,1,0,0:0:0:0:
36,192,91542,1,0,0:0:0:0:
230,192,91542,1,0,0:0:0:0:
435,192,91542,1,0,0:0:0:0:
332,192,91542,1,0,0:0:0:0:
128,192,91542,1,0,0:0:0:0:
281,192,91642,1,0,0:0:0:0:
384,192,91642,1,0,0:0:0:0:
486,192,91642,1,0,0:0:0:0:
179,192,91642,1,0,0:0:0:0:
76,192,91642,1,0,0:0:0:0:
435,192,91742,1,0,0:0:0:0:
332,192,91742,1,0,0:0:0:0:
36,192,91742,1,0,0:0:0:0:
230,192,91742,1,0,0:0:0:0:
128,192,91742,1,0,0:0:0:0:
486,192,91842,1,0,0:0:0:0:
281,192,91842,1,0,0:0:0:0:
384,192,91842,1,0,0:0:0:0:
76,192,91842,1,0,0:0:0:0:
179,192,91842,1,0,0:0:0:0:
435,192,91942,1,0,0:0:0:0:
332,192,91942,1,0,0:0:0:0:
36,192,91942,1,0,0:0:0:0:
230,192,91942,1,0,0:0:0:0:
128,192,91942,1,0,0:0:0:0:
486,192,92042,1,0,0:0:0:0:
384,192,92042,1,0,0:0:0:0:
281,192,92042,1,0,0:0:0:0:
76,192,92042,1,0,0:0:0:0:
179,192,92042,1,0,0:0:0:0:
230,192,92142,1,0,0:0:0:0:
332,192,92142,1,0,0:0:0:0:
36,192,92142,1,0,0:0:0:0:
435,192,92142,1,0,0:0:0:0:
128,192,92142,1,0,0:0:0:0:
281,192,92242,1,0,0:0:0:0:
486,192,92242,1,0,0:0:0:0:
384,192,92242,1,0,0:0:0:0:
76,192,92242,1,0,0:0:0:0:
179,192,92242,1,0,0:0:0:0:
230,192,92342,1,0,0:0:0:0:
332,192,92342,1,0,0:0:0:0:
36,192,92342,1,0,0:0:0:0:
435,192,92342,1,0,0:0:0:0:
128,192,92342,1,0,0:0:0:0:
281,192,92442,1,0,0:0:0:0:
486,192,92442,1,0,0:0:0:0:
384,192,92442,1,0,0:0:0:0:
76,192,92442,1,0,0:0:0:0:
179,192,92442,1,0,0:0:0:0:
36,192,92542,1,0,0:0:0:0:
230,192,92542,1,0,0:0:0:0:
435,192,92542,1,0,0:0:0:0:
332,192,92542,1,0,0:0:0:0:
128,192,92542,1,0,0:0:0:0:
384,192,92642,1,0,0:0:0:0:
281,192,92642,1,0,0:0:0:0:
486,192,92642,1,0,0:0:0:0:
179,192,92642,1,0,0:0:0:0:
76,192,92642,1,0,0:0:0:0:
36,192,92742,1,0,0:0:0:0:
230,192,92742,1,0,0:0:0:0:
435,192,92742,1,0,0:0:0:0:
332,192,92742,1,0,0:0:0:0:
128,192,92742,1,0,0:0:0:0:
281,192,92842,1,0,0:0:0:0:
384,192,92842,1,0,0:0:0:0:
486,192,92842,1,0,0:0:0:0:
179,192,92842,1,0,0:0:0:0:
76,192,92842,1,0,0:0:0:0:
435,192,92942,1,0,0:0:0:0:
332,192,92942,1,0,0:0:0:0:
36,192,92942,1,0,0:0:0:0:
230,192,92942,1,0,0:0:0:0:
128,192,92942,1,0,0:0:0:0:
486,192,93042,1,0,0:0:0:0:
281,192,93042,1,0,0:0:0:0:
384,192,93042,1,0,0:0:0:0:
76,192,93042,1,0,0:0:0:0:
179,192,93042,1,0,0:0:0:0:
435,192,93142,1,0,0:0:0:0:
332,192,93142,1,0,0:0:0:0:
36,192,93142,1,0,0:0:0:0:
230,192,93142,1,0,0:0:0:0:
128,192,93142,1,0,0:0:0:0:
486,192,93242,1,0,0:0:0:0:
384,192,93242,1,0,0:0:0:0:
281,192,93242,1,0,0:0:0:0:
76,192,93242,1,0,0:0:0:0:
179,192,93242,1,0,0:0:0:0:
36,192,93342,1,0,0:0:0:0:
230,192,93342,1,0,0:0:0:0:
435,192,93342,1,0,0:0:0:0:
332,192,93342,1,0,0:0:0:0:
128,192,93342,1,0,0:0:0:0:
384,192,93442,1,0,0:0:0:0:
281,192,93442,1,0,0:0:0:0:
486,192,93442,1,0,0:0:0:0:
179,192,93442,1,0,0:0:0:0:
76,192,93442,1,0,0:0:0:0:
36,192,93542,1,0,0:0:0:0:
230,192,93542,1,0,0:0:0:0:
435,192,93542,1,0,0:0:0:0:
332,192,93542,1,0,0:0:0:0:
128,192,93542,1,0,0:0:0:0:
281,192,93642,1,0,0:0:0:0:
384,192,93642,1,0,0:0:0:0:
486,192,93642,1,0,0:0:0:0:
179,192,93642,1,0,0:0:0:0:
76,192,93642,1,0,0:0:0:0:
36,192,93742,1,0,0:0:0:0:
435,192,93742,1,0,0:0:0:0:
230,192,93742,1,0,0:0:0:0:
332,192,93742,1,0,0:0:0:0:
128,192,93742,1,0,0:0:0:0:
384,192,93842,1,0,0:0:0:0:
486,192,93842,1,0,0:0:0:0:
281,192,93842,1,0,0:0:0:0:
179,192,93842,1,0,0:0:0:0:
76,192,93842,1,0,0:0:0:0:
36,192,93942,1,0,0:0:0:0:
435,192,93942,1,0,0:0:0:0:
230,192,93942,1,0,0:0:0:0:
332,192,93942,1,0,0:0:0:0:
128,192,93942,1,0,0:0:0:0:
384,192,94042,1,0,0:0:0:0:
486,192,94042,1,0,0:0:0:0:
281,192,94042,1,0,0:0:0:0:
179,192,94042,1,0,0:0:0:0:
76,192,94042,1,0,0:0:0:0:
435,192,94142,1,0,0:0:0:0:
332,192,94142,1,0,0:0:0:0:
36,192,94142,1,0,0:0:0:0:
230,192,94142,1,0,0:0:0:0:
128,192,94142,1,0,0:0:0:0:
486,192,94242,1,0,0:0:0:0:
281,192,94242,1,0,0:0:0:0:
384,192,94242,1,0,0:0:0:0:
76,192,94242,1,0,0:0:0:0:
179,192,94242,1,0,0:0:0:0:
435,192,94342,1,0,0:0:0:0:
332,192,94342,1,0,0:0:0:0:
36,192,94342,1,0,0:0:0:0:
230,192,94342,1,0,0:0:0:0:
128,192,94342,1,0,0:0:0:0:
486,192,94442,1,0,0:0:0:0:
384,192,94442,1,0,0:0:0:0:
281,192,94442,1,0,0:0:0:0:
76,192,94442,1,0,0:0:0:0:
179,192,94442,1,0,0:0:0:0:
36,192,94542,1,0,0:0:0:0:
230,192,94542,1,0,0:0:0:0:
435,192,94542,1,0,0:0:0:0:
332,192,94542,1,0,0:0:0:0:
128,192,94542,1,0,0:0:0:0:
384,192,94642,1,0,0:0:0:0:
281,192,94642,1,0,0:0:0:0:
486,192,94642,1,0,0:0:0:0:
179,192,94642,1,0,0:0:0:0:
76,192,94642,1,0,0:0:0:0:
36,192,94742,1,0,0:0:0:0:
230,192,94742,1,0,0:0:0:0:
435,192,94742,1,0,0:0:0:0:
332,192,94742,1,0,0:0:0:0:
128,192,94742,1,0,0:0:0:0:
281,192,94842,1,0,0:0:0:0:
384,192,94842,1,0,0:0:0:0:
486,192,94842,1,0,0:0:0:0:
179,192,94842,1,0,0:0:0:0:
76,192,94842,1,0,0:0:0:0:
435,192,94942,1,0,0:0:0:0:
332,192,94942,1,0,0:0:0:0:
36,192,94942,1,0,0:0:0:0:
230,192,94942,1,0,0:0:0:0:
128,192,94942,1,0,0:0:0:0:
486,192,95042,1,0,0:0:0:0:
281,192,95042,1,0,0:0:0:0:
384,192,95042,1,0,0:0:0:0:
76,192,95042,1,0,0:0:0:0:
179,192,95042,1,0,0:0:0:0:
435,192,95142,1,0,0:0:0:0:
332,192,95142,1,0,0:0:0:0:
36,192,95142,1,0,0:0:0:0:
230,192,95142,1,0,0:0:0:0:
128,192,95142,1,0,0:0:0:0:
486,192,95242,1,0,0:0:0:0:
384,192,95242,1,0,0:0:0:0:
281,192,95242,1,0,0:0:0:0:
76,192,95242,1,0,0:0:0:0:
179,192,95242,1,0,0:0:0:0:
36,192,95342,1,0,0:0:0:0:
435,192,95342,1,0,0:0:0:0:
230,192,95342,1,0,0:0:0:0:
332,192,95342,1,0,0:0:0:0:
128,192,95342,1,0,0:0:0:0:
384,192,95442,1,0,0:0:0:0:
486,192,95442,1,0,0:0:0:0:
281,192,95442,1,0,0:0:0:0:
179,192,95442,1,0,0:0:0:0:
76,192,95442,1,0,0:0:0:0:
36,192,95542,1,0,0:0:0:0:
435,192,95542,1,0,0:0:0:0:
230,192,95542,1,0,0:0:0:0:
332,192,95542,1,0,0:0:0:0:
128,192,95542,1,0,0:0:0:0:
384,192,95642,1,0,0:0:0:0:
486,192,95642,1,0,0:0:0:0:
281,192,95642,1,0,0:0:0:0:
179,192,95642,1,0,0:0:0:0:
76,192,95642,1,0,0:0:0:0:
435,192,95742,1,0,0:0:0:0:
332,192,95742,1,0,0:0:0:0:
36,192,95742,1,0,0:0:0:0:
230,192,95742,1,0,0:0:0:0:
128,192,95742,1,0,0:0:0:0:
486,192,95842,1,0,0:0:0:0:
281,192,95842,1,0,0:0:0:0:
384,192,95842,1,0,0:0:0:0:
76,192,95842,1,0,0:0:0:0:
179,192,95842,1,0,0:0:0:0:
435,192,95942,1,0,0:0:0:0:
332,192,95942,1,0,0:0:0:0:
36,192,95942,1,0,0:0:0:0:
230,192,95942,1,0,0:0:0:0:
128,192,95942,1,0,0:0:0:0:
486,192,96042,1,0,0:0:0:0:
384,192,96042,1,0,0:0:0:0:
281,192,96042,1,0,0:0:0:0:
76,192,96042,1,0,0:0:0:0:
179,192,96042,1,0,0:0:0:0:
36,192,96142,1,0,0:0:0:0:
230,192,96142,1,0,0:0:0:0:
435,192,96142,1,0,0:0:0:0:
332,192,96142,1,0,0:0:0:0:
128,192,96142,1,0,0:0:0:0:
384,192,96242,1,0,0:0:0:0:
281,192,96242,1,0,0:0:0:0:
486,192,96242,1,0,0:0:0:0:
179,192,96242,1,0,0:0:0:0:
76,192,96242,1,0,0:0:0:0:
36,192,96342,1,0,0:0:0:0:
230,192,96342,1,0,0:0:0:0:
435,192,96342,1,0,0:0:0:0:
332,192,96342,1,0,0:0:0:0:
128,192,96342,1,0,0:0:0:0:
281,192,96442,1,0,0:0:0:0:
384,192,96442,1,0,0:0:0:0:
486,192,96442,1,0,0:0:0:0:
179,192,96442,1,0,0:0:0:0:
76,192,96442,1,0,0:0:0:0:
435,192,96542,1,0,0:0:0:0:
332,192,96542,1,0,0:0:0:0:
36,192,96542,1,0,0:0:0:0:
230,192,96542,1,0,0:0:0:0:
128,192,96542,1,0,0:0:0:0:
486,192,96642,1,0,0:0:0:0:
281,192,96642,1,0,0:0:0:0:
384,192,96642,1,0,0:0:0:0:
76,192,96642,1,0,0:0:0:0:
179,192,96642,1,0,0:0:0:0:
435,192,96742,1,0,0:0:0:0:
332,192,96742,1,0,0:0:0:0:
36,192,96742,1,0,0:0:0:0:
230,192,96742,1,0,0:0:0:0:
128,192,96742,1,0,0:0:0:0:
486,192,96842,1,0,0:0:0:0:
384,192,96842,1,0,0:0:0:0:
281,192,96842,1,0,0:0:0:0:
76,192,96842,1,0,0:0:0:0:
179,192,96842,1,0,0:0:0:0:
230,192,96942,1,0,0:0:0:0:
332,192,96942,1,0,0:0:0:0:
36,192,96942,1,0,0:0:0:0:
435,192,96942,1,0,0:0:0:0:
128,192,96942,1,0,0:0:0:0:
281,192,97042,1,0,0:0:0:0:
486,192,97042,1,0,0:0:0:0:
384,192,97042,1,0,0:0:0:0:
76,192,97042,1,0,0:0:0:0:
179,192,97042,1,0,0:0:0:0:
230,192,97142,1,0,0:0:0:0:
332,192,97142,1,0,0:0:0:0:
36,192,97142,1,0,0:0:0:0:
435,192,97142,1,0,0:0:0:0:
128,192,97142,1,0,0:0:0:0:
281,192,97242,1,0,0:0:0:0:
486,192,97242,1,0,0:0:0:0:
384,192,97242,1,0,0:0:0:0:
76,192,97242,1,0,0:0:0:0:
179,192,97242,1,0,0:0:0:0:
36,192,97342,1,0,0:0:0:0:
230,192,97342,1,0,0:0:0:0:
435,192,97342,1,0,0:0:0:0:
332,192,97342,1,0,0:0:0:0:
128,192,97342,1,0,0:0:0:0:
384,192,97442,1,0,0:0:0:0:
281,192,97442,1,0,0:0:0:0:
486,192,97442,1,0,0:0:0:0:
179,192,97442,1,0,0:0:0:0:
76,192,97442,1,0,0:0:0:0:
36,192,97542,1,0,0:0:0:0:
230,192,97542,1,0,0:0:0:0:
435,192,97542,1,0,0:0:0:0:
332,192,97542,1,0,0:0:0:0:
128,192,97542,1,0,0:0:0:0:
281,192,97642,1,0,0:0:0:0:
384,192,97642,1,0,0:0:0:0:
486,192,97642,1,0,0:0:0:0:
179,192,97642,1,0,0:0:0:0:
76,192,97642,1,0,0:0:0:0:
435,192,97742,1,0,0:0:0:0:
332,192,97742,1,0,0:0:0:0:
36,192,97742,1,0,0:0:0:0:
230,192,97742,1,0,0:0:0:0:
128,192,97742,1,0,0:0:0:0:
486,192,97842,1,0,0:0:0:0:
281,192,97842,1,0,0:0:0:0:
384,192,97842,1,0,0:0:0:0:
76,192,97842,1,0,0:0:0:0:
179,192,97842,1,0,0:0:0:0:
435,192,97942,1,0,0:0:0:0:
332,192,97942,1,0,0:0:0:0:
36,192,97942,1,0,0:0:0:0:
230,192,97942,1,0,0:0:0:0:
128,192,97942,1,0,0:0:0:0:
486,192,98042,1,0,0:0:0:0:
384,192,98042,1,0,0:0:0:0:
281,192,98042,1,0,0:0:0:0:
76,192,98042,1,0,0:0:0:0:
179,192,98042,1,0,0:0:0:0:
36,192,98142,1,0,0:0:0:0:
230,192,98142,1,0,0:0:0:0:
435,192,98142,1,0,0:0:0:0:
332,192,98142,1,0,0:0:0:0:
128,192,98142,1,0,0:0:0:0:
384,192,98242,1,0,0:0:0:0:
281,192,98242,1,0,0:0:0:0:
486,192,98242,1,0,0:0:0:0:
179,192,98242,1,0,0:0:0:0:
76,192,98242,1,0,0:0:0:0:
36,192,98342,1,0,0:0:0:0:
230,192,98342,1,0,0:0:0:0:
435,192,98342,1,0,0:0:0:0:
332,192,98342,1,0,0:0:0:0:
128,192,98342,1,0,0:0:0:0:
281,192,98442,1,0,0:0:0:0:
384,192,98442,1,0,0:0:0:0:
486,192,98442,1,0,0:0:0:0:
179,192,98442,1,0,0:0:0:0:
76,192,98442,1,0,0:0:0:0:
36,192,98542,1,0,0:0:0:0:
435,192,98542,1,0,0:0:0:0:
230,192,98542,1,0,0:0:0:0:
332,192,98542,1,0,0:0:0:0:
128,192,98542,1,0,0:0:0:0:
384,192,98642,1,0,0:0:0:0:
486,192,98642,1,0,0:0:0:0:
281,192,98642,1,0,0:0:0:0:
179,192,98642,1,0,0:0:0:0:
76,192,98642,1,0,0:0:0:0:
36,192,98742,1,0,0:0:0:0:
435,192,98742,1,0,0:0:0:0:
230,192,98742,1,0,0:0:0:0:
332,192,98742,1,0,0:0:0:0:
128,192,98742,1,0,0:0:0:0:
384,192,98842,1,0,0:0:0:0:
486,192,98842,1,0,0:0:0:0:
281,192,98842,1,0,0:0:0:0:
179,192,98842,1,0,0:0:0:0:
76,192,98842,1,0,0:0:0:0:
435,192,98942,1,0,0:0:0:0:
332,192,98942,1,0,0:0:0:0:
36,192,98942,1,0,0:0:0:0:
230,192,98942,1,0,0:0:0:0:
128,192,98942,1,0,0:0:0:0:
486,192,99042,1,0,0:0:0:0:
281,192,99042,1,0,0:0:0:0:
384,192,99042,1,0,0:0:0:0:
76,192,99042,1,0,0:0:0:0:
179,192,99042,1,0,0:0:0:0:
435,192,99142,1,0,0:0:0:0:
332,192,99142,1,0,0:0:0:0:
36,192,99142,1,0,0:0:0:0:
230,192,99142,1,0,0:0:0:0:
128,192,99142,1,0,0:0:0:0:
486,192,99242,1,0,0:0:0:0:
384,192,99242,1,0,0:0:0:0:
281,192,99242,1,0,0:0:0:0:
76,192,99242,1,0,0:0:0:0:
179,192,99242,1,0,0:0:0:0:
36,192,99342,1,0,0:0:0:0:
230,192,99342,1,0,0:0:0:0:
435,192,99342,1,0,0:0:0:0:
332,192,99342,1,0,0:0:0:0:
128,192,99342,1,0,0:0:0:0:
384,192,99442,1,0,0:0:0:0:
281,192,99442,1,0,0:0:0:0:
486,192,99442,1,0,0:0:0:0:
179,192,99442,1,0,0:0:0:0:
76,192,99442,1,0,0:0:0:0:
36,192,99542,1,0,0:0:0:0:
230,192,99542,1,0,0:0:0:0:
435,192,99542,1,0,0:0:0:0:
332,192,99542,1,0,0:0:0:0:
128,192,99542,1,0,0:0:0:0:
281,192,99642,1,0,0:0:0:0:
384,192,99642,1,0,0:0:0:0:
486,192,99642,1,0,0:0:0:0:
179,192,99642,1,0,0:0:0:0:
76,192,99642,1,0,0:0:0:0:
435,192,99742,1,0,0:0:0:0:
332,192,99742,1,0,0:0:0:0:
36,192,99742,1,0,0:0:0:0:
230,192,99742,1,0,0:0:0:0:
128,192,99742,1,0,0:0:0:0:
486,192,99842,1,0,0:0:0:0:
281,192,99842,1,0,0:0:0:0:
384,192,99842,1,0,0:0:0:0:
76,192,99842,1,0,0:0:0:0:
179,192,99842,1,0,0:0:0:0:
435,192,99942,1,0,0:0:0:0:
332,192,99942,1,0,0:0:0:0:
36,192,99942,1,0,0:0:0:0:
230,192,99942,1,0,0:0:0:0:
128,192,99942,1,0,0:0:0:0:
486,192,100042,1,0,0:0:0:0:
384,192,100042,1,0,0:0:0:0:
281,192,100042,1,0,0:0:0:0:
76,192,100042,1,0,0:0:0:0:
179,192,100042,1,0,0:0:0:0:
230,192,100142,1,0,0:0:0:0:
332,192,100142,1,0,0:0:0:0:
36,192,100142,1,0,0:0:0:0:
435,192,100142,1,0,0:0:0:0:
128,192,100142,1,0,0:0:0:0:
281,192,100242,1,0,0:0:0:0:
486,192,100242,1,0,0:0:0:0:
384,192,100242,1,0,0:0:0:0:
76,192,100242,1,0,0:0:0:0:
179,192,100242,1,0,0:0:0:0:
230,192,100342,1,0,0:0:0:0:
332,192,100342,1,0,0:0:0:0:
36,192,100342,1,0,0:0:0:0:
435,192,100342,1,0,0:0:0:0:
128,192,100342,1,0,0:0:0:0:
281,192,100442,1,0,0:0:0:0:
486,192,100442,1,0,0:0:0:0:
384,192,100442,1,0,0:0:0:0:
76,192,100442,1,0,0:0:0:0:
179,192,100442,1,0,0:0:0:0:
36,192,100542,1,0,0:0:0:0:
230,192,100542,1,0,0:0:0:0:
435,192,100542,1,0,0:0:0:0:
332,192,100542,1,0,0:0:0:0:
128,192,100542,1,0,0:0:0:0:
384,192,100642,1,0,0:0:0:0:
281,192,100642,1,0,0:0:0:0:
486,192,100642,1,0,0:0:0:0:
179,192,100642,1,0,0:0:0:0:
76,192,100642,1,0,0:0:0:0:
36,192,100742,1,0,0:0:0:0:
230,192,100742,1,0,0:0:0:0:
435,192,100742,1,0,0:0:0:0:
332,192,100742,1,0,0:0:0:0:
128,192,100742,1,0,0:0:0:0:
281,192,100842,1,0,0:0:0:0:
384,192,100842,1,0,0:0:0:0:
486,192,100842,1,0,0:0:0:0:
179,192,100842,1,0,0:0:0:0:
76,192,100842,1,0,0:0:0:0:
435,192,100942,1,0,0:0:0:0:
332,192,100942,1,0,0:0:0:0:
36,192,100942,1,0,0:0:0:0:
230,192,100942,1,0,0:0:0:0:
128,192,100942,1,0,0:0:0:0:
486,192,101042,1,0,0:0:0:0:
281,192,101042,1,0,0:0:0:0:
384,192,101042,1,0,0:0:0:0:
76,192,101042,1,0,0:0:0:0:
179,192,101042,1,0,0:0:0:0:
435,192,101142,1,0,0:0:0:0:
332,192,101142,1,0,0:0:0:0:
36,192,101142,1,0,0:0:0:0:
230,192,101142,1,0,0:0:0:0:
128,192,101142,1,0,0:0:0:0:
486,192,101242,1,0,0:0:0:0:
384,192,101242,1,0,0:0:0:0:
281,192,101242,1,0,0:0:0:0:
76,192,101242,1,0,0:0:0:0:
179,192,101242,1,0,0:0:0:0:
36,192,101342,1,0,0:0:0:0:
230,192,101342,1,0,0:0:0:0:
435,192,101342,1,0,0:0:0:0:
332,192,101342,1,0,0:0:0:0:
128,192,101342,1,0,0:0:0:0:
384,192,101442,1,0,0:0:0:0:
281,192,101442,1,0,0:0:0:0:
486,192,101442,1,0,0:0:0:0:
179,192,101442,1,0,0:0:0:0:
76,192,101442,1,0,0:0:0:0:
36,192,101542,1,0,0:0:0:0:
230,192,101542,1,0,0:0:0:0:
435,192,101542,1,0,0:0:0:0:
332,192,101542,1,0,0:0:0:0:
128,192,101542,1,0,0:0:0:0:
281,192,101642,1,0,0:0:0:0:
384,192,101642,1,0,0:0:0:0:
486,192,101642,1,0,0:0:0:0:
179,192,101642,1,0,0:0:0:0:
76,192,101642,1,0,0:0:0:0:
230,192,101742,1,0,0:0:0:0:
332,192,101742,1,0,0:0:0:0:
36,192,101742,1,0,0:0:0:0:
435,192,101742,1,0,0:0:0:0:
128,192,101742,1,0,0:0:0:0:
281,192,101842,1,0,0:0:0:0:
486,192,101842,1,0,0:0:0:0:
384,192,101842,1,0,0:0:0:0:
76,192,101842,1,0,0:0:0:0:
179,192,101842,1,0,0:0:0:0:
230,192,101942,1,0,0:0:0:0:
332,192,101942,1,0,0:0:0:0:
36,192,101942,1,0,0:0:0:0:
435,192,101942,1,0,0:0:0:0:
128,192,101942,1,0,0:0:0:0:
281,192,102042,1,0,0:0:0:0:
486,192,102042,1,0,0:0:0:0:
384,192,102042,1,0,0:0:0:0:
76,192,102042,1,0,0:0:0:0:
179,192,102042,1,0,0:0:0:0:
36,192,102142,1,0,0:0:0:0:
230,192,102142,1,0,0:0:0:0:
435,192,102142,1,0,0:0:0:0:
332,192,102142,1,0,0:0:0:0:
128,192,102142,1,0,0:0:0:0:
384,192,102242,1,0,0:0:0:0:
281,192,102242,1,0,0:0:0:0:
486,192,102242,1,0,0:0:0:0:
179,192,102242,1,0,0:0:0:0:
76,192,102242,1,0,0:0:0:0:
36,192,102342,1,0,0:0:0:0:
230,192,102342,1,0,0:0:0:0:
435,192,102342,1,0,0:0:0:0:
332,192,102342,1,0,0:0:0:0:
128,192,102342,1,0,0:0:0:0:
281,192,102442,1,0,0:0:0:0:
384,192,102442,1,0,0:0:0:0:
486,192,102442,1,0,0:0:0:0:
179,192,102442,1,0,0:0:0:0:
76,192,102442,1,0,0:0:0:0:
435,192,102542,1,0,0:0:0:0:
332,192,102542,1,0,0:0:0:0:
36,192,102542,1,0,0:0:0:0:
230,192,102542,1,0,0:0:0:0:
128,192,102542,1,0,0:0:0:0:
486,192,102642,1,0,0:0:0:0:
281,192,102642,1,0,0:0:0:0:
384,192,102642,1,0,0:0:0:0:
76,192,102642,1,0,0:0:0:0:
179,192,102642,1,0,0:0:0:0:
435,192,102742,1,0,0:0:0:0:
332,192,102742,1,0,0:0:0:0:
36,192,102742,1,0,0:0:0:0:
230,192,102742,1,0,0:0:0:0:
128,192,102742,1,0,0:0:0:0:
486,192,102842,1,0,0:0:0:0:
384,192,102842,1,0,0:0:0:0:
281,192,102842,1,0,0:0:0:0:
76,192,102842,1,0,0:0:0:0:
179,192,102842,1,0,0:0:0:0:
36,192,102942,1,0,0:0:0:0:
230,192,102942,1,0,0:0:0:0:
435,192,102942,1,0,0:0:0:0:
332,192,102942,1,0,0:0:0:0:
128,192,102942,1,0,0:0:0:0:
384,192,103042,1,0,0:0:0:0:
281,192,103042,1,0,0:0:0:0:
486,192,103042,1,0,0:0:0:0:
179,192,103042,1,0,0:0:0:0:
76,192,103042,1,0,0:0:0:0:
36,192,103142,1,0,0:0:0:0:
230,192,103142,1,0,0:0:0:0:
435,192,103142,1,0,0:0:0:0:
332,192,103142,1,0,0:0:0:0:
128,192,103142,1,0,0:0:0:0:
281,192,103242,1,0,0:0:0:0:
384,192,103242,1,0,0:0:0:0:
486,192,103242,1,0,0:0:0:0:
179,192,103242,1,0,0:0:0:0:
76,192,103242,1,0,0:0:0:0:
36,192,103342,1,0,0:0:0:0:
435,192,103342,1,0,0:0:0:0:
230,192,103342,1,0,0:0:0:0:
332,192,103342,1,0,0:0:0:0:
128,192,103342,1,0,0:0:0:0:
384,192,103442,1,0,0:0:0:0:
486,192,103442,1,0,0:0:0:0:
281,192,103442,1,0,0:0:0:0:
179,192,103442,1,0,0:0:0:0:
76,192,103442,1,0,0:0:0:0:
36,192,103542,1,0,0:0:0:0:
435,192,103542,1,0,0:0:0:0:
230,192,103542,1,0,0:0:0:0:
332,192,103542,1,0,0:0:0:0:
128,192,103542,1,0,0:0:0:0:
384,192,103642,1,0,0:0:0:0:
486,192,103642,1,0,0:0:0:0:
281,192,103642,1,0,0:0:0:0:
179,192,103642,1,0,0:0:0:0:
76,192,103642,1,0,0:0:0:0:
435,192,103742,1,0,0:0:0:0:
332,192,103742,1,0,0:0:0:0:
36,192,103742,1,0,0:0:0:0:
230,192,103742,1,0,0:0:0:0:
128,192,103742,1,0,0:0:0:0:
486,192,103842,1,0,0:0:0:0:
281,192,103842,1,0,0:0:0:0:
384,192,103842,1,0,0:0:0:0:
76,192,103842,1,0,0:0:0:0:
179,192,103842,1,0,0:0:0:0:
435,192,103942,1,0,0:0:0:0:
332,192,103942,1,0,0:0:0:0:
36,192,103942,1,0,0:0:0:0:
230,192,103942,1,0,0:0:0:0:
128,192,103942,1,0,0:0:0:0:
486,192,104042,1,0,0:0:0:0:
384,192,104042,1,0,0:0:0:0:
281,192,104042,1,0,0:0:0:0:
76,192,104042,1,0,0:0:0:0:
179,192,104042,1,0,0:0:0:0:
36,192,104142,1,0,0:0:0:0:
230,192,104142,1,0,0:0:0:0:
435,192,104142,1,0,0:0:0:0:
332,192,104142,1,0,0:0:0:0:
128,192,104142,1,0,0:0:0:0:
384,192,104242,1,0,0:0:0:0:
281,192,104242,1,0,0:0:0:0:
486,192,104242,1,0,0:0:0:0:
179,192,104242,1,0,0:0:0:0:
76,192,104242,1,0,0:0:0:0:
36,192,104342,1,0,0:0:0:0:
230,192,104342,1,0,0:0:0:0:
435,192,104342,1,0,0:0:0:0:
332,192,104342,1,0,0:0:0:0:
128,192,104342,1,0,0:0:0:0:
281,192,104442,1,0,0:0:0:0:
384,192,104442,1,0,0:0:0:0:
486,192,104442,1,0,0:0:0:0:
179,192,104442,1,0,0:0:0:0:
76,192,104442,1,0,0:0:0:0:
435,192,104542,1,0,0:0:0:0:
332,192,104542,1,0,0:0:0:0:
36,192,104542,1,0,0:0:0:0:
230,192,104542,1,0,0:0:0:0:
128,192,104542,1,0,0:0:0:0:
486,192,104642,1,0,0:0:0:0:
281,192,104642,1,0,0:0:0:0:
384,192,104642,1,0,0:0:0:0:
76,192,104642,1,0,0:0:0:0:
179,192,104642,1,0,0:0:0:0:
435,192,104742,1,0,0:0:0:0:
332,192,104742,1,0,0:0:0:0:
36,192,104742,1,0,0:0:0:0:
230,192,104742,1,0,0:0:0:0:
128,192,104742,1,0,0:0:0:0:
486,192,104842,1,0,0:0:0:0:
384,192,104842,1,0,0:0:0:0:
281,192,104842,1,0,0:0:0:0:
76,192,104842,1,0,0:0:0:0:
179,192,104842,1,0,0:0:0:0:
230,192,104942,1,0,0:0:0:0:
332,192,104942,1,0,0:0:0:0:
36,192,104942,1,0,0:0:0:0:
435,192,104942,1,0,0:0:0:0:
128,192,104942,1,0,0:0:0:0:
281,192,105042,1,0,0:0:0:0:
486,192,105042,1,0,0:0:0:0:
384,192,105042,1,0,0:0:0:0:
76,192,105042,1,0,0:0:0:0:
179,192,105042,1,0,0:0:0:0:
36,192,105242,1,0,0:0:0:0:
435,192,105242,1,0,0:0:0:0:
230,192,105242,1,0,0:0:0:0:
332,192,105242,1,0,0:0:0:0:
128,192,105242,1,0,0:0:0:0:
384,192,105342,1,0,0:0:0:0:
486,192,105342,1,0,0:0:0:0:
281,192,105342,1,0,0:0:0:0:
179,192,105342,1,0,0:0:0:0:
76,192,105342,1,0,0:0:0:0:
36,192,105542,1,0,0:0:0:0:
435,192,105542,1,0,0:0:0:0:
230,192,105542,1,0,0:0:0:0:
332,192,105542,1,0,0:0:0:0:
128,192,105542,1,0,0:0:0:0:
384,192,105642,1,0,0:0:0:0:
486,192,105642,1,0,0:0:0:0:
281,192,105642,1,0,0:0:0:0:
179,192,105642,1,0,0:0:0:0:
76,192,105642,1,0,0:0:0:0:
